osu file format v14

[General]
AudioFilename: audio.mp3
AudioLeadIn: 0
PreviewTime: 53940
Countdown: 0
SampleSet: Soft
StackLeniency: 0.6
Mode: 0
LetterboxInBreaks: 0
WidescreenStoryboard: 1

[Editor]
DistanceSpacing: 1.1
BeatDivisor: 4
GridSize: 4
TimelineZoom: 1

[Metadata]
Title:Platinum Disco
TitleUnicode:白金ディスコ
Artist:Araragi Tsukihi(Iguchi Yuka)
ArtistUnicode:阿良々木月火(井口裕香)
Creator:Karen
Version:Hard
Source:偽物語
Tags:Nisemonogatari opening yf_bmp Chaoslitz
BeatmapID:1161831
BeatmapSetID:547494

[Difficulty]
HPDrainRate:5
CircleSize:4
OverallDifficulty:5
ApproachRate:7
SliderMultiplier:1.6
SliderTickRate:1

[Events]
//Background and Video events
0,0,"bg.jpg",0,0
//Break Periods
//Storyboard Layer 0 (Background)
//Storyboard Layer 1 (Fail)
//Storyboard Layer 2 (Pass)
//Storyboard Layer 3 (Foreground)
//Storyboard Sound Samples

[TimingPoints]
650,512.820512820513,4,2,1,60,1,0
19111,-117.647058823529,4,2,1,40,0,0
47829,-117.647058823529,4,2,1,60,0,0
48342,-95.238095238095,4,2,1,60,0,0
49880,-117.647058823529,4,2,1,60,0,0
50393,-105.263157894737,4,2,1,60,0,0
50906,-95.238095238095,4,2,1,60,0,0
51419,-86.9565217391304,4,2,1,60,0,0
51932,-117.647058823529,4,2,1,60,0,0
52444,-105.263157894737,4,2,1,60,0,0
52957,-95.2380952380952,4,2,1,60,0,0
53470,-86.9565217391304,4,2,1,60,0,0
53983,-100,4,2,1,60,0,0
56034,-100,4,2,1,60,0,1
72444,-100,4,2,1,60,0,0
85265,-83.3333333333333,4,2,1,60,0,0
85778,-100,4,2,1,60,0,0
86291,-83.3333333333333,4,2,1,60,0,0
86803,-100,4,2,1,60,0,0

[Colours]
Combo1 : 204,230,255
Combo2 : 255,138,138
Combo3 : 255,255,111
Combo4 : 115,185,255

[HitObjects]
81,331,650,6,0,L|172:331,1,80,2|0,1:0|0:0,0:0:0:0:
173,346,1034,1,0,0:0:0:0:
184,362,1162,2,0,L|275:362,1,80,2|0,1:0|0:0,0:0:0:0:
280,350,1547,1,0,0:0:0:0:
293,335,1675,2,0,P|299:279|279:245,1,80,2|0,1:0|0:0,0:0:0:0:
277,242,2060,1,0,0:0:0:0:
262,227,2188,2,0,P|256:171|276:137,1,80,2|0,1:0|0:0,0:0:0:0:
283,64,2701,6,0,L|193:74,1,80,4|2,1:0|0:0,0:0:0:0:
149,142,3214,1,8,0:0:0:0:
149,142,3470,1,0,0:0:0:0:
66,111,3726,1,0,1:0:0:0:
89,25,3983,1,2,0:0:0:0:
89,25,4111,1,0,0:0:0:0:
89,25,4239,2,0,P|38:24|8:43,1,80,8|0,0:0|0:0,0:0:0:0:
73,190,4752,6,0,L|65:105,1,80,0|0,1:0|0:0,0:0:0:0:
149,142,5265,2,0,L|156:221,1,80,8|0,0:0|0:0,0:0:0:0:
88,277,5778,1,0,1:0:0:0:
142,376,6034,1,8,1:3:0:0:
142,376,6291,1,8,1:3:0:0:
229,375,6547,1,0,0:0:0:0:
282,306,6803,6,0,P|321:293|364:307,1,80,0|0,1:0|0:0,0:0:0:0:
495,353,7316,2,0,P|456:366|413:352,1,80,8|0,0:0|0:0,0:0:0:0:
373,217,7829,1,0,1:0:0:0:
395,132,8085,1,0,0:0:0:0:
317,90,8342,1,8,0:0:0:0:
333,8,8598,1,0,0:0:0:0:
333,8,8726,1,0,0:0:0:0:
333,8,8855,6,0,L|244:15,1,80,0|0,1:0|0:0,0:0:0:0:
240,29,9239,1,0,0:0:0:0:
225,43,9367,2,0,B|181:64|135:36,1,80,8|0,0:0|0:0,0:0:0:0:
10,0,9880,2,0,L|28:90,1,80,0|0,1:0|0:0,0:0:0:0:
115,125,10393,1,8,0:0:0:0:
115,125,10521,1,4,0:3:0:0:
115,125,10650,1,0,1:0:0:0:
67,198,10906,6,0,P|25:190|-26:214,1,80,4|0,1:0|0:0,0:0:0:0:
82,288,11419,2,0,L|255:274,1,160,8|0,0:0|1:0,0:0:0:0:
321,238,12188,1,0,0:0:0:0:
321,238,12316,1,0,0:0:0:0:
321,238,12444,2,0,P|327:293|318:320,1,80,8|0,0:0|0:0,0:0:0:0:
243,188,12957,6,0,L|233:99,1,80,0|0,1:0|0:0,0:0:0:0:
329,149,13470,2,0,L|342:66,1,80,8|0,0:0|0:0,0:0:0:0:
275,10,13983,1,0,1:0:0:0:
427,50,14239,1,8,1:3:0:0:
427,50,14496,1,8,1:3:0:0:
502,5,14752,1,0,0:0:0:0:
482,119,15008,6,0,L|474:203,1,80,0|0,1:0|0:0,0:0:0:0:
406,310,15521,2,0,L|395:223,1,80,8|0,0:0|0:0,0:0:0:0:
350,155,16034,1,0,1:0:0:0:
285,215,16291,1,0,0:0:0:0:
285,215,16419,1,0,0:0:0:0:
285,215,16547,2,0,P|239:227|190:211,1,80,8|0,0:0|0:0,0:0:0:0:
131,176,17060,6,0,L|119:127,3,40,2|2|2|2,1:2|0:0|0:0|0:0,0:0:0:0:
137,95,17573,2,0,L|144:39,3,40,10|2|2|2,2:0|0:0|0:0|0:0,0:0:0:0:
177,30,18085,6,0,P|217:23|256:35,1,80,4|4,3:0|3:0,0:0:0:0:
211,128,18598,1,8,0:0:0:0:
273,201,18855,1,0,0:0:0:0:
273,201,18983,1,0,0:0:0:0:
273,201,19111,6,0,P|281:252|263:289,1,68.0000012969971,4|0,0:0|0:0,0:0:0:0:
267,284,19496,1,0,0:0:0:0:
255,299,19624,2,0,L|337:293,1,68.0000012969971,8|0,0:0|0:0,0:0:0:0:
376,357,20137,2,0,P|352:300|390:233,1,136.000002593994,2|8,0:0|0:0,0:0:0:0:
409,160,20906,1,2,0:0:0:0:
409,160,21034,1,0,0:0:0:0:
409,160,21162,6,0,L|341:156,1,68.0000012969971,2|0,0:0|0:0,0:0:0:0:
325,142,21547,1,0,0:0:0:0:
309,128,21675,2,0,L|241:124,1,68.0000012969971,8|2,0:0|0:0,0:0:0:0:
304,35,22188,2,0,P|365:58|447:11,1,136.000002593994,2|8,0:0|0:0,0:0:0:0:
501,69,22957,1,2,0:0:0:0:
448,131,23214,6,0,L|450:278,1,136.000002593994,2|8,0:0|0:0,0:0:0:0:
488,338,23983,1,0,0:0:0:0:
375,306,24239,2,0,L|373:170,1,136.000002593994,2|8,0:0|0:0,0:0:0:0:
324,104,25008,1,0,0:0:0:0:
219,180,25265,5,2,0:0:0:0:
219,180,25521,1,0,0:0:0:0:
240,258,25778,1,8,0:0:0:0:
240,258,26034,1,0,0:0:0:0:
209,333,26291,1,2,0:0:0:0:
127,337,26547,2,0,L|130:377,2,34.0000006484985,4|4|8,0:3|0:3|0:0,0:0:0:0:
71,277,27060,1,0,0:0:0:0:
71,277,27188,1,0,0:0:0:0:
71,277,27316,6,0,P|97:215|52:139,1,136.000002593994,4|8,0:0|0:0,0:0:0:0:
16,94,28085,1,2,0:0:0:0:
16,94,28214,1,0,0:0:0:0:
16,94,28342,2,0,P|72:116|144:89,1,136.000002593994,2|8,0:0|0:0,0:0:0:0:
184,26,29111,1,2,0:0:0:0:
184,26,29239,1,0,0:0:0:0:
184,26,29367,6,0,L|179:177,1,136.000002593994,2|8,0:0|0:0,0:0:0:0:
259,212,30137,1,2,0:0:0:0:
259,212,30265,1,0,0:0:0:0:
259,212,30393,2,0,L|263:76,1,136.000002593994,2|8,0:0|0:0,0:0:0:0:
319,16,31162,1,2,0:0:0:0:
393,116,31419,6,0,L|396:28,1,68.0000012969971,2|0,0:0|0:0,0:0:0:0:
475,10,31932,2,0,L|472:77,1,68.0000012969971,8|0,0:0|0:0,0:0:0:0:
411,199,32444,1,2,0:0:0:0:
411,199,32701,1,0,0:0:0:0:
447,271,32957,1,8,0:0:0:0:
447,271,33214,1,0,0:0:0:0:
391,330,33470,6,0,L|355:328,3,34.0000006484985,10|2|2|2,0:0|0:0|0:0|0:0,0:0:0:0:
318,341,33983,2,0,L|265:353,3,34.0000006484985,10|2|2|2,0:0|0:0|0:0|0:0,0:0:0:0:
249,327,34496,6,0,P|257:288|250:245,1,68.0000012969971,2|4,0:0|3:0,0:0:0:0:
204,195,35008,1,8,0:0:0:0:
223,115,35265,1,8,0:0:0:0:
223,115,35393,1,8,0:0:0:0:
223,115,35521,6,0,L|303:114,1,68.0000012969971,12|0,0:0|0:0,0:0:0:0:
361,156,36034,1,8,0:0:0:0:
392,80,36291,1,0,0:0:0:0:
320,40,36547,2,0,L|252:40,1,68.0000012969971,2|0,0:0|0:0,0:0:0:0:
176,9,37060,2,0,L|108:9,1,68.0000012969971,8|0,0:0|0:0,0:0:0:0:
15,91,37573,5,2,0:0:0:0:
15,91,37829,1,0,0:0:0:0:
48,165,38085,1,8,0:0:0:0:
48,165,38342,1,0,0:0:0:0:
8,236,38598,2,0,P|0:275|8:317,1,68.0000012969971,2|0,0:0|0:0,0:0:0:0:
84,307,39111,2,0,P|92:268|84:226,1,68.0000012969971,8|0,0:0|0:0,0:0:0:0:
48,165,39624,6,0,L|142:166,1,68.0000012969971,2|0,0:0|0:0,0:0:0:0:
172,224,40137,1,8,0:0:0:0:
172,305,40393,1,0,0:0:0:0:
239,173,40650,1,10,3:0:0:0:
239,173,40906,1,10,3:0:0:0:
205,97,41162,2,0,P|238:89|271:98,1,68.0000012969971,8|0,0:0|0:0,0:0:0:0:
257,254,41675,6,0,L|342:248,1,68.0000012969971,2|0,0:0|0:0,0:0:0:0:
380,189,42188,1,8,0:0:0:0:
461,187,42444,1,0,0:0:0:0:
421,348,42701,1,8,3:0:0:0:
421,348,42957,1,8,3:0:0:0:
423,266,43214,1,8,0:0:0:0:
423,266,43470,1,0,0:0:0:0:
417,116,43726,6,0,P|379:135|302:96,1,136.000002593994,4|8,0:0|0:0,0:0:0:0:
309,13,44496,1,0,0:0:0:0:
214,78,44752,2,0,L|228:164,1,68.0000012969971,2|0,0:0|0:0,0:0:0:0:
290,248,45265,2,0,L|302:163,1,68.0000012969971,8|0,0:0|0:0,0:0:0:0:
158,197,45778,5,2,0:0:0:0:
158,197,46034,1,0,0:0:0:0:
79,218,46291,1,8,0:0:0:0:
79,218,46547,1,0,0:0:0:0:
11,172,46803,2,0,P|24:129|18:99,1,68.0000012969971,2|0,0:0|0:0,0:0:0:0:
101,4,47316,2,0,P|88:47|94:77,1,68.0000012969971,8|0,0:0|0:0,0:0:0:0:
158,197,47829,5,2,0:0:0:0:
158,197,48085,1,2,0:0:0:0:
96,310,48342,2,0,L|-7:303,1,83.9999974365235,8|0,1:3|0:0,0:0:0:0:
169,224,48855,5,2,0:0:0:0:
169,224,49111,1,2,0:0:0:0:
107,337,49368,2,0,L|4:330,1,83.9999974365235,8|0,1:3|0:0,0:0:0:0:
2,201,49880,6,0,P|-5:157|8:129,1,68.0000012969971,4|0,0:0|0:0,0:0:0:0:
81,169,50393,2,0,P|92:129|125:97,1,75.9999979705811,4|0,0:0|0:0,0:0:0:0:
166,173,50906,2,0,P|202:149|246:155,1,83.9999974365235,4|0,0:0|0:0,0:0:0:0:
223,236,51419,2,0,P|265:255|285:311,1,92.0000017547608,4|0,0:0|0:0,0:0:0:0:
384,348,51932,6,0,L|376:299,3,34.0000006484985,2|2|2|2,0:0|0:0|0:0|0:0,0:0:0:0:
413,285,52444,2,0,L|406:227,3,37.9999989852906,10|2|2|2,0:0|0:0|0:0|0:0,0:0:0:0:
440,208,52957,2,0,L|434:147,3,41.9999987182618,10|2|2|2,0:0|0:0|0:0|0:0,0:0:0:0:
462,117,53470,2,0,L|454:50,3,46.0000008773804,10|2|2|2,0:0|0:0|0:0|0:0,0:0:0:0:
427,24,53983,5,8,1:3:0:0:
358,79,54239,1,8,1:3:0:0:
290,135,54496,1,8,1:3:0:0:
233,67,54752,1,8,1:3:0:0:
174,1,55008,1,8,1:3:0:0:
116,67,55265,5,0,0:0:0:0:
116,67,55393,1,0,0:0:0:0:
116,67,55521,2,0,P|106:102|115:148,1,80,4|0,3:0|0:0,0:0:0:0:
144,269,56034,6,0,L|49:264,1,80,4|0,1:0|0:0,0:0:0:0:
23,370,56547,2,0,L|110:350,1,80,8|0,0:0|0:0,0:0:0:0:
202,202,57060,2,0,P|168:274|216:353,1,160,0|8,1:0|0:0,0:0:0:0:
287,356,57829,1,0,0:0:0:0:
383,261,58085,6,0,L|377:353,1,80,0|0,1:0|0:0,0:0:0:0:
475,368,58598,2,0,L|464:282,1,80,8|0,0:0|0:0,0:0:0:0:
437,188,59111,2,0,P|362:220|294:177,1,160,0|8,1:0|0:0,0:0:0:0:
303,95,59880,1,0,0:0:0:0:
303,95,60137,6,0,L|213:103,1,80,0|0,1:0|0:0,0:0:0:0:
149,54,60650,1,8,0:0:0:0:
149,54,60906,1,0,0:0:0:0:
34,116,61162,2,0,L|52:294,1,160,0|8,1:0|0:0,0:0:0:0:
25,360,61932,1,0,0:0:0:0:
132,291,62188,6,0,L|180:275,3,40,2|2|2|2,1:2|0:0|0:0|0:0,0:0:0:0:
208,299,62701,2,0,L|255:301,3,40,10|2|2|2,0:0|0:0|0:0|0:0,0:0:0:0:
285,277,63214,2,0,L|333:261,3,40,2|2|2|2,1:2|0:0|0:0|0:0,0:0:0:0:
361,285,63726,2,0,P|401:297|443:281,1,80,10|2,0:0|0:0,0:0:0:0:
508,136,64239,6,0,L|491:225,1,80,4|0,0:0|0:0,0:0:0:0:
401,207,64752,2,0,L|389:114,1,80,8|0,0:0|0:0,0:0:0:0:
447,59,65265,2,0,P|381:100|302:70,1,160,0|8,1:0|0:0,0:0:0:0:
255,4,66034,1,0,0:0:0:0:
177,45,66291,6,0,L|92:47,1,80,0|0,1:0|0:0,0:0:0:0:
41,139,66803,2,0,L|120:137,1,80,8|0,0:0|0:0,0:0:0:0:
199,177,67316,2,0,P|228:246|183:329,1,160,0|8,1:0|0:0,0:0:0:0:
111,346,68085,1,0,0:0:0:0:
58,265,68342,6,0,L|147:248,1,80,0|0,1:0|0:0,0:0:0:0:
274,324,68855,2,0,L|190:319,1,80,8|0,0:0|0:0,0:0:0:0:
199,177,69367,2,0,P|259:212|352:169,1,160,0|8,1:0|0:0,0:0:0:0:
389,110,70137,1,0,0:0:0:0:
464,154,70393,6,0,L|458:204,3,40,2|2|2|2,1:2|0:0|0:0|0:0,0:0:0:0:
479,233,70906,2,0,L|488:279,3,40,10|2|2|2,0:0|0:0|0:0|0:0,0:0:0:0:
473,314,71419,2,0,L|465:359,3,40,4|4|4|0,3:0|3:0|3:0|0:0,0:0:0:0:
425,371,71932,2,0,L|339:369,1,80,8|8,0:0|0:0,0:0:0:0:
234,251,72444,6,0,P|282:239|337:299,1,120,4|0,0:0|0:0,0:0:0:0:
333,280,72957,2,0,L|334:189,1,80,8|0,1:3|0:0,0:0:0:0:
335,111,73470,2,0,P|287:123|232:63,1,120,8|0,0:3|0:0,0:0:0:0:
235,81,73983,2,0,L|234:172,1,80,8|0,1:3|0:0,0:0:0:0:
143,261,74496,5,8,0:3:0:0:
143,261,74752,1,0,0:0:0:0:
84,195,75008,1,8,1:3:0:0:
84,195,75265,1,0,0:0:0:0:
112,111,75521,1,0,0:0:0:0:
235,161,75778,1,8,1:3:0:0:
235,161,76034,1,8,1:3:0:0:
234,251,76291,1,0,0:0:0:0:
234,338,76547,6,0,L|97:333,1,120,8|0,0:3|0:0,0:0:0:0:
114,333,77060,2,0,P|126:293|114:247,1,80,8|0,1:3|0:0,0:0:0:0:
87,174,77573,2,0,L|224:179,1,120,8|0,0:3|0:0,0:0:0:0:
206,178,78086,2,0,P|194:218|206:264,1,80,8|0,1:3|0:0,0:0:0:0:
283,285,78598,5,8,0:3:0:0:
361,245,78855,1,0,0:0:0:0:
361,245,78983,1,0,0:0:0:0:
361,245,79111,2,0,L|452:235,1,80,8|0,1:3|0:0,0:0:0:0:
497,303,79624,1,0,0:0:0:0:
473,151,79880,1,8,1:3:0:0:
473,151,80137,1,8,1:3:0:0:
506,69,80393,1,0,0:0:0:0:
450,0,80650,6,0,P|405:33|338:22,1,120,4|0,0:0|0:0,0:0:0:0:
344,25,81162,2,0,L|258:22,1,80,8|0,1:3|0:0,0:0:0:0:
237,155,81675,2,0,P|282:122|349:133,1,120,8|0,0:3|0:0,0:0:0:0:
342,129,82187,2,0,L|428:132,1,80,8|0,1:3|0:0,0:0:0:0:
507,111,82701,6,0,L|502:197,1,80,8|0,0:3|0:0,0:0:0:0:
419,222,83214,2,0,L|414:301,1,80,8|0,1:3|0:0,0:0:0:0:
479,360,83726,1,8,0:3:0:0:
479,360,83983,1,0,0:0:0:0:
497,274,84239,1,8,1:3:0:0:
497,274,84496,1,0,0:0:0:0:
414,301,84752,6,0,L|331:297,1,80,0|0,1:0|1:0,0:0:0:0:
228,374,85265,2,0,L|335:378,1,95.9999970703126,8|0,1:3|0:0,0:0:0:0:
339,213,85778,6,0,L|256:209,1,80,0|0,1:0|1:0,0:0:0:0:
153,286,86291,2,0,L|260:290,1,95.9999970703126,8|0,1:3|0:0,0:0:0:0:
419,251,86803,6,0,P|426:211|419:172,1,80,8|0,1:3|0:0,0:0:0:0:
347,45,87316,2,0,P|339:84|347:123,1,80,8|0,1:3|0:0,0:0:0:0:
490,121,87829,1,8,1:3:0:0:
