osu file format v14

[General]
AudioFilename: audio.mp3
AudioLeadIn: 0
PreviewTime: 55211
Countdown: 0
SampleSet: Soft
StackLeniency: 0.6
Mode: 0
LetterboxInBreaks: 0
WidescreenStoryboard: 1

[Editor]
Bookmarks: 72326
DistanceSpacing: 1.3
BeatDivisor: 4
GridSize: 16
TimelineZoom: 1.6

[Metadata]
Title:Platinum Disco (TV Size)
TitleUnicode:白金ディスコ (TV Size)
Artist:Araragi Tsukihi (CV: Iguchi Yuka)
ArtistUnicode:阿良々木月火 (CV: 井口裕香)
Creator:Yohananas
Version:Normal
Source:偽物語
Tags:theme songs compilation album jp jpop pop Satoru Kosaki meg rock utamonogatari monogatari series nisemonogatari platinum op japanese j-pop karen opening
BeatmapID:3673989
BeatmapSetID:1792768

[Difficulty]
HPDrainRate:3
CircleSize:3
OverallDifficulty:4
ApproachRate:5
SliderMultiplier:1.49999990463257
SliderTickRate:1

[Events]
//Background and Video events
0,0,"bg.jpg",0,0
//Break Periods
//Storyboard Layer 0 (Background)
//Storyboard Layer 1 (Fail)
//Storyboard Layer 2 (Pass)
//Storyboard Layer 3 (Foreground)
//Storyboard Layer 4 (Overlay)
//Storyboard Sound Samples

[TimingPoints]
532,512.820512820513,4,2,0,80,1,0
2583,-100,4,2,0,70,0,0
18993,-117.647058823529,4,2,0,60,0,0
35403,-117.647058823529,4,2,0,65,0,0
47711,-100,4,2,0,70,0,0
51814,-117.647058823529,4,2,0,75,0,0
55916,-100,4,2,0,85,0,1
84634,-90.9090909090909,4,2,0,85,0,1
87711,-84.0336134453781,4,2,0,85,0,0

[Colours]
Combo1 : 133,200,207
Combo2 : 254,227,148
Combo3 : 117,204,154
Combo4 : 252,181,109
Combo5 : 164,223,187

[HitObjects]
20,65,532,6,0,L|94:54,1,74.9999952316285,6|0,1:2|0:2,0:0:0:0:
130,137,1044,2,0,L|204:146,1,74.9999952316285,6|0,1:2|0:2,0:0:0:0:
256,67,1557,2,0,L|340:56,1,74.9999952316285,6|0,1:2|0:2,0:0:0:0:
393,122,2070,1,6,1:2:0:0:
479,145,2326,1,0,0:2:0:0:
454,232,2583,6,0,P|413:265|380:265,1,74.9999952316285,6|0,1:2|0:2,0:0:0:0:
320,214,3096,2,0,P|279:179|246:179,1,74.9999952316285,10|0,2:2|0:0,0:0:0:0:
171,192,3608,2,0,P|178:290|221:331,1,149.999990463257,0|10,1:2|2:2,0:0:0:0:
297,351,4378,1,0,0:2:0:0:
332,268,4634,6,0,P|337:217|328:187,1,74.9999952316285,0|0,1:2|0:2,0:0:0:0:
274,125,5147,1,10,0:2:0:0:
291,36,5403,1,0,0:2:0:0:
377,10,5660,2,0,P|451:35|449:99,1,149.999990463257,2|10,1:2|2:2,0:0:0:0:
444,291,6685,6,0,L|363:280,1,74.9999952316285,0|0,1:2|0:2,0:0:0:0:
310,213,7198,1,10,0:2:0:0:
221,229,7455,1,0,0:2:0:0:
144,275,7711,6,0,P|135:236|133:200,1,74.9999952316285,0|0,1:2|0:2,0:0:0:0:
75,131,8224,1,10,0:2:0:0:
91,42,8480,1,0,0:2:0:0:
180,30,8737,2,0,B|264:1|303:77|303:77|347:154|447:121,1,299.999980926514,0|10,1:2|2:2,0:2:0:0:
452,214,10019,1,2,0:2:0:0:
452,214,10275,1,10,2:2:0:0:
218,227,10788,6,0,P|221:174|245:152,1,74.9999952316285,6|0,1:2|0:2,0:0:0:0:
323,142,11301,2,0,P|376:139|398:115,1,74.9999952316285,10|0,2:2|0:2,0:0:0:0:
411,38,11814,2,0,P|325:30|257:65,1,149.999990463257,0|10,1:2|2:2,0:0:0:0:
182,29,12583,1,0,0:2:0:0:
98,72,12839,6,0,P|101:125|111:159,1,74.9999952316285,0|0,1:2|0:2,0:0:0:0:
174,205,13352,1,10,0:2:0:0:
164,294,13608,1,0,0:2:0:0:
243,337,13865,2,0,P|302:369|366:317,1,149.999990463257,2|10,1:2|2:2,0:0:0:0:
388,146,14890,6,0,L|307:157,1,74.9999952316285,0|0,1:2|0:2,0:0:0:0:
259,227,15403,1,10,0:2:0:0:
167,227,15660,1,0,0:2:0:0:
100,165,15916,6,0,P|71:131|65:92,1,74.9999952316285,0|0,1:2|0:2,0:0:0:0:
116,27,16429,1,10,0:2:0:0:
205,16,16685,1,0,0:2:0:0:
287,51,16942,6,0,L|371:69,2,74.9999952316285,10|0|10,3:2|3:2|3:2,0:0:0:0:
256,134,17711,1,0,3:2:0:0:
168,156,17967,2,0,L|83:175,2,74.9999952316285,2|0|2,3:2|3:2|3:2,0:0:0:0:
359,132,18993,6,0,P|411:173|416:235,1,127.499994325638,4|8,1:2|0:2,0:0:0:0:
387,313,19762,1,0,0:2:0:0:
387,313,20019,2,0,L|317:297,1,63.7499971628189,0|0,1:2|0:2,0:0:0:0:
253,351,20532,1,8,0:2:0:0:
86,286,21044,6,0,P|71:218|105:161,1,127.499994325638,0|8,1:2|0:2,0:0:0:0:
157,104,21814,1,0,0:2:0:0:
157,104,22070,2,0,L|227:120,1,63.7499971628189,0|0,1:2|0:2,0:0:0:0:
303,87,22583,1,8,0:2:0:0:
479,114,23096,6,0,P|470:195|429:208,1,127.499994325638,0|8,1:2|0:2,0:2:0:0:
504,333,24121,2,0,P|443:325|408:375,1,127.499994325638,0|8,1:2|0:2,0:2:0:0:
299,223,25147,6,0,P|267:204|230:203,1,63.7499971628189,0|0,1:2|0:2,0:0:0:0:
170,149,25660,1,8,0:2:0:0:
106,210,25916,1,0,0:2:0:0:
149,289,26173,2,0,P|196:342|250:342,1,127.499994325638,0|8,1:2|0:2,0:2:0:0:
424,298,27198,6,0,P|483:247|460:202,1,127.499994325638,4|8,1:2|0:2,0:0:0:0:
406,147,27967,1,0,0:2:0:0:
406,147,28224,2,0,L|333:156,1,63.7499971628189,0|0,1:2|0:2,0:0:0:0:
281,88,28737,1,8,0:2:0:0:
125,175,29249,6,0,P|119:251|167:267,1,127.499994325638,0|8,1:2|0:2,0:0:0:0:
244,266,30018,1,0,0:2:0:0:
244,266,30275,2,0,L|253:193,1,63.7499971628189,0|0,1:2|0:2,0:0:0:0:
318,140,30788,1,8,0:2:0:0:
198,7,31301,6,0,P|154:67|158:124,1,127.499994325638,0|8,1:2|0:2,0:2:0:0:
244,272,32326,2,0,P|281:268|311:251,1,63.7499971628189,0|0,1:2|0:2,0:0:0:0:
393,247,32839,1,8,0:2:0:0:
448,177,33096,1,0,0:2:0:0:
431,89,33352,6,0,B|351:86|312:139|312:139|274:192|195:189,1,254.999988651276,2|0,1:2|0:2,0:2:0:0:
117,126,34634,2,0,P|103:174|91:196,1,63.7499971628189,2|10,0:2|0:2,0:0:0:0:
52,262,35147,1,10,0:2:0:0:
128,328,35403,6,0,P|177:319|259:350,1,127.499994325638,6|10,1:2|0:2,0:2:0:0:
339,339,36173,1,0,0:2:0:0:
400,274,36429,2,0,P|409:225|378:143,1,127.499994325638,2|10,1:2|0:2,0:2:0:0:
329,82,37198,1,0,0:2:0:0:
244,110,37455,6,0,P|195:119|113:88,1,127.499994325638,2|10,1:2|0:2,0:2:0:0:
37,122,38224,1,0,0:2:0:0:
31,210,38480,2,0,P|31:253|40:283,1,63.7499971628189,2|0,1:2|0:2,0:2:0:0:
106,328,38993,1,10,0:2:0:0:
259,299,39506,6,0,P|333:309|364:264,1,127.499994325638,2|10,1:2|0:2,0:0:0:0:
433,218,40275,1,0,0:2:0:0:
412,133,40532,2,0,L|341:120,1,63.7499971628189,2|2,1:2|0:2,0:2:0:0:
276,61,41044,1,8,0:2:0:0:
167,151,41557,6,0,P|93:141|62:186,1,127.499994325638,2|10,1:2|0:2,0:0:0:0:
13,252,42326,1,0,0:0:0:0:
59,333,42583,2,0,P|89:349|123:345,1,63.7499971628189,2|2,1:2|0:2,0:2:0:0:
201,308,43096,1,8,0:2:0:0:
373,298,43608,6,0,P|382:251|392:230,1,63.7499971628189,6|0,1:2|0:2,0:0:0:0:
382,149,44121,1,10,0:2:0:0:
300,115,44378,1,0,0:2:0:0:
216,144,44634,2,0,P|154:169|89:159,1,127.499994325638,2|10,1:2|0:2,0:0:0:0:
42,88,45403,1,0,0:2:0:0:
120,50,45660,6,0,P|158:38|195:30,1,63.7499971628189,2|0,1:2|0:2,0:0:0:0:
271,26,46173,2,0,P|308:38|345:46,1,63.7499971628189,10|0,0:2|0:2,0:0:0:0:
421,30,46685,1,2,1:2:0:0:
466,108,46942,1,0,1:2:0:0:
434,190,47198,1,10,0:2:0:0:
269,249,47711,5,0,1:2:0:0:
269,249,47967,1,0,1:2:0:0:
269,249,48224,2,0,L|234:168,1,74.9999952316285,6|0,1:2|0:2,0:2:0:0:
140,165,48737,5,0,1:2:0:0:
140,165,48993,1,0,1:2:0:0:
140,165,49250,2,0,L|173:245,1,74.9999952316285,6|0,1:2|0:2,0:2:0:0:
144,341,49762,6,0,P|67:351|41:286,1,149.999990463257,6|6,1:2|0:2,0:2:0:0:
150,162,50788,6,0,P|222:128|205:62,1,149.999990463257,6|6,1:2|0:2,0:2:0:0:
256,192,51814,12,10,53352,0:2:0:0:
376,306,53865,5,2,0:2:0:0:
456,268,54121,1,2,0:2:0:0:
457,179,54378,1,2,0:2:0:0:
375,144,54634,1,2,0:2:0:0:
363,58,54890,1,2,0:2:0:0:
161,0,55403,5,2,0:2:0:0:
161,0,55660,1,2,0:2:0:0:
112,70,55916,2,0,P|98:127|98:150,1,74.9999952316285,6|0,1:2|0:2,0:0:0:0:
153,221,56429,1,10,2:2:0:0:
75,257,56685,1,0,0:2:0:0:
42,340,56942,2,0,P|125:368|178:338,1,149.999990463257,0|10,1:2|2:2,0:0:0:0:
246,278,57711,1,0,0:2:0:0:
327,328,57967,6,0,P|375:323|406:328,1,74.9999952316285,0|0,1:2|0:2,0:0:0:0:
495,302,58480,1,10,2:2:0:0:
479,215,58737,1,0,0:2:0:0:
503,132,58993,2,0,B|475:101|431:109|431:109|387:118|359:89,1,149.999990463257,0|10,1:2|2:2,0:0:0:0:
298,22,59762,1,0,0:2:0:0:
211,70,60019,6,0,L|177:219,1,149.999990463257,2|10,1:2|2:2,0:2:0:0:
157,310,60788,1,0,0:2:0:0:
250,281,61044,2,0,L|281:135,1,149.999990463257,2|10,1:2|2:2,0:2:0:0:
371,97,61814,1,0,0:2:0:0:
433,171,62070,2,0,B|498:225|463:298|463:298|368:270|317:350,1,299.999980926514,6|10,1:2|2:2,0:2:0:0:
131,343,63608,1,10,2:2:0:0:
38,331,63865,1,0,2:2:0:0:
0,250,64121,6,0,L|18:174,1,74.9999952316285,6|0,1:2|0:2,0:0:0:0:
90,119,64634,1,10,2:2:0:0:
115,204,64890,1,0,0:2:0:0:
194,246,65147,2,0,P|249:176|224:122,1,149.999990463257,0|10,1:2|2:2,0:0:0:0:
165,54,65916,1,0,0:2:0:0:
252,11,66173,6,0,P|313:0|342:0,1,74.9999952316285,0|0,1:2|0:2,0:0:0:0:
392,63,66685,1,10,2:2:0:0:
310,103,66942,1,0,0:2:0:0:
270,181,67198,2,0,P|340:228|332:291,1,149.999990463257,0|10,1:2|2:2,0:0:0:0:
340,377,67967,1,0,0:2:0:0:
243,372,68224,6,0,L|82:358,1,149.999990463257,2|10,1:2|2:2,0:2:0:0:
2,345,68993,1,0,0:2:0:0:
60,271,69249,2,0,L|221:285,1,149.999990463257,2|10,1:2|2:2,0:2:0:0:
306,293,70019,1,0,0:2:0:0:
306,293,70275,1,6,0:2:0:0:
256,192,70403,12,10,71814,2:2:0:0:
145,77,72326,6,0,B|173:108|217:100|217:100|260:91|288:120,1,149.999990463257,6|10,1:2|2:2,0:0:0:0:
370,71,73096,1,0,0:2:0:0:
455,117,73352,2,0,P|490:200|453:248,1,149.999990463257,2|10,1:2|2:2,0:0:0:0:
469,340,74121,1,0,0:2:0:0:
371,351,74378,6,0,L|285:359,1,74.9999952316285,0|0,1:2|0:2,0:0:0:0:
216,303,74890,2,0,L|130:295,1,74.9999952316285,10|0,2:2|0:2,0:0:0:0:
48,326,75403,1,0,1:2:0:0:
12,226,75660,5,6,1:2:0:0:
41,125,75916,1,6,1:2:0:0:
181,210,76429,6,0,B|209:179|253:187|253:187|296:196|324:167,1,149.999990463257,2|10,1:2|2:2,0:0:0:0:
413,196,77198,1,0,0:2:0:0:
426,99,77455,2,0,P|412:52|314:47,1,149.999990463257,2|10,1:2|2:2,0:0:0:0:
235,1,78224,1,0,0:2:0:0:
137,24,78480,6,0,L|117:96,1,74.9999952316285,0|0,1:2|0:2,0:0:0:0:
28,136,78993,2,0,L|51:222,1,74.9999952316285,10|0,2:2|0:2,0:0:0:0:
3,295,79506,1,0,1:2:0:0:
96,355,79762,5,6,1:2:0:0:
195,322,80018,1,6,1:2:0:0:
346,373,80532,6,0,B|387:375|413:338|413:338|437:300|478:301,1,149.999990463257,6|10,1:2|2:2,0:0:0:0:
450,205,81301,1,0,0:2:0:0:
504,124,81557,2,0,P|510:62|439:6,1,149.999990463257,2|10,1:2|2:2,0:0:0:0:
366,59,82326,1,0,0:2:0:0:
273,89,82583,6,0,P|196:104|116:75,1,149.999990463257,0|10,1:2|2:2,0:0:0:0:
38,121,83352,1,0,0:2:0:0:
13,215,83608,2,0,P|10:286|75:333,1,149.999990463257,0|10,1:2|2:2,0:0:0:0:
290,350,84634,5,0,1:2:0:0:
290,350,84890,1,0,1:2:0:0:
290,350,85147,2,0,P|331:298|358:281,1,82.4999972724915,6|0,1:2|0:2,0:0:0:0:
423,217,85660,5,0,1:2:0:0:
423,217,85916,1,0,1:2:0:0:
423,217,86173,2,0,P|364:188|330:185,1,82.4999972724915,6|0,1:2|0:0,0:0:0:0:
248,198,86685,6,0,P|250:149|271:119,1,82.4999972724915,6|2,1:2|0:2,0:0:0:0:
333,52,87198,2,0,P|379:65|414:56,1,82.4999972724915,6|2,1:2|0:2,0:0:0:0:
492,12,87711,5,6,1:2:0:0:
