osu file format v14

[General]
AudioFilename: audio.mp3
AudioLeadIn: 0
PreviewTime: 55211
Countdown: 0
SampleSet: Soft
StackLeniency: 0.6
Mode: 0
LetterboxInBreaks: 0
WidescreenStoryboard: 1

[Editor]
Bookmarks: 18993,35403,55916,72326
DistanceSpacing: 1.4
BeatDivisor: 4
GridSize: 16
TimelineZoom: 1.8

[Metadata]
Title:Platinum Disco (TV Size)
TitleUnicode:白金ディスコ (TV Size)
Artist:Araragi Tsukihi (CV: Iguchi Yuka)
ArtistUnicode:阿良々木月火 (CV: 井口裕香)
Creator:Yohananas
Version:Hard
Source:偽物語
Tags:theme songs compilation album jp jpop pop Satoru Kosaki meg rock utamonogatari monogatari series nisemonogatari platinum op japanese j-pop karen opening
BeatmapID:3735044
BeatmapSetID:1792768

[Difficulty]
HPDrainRate:4.5
CircleSize:3.5
OverallDifficulty:6
ApproachRate:8
SliderMultiplier:2.49999990463257
SliderTickRate:1

[Events]
//Background and Video events
0,0,"bg.jpg",0,0
//Break Periods
//Storyboard Layer 0 (Background)
//Storyboard Layer 1 (Fail)
//Storyboard Layer 2 (Pass)
//Storyboard Layer 3 (Foreground)
//Storyboard Layer 4 (Overlay)
//Storyboard Sound Samples

[TimingPoints]
532,512.820512820513,4,2,0,80,1,0
724,-100,4,2,0,5,0,0
788,-133.333333333333,4,2,0,80,0,0
1044,-100,4,2,0,80,0,0
1237,-100,4,2,0,5,0,0
1301,-133.333333333333,4,2,0,80,0,0
1557,-100,4,2,0,80,0,0
1749,-100,4,2,0,5,0,0
1814,-133.333333333333,4,2,0,80,0,0
2070,-100,4,2,0,80,0,0
2262,-100,4,2,0,5,0,0
2326,-133.333333333333,4,2,0,80,0,0
2583,-100,4,2,0,70,0,0
16942,-133.333333333333,4,2,0,70,0,0
18993,-133.333333333333,4,2,0,60,0,0
35403,-133.333333333333,4,2,0,65,0,0
47711,-114.942528735632,4,2,0,70,0,0
50147,-114.942528735632,4,2,0,5,0,0
50275,-114.942528735632,4,2,0,70,0,0
51173,-114.942528735632,4,2,0,5,0,0
51301,-114.942528735632,4,2,0,70,0,0
53865,-114.942528735632,4,2,0,75,0,0
54890,-200,4,2,0,75,0,0
55403,-114.942528735632,4,2,0,75,0,0
55916,-100,4,2,0,85,0,1
75916,-90.9090909090909,4,2,0,85,0,1
76429,-100,4,2,0,85,0,1
80019,-90.9090909090909,4,2,0,85,0,1
80532,-100,4,2,0,85,0,1
85147,-76.9230769230769,4,2,0,85,0,1
87711,-76.9230769230769,4,2,0,85,0,0

[Colours]
Combo1 : 133,200,207
Combo2 : 254,227,148
Combo3 : 117,204,154
Combo4 : 252,181,109
Combo5 : 164,223,187

[HitObjects]
457,64,532,6,0,L|356:83,1,93.7499964237214,6|0,1:2|0:2,0:0:0:0:
320,65,788,2,0,L|368:54,1,46.875,2|2,0:2|0:2,0:0:0:0:
304,159,1044,2,0,L|211:138,1,93.7499964237214,6|0,1:2|0:2,0:0:0:0:
177,106,1301,2,0,L|230:117,1,46.875,2|2,0:2|0:2,0:0:0:0:
88,213,1557,6,0,L|192:237,1,93.7499964237214,6|0,1:2|0:2,0:0:0:0:
224,220,1814,2,0,L|173:209,1,46.875,2|2,0:2|0:2,0:0:0:0:
241,308,2070,2,0,L|334:287,1,93.7499964237214,6|0,1:2|0:2,0:0:0:0:
369,259,2326,2,0,L|321:269,1,46.875,2|2,0:2|0:2,0:0:0:0:
446,333,2583,6,0,P|474:275|452:215,1,124.999995231629,6|0,1:2|0:2,0:0:0:0:
400,151,2967,1,0,0:2:0:0:
400,151,3096,2,0,B|372:174|337:166|337:166|302:158|276:187,1,124.999995231629,10|0,2:2|0:2,0:0:0:0:
104,123,3608,2,0,P|181:208|195:149,1,249.999990463257,0|10,1:2|2:2,0:0:0:0:
198,336,4378,1,0,0:2:0:0:
374,272,4634,6,0,L|296:279,1,62.4999976158143,0|0,1:2|0:2,0:2:0:0:
221,251,4890,2,0,L|143:258,1,62.4999976158143,0|0,0:2|0:2,0:2:0:0:
125,168,5147,6,0,L|203:161,1,62.4999976158143,10|0,2:2|0:2,0:2:0:0:
277,186,5403,2,0,L|355:179,1,62.4999976158143,2|2,0:2|0:2,0:2:0:0:
359,93,5660,6,0,P|410:122|473:98,1,124.999995231629,2|2,1:2|0:2,0:0:0:0:
393,204,6044,1,0,0:2:0:0:
393,204,6173,1,10,2:2:0:0:
512,243,6429,1,0,0:2:0:0:
512,87,6685,6,0,P|465:61|378:60,1,124.999995231629,0|0,1:2|0:2,0:0:0:0:
306,77,7070,1,0,0:2:0:0:
306,77,7198,1,10,2:2:0:0:
135,8,7455,1,0,0:2:0:0:
27,162,7711,6,0,P|80:162|157:203,1,124.999995231629,0|0,1:2|0:2,0:0:0:0:
219,257,8096,1,0,0:2:0:0:
219,257,8224,1,10,2:2:0:0:
400,210,8480,1,0,0:2:0:0:
481,40,8737,6,0,B|444:43|425:73|425:73|406:104|367:102,1,124.999995231629,2|0,1:2|0:2,0:0:0:0:
310,166,9121,1,0,0:2:0:0:
310,166,9249,2,0,P|300:129|280:88,1,62.4999976158143,10|0,2:2|0:2,0:0:0:0:
198,86,9506,2,0,P|208:123|226:166,1,62.4999976158143,0|0,0:2|0:2,0:0:0:0:
123,139,9762,5,0,1:2:0:0:
76,321,10019,1,10,1:2:0:0:
262,274,10275,1,10,1:2:0:0:
262,274,10403,1,10,1:2:0:0:
262,274,10532,1,0,1:2:0:0:
431,344,10788,6,0,P|488:276|477:234,1,124.999995231629,6|0,1:2|0:2,0:0:0:0:
447,159,11173,1,0,0:2:0:0:
447,159,11301,2,0,B|371:172|371:172|316:140,1,124.999995231629,10|0,2:2|0:2,0:0:0:0:
174,41,11814,2,0,P|245:92|140:129,1,249.999990463257,0|10,1:2|2:2,0:0:0:0:
329,147,12583,1,0,0:2:0:0:
503,78,12839,6,0,L|510:156,1,62.4999976158143,0|0,1:2|0:2,0:2:0:0:
482,231,13095,2,0,L|489:309,1,62.4999976158143,0|0,0:2|0:2,0:2:0:0:
399,327,13352,6,0,L|392:249,1,62.4999976158143,10|0,2:2|0:2,0:2:0:0:
417,175,13608,2,0,L|410:97,1,62.4999976158143,2|2,0:2|0:2,0:2:0:0:
330,33,13865,6,0,P|250:22|201:42,1,124.999995231629,2|2,1:2|0:2,0:0:0:0:
289,148,14249,1,0,0:2:0:0:
289,148,14378,1,10,2:2:0:0:
186,34,14634,1,0,0:2:0:0:
8,94,14890,6,0,P|71:139|137:146,1,124.999995231629,0|0,1:2|0:2,0:0:0:0:
210,151,15275,1,0,0:2:0:0:
210,151,15403,1,10,2:2:0:0:
165,333,15660,1,0,0:2:0:0:
346,288,15916,6,0,P|283:243|217:236,1,124.999995231629,0|0,1:2|0:2,0:0:0:0:
146,237,16301,1,0,0:2:0:0:
146,237,16429,1,10,2:2:0:0:
187,54,16685,1,0,0:2:0:0:
372,83,16942,6,0,L|383:135,3,46.875,0|0|0|0,3:2|3:2|3:2|3:2,3:2:0:0:
351,208,17455,1,2,3:2:0:0:
213,180,17711,2,0,L|202:232,3,46.875,0|0|0|0,3:2|3:2|3:2|3:2,3:2:0:0:
234,305,18224,1,10,3:2:0:0:
234,305,18480,1,10,3:2:0:0:
371,337,18737,2,0,P|401:325|428:319,1,46.875,0|0,0:2|0:2,0:0:0:0:
493,336,18993,6,0,P|490:285|470:233,1,93.7500000000001,4|0,1:2|0:2,0:0:0:0:
507,170,19378,1,0,0:2:0:0:
512,175,19506,1,8,0:2:0:0:
359,221,19762,1,0,0:2:0:0:
207,170,20019,6,0,P|249:135|295:129,1,93.7500000000001,0|0,1:2|0:2,0:0:0:0:
366,129,20403,1,0,0:2:0:0:
366,129,20531,1,8,0:2:0:0:
253,21,20788,1,0,0:2:0:0:
137,130,21044,6,0,P|117:179|112:224,1,93.7500000000001,0|0,1:2|0:2,0:0:0:0:
52,272,21429,1,0,0:2:0:0:
52,272,21557,1,8,0:2:0:0:
16,116,21814,1,0,0:2:0:0:
139,15,22070,6,0,P|161:60|140:108,1,93.7500000000001,0|0,1:2|0:2,0:0:0:0:
93,157,22455,1,0,0:2:0:0:
93,157,22583,1,8,0:2:0:0:
249,130,22839,1,0,0:2:0:0:
400,181,23096,6,0,B|448:207|448:207|474:250,1,93.7500000000001,0|0,1:2|0:2,0:0:0:0:
497,314,23480,1,0,0:2:0:0:
497,314,23608,2,0,P|450:356|400:354,1,93.7500000000001,8|0,0:2|0:2,0:0:0:0:
320,235,24121,6,0,B|294:187|294:187|251:161,1,93.7500000000001,0|0,1:2|0:2,0:0:0:0:
187,138,24505,1,0,0:2:0:0:
187,138,24633,2,0,P|145:185|147:235,1,93.7500000000001,8|0,0:2|0:2,0:0:0:0:
40,337,25147,6,0,L|98:344,1,46.875,0|0,1:2|0:2,0:0:0:0:
149,294,25403,2,0,L|207:287,1,46.875,0|0,0:2|0:2,0:0:0:0:
259,336,25660,6,0,P|272:303|287:276,1,46.875,8|0,0:2|0:2,0:0:0:0:
341,246,25916,1,0,0:2:0:0:
270,142,26173,6,0,P|221:163|188:191,1,93.7500000000001,0|0,1:2|0:2,0:0:0:0:
112,170,26557,1,0,0:2:0:0:
112,170,26685,1,10,0:2:0:0:
182,26,26942,2,0,P|221:32|235:38,1,46.875,0|0,0:2|0:2,0:0:0:0:
295,76,27198,6,0,P|352:101|392:95,1,93.7500000000001,4|0,1:2|0:2,0:0:0:0:
458,74,27583,1,0,0:2:0:0:
458,74,27711,1,8,0:2:0:0:
333,194,27967,6,0,P|368:195|391:211,1,46.875
412,217,28224,2,0,P|479:226|491:252,1,93.7500000000001,0|0,1:2|0:2,0:0:0:0:
501,321,28608,1,0,0:2:0:0:
501,321,28737,1,8,0:2:0:0:
329,319,28993,2,0,P|299:318|267:330,1,46.875,0|0,0:2|0:2,0:0:0:0:
243,332,29249,6,0,P|172:299|141:297,1,93.7500000000001,0|0,1:2|0:2,0:0:0:0:
92,344,29634,1,0,0:2:0:0:
92,344,29762,1,8,0:2:0:0:
29,205,30019,2,0,P|30:175|18:143,1,46.875,0|0,0:2|0:2,0:0:0:0:
20,124,30275,2,0,P|26:71|59:44,1,93.7500000000001,0|0,1:2|0:2,0:0:0:0:
131,21,30660,1,0,0:2:0:0:
131,21,30788,1,8,0:2:0:0:
186,169,31044,1,0,0:2:0:0:
315,60,31301,6,0,B|359:23|359:23|405:23,1,93.7500000000001,0|0,1:2|0:0,0:0:0:0:
478,29,31685,1,0,0:2:0:0:
478,29,31813,2,0,P|495:89|471:133,1,93.7500000000001,8|0,0:2|0:2,0:0:0:0:
336,233,32326,6,0,P|356:261|366:284,1,46.875,0|0,1:2|0:2,0:0:0:0:
431,311,32583,2,0,P|411:339|401:362,1,46.875,0|0,0:2|0:2,0:0:0:0:
326,347,32839,2,0,L|262:346,1,46.875,8|0,0:2|0:2,0:0:0:0:
205,315,33096,1,0,0:2:0:0:
63,322,33352,5,0,1:2:0:0:
53,295,33480,1,0,0:2:0:0:
52,266,33608,2,0,P|56:234|72:203,1,46.875,0|0,0:2|0:2,0:0:0:0:
124,163,33865,1,8,0:2:0:0:
28,68,34121,2,0,P|58:48|86:46,1,46.875,0|0,0:2|0:2,0:0:0:0:
155,36,34378,1,0,1:2:0:0:
287,124,34634,6,0,P|321:137|348:139,1,46.875,2|0,0:2|0:2,0:0:0:0:
406,113,34890,1,10,0:2:0:0:
511,228,35147,2,0,P|506:267|502:281,1,46.875,10|0,0:2|0:2,0:0:0:0:
474,347,35403,6,0,P|424:348|374:321,1,93.7500000000001,6|0,1:2|0:0,0:0:0:0:
327,282,35788,1,0,0:2:0:0:
327,282,35916,2,0,P|285:273|223:289,1,93.7500000000001,10|0,0:2|0:2,0:0:0:0:
84,334,36429,6,0,P|88:273|120:238,1,93.7500000000001,2|0,1:2|0:2,0:0:0:0:
163,192,36814,1,0,0:2:0:0:
163,192,36942,2,0,P|127:156|80:132,1,93.7500000000001,10|0,0:2|0:2,0:0:0:0:
14,20,37455,6,0,P|64:11|117:37,1,93.7500000000001,2|0,1:2|0:2,0:0:0:0:
158,83,37839,1,0,0:2:0:0:
158,83,37967,2,0,P|199:96|251:85,1,93.7500000000001,10|0,0:2|0:2,0:0:0:0:
385,4,38480,5,2,1:2:0:0:
446,130,38737,1,0,0:2:0:0:
397,261,38993,1,10,0:2:0:0:
264,307,39249,1,0,0:2:0:0:
136,247,39506,6,0,P|210:206|321:203,1,187.5,2|10,1:2|0:2,0:0:0:0:
415,321,40275,1,0,0:2:0:0:
511,193,40532,2,0,P|481:195|454:193,1,46.875,2|0,1:2|0:2,0:0:0:0:
434,115,40788,2,0,P|461:117|491:115,1,46.875,2|0,1:2|0:2,0:0:0:0:
510,41,41044,2,0,P|459:35|399:41,1,93.7500000000001,10|0,0:2|0:2,0:0:0:0:
259,7,41557,6,0,P|273:106|239:193,1,187.5,2|10,1:2|0:2,0:0:0:0:
102,261,42326,1,0,0:2:0:0:
229,357,42583,2,0,P|230:333|229:310,1,46.875,2|0,1:2|0:2,0:0:0:0:
308,313,42839,2,0,P|310:352|312:365,1,46.875,2|0,1:2|0:2,0:0:0:0:
391,356,43096,2,0,P|385:294|378:247,1,93.7500000000001,10|2,0:2|0:2,0:0:0:0:
510,171,43608,6,0,B|484:164|460:177|460:177|435:187|406:171,1,93.7500000000001,6|0,1:2|0:2,0:0:0:0:
344,147,43993,1,0,0:2:0:0:
344,147,44121,2,0,P|309:126|243:110,1,93.7500000000001,10|0,0:2|0:2,0:0:0:0:
116,75,44634,6,8,P|151:127|75:203,1,187.5,2|10,1:2|0:2,0:2:0:0:
0,61,45403,1,0,0:2:0:0:
2,220,45660,6,0,P|-2:271|9:320,1,93.7500000000001,2|0,1:2|0:2,0:0:0:0:
47,384,46044,1,0,0:2:0:0:
47,384,46173,2,0,P|80:365|138:353,1,93.7500000000001,10|0,0:2|0:2,0:0:0:0:
277,371,46685,5,2,1:2:0:0:
416,349,46942,1,0,0:2:0:0:
511,246,47198,1,10,0:2:0:0:
489,106,47455,1,0,0:2:0:0:
365,5,47711,6,0,L|392:58,1,54.3749983820915,0|0,1:2|0:2,0:0:0:0:
333,119,47967,2,0,L|305:66,1,54.3749983820915,0|0,1:2|0:2,0:0:0:0:
246,8,48224,2,0,P|192:43|130:53,1,108.749996764183,6|0,1:2|0:2,0:0:0:0:
23,173,48737,6,0,L|-4:120,1,54.3749983820915,0|0,1:2|0:2,0:0:0:0:
55,59,48993,2,0,L|83:112,1,54.3749983820915,0|0,1:2|0:2,0:0:0:0:
142,170,49250,2,0,P|196:135|258:125,1,108.749996764183,6|0,1:2|0:2,0:0:0:0:
401,33,49762,6,0,P|427:97|403:193,1,163.124995146275,6|0,1:2|0:2,0:0:0:0:
372,238,50275,1,6,0:2:0:0:
130,354,50788,6,0,P|104:290|128:194,1,163.124995146275,6|0,1:2|0:2,0:0:0:0:
155,147,51301,1,6,0:2:0:0:
256,192,51814,12,10,53352,0:2:0:0:
152,56,53865,5,2,0:2:0:0:
152,56,54121,1,2,0:2:0:0:
120,219,54378,1,2,0:2:0:0:
120,219,54634,1,2,0:2:0:0:
267,288,54890,5,2,0:2:0:0:
357,255,55147,2,0,L|374:291,2,20.8333325386048,0|0|0,3:2|3:2|3:2,0:0:0:0:
345,218,55403,2,0,P|353:163|406:126,1,108.749996764183,10|0,0:2|0:2,0:0:0:0:
508,60,55916,6,0,P|468:41|388:28,1,124.999995231629,6|0,1:2|0:2,0:0:0:0:
316,75,56301,1,0,0:2:0:0:
316,75,56429,2,0,L|246:57,1,62.4999976158143,10|0,2:2|0:2,0:0:0:0:
182,11,56685,1,2,0:2:0:0:
36,3,56942,6,0,B|22:37|36:69|36:69|51:100|35:140,1,124.999995231629,2|0,1:2|0:2,0:0:0:0:
2,202,57326,1,0,0:2:0:0:
2,202,57455,2,0,P|36:239|62:248,1,62.4999976158143,10|0,2:2|0:2,0:0:0:0:
59,330,57711,1,2,0:2:0:0:
207,322,57967,6,0,L|272:334,1,62.4999976158143,2|0,1:2|0:2,0:0:0:0:
349,368,58224,2,0,L|414:356,1,62.4999976158143,2|0,0:2|0:2,0:0:0:0:
496,371,58480,2,0,P|504:328|500:295,1,62.4999976158143,10|0,2:2|0:2,0:0:0:0:
422,274,58737,2,0,P|414:231|418:198,1,62.4999976158143,2|0,0:2|0:2,0:0:0:0:
473,147,58993,6,0,P|406:170|368:119,1,124.999995231629,2|0,1:2|0:2,0:0:0:0:
340,56,59378,1,0,0:2:0:0:
340,56,59506,1,10,2:2:0:0:
509,14,59762,1,0,0:2:0:0:
448,178,60019,6,0,B|421:238|455:308,1,124.999995231629,2|0,1:2|0:2,0:0:0:0:
512,365,60403,1,0,0:2:0:0:
512,365,60532,2,0,P|446:325|398:357,1,124.999995231629,10|0,2:2|0:0,0:0:0:0:
236,371,61044,6,0,P|289:310|300:262,1,124.999995231629,2|0,1:2|0:2,0:0:0:0:
252,200,61429,1,0,0:2:0:0:
252,200,61557,2,0,P|228:231|221:257,1,62.4999976158143,10|0,2:2|0:0,0:0:0:0:
150,305,61814,2,0,P|145:266|131:242,1,62.4999976158143,0|0,0:2|0:2,0:0:0:0:
60,199,62070,6,0,L|-3:185,3,62.4999976158143,2|0|0|0,3:2|3:2|3:2|3:2,0:0:0:0:
48,112,62583,2,0,L|111:98,3,62.4999976158143,8|0|0|0,3:2|3:2|3:2|3:2,0:0:0:0:
60,25,63096,2,0,L|-3:11,3,62.4999976158143,0|0|0|0,3:2|3:2|3:2|3:2,0:0:0:0:
142,25,63608,6,0,P|182:23|206:30,1,62.4999976158143,10|0,2:2|0:2,0:0:0:0:
287,4,63865,1,0,0:2:0:0:
433,1,64121,6,0,P|450:52|426:144,1,124.999995231629,6|0,1:2|0:2,0:0:0:0:
376,182,64506,1,0,0:2:0:0:
376,182,64634,2,0,P|398:210|432:232,1,62.4999976158143,10|0,2:2|0:2,0:0:0:0:
500,258,64890,1,2,0:2:0:0:
408,358,65147,6,0,B|388:340|346:346|346:346|312:352|287:332,1,124.999995231629,2|0,1:2|0:2,0:0:0:0:
223,275,65532,1,0,0:2:0:0:
223,275,65660,2,0,P|171:304|159:315,1,62.4999976158143,10|0,2:2|0:2,0:0:0:0:
105,365,65916,1,2,0:2:0:0:
2,304,66173,6,0,L|19:237,1,62.4999976158143,2|0,1:2|0:2,0:0:0:0:
90,195,66429,2,0,L|70:124,1,62.4999976158143,2|0,0:2|0:2,0:0:0:0:
3,81,66685,2,0,P|33:47|63:35,1,62.4999976158143,10|0,0:2|0:2,0:0:0:0:
127,2,66942,2,0,P|157:36|187:48,1,62.4999976158143,2|0,0:2|0:2,0:0:0:0:
258,29,67198,6,0,P|210:56|202:124,1,124.999995231629,2|0,1:2|0:2,0:0:0:0:
234,202,67583,1,0,0:2:0:0:
234,202,67711,1,10,2:2:0:0:
393,130,67967,1,0,0:2:0:0:
258,29,68224,6,0,P|188:42|130:74,1,124.999995231629,2|0,1:2|0:2,0:0:0:0:
99,145,68608,1,0,0:2:0:0:
99,145,68737,2,0,P|98:76|35:58,1,124.999995231629,10|0,2:2|0:2,0:0:0:0:
1,221,69249,6,0,P|66:257|141:256,1,124.999995231629,2|0,1:2|0:2,0:0:0:0:
202,246,69634,1,0,0:2:0:0:
202,246,69762,1,10,2:2:0:0:
353,333,70019,1,0,0:2:0:0:
496,279,70275,5,6,3:2:0:0:
505,270,70403,1,0,3:2:0:0:
509,258,70532,2,0,L|495:192,1,62.4999976158143,0|0,3:2|3:2,3:2:0:0:
415,162,70788,2,0,P|423:128|453:102,1,62.4999976158143,2|0,3:2|3:2,3:2:0:0:
512,58,71044,1,0,0:0:0:0:
504,47,71173,1,0,0:0:0:0:
492,37,71301,2,0,L|426:23,1,62.4999976158143,0|0,3:2|3:2,3:2:0:0:
344,9,71557,2,0,P|314:27|274:24,1,62.4999976158143,10|0,3:2|3:2,3:2:0:0:
201,11,71814,1,10,3:2:0:0:
31,52,72070,5,0,0:2:0:0:
3,224,72326,2,0,B|76:209|123:260,1,124.999995231629,6|0,1:2|0:2,0:0:0:0:
181,324,72711,1,0,0:2:0:0:
181,324,72839,1,10,2:2:0:0:
352,284,73096,1,0,0:2:0:0:
396,115,73352,6,0,B|323:130|276:79,1,124.999995231629,2|0,1:2|0:2,0:0:0:0:
228,12,73737,1,0,0:2:0:0:
228,12,73865,1,10,2:2:0:0:
61,64,74121,1,0,0:2:0:0:
184,166,74378,6,0,L|195:241,1,62.4999976158143,2|0,1:2|0:2,0:0:0:0:
280,228,74634,2,0,L|269:303,1,62.4999976158143,2|0,0:2|0:2,0:0:0:0:
220,363,74890,2,0,P|270:375|294:376,1,62.4999976158143,10|0,2:2|0:2,0:0:0:0:
366,358,75147,2,0,P|417:347|441:348,1,62.4999976158143,2|0,0:2|0:2,0:0:0:0:
512,364,75403,1,2,1:2:0:0:
512,188,75660,5,6,1:2:0:0:
512,188,75916,2,0,P|434:176|377:150,1,137.499998950958,4|0,1:2|0:2,0:0:0:0:
235,54,76429,6,0,B|297:95|294:164,1,124.999995231629,2|0,1:2|0:2,0:0:0:0:
288,249,76814,1,0,0:2:0:0:
288,249,76942,1,10,2:2:0:0:
399,383,77198,1,0,0:2:0:0:
508,246,77455,6,0,B|445:204|448:135,1,124.999995231629,2|0,1:2|0:2,0:0:0:0:
457,59,77839,1,0,0:2:0:0:
457,59,77967,1,10,2:2:0:0:
286,19,78224,1,0,0:2:0:0:
152,131,78480,6,0,P|117:110|87:100,1,62.4999976158143,2|0,1:2|0:2,0:0:0:0:
51,27,78737,1,2,0:2:0:0:
38,40,78865,1,0,0:2:0:0:
27,55,78993,2,0,P|6:90|-4:120,1,62.4999976158143,10|0,2:2|0:2,0:0:0:0:
4,197,79249,2,0,P|25:232|35:262,1,62.4999976158143,2|0,0:2|0:2,0:0:0:0:
21,339,79506,1,2,1:2:0:0:
196,368,79762,5,6,1:2:0:0:
196,368,80019,2,0,P|259:321|318:299,1,137.499998950958,6|0,1:2|0:2,0:2:0:0:
483,343,80532,6,0,B|420:301|423:232,1,124.999995231629,6|0,1:2|0:2,0:0:0:0:
427,152,80916,1,0,0:2:0:0:
427,152,81044,1,10,2:2:0:0:
317,15,81301,1,0,0:2:0:0:
149,66,81557,6,0,B|211:107|208:176,1,124.999995231629,2|0,1:2|0:2,0:0:0:0:
205,257,81941,1,0,0:2:0:0:
205,257,82069,1,10,2:2:0:0:
327,382,82326,1,0,0:2:0:0:
488,314,82583,6,0,L|471:248,1,62.4999976158143,2|0,1:2|0:2,0:0:0:0:
389,225,82839,2,0,L|406:159,1,62.4999976158143,2|0,0:2|0:2,0:0:0:0:
468,104,83096,2,0,P|432:82|388:80,1,62.4999976158143,10|0,2:2|0:2,0:0:0:0:
348,18,83352,2,0,P|312:40|268:42,1,62.4999976158143,2|0,0:2|0:2,0:0:0:0:
205,48,83608,6,0,P|198:130|241:163,1,124.999995231629,2|0,1:2|0:2,0:2:0:0:
108,287,84121,1,10,2:2:0:0:
1,147,84378,1,0,0:2:0:0:
101,5,84634,5,0,1:2:0:0:
101,5,84890,1,0,1:2:0:0:
101,5,85147,2,0,P|169:69|114:130,1,162.499986362458,6|0,1:2|0:2,0:0:0:0:
17,268,85660,5,0,1:2:0:0:
17,268,85916,1,0,1:2:0:0:
17,268,86173,2,0,P|53:334|127:317,1,162.499986362458,6|0,1:2|0:0,0:0:0:0:
320,336,86685,6,0,P|269:284|253:196,1,162.499986362458,6|2,1:2|0:2,0:0:0:0:
301,22,87198,2,0,P|289:117|236:85,1,162.499986362458,6|2,1:2|0:2,0:0:0:0:
73,35,87711,5,6,1:2:0:0:
