osu file format v14

[General]
AudioFilename: audio.mp3
AudioLeadIn: 0
PreviewTime: 55211
Countdown: 0
SampleSet: Soft
StackLeniency: 0.6
Mode: 0
LetterboxInBreaks: 0
WidescreenStoryboard: 1

[Editor]
Bookmarks: 18993,35403,72326
DistanceSpacing: 1
BeatDivisor: 4
GridSize: 16
TimelineZoom: 0.8999997

[Metadata]
Title:Platinum Disco (TV Size)
TitleUnicode:白金ディスコ (TV Size)
Artist:Araragi Tsukihi (CV: Iguchi Yuka)
ArtistUnicode:阿良々木月火 (CV: 井口裕香)
Creator:Yohananas
Version:Easy
Source:偽物語
Tags:theme songs compilation album jp jpop pop Satoru Kosaki meg rock utamonogatari monogatari series nisemonogatari platinum op japanese j-pop karen opening
BeatmapID:3815542
BeatmapSetID:1792768

[Difficulty]
HPDrainRate:2
CircleSize:2.5
OverallDifficulty:2
ApproachRate:3
SliderMultiplier:1.09999990463257
SliderTickRate:1

[Events]
//Background and Video events
0,0,"bg.jpg",0,0
//Break Periods
//Storyboard Layer 0 (Background)
//Storyboard Layer 1 (Fail)
//Storyboard Layer 2 (Pass)
//Storyboard Layer 3 (Foreground)
//Storyboard Layer 4 (Overlay)
//Storyboard Sound Samples

[TimingPoints]
532,512.820512820513,4,2,0,80,1,0
2583,-100,4,2,0,70,0,0
18993,-100,4,2,0,60,0,0
35403,-100,4,2,0,65,0,0
47711,-100,4,2,0,70,0,0
51814,-100,4,2,0,75,0,0
55916,-100,4,2,0,85,0,1
84634,-90.9090909090909,4,2,0,85,0,1
87711,-100,4,2,0,85,0,0

[Colours]
Combo1 : 133,200,207
Combo2 : 254,227,148
Combo3 : 117,204,154
Combo4 : 252,181,109
Combo5 : 164,223,187

[HitObjects]
315,119,532,5,6,1:2:0:0:
315,119,1044,1,6,1:2:0:0:
315,119,1557,1,6,1:2:0:0:
315,119,2070,1,6,1:2:0:0:
372,228,2583,6,0,B|364:284|364:284|324:326,2,109.999990463257,6|10|0,1:2|0:2|1:2,0:0:0:0:
438,154,4121,1,10,0:2:0:0:
433,55,4634,2,0,P|372:42|313:62,1,109.999990463257,0|10,1:2|0:2,0:0:0:0:
233,87,5660,1,0,1:2:0:0:
36,106,6685,6,0,P|31:182|38:232,1,109.999990463257,0|10,1:2|0:2,0:0:0:0:
23,314,7711,2,0,P|99:319|149:312,1,109.999990463257,0|10,1:2|0:2,0:0:0:0:
225,350,8737,1,0,1:2:0:0:
301,288,9249,1,10,0:2:0:0:
393,322,9762,1,0,1:2:0:0:
465,137,10788,6,0,P|468:96|404:60,1,109.999990463257,6|10,1:2|0:2,0:0:0:0:
328,103,11814,2,0,P|277:92|216:96,1,109.999990463257,0|10,1:2|0:2,0:0:0:0:
120,99,12839,1,0,1:2:0:0:
46,165,13352,2,0,P|41:240|58:289,1,109.999990463257,10|0,0:2|1:2,0:0:0:0:
231,353,14890,5,0,1:2:0:0:
314,300,15403,1,10,0:2:0:0:
403,341,15916,2,0,P|444:277|446:230,1,109.999990463257,0|10,1:2|0:2,0:0:0:0:
449,145,16942,2,0,P|376:78|281:143,1,219.999980926514,6|0,1:2|1:2,0:0:0:0:
256,328,18993,6,0,P|191:327|141:298,1,109.999990463257,4|8,1:2|0:2,0:0:0:0:
82,121,20532,1,8,0:2:0:0:
118,29,21044,2,0,P|183:30|233:59,1,109.999990463257,0|8,1:2|0:2,0:0:0:0:
282,239,22583,1,8,0:2:0:0:
319,339,23096,6,0,P|372:346|417:316,1,109.999990463257,0|8,1:2|0:2,0:0:0:0:
492,251,24121,2,0,P|499:197|469:152,1,109.999990463257,0|8,1:2|0:2,0:0:0:0:
418,67,25146,1,0,1:2:0:0:
325,32,25659,1,8,0:2:0:0:
245,91,26173,1,0,1:2:0:0:
181,278,27198,6,0,P|141:248|126:170,1,109.999990463257,4|8,1:2|0:2,0:0:0:0:
292,89,28737,1,8,0:2:0:0:
362,158,29249,2,0,P|369:207|324:273,1,109.999990463257,0|8,1:2|0:2,0:0:0:0:
193,128,30788,1,8,0:2:0:0:
128,52,31301,6,0,P|68:51|18:87,1,109.999990463257,0|8,1:2|0:2,0:0:0:0:
0,171,32326,1,0,1:2:0:0:
19,268,32839,1,8,0:2:0:0:
102,320,33352,2,0,P|222:307|234:219,1,219.999980926514,2|0,1:2|1:2,0:0:0:0:
210,126,34890,1,8,0:2:0:0:
236,30,35403,6,0,P|282:21|347:30,2,109.999990463257,6|10|2,1:2|0:2|1:2,0:0:0:0:
139,52,36942,1,10,0:2:0:0:
90,138,37455,2,0,B|21:124|-10:68,2,109.999990463257,2|10|2,1:2|0:2|1:2,0:0:0:0:
186,161,38993,1,10,0:2:0:0:
281,135,39506,6,0,P|320:187|293:240,1,109.999990463257,2|10,1:2|0:2,0:0:0:0:
239,295,40532,2,0,L|180:288,2,54.9999952316285,2|2|10,1:2|0:2|0:2,0:0:0:0:
329,334,41557,6,0,P|392:354|432:310,1,109.999990463257,2|10,1:2|0:2,0:0:0:0:
465,242,42583,2,0,L|440:189,2,54.9999952316285,2|2|10,1:2|0:2|0:2,0:0:0:0:
511,329,43608,5,6,1:2:0:0:
346,218,44634,2,0,P|396:184|450:196,1,109.999990463257,2|10,1:2|0:2,0:0:0:0:
510,119,45660,1,2,1:2:0:0:
466,30,46173,1,10,0:2:0:0:
367,30,46685,2,0,P|308:16|262:46,1,109.999990463257,2|10,1:2|0:2,0:0:0:0:
178,83,47711,6,0,L|197:146,2,54.9999952316285,0|0|6,1:2|1:2|1:2,0:0:0:0:
98,158,48737,2,0,L|79:221,2,54.9999952316285,0|0|6,1:2|1:2|1:2,0:0:0:0:
171,91,49762,6,0,P|237:96|275:144,1,109.999990463257,6|6,1:2|0:2,0:0:0:0:
320,214,50788,2,0,P|386:209|424:161,1,109.999990463257,6|6,1:2|0:2,0:0:0:0:
457,90,51814,6,0,P|316:42|226:195,1,329.999971389771,6|0,1:2|1:2,0:0:0:0:
227,269,53865,2,0,B|178:300|178:300|107:290,2,109.999990463257,2|2|2,0:2|0:2|0:2,0:0:0:0:
446,289,55916,5,6,1:2:0:0:
480,184,56429,2,0,P|480:145|438:90,1,109.999990463257,10|0,0:2|1:2,0:0:0:0:
338,43,57455,1,10,0:2:0:0:
291,142,57967,2,0,P|253:187|181:200,1,109.999990463257,0|10,1:2|0:2,0:0:0:0:
96,190,58993,1,0,1:2:0:0:
211,377,60019,6,0,P|165:346|139:279,1,109.999990463257,2|10,1:2|0:2,0:0:0:0:
185,197,61044,1,2,1:2:0:0:
155,90,61557,1,10,0:2:0:0:
53,47,62070,6,0,B|14:124|43:152|72:179|29:261,1,219.999980926514,6|10,1:2|0:2,0:0:0:0:
219,375,64121,6,0,P|295:356|340:371,1,109.999990463257,6|10,1:2|0:2,0:0:0:0:
433,351,65147,1,0,1:2:0:0:
510,273,65660,1,10,0:2:0:0:
488,164,66173,2,0,P|412:145|367:160,1,109.999990463257,2|10,1:2|0:2,0:0:0:0:
292,214,67198,1,0,1:2:0:0:
199,14,68224,6,0,P|141:20|89:56,1,109.999990463257,2|10,1:2|0:2,0:0:0:0:
134,151,69249,2,0,P|191:144|243:108,1,109.999990463257,2|10,1:2|0:2,0:0:0:0:
333,67,70275,6,0,B|393:55|393:55|448:98,2,109.999990463257,6|10|0,1:2|0:2|1:2,0:0:0:0:
223,54,71814,1,10,0:2:0:0:
118,87,72326,6,0,P|106:134|91:212,1,109.999990463257,6|10,1:2|0:2,0:0:0:0:
155,285,73352,1,2,1:2:0:0:
359,366,74378,2,0,P|383:309|350:255,1,109.999990463257,2|10,1:2|0:2,0:0:0:0:
269,213,75403,1,0,1:2:0:0:
292,105,75916,1,10,0:2:0:0:
380,39,76429,6,0,P|395:100|413:150,1,109.999990463257,2|10,1:2|0:2,0:0:0:0:
512,190,77455,1,2,1:2:0:0:
382,367,78480,2,0,P|342:331|290:343,1,109.999990463257,2|10,1:2|0:2,0:0:0:0:
182,364,79506,1,0,1:2:0:0:
81,329,80019,1,10,0:2:0:0:
20,237,80532,6,0,P|82:217|132:198,1,109.999990463257,6|10,1:2|0:2,0:0:0:0:
172,102,81557,1,2,1:2:0:0:
374,188,82583,1,0,1:2:0:0:
330,290,83096,1,10,0:2:0:0:
227,330,83608,2,0,P|165:338|112:319,1,109.999990463257,0|10,1:2|0:2,0:0:0:0:
123,202,84634,6,0,L|149:132,2,60.4999966011047,0|0|6,1:2|1:2|1:2,0:0:0:0:
243,183,85660,2,0,L|314:158,2,60.4999966011047,0|0|6,1:2|1:2|1:2,0:0:0:0:
232,64,86685,2,0,B|204:9|204:9|134:12,2,120.999993202209,6|6|6,1:2|1:2|1:2,0:0:0:0:
