osu file format v14

[General]
AudioFilename: audio.mp3
AudioLeadIn: 0
PreviewTime: 55403
Countdown: 0
SampleSet: Soft
StackLeniency: 0.7
Mode: 3
LetterboxInBreaks: 0
SpecialStyle: 0
WidescreenStoryboard: 0

[Editor]
Bookmarks: 18993,35403,53865,72326,84634
DistanceSpacing: 1.1
BeatDivisor: 4
GridSize: 16
TimelineZoom: 1.2

[Metadata]
Title:Platinum Disco (TV Size)
TitleUnicode:白金ディスコ (TV Size)
Artist:Araragi Tsukihi (CV: Iguchi Yuka)
ArtistUnicode:阿良々木月火 (CV: 井口裕香)
Creator:DenYi
Version:Hard
Source:偽物語
Tags:Sun [_lovega_] Crisper K_a_t_a_g_i_r_i katagiri j-pop jpop pop japanese nisemonogatari monogatari series opening op anime nise Koyomimonogatari koyomi 暦物語 KOYOMIMONOGATARI: Calendar Tale はっきん meg rock Satoru Kosaki Kousaki 神前暁 あららぎ つきひ
BeatmapID:3543494
BeatmapSetID:1733689

[Difficulty]
HPDrainRate:8
CircleSize:4
OverallDifficulty:8
ApproachRate:5
SliderMultiplier:1.4
SliderTickRate:1

[Events]
//Background and Video events
0,0,"bg.jpg",0,0
Video,51,"video.mp4"
//Break Periods
//Storyboard Layer 0 (Background)
//Storyboard Layer 1 (Fail)
//Storyboard Layer 2 (Pass)
//Storyboard Layer 3 (Foreground)
//Storyboard Layer 4 (Overlay)
//Storyboard Sound Samples

[TimingPoints]
532,512.820512820513,4,2,1,50,1,0
55916,-100,4,2,1,50,0,1
71814,-100,4,2,1,50,0,0
72326,-100,4,2,1,50,0,1
84634,-100,4,2,1,50,0,0

[HitObjects]
64,192,532,128,2,788:0:0:0:0:
448,192,532,1,0,0:0:0:0:
320,192,788,1,0,0:0:0:0:
192,192,916,1,0,0:0:0:0:
64,192,1044,128,2,1301:0:0:0:0:
448,192,1044,1,0,0:0:0:0:
192,192,1301,1,0,0:0:0:0:
320,192,1429,1,0,0:0:0:0:
64,192,1557,128,2,1814:0:0:0:0:
448,192,1557,1,0,0:0:0:0:
320,192,1814,1,0,0:0:0:0:
192,192,1942,1,0,0:0:0:0:
64,192,2070,128,2,2326:0:0:0:0:
448,192,2070,128,0,2583:0:0:0:0:
320,192,2326,128,0,2583:0:0:0:0:
64,192,2583,1,2,0:0:0:0:
192,192,2583,128,0,2711:0:0:0:45:cymbal.wav
192,192,2839,128,0,3096:0:0:0:0:
64,192,3096,1,8,0:0:0:0:
448,192,3096,128,0,3608:0:0:0:0:
192,192,3352,1,0,0:0:0:0:
64,192,3608,128,2,4121:0:0:0:0:
320,192,3608,1,0,0:0:0:0:
448,192,3865,1,0,0:0:0:0:
192,192,4121,1,8,0:0:0:0:
320,192,4121,1,0,0:0:0:0:
448,192,4378,128,0,4634:0:0:0:0:
64,192,4634,128,2,4890:0:0:0:0:
192,192,4634,1,0,0:0:0:0:
320,192,4890,128,0,5147:0:0:0:0:
64,192,5147,1,8,0:0:0:0:
192,192,5147,128,0,5403:0:0:0:0:
448,192,5403,128,0,5660:0:0:0:0:
192,192,5660,1,2,0:0:0:0:
320,192,5660,1,0,0:0:0:0:
64,192,5916,1,4,0:0:0:0:
192,192,5916,1,0,0:0:0:0:
448,192,5916,1,0,0:0:0:0:
64,192,6173,1,8,0:0:0:0:
192,192,6173,1,4,0:0:0:0:
448,192,6173,1,0,0:0:0:0:
320,192,6429,1,0,0:0:0:0:
64,192,6685,128,2,6942:0:0:0:0:
192,192,6685,1,0,0:0:0:0:
448,192,6942,128,0,7198:0:0:0:0:
64,192,7198,1,8,0:0:0:0:
192,192,7198,128,0,7455:0:0:0:0:
320,192,7455,128,0,7711:0:0:0:0:
64,192,7711,128,2,7967:0:0:0:0:
448,192,7711,1,0,0:0:0:0:
192,192,7967,128,0,8224:0:0:0:0:
64,192,8224,1,8,0:0:0:0:
320,192,8224,128,0,8480:0:0:0:0:
448,192,8480,128,0,8737:0:0:0:0:
64,192,8737,128,2,10275:0:0:0:0:
192,192,8737,1,0,0:0:0:0:
320,192,8993,1,0,0:0:0:0:
192,192,9249,1,8,0:0:0:0:
448,192,9249,1,0,0:0:0:0:
320,192,9506,1,0,0:0:0:0:
448,192,9762,1,2,0:0:0:0:
192,192,10019,1,0,0:0:0:0:
320,192,10275,1,8,0:0:0:0:
448,192,10275,1,0,0:0:0:0:
320,192,10532,1,0,0:0:0:0:
64,192,10788,128,2,10916:0:0:0:0:
192,192,10788,1,0,0:0:0:45:cymbal.wav
448,192,10788,1,0,0:0:0:0:
64,192,11044,128,0,11301:0:0:0:0:
192,192,11301,1,8,0:0:0:0:
448,192,11301,128,0,11814:0:0:0:0:
320,192,11557,1,0,0:0:0:0:
64,192,11814,1,2,0:0:0:0:
192,192,11814,128,0,12326:0:0:0:0:
320,192,12070,1,0,0:0:0:0:
64,192,12326,1,8,0:0:0:0:
448,192,12326,1,0,0:0:0:0:
320,192,12583,128,0,12839:0:0:0:0:
64,192,12839,128,2,13096:0:0:0:0:
192,192,12839,1,0,0:0:0:0:
448,192,13096,128,0,13352:0:0:0:0:
64,192,13352,1,8,0:0:0:0:
192,192,13352,128,0,13608:0:0:0:0:
320,192,13608,128,0,13865:0:0:0:0:
192,192,13865,1,2,0:0:0:0:
448,192,13865,1,0,0:0:0:0:
64,192,14121,1,4,0:0:0:0:
320,192,14121,1,0,0:0:0:0:
448,192,14121,1,0,0:0:0:0:
64,192,14378,1,4,0:0:0:0:
320,192,14378,1,8,0:0:0:0:
448,192,14378,1,0,0:0:0:0:
192,192,14634,1,0,0:0:0:0:
320,192,14890,128,2,15147:0:0:0:0:
448,192,14890,1,0,0:0:0:0:
64,192,15147,128,0,15403:0:0:0:0:
192,192,15403,128,8,15660:0:0:0:0:
320,192,15403,1,0,0:0:0:0:
448,192,15660,128,0,15916:0:0:0:0:
64,192,15916,1,2,0:0:0:0:
320,192,15916,128,0,16173:0:0:0:0:
192,192,16173,128,0,16429:0:0:0:0:
320,192,16429,1,8,0:0:0:0:
448,192,16429,128,0,16685:0:0:0:0:
64,192,16685,128,0,16942:0:0:0:0:
320,192,16942,1,2,0:0:0:0:
448,192,16942,1,0,0:0:0:0:
64,192,17070,1,0,0:0:0:0:
192,192,17198,1,0,0:0:0:0:
448,192,17326,1,0,0:0:0:0:
192,192,17455,1,8,0:0:0:0:
320,192,17455,1,0,0:0:0:0:
64,192,17583,1,0,0:0:0:0:
320,192,17711,1,0,0:0:0:0:
448,192,17839,1,0,0:0:0:0:
64,192,17967,1,2,0:0:0:0:
192,192,17967,1,0,0:0:0:0:
448,192,18096,1,0,0:0:0:0:
320,192,18224,1,0,0:0:0:0:
192,192,18352,1,0,0:0:0:0:
64,192,18480,1,8,0:0:0:0:
448,192,18480,1,0,0:0:0:0:
320,192,18737,1,0,0:0:0:0:
192,192,18865,1,0,0:0:0:0:
64,192,18993,128,2,19249:0:0:0:0:
320,192,18993,1,0,0:0:0:45:cymbal.wav
448,192,18993,1,0,0:0:0:0:
192,192,19249,1,0,0:0:0:0:
320,192,19378,1,0,0:0:0:0:
64,192,19506,1,8,0:0:0:0:
448,192,19506,1,0,0:0:0:0:
192,192,19762,128,0,20019:0:0:0:0:
320,192,20019,128,2,20275:0:0:0:0:
448,192,20019,1,0,0:0:0:0:
64,192,20275,1,0,0:0:0:0:
448,192,20403,1,0,0:0:0:0:
192,192,20532,1,8,0:0:0:0:
320,192,20532,1,0,0:0:0:0:
448,192,20788,128,0,21044:0:0:0:0:
64,192,21044,128,2,21301:0:0:0:0:
192,192,21044,1,0,0:0:0:0:
320,192,21301,1,0,0:0:0:0:
192,192,21429,1,0,0:0:0:0:
64,192,21557,1,8,0:0:0:0:
448,192,21557,1,0,0:0:0:0:
320,192,21814,128,0,22070:0:0:0:0:
64,192,22070,1,2,0:0:0:0:
192,192,22070,128,0,22326:0:0:0:0:
448,192,22326,1,0,0:0:0:0:
64,192,22455,1,0,0:0:0:0:
192,192,22583,1,8,0:0:0:0:
320,192,22583,1,0,0:0:0:0:
448,192,22839,1,0,0:0:0:0:
64,192,23096,1,2,0:0:0:0:
448,192,23096,128,0,23352:0:0:0:0:
192,192,23352,1,0,0:0:0:0:
64,192,23608,1,8,0:0:0:0:
320,192,23608,128,0,23865:0:0:0:0:
448,192,23865,1,0,0:0:0:0:
64,192,24121,1,2,0:0:0:0:
192,192,24121,128,0,24378:0:0:0:0:
320,192,24378,1,0,0:0:0:0:
64,192,24634,128,8,24890:0:0:0:0:
448,192,24634,1,0,0:0:0:0:
192,192,24890,1,0,0:0:0:0:
320,192,25147,1,2,0:0:0:0:
448,192,25147,128,0,25403:0:0:0:0:
192,192,25403,128,0,25660:0:0:0:0:
320,192,25660,128,8,25916:0:0:0:0:
448,192,25660,1,0,0:0:0:0:
64,192,25916,128,0,26173:0:0:0:0:
192,192,26173,1,2,0:0:0:0:
448,192,26173,128,0,26685:0:0:0:0:
64,192,26429,1,0,0:0:0:0:
192,192,26557,1,0,0:0:0:0:
64,192,26685,1,8,0:0:0:0:
320,192,26685,1,0,0:0:0:0:
192,192,26942,1,0,0:0:0:0:
320,192,27070,1,0,0:0:0:0:
64,192,27198,128,2,27455:0:0:0:0:
192,192,27198,1,0,0:0:0:45:cymbal.wav
448,192,27198,1,0,0:0:0:0:
320,192,27455,1,0,0:0:0:0:
192,192,27583,1,0,0:0:0:0:
64,192,27711,1,8,0:0:0:0:
448,192,27711,1,0,0:0:0:0:
192,192,27967,1,0,0:0:0:0:
448,192,28096,1,0,0:0:0:0:
64,192,28224,1,2,0:0:0:0:
320,192,28224,128,0,28480:0:0:0:0:
192,192,28480,1,0,0:0:0:0:
448,192,28608,1,0,0:0:0:0:
64,192,28737,1,8,0:0:0:0:
320,192,28737,1,0,0:0:0:0:
192,192,28993,1,0,0:0:0:0:
320,192,29121,1,0,0:0:0:0:
64,192,29249,1,2,0:0:0:0:
448,192,29249,128,0,29506:0:0:0:0:
320,192,29506,1,0,0:0:0:0:
192,192,29634,1,0,0:0:0:0:
64,192,29762,1,8,0:0:0:0:
448,192,29762,1,0,0:0:0:0:
192,192,30019,1,0,0:0:0:0:
448,192,30147,1,0,0:0:0:0:
64,192,30275,128,2,30532:0:0:0:0:
320,192,30275,1,0,0:0:0:0:
192,192,30532,1,0,0:0:0:0:
448,192,30660,1,0,0:0:0:0:
64,192,30788,1,8,0:0:0:0:
320,192,30788,1,0,0:0:0:0:
192,192,31044,1,0,0:0:0:0:
192,192,31301,128,2,31814:0:0:0:0:
448,192,31301,1,0,0:0:0:0:
64,192,31557,1,0,0:0:0:0:
320,192,31814,128,8,32326:0:0:0:0:
448,192,31814,1,0,0:0:0:0:
192,192,32070,1,0,0:0:0:0:
64,192,32326,128,2,32583:0:0:0:0:
448,192,32326,1,0,0:0:0:0:
192,192,32583,128,0,32839:0:0:0:0:
64,192,32839,1,8,0:0:0:0:
448,192,32839,128,0,33096:0:0:0:0:
320,192,33096,128,0,33352:0:0:0:0:
64,192,33352,1,2,0:0:0:0:
192,192,33352,1,0,0:0:0:0:
448,192,33480,1,0,0:0:0:0:
192,192,33608,1,0,0:0:0:0:
320,192,33737,1,0,0:0:0:0:
64,192,33865,1,8,0:0:0:0:
448,192,33865,1,0,0:0:0:0:
192,192,33993,1,0,0:0:0:0:
320,192,34121,1,0,0:0:0:0:
64,192,34249,1,0,0:0:0:0:
320,192,34378,1,2,0:0:0:0:
448,192,34378,128,0,34890:0:0:0:0:
192,192,34634,128,0,34890:0:0:0:0:
64,192,34890,1,8,0:0:0:0:
320,192,34890,1,0,0:0:0:0:
448,192,35147,1,0,0:0:0:0:
192,192,35275,1,0,0:0:0:0:
64,192,35403,128,2,35660:0:0:0:0:
320,192,35403,1,0,0:0:0:45:cymbal.wav
448,192,35403,1,0,0:0:0:0:
192,192,35660,1,0,0:0:0:0:
64,192,35916,128,8,36173:0:0:0:0:
448,192,35916,1,0,0:0:0:0:
320,192,36173,1,0,0:0:0:0:
64,192,36429,128,2,36685:0:0:0:0:
448,192,36429,1,0,0:0:0:0:
192,192,36685,1,0,0:0:0:0:
64,192,36942,128,8,37198:0:0:0:0:
320,192,36942,1,0,0:0:0:0:
448,192,37198,1,0,0:0:0:0:
192,192,37455,128,2,37711:0:0:0:0:
320,192,37455,1,0,0:0:0:0:
64,192,37711,1,0,0:0:0:0:
192,192,37967,128,8,38224:0:0:0:0:
448,192,37967,1,0,0:0:0:0:
320,192,38224,1,0,0:0:0:0:
64,192,38480,1,2,0:0:0:0:
192,192,38480,128,0,38737:0:0:0:0:
320,192,38737,1,0,0:0:0:0:
192,192,38993,128,8,39249:0:0:0:0:
448,192,38993,1,0,0:0:0:0:
64,192,39249,1,0,0:0:0:0:
320,192,39506,1,2,0:0:0:0:
448,192,39506,128,0,39762:0:0:0:0:
192,192,39762,1,0,0:0:0:0:
320,192,40019,1,8,0:0:0:0:
448,192,40019,128,0,40275:0:0:0:0:
64,192,40275,1,0,0:0:0:0:
192,192,40532,1,4,0:0:0:0:
320,192,40532,1,2,0:0:0:0:
448,192,40532,1,0,0:0:0:0:
64,192,40788,1,4,0:0:0:0:
192,192,40788,1,0,0:0:0:0:
320,192,40788,1,0,0:0:0:0:
64,192,41044,1,8,0:0:0:0:
448,192,41044,128,0,41301:0:0:0:0:
192,192,41301,1,0,0:0:0:0:
320,192,41557,128,2,41814:0:0:0:0:
448,192,41557,1,0,0:0:0:0:
192,192,41814,1,0,0:0:0:0:
64,192,42070,1,8,0:0:0:0:
320,192,42070,128,0,42326:0:0:0:0:
448,192,42326,1,0,0:0:0:0:
64,192,42583,1,4,0:0:0:0:
192,192,42583,1,2,0:0:0:0:
320,192,42583,1,0,0:0:0:0:
64,192,42839,1,4,0:0:0:0:
192,192,42839,1,0,0:0:0:0:
448,192,42839,1,0,0:0:0:0:
320,192,43096,128,8,43352:0:0:0:0:
448,192,43096,1,0,0:0:0:0:
192,192,43352,1,0,0:0:0:0:
64,192,43608,128,2,43865:0:0:0:0:
320,192,43608,1,0,0:0:0:45:cymbal.wav
448,192,43608,1,0,0:0:0:0:
192,192,43865,1,0,0:0:0:0:
64,192,44121,128,8,44378:0:0:0:0:
448,192,44121,1,0,0:0:0:0:
320,192,44378,1,0,0:0:0:0:
64,192,44634,128,2,44890:0:0:0:0:
448,192,44634,1,0,0:0:0:0:
192,192,44890,1,0,0:0:0:0:
64,192,45147,128,8,45403:0:0:0:0:
320,192,45147,1,0,0:0:0:0:
448,192,45403,1,0,0:0:0:0:
192,192,45660,128,2,45916:0:0:0:0:
320,192,45660,1,0,0:0:0:0:
64,192,45916,1,0,0:0:0:0:
192,192,46173,128,8,46429:0:0:0:0:
448,192,46173,1,0,0:0:0:0:
320,192,46429,1,0,0:0:0:0:
64,192,46685,1,2,0:0:0:0:
192,192,46685,128,0,46942:0:0:0:0:
448,192,46942,1,0,0:0:0:0:
192,192,47198,128,8,47455:0:0:0:0:
320,192,47198,1,0,0:0:0:0:
64,192,47455,1,0,0:0:0:0:
320,192,47711,1,2,0:0:0:0:
448,192,47711,1,0,0:0:0:0:
320,192,47967,1,2,0:0:0:0:
448,192,47967,1,0,0:0:0:0:
64,192,48224,1,4,0:0:0:0:
192,192,48224,1,8,0:0:0:0:
448,192,48224,1,0,0:0:0:0:
320,192,48480,1,0,0:0:0:0:
64,192,48737,1,2,0:0:0:0:
192,192,48737,1,0,0:0:0:0:
64,192,48993,1,2,0:0:0:0:
192,192,48993,1,0,0:0:0:0:
64,192,49249,1,4,0:0:0:0:
320,192,49249,1,8,0:0:0:0:
448,192,49249,1,0,0:0:0:0:
192,192,49506,1,0,0:0:0:0:
64,192,49762,128,2,50275:0:0:0:0:
320,192,49762,1,0,0:0:0:45:cymbal.wav
448,192,49762,1,0,0:0:0:0:
192,192,50275,128,2,50788:0:0:0:0:
320,192,50275,1,0,0:0:0:45:cymbal.wav
448,192,50275,1,0,0:0:0:0:
64,192,50788,1,2,0:0:0:0:
320,192,50788,128,0,51301:0:0:0:45:cymbal.wav
448,192,50788,1,0,0:0:0:0:
64,192,51301,1,2,0:0:0:0:
192,192,51301,1,0,0:0:0:45:cymbal.wav
448,192,51301,128,0,51814:0:0:0:0:
64,192,51814,1,2,0:0:0:0:
192,192,51814,1,0,0:0:0:45:cymbal.wav
320,192,51942,1,0,0:0:0:0:
192,192,52070,1,0,0:0:0:0:
64,192,52198,1,0,0:0:0:0:
320,192,52326,1,8,0:0:0:0:
448,192,52326,1,0,0:0:0:0:
192,192,52455,1,0,0:0:0:0:
320,192,52583,1,0,0:0:0:0:
448,192,52711,1,0,0:0:0:0:
64,192,52839,1,2,0:0:0:0:
192,192,52839,1,0,0:0:0:0:
320,192,52967,1,0,0:0:0:0:
192,192,53096,1,0,0:0:0:0:
64,192,53224,1,0,0:0:0:0:
320,192,53352,1,8,0:0:0:0:
448,192,53352,1,0,0:0:0:0:
192,192,53480,1,0,0:0:0:0:
320,192,53608,1,0,0:0:0:0:
448,192,53737,1,0,0:0:0:0:
64,192,53865,1,4,0:0:0:0:
192,192,53865,1,2,0:0:0:0:
320,192,53865,1,0,0:0:0:0:
64,192,54121,1,4,0:0:0:0:
192,192,54121,1,2,0:0:0:0:
448,192,54121,1,0,0:0:0:0:
64,192,54378,1,4,0:0:0:0:
320,192,54378,1,2,0:0:0:0:
448,192,54378,1,0,0:0:0:0:
192,192,54634,1,4,0:0:0:0:
320,192,54634,1,2,0:0:0:0:
448,192,54634,1,0,0:0:0:0:
64,192,54890,1,4,0:0:0:0:
192,192,54890,1,2,0:0:0:0:
320,192,54890,1,0,0:0:0:0:
192,192,55403,1,2,0:0:0:0:
192,192,55660,128,0,55916:0:0:0:0:
64,192,55916,128,2,56429:0:0:0:0:
320,192,55916,1,0,0:0:0:45:cymbal.wav
448,192,55916,1,0,0:0:0:0:
448,192,56173,128,0,56429:0:0:0:0:
192,192,56429,1,8,0:0:0:0:
320,192,56429,128,0,56685:0:0:0:0:
64,192,56685,1,0,0:0:0:0:
192,192,56685,128,0,57198:0:0:0:0:
320,192,56942,128,2,57198:0:0:0:0:
448,192,56942,1,0,0:0:0:0:
64,192,57198,1,0,0:0:0:0:
192,192,57455,1,8,0:0:0:0:
448,192,57455,1,0,0:0:0:0:
192,192,57711,1,0,0:0:0:0:
448,192,57711,128,0,57967:0:0:0:0:
64,192,57967,128,2,58480:0:0:0:0:
320,192,57967,1,0,0:0:0:0:
192,192,58224,128,0,58480:0:0:0:0:
320,192,58480,128,8,58737:0:0:0:0:
448,192,58480,1,0,0:0:0:0:
192,192,58737,1,0,0:0:0:0:
448,192,58737,128,0,59249:0:0:0:0:
64,192,58993,1,2,0:0:0:0:
320,192,58993,128,0,59249:0:0:0:0:
192,192,59249,1,0,0:0:0:0:
64,192,59506,1,8,0:0:0:0:
448,192,59506,1,0,0:0:0:0:
192,192,59762,1,0,0:0:0:0:
320,192,59762,1,0,0:0:0:0:
192,192,60019,1,2,0:0:0:0:
320,192,60019,128,0,60275:0:0:0:0:
448,192,60275,1,0,0:0:0:0:
64,192,60532,128,8,60788:0:0:0:0:
320,192,60532,1,0,0:0:0:0:
192,192,60788,128,0,61044:0:0:0:0:
448,192,60788,1,0,0:0:0:0:
64,192,61044,1,2,0:0:0:0:
448,192,61044,128,0,61557:0:0:0:0:
192,192,61301,1,0,0:0:0:0:
64,192,61557,1,8,0:0:0:0:
320,192,61557,128,0,61814:0:0:0:0:
192,192,61814,128,0,62070:0:0:0:0:
448,192,61814,1,0,0:0:0:0:
64,192,62070,1,2,0:0:0:0:
448,192,62070,1,0,0:0:0:0:
320,192,62198,1,0,0:0:0:0:
64,192,62326,1,0,0:0:0:0:
192,192,62455,1,0,0:0:0:0:
320,192,62583,1,8,0:0:0:0:
448,192,62583,1,0,0:0:0:0:
64,192,62711,1,0,0:0:0:0:
320,192,62839,1,0,0:0:0:0:
192,192,62967,1,0,0:0:0:0:
64,192,63096,1,2,0:0:0:0:
448,192,63096,1,0,0:0:0:0:
320,192,63224,1,0,0:0:0:0:
192,192,63352,1,0,0:0:0:0:
448,192,63480,1,0,0:0:0:0:
64,192,63608,1,8,0:0:0:0:
192,192,63608,1,0,0:0:0:0:
320,192,63737,1,0,0:0:0:0:
448,192,63865,1,0,0:0:0:0:
192,192,63993,1,0,0:0:0:0:
64,192,64121,1,2,0:0:0:0:
320,192,64121,128,0,64634:0:0:0:45:cymbal.wav
448,192,64121,1,0,0:0:0:0:
192,192,64378,128,0,64634:0:0:0:0:
64,192,64634,128,8,64890:0:0:0:0:
448,192,64634,1,0,0:0:0:0:
192,192,64890,1,0,0:0:0:0:
448,192,64890,128,0,65403:0:0:0:0:
64,192,65147,1,2,0:0:0:0:
320,192,65147,128,0,65403:0:0:0:0:
192,192,65403,1,0,0:0:0:0:
64,192,65660,1,8,0:0:0:0:
320,192,65660,1,0,0:0:0:0:
64,192,65916,128,0,66173:0:0:0:0:
320,192,65916,1,0,0:0:0:0:
192,192,66173,1,2,0:0:0:0:
448,192,66173,128,0,66429:0:0:0:0:
192,192,66429,128,0,66685:0:0:0:0:
64,192,66685,1,8,0:0:0:0:
448,192,66685,128,0,66942:0:0:0:0:
64,192,66942,128,0,67198:0:0:0:0:
320,192,66942,1,0,0:0:0:0:
320,192,67198,128,2,67711:0:0:0:0:
448,192,67198,1,0,0:0:0:0:
192,192,67455,1,0,0:0:0:0:
64,192,67711,1,8,0:0:0:0:
448,192,67711,1,0,0:0:0:0:
192,192,67967,1,0,0:0:0:0:
320,192,67967,1,0,0:0:0:0:
192,192,68224,128,2,68737:0:0:0:0:
320,192,68224,1,0,0:0:0:0:
64,192,68480,1,0,0:0:0:0:
320,192,68737,1,8,0:0:0:0:
448,192,68737,1,0,0:0:0:0:
192,192,68993,1,0,0:0:0:0:
448,192,68993,128,0,69249:0:0:0:0:
64,192,69249,1,2,0:0:0:0:
320,192,69249,128,0,69762:0:0:0:0:
192,192,69506,1,0,0:0:0:0:
64,192,69762,1,8,0:0:0:0:
448,192,69762,1,0,0:0:0:0:
192,192,70019,128,0,70275:0:0:0:0:
320,192,70019,1,0,0:0:0:0:
64,192,70275,1,2,0:0:0:0:
448,192,70275,1,0,0:0:0:0:
320,192,70403,1,0,0:0:0:0:
64,192,70532,1,0,0:0:0:0:
192,192,70660,1,0,0:0:0:0:
320,192,70788,1,8,0:0:0:0:
448,192,70788,1,0,0:0:0:0:
64,192,70916,1,0,0:0:0:0:
320,192,71044,1,0,0:0:0:0:
448,192,71173,1,0,0:0:0:0:
64,192,71301,1,2,0:0:0:0:
192,192,71301,1,0,0:0:0:0:
320,192,71429,1,0,0:0:0:0:
192,192,71557,1,0,0:0:0:0:
320,192,71685,1,0,0:0:0:0:
64,192,71814,1,8,0:0:0:0:
448,192,71814,1,0,0:0:0:0:
192,192,72070,1,0,0:0:0:0:
320,192,72070,1,0,0:0:0:0:
64,192,72326,1,2,0:0:0:0:
320,192,72326,128,4,72839:0:0:0:0:
448,192,72326,1,0,0:0:0:45:cymbal.wav
192,192,72583,1,0,0:0:0:0:
64,192,72839,1,8,0:0:0:0:
448,192,72839,1,4,0:0:0:0:
192,192,73096,1,0,0:0:0:0:
320,192,73096,1,0,0:0:0:0:
192,192,73352,128,2,73865:0:0:0:0:
448,192,73352,1,4,0:0:0:0:
320,192,73608,1,0,0:0:0:0:
64,192,73865,1,8,0:0:0:0:
448,192,73865,1,4,0:0:0:0:
192,192,74121,1,0,0:0:0:0:
320,192,74121,128,0,74378:0:0:0:0:
64,192,74378,1,2,0:0:0:0:
448,192,74378,128,4,74890:0:0:0:0:
192,192,74634,128,0,74890:0:0:0:0:
64,192,74890,128,8,75403:0:0:0:0:
320,192,74890,1,4,0:0:0:0:
448,192,75147,128,0,75403:0:0:0:0:
192,192,75403,1,2,0:0:0:0:
320,192,75403,1,0,0:0:0:0:
64,192,75660,1,4,0:0:0:0:
192,192,75660,1,8,0:0:0:0:
448,192,75660,1,0,0:0:0:0:
64,192,75916,1,8,0:0:0:0:
320,192,75916,1,4,0:0:0:0:
448,192,75916,1,0,0:0:0:0:
192,192,76173,1,0,0:0:0:0:
320,192,76173,1,0,0:0:0:0:
192,192,76429,128,2,76942:0:0:0:0:
448,192,76429,1,4,0:0:0:0:
320,192,76685,1,0,0:0:0:0:
64,192,76942,1,8,0:0:0:0:
448,192,76942,1,4,0:0:0:0:
192,192,77198,1,0,0:0:0:0:
320,192,77198,1,0,0:0:0:0:
64,192,77455,1,2,0:0:0:0:
320,192,77455,128,4,77967:0:0:0:0:
192,192,77711,1,0,0:0:0:0:
64,192,77967,1,8,0:0:0:0:
448,192,77967,1,4,0:0:0:0:
192,192,78224,128,0,78480:0:0:0:0:
320,192,78224,1,0,0:0:0:0:
64,192,78480,128,2,78993:0:0:0:0:
448,192,78480,1,4,0:0:0:0:
320,192,78737,128,0,78993:0:0:0:0:
192,192,78993,1,8,0:0:0:0:
448,192,78993,128,4,79506:0:0:0:0:
64,192,79249,128,0,79506:0:0:0:0:
192,192,79506,1,2,0:0:0:0:
320,192,79506,1,0,0:0:0:0:
64,192,79762,1,8,0:0:0:0:
192,192,79762,1,4,0:0:0:0:
448,192,79762,1,0,0:0:0:0:
64,192,80019,1,8,0:0:0:0:
320,192,80019,1,4,0:0:0:0:
448,192,80019,1,0,0:0:0:0:
192,192,80275,1,0,0:0:0:0:
320,192,80275,1,0,0:0:0:0:
64,192,80532,1,2,0:0:0:0:
192,192,80532,1,4,0:0:0:0:
448,192,80532,128,0,81044:0:0:0:45:cymbal.wav
320,192,80788,1,0,0:0:0:0:
64,192,81044,1,8,0:0:0:0:
192,192,81044,1,4,0:0:0:0:
192,192,81301,1,0,0:0:0:0:
320,192,81301,1,0,0:0:0:0:
64,192,81557,128,2,82070:0:0:0:0:
320,192,81557,1,4,0:0:0:0:
448,192,81814,1,0,0:0:0:0:
192,192,82070,1,8,0:0:0:0:
320,192,82070,1,4,0:0:0:0:
192,192,82326,128,0,82583:0:0:0:0:
448,192,82326,1,0,0:0:0:0:
64,192,82583,1,2,0:0:0:0:
320,192,82583,128,4,83096:0:0:0:0:
192,192,82839,128,0,83096:0:0:0:0:
64,192,83096,128,8,83352:0:0:0:0:
448,192,83096,1,4,0:0:0:0:
192,192,83352,1,0,0:0:0:0:
448,192,83352,128,0,83608:0:0:0:0:
192,192,83608,128,2,84121:0:0:0:0:
320,192,83608,1,4,0:0:0:0:
320,192,83865,128,0,84121:0:0:0:0:
64,192,84121,1,8,0:0:0:0:
448,192,84121,128,4,84378:0:0:0:0:
64,192,84378,128,0,84634:0:0:0:0:
192,192,84378,1,0,0:0:0:0:
320,192,84634,1,2,0:0:0:0:
448,192,84634,1,0,0:0:0:0:
320,192,84890,1,2,0:0:0:0:
448,192,84890,1,0,0:0:0:0:
64,192,85147,128,8,85403:0:0:0:0:
192,192,85147,128,4,85403:0:0:0:0:
448,192,85147,128,0,85403:0:0:0:45:cymbal.wav
320,192,85403,1,0,0:0:0:0:
64,192,85660,1,2,0:0:0:0:
192,192,85660,1,0,0:0:0:0:
64,192,85916,1,2,0:0:0:0:
192,192,85916,1,0,0:0:0:0:
64,192,86173,128,8,86429:0:0:0:0:
320,192,86173,128,4,86429:0:0:0:0:
448,192,86173,128,0,86429:0:0:0:45:cymbal.wav
192,192,86429,1,0,0:0:0:0:
192,192,86685,128,2,86942:0:0:0:0:
320,192,86685,128,4,86942:0:0:0:0:
448,192,86685,128,0,86942:0:0:0:0:
64,192,86942,1,0,0:0:0:0:
64,192,87198,128,2,87455:0:0:0:0:
192,192,87198,128,4,87455:0:0:0:0:
448,192,87198,128,0,87455:0:0:0:0:
320,192,87455,1,0,0:0:0:0:
64,192,87711,128,2,87967:0:0:0:0:
192,192,87711,128,4,87967:0:0:0:0:
320,192,87711,128,0,87967:0:0:0:0:
