osu file format v14

[General]
AudioFilename: platinum disco 192.mp3
AudioLeadIn: 0
PreviewTime: 55275
Countdown: 0
SampleSet: Soft
StackLeniency: 0.4
Mode: 0
LetterboxInBreaks: 0
WidescreenStoryboard: 0

[Editor]
DistanceSpacing: 1.1
BeatDivisor: 8
GridSize: 16
TimelineZoom: 1.7

[Metadata]
Title:Platinum Disco (TV Size)
TitleUnicode:白金ディスコ (TV Size)
Artist:Araragi Tsukihi (CV: Iguchi Yuka)
ArtistUnicode:阿良々木月火 (CV: 井口裕香)
Creator:Basensorex
Version:Special
Source:偽物語
Tags:nisemonogatari monogatari series opening op japanese jap jp j-pop jpop pop karen oriental armin a_r_m_i_n
BeatmapID:3170255
BeatmapSetID:1551428

[Difficulty]
HPDrainRate:6
CircleSize:4.5
OverallDifficulty:9
ApproachRate:9.2
SliderMultiplier:2.4
SliderTickRate:1

[Events]
//Background and Video events
0,0,"hot.jpg",0,0
//Break Periods
//Storyboard Layer 0 (Background)
//Storyboard Layer 1 (Fail)
//Storyboard Layer 2 (Pass)
//Storyboard Layer 3 (Foreground)
//Storyboard Layer 4 (Overlay)
//Storyboard Sound Samples

[TimingPoints]
532,512.820512820513,4,2,1,70,1,0
532,-66.6666666666667,4,2,1,70,0,0
724,-66.6666666666667,4,2,1,5,0,0
788,-100,4,2,1,70,0,0
1044,-66.6666666666667,4,2,1,70,0,0
1237,-66.6666666666667,4,2,1,5,0,0
1301,-100,4,2,1,70,0,0
1557,-66.6666666666667,4,2,1,70,0,0
1749,-66.6666666666667,4,2,1,5,0,0
1814,-100,4,2,1,70,0,0
2070,-66.6666666666667,4,2,1,70,0,0
2262,-66.6666666666667,4,2,1,5,0,0
2326,-66.6666666666667,4,2,1,70,0,0
2583,-80,4,2,1,70,0,0
6173,-66.6666666666667,4,2,1,70,0,0
6685,-80,4,2,1,70,0,0
10019,-80,4,2,2,70,0,0
10275,-80,4,2,1,70,0,0
14378,-66.6666666666667,4,2,1,70,0,0
14890,-80,4,2,1,70,0,0
16942,-80,4,2,2,70,0,0
17711,-80,4,2,1,70,0,0
18993,-100,4,2,1,60,0,0
23096,-133.333333333333,4,2,1,60,0,0
23608,-114.285714285714,4,2,1,60,0,0
24121,-100,4,2,1,60,0,0
24634,-88.8888888888889,4,2,1,60,0,0
25147,-80,4,2,1,60,0,0
27198,-100,4,2,1,60,0,0
31301,-133.333333333333,4,2,1,60,0,0
31814,-100,4,2,1,60,0,0
32326,-80,4,2,1,60,0,0
35403,-66.6666666666667,4,2,1,65,0,0
35916,-100,4,2,1,65,0,0
40532,-66.6666666666667,4,2,2,65,0,0
41044,-100,4,2,1,65,0,0
42583,-66.6666666666667,4,2,1,65,0,0
43096,-100,4,2,1,65,0,0
43352,-66.6666666666667,4,2,1,65,0,0
43608,-100,4,2,1,65,0,0
47711,-80,4,2,1,70,0,0
48224,-50,4,2,1,70,0,0
48737,-80,4,2,1,70,0,0
49249,-50,4,2,1,70,0,0
49762,-100,4,2,1,70,0,0
50275,-88.8888888888889,4,2,1,70,0,0
50788,-80,4,2,1,70,0,0
51301,-72.7272727272727,4,2,1,70,0,0
53865,-66.6666666666667,4,2,1,70,0,0
55147,-66.6666666666667,4,2,1,30,0,0
55403,-400,4,2,1,70,0,0
55916,-66.6666666666667,4,2,1,80,0,1
70275,-66.6666666666667,4,2,2,80,0,1
71044,-66.6666666666667,4,2,1,80,0,1
72326,-57.1428571428571,4,2,1,80,0,1
72711,-66.6666666666667,4,2,1,80,0,1
73352,-57.1428571428571,4,2,1,80,0,1
73737,-66.6666666666667,4,2,1,80,0,1
76429,-57.1428571428571,4,2,1,80,0,1
76814,-66.6666666666667,4,2,1,80,0,1
77455,-57.1428571428571,4,2,1,80,0,1
77839,-66.6666666666667,4,2,1,80,0,1
80532,-57.1428571428571,4,2,1,80,0,1
80916,-66.6666666666667,4,2,1,80,0,1
81557,-57.1428571428571,4,2,1,80,0,1
81942,-66.6666666666667,4,2,1,80,0,1
85147,-44.4444444444445,4,2,1,80,0,1
85660,-66.6666666666667,4,2,1,80,0,1
86173,-44.4444444444445,4,2,1,80,0,1
86685,-40,4,2,1,80,0,1
86878,-40,4,2,1,5,0,1
86942,-200,4,2,1,80,0,1
87134,-200,4,2,1,5,0,1
87198,-40,4,2,1,80,0,1
87390,-40,4,2,1,5,0,1
87455,-200,4,2,1,80,0,1
87647,-200,4,2,1,5,0,1
87711,-200,4,2,1,80,0,0

[Colours]
Combo1 : 255,201,36
Combo2 : 4,198,159
Combo3 : 96,96,96
Combo4 : 244,72,98

[HitObjects]
57,25,532,6,0,P|120:15|154:69,1,135.000005149841,4|0,1:2|0:0,0:0:0:0:
96,117,788,2,0,P|101:136|106:160,1,30,0|0,1:2|0:0,0:0:0:0:
165,192,916,2,0,P|160:211|154:235,1,30,0|0,1:2|0:0,0:0:0:0:
5,341,1044,6,0,P|71:327|137:316,1,135.000005149841,4|0,1:2|0:0,0:0:0:0:
208,282,1301,2,0,P|222:285|237:289,1,30,0|0,1:2|0:0,0:0:0:0:
298,239,1429,2,0,P|312:235|327:231,1,30,0|0,1:2|0:0,0:0:0:0:
453,384,1557,6,0,P|399:349|408:286,1,135.000005149841,4|0,1:2|0:0,0:0:0:0:
463,229,1814,2,0,P|459:214|455:199,1,30,0|0,1:2|0:0,0:0:0:0:
408,139,1942,2,0,P|411:124|415:109,1,30,0|0,1:2|0:0,0:0:0:0:
505,28,2070,6,0,P|438:16|372:3,1,135.000005149841,4|0,1:2|0:0,0:0:0:0:
321,62,2326,1,0,1:2:0:0:
153,0,2583,6,0,P|166:35|177:70,1,75,6|0,1:2|0:0,0:0:0:0:
0,122,2839,1,2,0:0:0:0:
71,98,2967,1,2,0:1:0:0:
126,149,3096,2,0,P|112:184|101:219,1,75,10|0,0:0|0:0,0:0:0:0:
42,336,3352,2,0,P|30:300|17:265,1,75
196,213,3608,6,0,B|290:223|239:269|323:283,1,150,2|0,1:2|0:0,0:0:0:0:
477,184,3993,1,0,0:0:0:0:
512,249,4121,2,0,P|498:284|487:319,1,75,8|0,0:0|0:0,0:0:0:0:
372,163,4378,2,0,P|385:198|396:233,1,75,2|0,0:0|0:0,0:0:0:0:
296,378,4634,6,0,P|260:366|225:353,1,75,2|0,1:2|0:0,0:0:0:0:
175,165,4890,1,2,0:0:0:0:
222,223,5019,1,2,0:1:0:0:
173,280,5147,2,0,P|137:291|102:304,1,75,10|0,0:0|0:0,0:0:0:0:
0,197,5403,2,0,P|35:208|70:221,1,75,2|0,0:0|0:0,0:0:0:0:
109,55,5660,2,0,P|97:90|84:125,1,75,2|0,1:2|0:0,0:0:0:0:
263,17,5916,5,8,0:3:0:0:
175,165,6044,1,0,0:0:0:0:
268,9,6173,2,0,B|282:53|282:53|285:56|285:56|298:95,1,90.0000034332277,8|0,0:3|0:0,0:0:0:0:
512,120,6429,1,0,0:0:0:0:
454,73,6557,1,0,0:0:0:0:
389,110,6685,6,0,P|375:145|363:180,1,75,2|0,1:2|0:0,0:0:0:0:
512,344,6942,1,2,0:0:0:0:
452,298,7070,1,2,0:1:0:0:
377,308,7198,2,0,P|341:321|306:333,1,75,10|0,0:0|0:0,0:0:0:0:
207,213,7455,2,0,P|242:226|277:238,1,75,2|0,0:0|0:0,0:0:0:0:
50,371,7711,6,0,P|37:335|24:300,1,75,2|0,1:2|0:0,0:0:0:0:
207,213,7967,1,2,0:0:0:0:
151,263,8096,1,0,0:0:0:0:
86,224,8224,2,0,P|98:188|111:153,1,75,10|0,0:0|0:0,0:0:0:0:
1,39,8480,2,0,P|14:74|26:109,1,75,2|0,0:0|0:0,0:0:0:0:
313,94,8737,6,0,B|236:69|236:69|206:84|197:123,1,150,2|0,1:2|0:0,0:0:0:0:
207,213,9121,1,2,0:1:0:0:
323,88,9249,2,0,P|358:75|393:63,1,75,8|0,0:0|0:0,0:0:0:0:
503,177,9506,2,0,P|468:164|433:152,1,75
411,323,9762,6,0,P|424:287|436:252,1,75,0|0,1:2|0:0,0:0:0:0:
205,308,10019,1,8,0:3:0:0:
270,338,10147,1,0,0:0:0:0:
336,373,10275,5,8,0:3:0:0:
299,215,10403,1,8,0:3:0:0:
339,382,10532,1,8,0:3:0:0:
59,384,10788,6,0,P|72:349|83:314,1,75,6|0,1:2|0:0,0:0:0:0:
64,124,11044,1,2,0:0:0:0:
4,170,11173,1,2,0:1:0:0:
18,243,11301,2,0,P|53:230|88:219,1,75,10|0,0:0|0:0,0:0:0:0:
226,168,11557,2,0,P|190:156|155:143,1,75
316,30,11814,6,0,B|298:18|287:-1|287:-1|305:115,1,150,2|0,1:2|0:0,0:0:0:0:
439,217,12198,1,0,0:0:0:0:
378,173,12326,2,0,P|389:137|402:102,1,75,8|0,0:0|0:0,0:0:0:0:
329,302,12583,2,0,P|317:266|304:231,1,75,2|0,0:0|0:0,0:0:0:0:
174,354,12839,6,0,P|209:367|244:378,1,75,2|0,1:2|0:0,0:0:0:0:
213,220,13096,1,2,0:0:0:0:
138,220,13224,1,2,0:1:0:0:
103,286,13352,2,0,P|89:321|78:356,1,75,10|0,0:0|0:0,0:0:0:0:
2,164,13608,2,0,P|15:199|26:234,1,75,2|0,0:0|0:0,0:0:0:0:
144,113,13865,2,0,P|108:99|73:88,1,75,2|0,1:2|0:0,0:0:0:0:
214,180,14121,5,8,0:3:0:0:
143,8,14249,1,0,0:0:0:0:
217,190,14378,2,0,B|261:175|261:175|264:172|264:172|303:159,1,90.0000034332277,8|0,0:3|0:0,0:0:0:0:
483,8,14634,1,0,0:0:0:0:
408,16,14762,1,0,0:0:0:0:
376,85,14890,6,0,P|389:120|400:155,1,75,2|0,1:2|0:0,0:0:0:0:
320,325,15147,1,2,0:0:0:0:
346,254,15275,1,2,0:1:0:0:
421,247,15403,2,0,P|456:258|491:271,1,75,10|0,0:0|0:0,0:0:0:0:
313,175,15660,2,0,P|277:186|242:199,1,75,2|0,0:0|0:0,0:0:0:0:
183,381,15916,6,0,P|194:345|207:310,1,75,2|0,1:2|0:0,0:0:0:0:
0,236,16173,2,0,P|19:231|43:226,1,37.5,2|0,0:0|0:0,0:0:0:0:
91,277,16301,1,0,0:0:0:0:
152,233,16429,2,0,P|140:197|127:162,1,75,10|0,0:0|0:0,0:0:0:0:
241,44,16685,2,0,P|227:79|216:114,1,75,2|0,0:0|0:0,0:0:0:0:
17,142,16942,5,8,0:3:0:0:
19,133,17006,1,8,0:3:0:0:
21,124,17070,1,8,0:3:0:0:
152,233,17198,5,8,0:3:0:0:
104,77,17326,1,8,0:3:0:0:
155,242,17455,2,0,P|120:228|85:217,1,75,8|0,0:3|0:0,0:0:0:0:
8,376,17711,5,8,0:3:0:0:
6,367,17775,1,8,0:3:0:0:
4,358,17839,1,8,0:3:0:0:
155,242,17967,5,8,0:3:0:0:
87,276,18096,1,8,0:3:0:0:
88,350,18224,2,0,P|123:364|158:375,1,75,8|0,0:3|0:0,0:0:0:0:
295,275,18480,2,0,P|260:288|224:300,1,75,8|0,0:0|0:0,0:0:0:0:
418,384,18737,1,2,0:0:0:0:
381,318,18865,1,2,0:0:0:0:
407,245,18993,6,0,P|402:304|392:375,1,120,6|2,1:2|0:0,0:0:0:0:
495,199,19378,1,2,0:0:0:0:
495,199,19506,2,0,P|497:228|501:258,1,60,8|0,0:0|0:0,0:0:0:0:
421,90,19762,2,0,P|418:119|414:149,1,60,2|0,0:0|0:0,0:0:0:0:
252,32,20019,6,0,P|296:-5|360:2,1,120,2|2,1:2|0:0,0:0:0:0:
318,138,20403,1,2,0:0:0:0:
318,138,20532,2,0,P|321:109|325:79,1,60,8|0,0:0|0:0,0:0:0:0:
242,240,20788,2,0,P|239:211|235:181,1,60,2|0,0:0|0:0,0:0:0:0:
104,9,21044,6,0,B|34:28|70:54|3:72,1,120,2|2,1:2|0:0,0:0:0:0:
128,94,21429,1,2,0:0:0:0:
128,94,21557,2,0,P|157:97|187:101,1,60,8|0,0:0|0:0,0:0:0:0:
12,179,21814,2,0,P|42:175|72:172,1,60,2|0,0:0|0:0,0:0:0:0:
94,367,22070,6,0,P|56:322|64:259,1,120,2|2,1:2|0:0,0:0:0:0:
206,304,22455,1,2,0:0:0:0:
206,304,22583,2,0,P|177:301|147:297,1,60,8|0,0:0|0:0,0:0:0:0:
279,206,22839,2,0,P|250:209|220:213,1,60,2|0,0:0|0:0,0:0:0:0:
323,384,23096,6,0,P|329:339|334:294,1,90.0000034332277,2|0,1:2|0:0,0:0:0:0:
337,279,23480,1,2,0:1:0:0:
453,295,23608,6,0,P|421:253|387:212,1,105.000001001358,10|0,0:0|0:0,0:0:0:0:
377,200,23993,1,0,0:0:0:0:
479,132,24121,6,0,P|418:123|356:117,1,120,2|0,1:2|0:0,0:0:0:0:
343,116,24506,1,0,0:0:0:0:
359,0,24634,6,0,P|304:41|251:84,1,135.000005149842,10|0,0:0|0:0,0:0:0:0:
243,94,25019,1,0,0:0:0:0:
154,67,25147,6,0,P|158:106|163:148,1,75,2|0,1:2|0:0,0:0:0:0:
83,191,25403,2,0,P|78:228|75:265,1,75,2|2,0:0|0:1,0:0:0:0:
25,53,25660,6,0,P|21:92|16:134,1,75,10|0,0:0|0:0,0:0:0:0:
245,192,25916,2,0,P|249:229|252:266,1,75,2|0,0:0|0:0,0:0:0:0:
33,349,26173,6,0,B|127:339|76:293|160:279,1,150,2|8,1:2|0:3,0:0:0:0:
323,337,26557,1,8,0:3:0:0:
168,282,26685,2,0,P|164:319|160:356,1,75,8|0,0:0|0:0,0:0:0:0:
364,115,26942,1,2,0:0:0:0:
293,95,27070,1,2,0:0:0:0:
239,147,27198,6,0,P|247:206|252:266,1,120,6|2,1:2|0:0,0:0:0:0:
154,104,27583,1,2,0:0:0:0:
154,104,27711,2,0,P|149:133|147:163,1,60,8|0,0:0|0:0,0:0:0:0:
2,63,27967,1,2,0:0:0:0:
54,12,28096,1,2,0:0:0:0:
123,33,28224,6,0,P|167:70|231:63,1,120,2|2,1:2|0:0,0:0:0:0:
356,15,28608,1,2,0:0:0:0:
356,15,28737,2,0,P|326:10|296:8,1,60,8|0,0:0|0:0,0:0:0:0:
417,124,28993,1,2,0:0:0:0:
481,91,29121,1,2,0:0:0:0:
450,25,29249,6,0,P|441:84|436:144,1,120,2|2,1:2|0:0,0:0:0:0:
512,278,29634,1,2,0:0:0:0:
512,278,29762,2,0,P|507:248|505:218,1,60,8|0,0:0|0:0,0:0:0:0:
428,362,30019,1,2,0:0:0:0:
368,322,30147,1,2,0:0:0:0:
304,355,30275,6,0,B|234:336|270:310|203:292,1,120,2|2,1:2|0:0,0:0:0:0:
99,379,30660,1,2,0:0:0:0:
99,379,30788,2,0,P|128:374|158:372,1,60,8|0,0:0|0:0,0:0:0:0:
0,285,31044,2,0,P|29:289|59:291,1,60,2|0,0:0|0:0,0:0:0:0:
174,144,31301,6,0,P|142:174|134:218,1,90.0000034332277,2|0,1:2|0:0,0:0:0:0:
137,235,31685,1,2,0:1:0:0:
205,61,31814,6,0,P|146:56|94:91,1,120,10|0,0:0|0:0,0:0:0:0:
85,100,32198,1,0,0:0:0:0:
225,217,32326,6,0,P|262:212|299:208,1,75,2|0,1:2|0:0,0:0:0:0:
361,277,32583,2,0,P|398:281|435:285,1,75,2|0,0:0|0:0,0:0:0:0:
228,340,32839,6,0,P|265:344|302:348,1,75,10|0,0:0|0:0,0:0:0:0:
354,135,33096,2,0,P|391:130|428:126,1,75,2|0,0:0|0:0,0:0:0:0:
295,16,33352,5,2,1:2:0:0:
286,75,33480,1,2,0:0:0:0:
225,160,33608,5,2,0:0:0:0:
217,112,33737,1,2,0:0:0:0:
164,29,33865,5,10,0:0:0:0:
157,67,33993,1,2,0:0:0:0:
103,145,34121,5,2,0:0:0:0:
97,114,34249,1,2,0:0:0:0:
33,39,34378,6,0,P|22:113|14:187,1,150,2|8,1:2|0:3,0:0:0:0:
81,331,34762,1,0,0:0:0:0:
5,193,34890,2,0,P|9:230|12:267,1,75,8|0,0:0|0:0,0:0:0:0:
174,339,35147,1,0,1:0:0:0:
229,289,35275,1,0,1:0:0:0:
290,335,35403,6,0,B|399:305|328:262|438:237,1,180.000006866455,4|2,1:2|0:0,0:0:0:0:
500,333,35788,1,2,0:1:0:0:
500,333,35916,2,0,P|470:328|440:326,1,60,10|0,0:0|0:0,0:0:0:0:
374,231,36173,2,0,P|403:233|433:237,1,60,2|0,0:0|0:0,0:0:0:0:
512,118,36429,6,0,P|507:147|505:177,1,60,2|0,1:2|0:0,0:0:0:0:
409,71,36685,2,0,P|413:100|415:130,1,60,2|0,0:0|0:0,0:0:0:0:
220,68,36942,6,0,P|224:97|226:127,1,60,10|0,0:0|0:0,0:0:0:0:
323,21,37198,2,0,P|318:50|316:80,1,60,2|0,0:0|0:0,0:0:0:0:
83,22,37455,6,0,P|112:19|142:15,1,60,2|0,1:2|0:0,0:0:0:0:
60,219,37711,1,2,0:0:0:0:
5,172,37839,1,2,0:1:0:0:
43,111,37967,2,0,P|72:113|102:117,1,60,10|0,0:0|0:0,0:0:0:0:
211,192,38224,2,0,P|181:194|151:198,1,60,2|0,0:0|0:0,0:0:0:0:
118,349,38480,6,0,P|122:319|124:289,1,60,2|0,1:2|0:0,0:0:0:0:
220,384,38737,2,0,P|215:354|213:324,1,60,2|0,0:0|0:0,0:0:0:0:
408,304,38993,6,0,P|403:274|401:244,1,60,10|0,0:0|0:0,0:0:0:0:
306,339,39249,2,0,P|310:309|312:279,1,60,2|0,0:0|0:0,0:0:0:0:
512,175,39506,6,0,P|482:171|452:167,1,60,2|0,1:2|0:0,0:0:0:0:
284,105,39762,1,2,0:0:0:0:
335,55,39890,1,2,0:1:0:0:
403,79,40019,2,0,P|432:75|462:71,1,60,8|0,0:0|0:0,0:0:0:0:
370,203,40275,2,0,P|340:199|310:195,1,60,2|0,0:0|0:0,0:0:0:0:
215,2,40532,6,0,B|194:67|194:67|189:72|189:72|170:130,1,135.000005149841,10|0,0:3|0:0,0:0:0:0:
97,139,40788,6,0,B|78:195|78:195|73:200|73:200|52:265,1,135.000005149841,10|0,0:3|0:0,0:0:0:0:
103,322,41044,6,0,B|173:341|137:367|204:385,1,120,8|2,0:0|0:0,0:0:0:0:
295,290,41429,1,0,0:0:0:0:
295,290,41557,6,0,P|265:293|235:297,1,60,2|0,1:2|0:0,0:0:0:0:
397,352,41814,1,2,0:0:0:0:
444,298,41942,1,2,0:1:0:0:
421,229,42070,2,0,P|391:225|361:221,1,60,8|0,0:0|0:0,0:0:0:0:
240,153,42326,2,0,P|269:149|299:145,1,60,2|0,0:0|0:0,0:0:0:0:
478,22,42583,6,0,B|513:-8|513:-8|489:77,1,135.000005149841,10|0,0:3|0:0,0:0:0:0:
420,105,42839,6,0,B|385:135|385:135|408:49,1,135.000005149841,10|0,0:3|0:0,0:0:0:0:
481,157,43096,6,0,P|477:186|474:216,1,60,8|0,0:0|0:0,0:0:0:0:
349,268,43352,6,0,P|412:265|429:325,1,135.000005149841
369,369,43608,6,0,P|309:360|249:355,1,120,4|2,1:2|0:0,0:0:0:0:
148,284,43993,1,2,0:1:0:0:
148,284,44121,2,0,P|151:313|154:343,1,60,10|0,0:0|0:0,0:0:0:0:
241,207,44378,2,0,P|238:236|234:266,1,60,2|0,0:0|0:0,0:0:0:0:
19,259,44634,6,0,B|89:240|53:214|120:196,1,120,2|0,1:2|0:0,0:0:0:0:
216,119,45019,1,0,0:0:0:0:
216,119,45147,2,0,P|186:116|156:112,1,60,10|0,0:0|0:0,0:0:0:0:
311,33,45403,2,0,P|281:35|251:39,1,60,2|0,0:0|0:0,0:0:0:0:
247,268,45660,6,0,P|249:238|253:208,1,60,2|0,1:2|0:0,0:0:0:0:
452,144,45916,1,2,0:0:0:0:
403,91,46044,1,2,0:1:0:0:
336,118,46173,2,0,P|338:147|342:177,1,60,10|0,0:0|0:0,0:0:0:0:
410,292,46429,2,0,P|413:262|416:232,1,60,2|0,0:0|0:0,0:0:0:0:
283,355,46685,6,0,P|312:357|342:361,1,60,2|0,1:2|0:0,0:0:0:0:
198,154,46942,1,2,0:0:0:0:
154,210,47070,1,0,0:0:0:0:
187,274,47198,2,0,P|216:271|246:267,1,60,10|0,0:0|0:0,0:0:0:0:
134,350,47455,2,0,P|104:347|74:343,1,60,2|0,0:0|0:0,0:0:0:0:
3,155,47711,6,0,P|40:150|77:146,1,75,2|0,1:2|0:0,0:0:0:0:
244,77,47967,2,0,P|207:72|170:68,1,75,2|2,1:2|0:1,0:0:0:0:
121,233,48224,6,0,B|84:94|165:139|129:0,1,240,12|2,0:0|0:0,0:0:0:0:
509,229,48737,6,0,P|472:234|435:238,1,75,2|0,1:2|0:0,0:0:0:0:
268,307,48993,2,0,P|305:312|342:316,1,75,2|0,1:2|0:0,0:0:0:0:
391,151,49249,6,0,B|427:289|347:245|382:384,1,240,12|2,0:0|0:0,0:0:0:0:
200,381,49634,1,0,0:0:0:0:
200,381,49762,6,0,P|165:333|174:275,1,120,6|0,1:2|0:0,0:0:0:0:
183,257,50147,1,2,0:1:0:0:
86,272,50275,6,0,P|106:199|162:167,1,135.000005149842,14|0,0:0|0:0,0:0:0:0:
170,166,50660,1,0,0:0:0:0:
222,29,50788,6,0,P|147:40|73:48,1,150,6|0,1:2|0:0,0:0:0:0:
56,50,51173,1,0,0:0:0:0:
291,130,51301,6,0,P|372:142|454:151,1,165.000001573563,14|0,0:0|0:0,0:0:0:0:
471,153,51685,1,0,0:0:0:0:
294,242,51814,5,4,1:2:0:0:
268,254,51942,1,0,0:0:0:0:
241,254,52070,1,0,0:0:0:0:
216,242,52198,1,2,0:1:0:0:
203,122,52326,5,8,0:0:0:0:
237,107,52455,1,0,0:0:0:0:
273,107,52583,1,0,0:0:0:0:
307,122,52711,1,0,0:0:0:0:
325,284,52839,5,0,1:2:0:0:
280,304,52967,1,0,0:0:0:0:
231,304,53096,1,0,0:0:0:0:
186,284,53224,1,0,0:0:0:0:
163,69,53352,5,8,0:0:0:0:
223,42,53480,1,0,0:0:0:0:
287,42,53608,1,0,0:0:0:0:
346,69,53737,1,0,0:0:0:0:
38,192,53865,6,0,P|83:190|128:192,1,90.0000034332277,4|0,1:2|0:0,0:0:0:0:
473,189,54121,2,0,P|428:191|384:191,1,90.0000034332277,4|0,1:2|0:0,0:0:0:0:
86,286,54378,6,0,P|131:288|176:288,1,90.0000034332277,4|0,1:2|0:0,0:0:0:0:
425,289,54634,2,0,P|380:287|336:288,1,90.0000034332277,4|0,1:2|0:0,0:0:0:0:
256,0,54890,6,0,L|256:90,1,90.0000034332277,4|0,1:2|0:0,0:0:0:0:
256,384,55147,5,0,1:2:0:0:
224,320,55232,5,0,1:2:0:0:
288,288,55318,5,0,1:2:0:0:
256,224,55403,6,0,L|256:194,1,30,0|0,1:2|0:0,0:0:0:0:
0,384,55916,6,0,P|42:370|87:363,1,90.0000034332277,6|0,1:2|0:0,0:0:0:0:
256,224,56173,1,2,0:0:0:0:
193,172,56301,1,2,0:1:0:0:
118,203,56429,2,0,P|131:245|138:290,1,90.0000034332277,10|0,0:0|0:0,0:0:0:0:
329,183,56685,2,0,P|336:138|349:95,1,90.0000034332277,2|0,0:0|0:0,0:0:0:0:
14,6,56942,6,0,B|127:18|65:73|167:90,1,180.000006866455,2|0,1:2|0:0,0:0:0:0:
118,203,57326,1,0,0:0:0:0:
39,181,57455,2,0,P|31:136|18:93,1,90.0000034332277,10|0,0:0|0:0,0:0:0:0:
198,231,57711,2,0,P|184:273|177:318,1,90.0000034332277,2|0,0:0|0:0,0:0:0:0:
416,203,57967,6,0,P|373:189|328:182,1,90.0000034332277,2|0,1:2|0:0,0:0:0:0:
177,318,58224,1,2,0:0:0:0:
235,374,58352,1,2,0:1:0:0:
314,359,58480,2,0,P|306:314|293:271,1,90.0000034332277,10|0,0:0|0:0,0:0:0:0:
416,203,58737,2,0,P|423:158|436:115,1,90.0000034332277,2|0,0:0|0:0,0:0:0:0:
210,34,58993,6,0,B|307:2|307:2|345:21|356:70,1,180.000006866455,2|0,1:2|0:0,0:0:0:0:
205,150,59378,1,0,0:0:0:0:
138,103,59506,2,0,P|130:58|117:15,1,90.0000034332277,8|0,0:0|0:0,0:0:0:0:
298,125,59762,2,0,P|284:167|277:212,1,90.0000034332277,2|0,0:0|0:0,0:0:0:0:
78,343,60019,6,0,P|105:261|189:243,1,180.000006866455,2|0,1:2|0:0,0:0:0:0:
312,292,60403,1,2,0:1:0:0:
251,346,60532,2,0,P|208:332|163:325,1,90.0000034332277,10|0,0:0|0:0,0:0:0:0:
375,231,60788,2,0,P|417:217|462:210,1,90.0000034332277,2|0,0:0|0:0,0:0:0:0:
265,48,61044,6,0,B|135:27|135:27|157:40|171:61,1,180.000006866455,2|0,1:2|0:0,0:0:0:0:
197,220,61429,1,0,0:0:0:0:
110,195,61557,2,0,P|96:153|89:108,1,90.0000034332277,10|0,0:0|0:0,0:0:0:0:
6,338,61814,2,0,P|20:295|27:250,1,90.0000034332277,2|0,0:0|0:0,0:0:0:0:
310,162,62070,5,2,1:2:0:0:
213,139,62198,1,2,0:0:0:0:
390,163,62326,5,2,0:0:0:0:
312,181,62455,1,2,0:0:0:0:
455,194,62583,5,10,0:0:0:0:
392,179,62711,1,2,0:0:0:0:
509,201,62839,5,2,0:0:0:0:
458,213,62967,1,2,0:0:0:0:
365,270,63096,5,2,1:2:0:0:
397,277,63224,1,2,0:0:0:0:
477,339,63352,5,10,0:3:0:0:
452,345,63480,1,2,0:0:0:0:
365,270,63608,5,10,0:3:0:0:
285,253,63737,1,8,0:3:0:0:
205,239,63865,2,0,P|191:281|184:326,1,90.0000034332277,8|0,0:0|0:0,0:0:0:0:
0,150,64121,6,0,P|44:143|87:128,1,90.0000034332277,6|0,1:2|0:0,0:0:0:0:
290,35,64378,1,2,0:0:0:0:
216,0,64506,1,2,0:1:0:0:
162,61,64634,2,0,P|176:103|183:148,1,90.0000034332277,10|0,0:0|0:0,0:0:0:0:
385,10,64890,2,0,P|370:52|363:97,1,90.0000034332277,2|0,0:0|0:0,0:0:0:0:
502,277,65147,6,0,B|389:265|451:210|349:193,1,180.000006866455,2|0,1:2|0:0,0:0:0:0:
183,148,65532,1,0,0:0:0:0:
130,209,65660,2,0,P|144:251|151:296,1,90.0000034332277,10|0,0:0|0:0,0:0:0:0:
266,170,65916,2,0,P|272:125|287:82,1,90.0000034332277,2|0,0:0|0:0,0:0:0:0:
8,152,66173,6,0,P|50:137|95:130,1,90.0000034332277,2|0,1:2|0:0,0:0:0:0:
293,256,66429,1,2,0:0:0:0:
231,308,66557,1,2,0:1:0:0:
151,296,66685,2,0,P|144:251|129:208,1,90.0000034332277,10|0,0:0|0:0,0:0:0:0:
288,83,66942,2,0,P|273:125|266:170,1,90.0000034332277,2|0,0:0|0:0,0:0:0:0:
511,129,67198,6,0,B|414:97|414:97|376:116|365:165,1,180.000006866455,2|0,1:2|0:0,0:0:0:0:
395,321,67583,1,0,0:0:0:0:
467,285,67711,2,0,P|460:240|445:197,1,90.0000034332277,8|0,0:0|0:0,0:0:0:0:
325,264,67967,2,0,P|310:306|303:351,1,90.0000034332277,2|0,0:0|0:0,0:0:0:0:
136,372,68224,6,0,P|51:353|25:271,1,180.000006866455,2|0,1:2|0:0,0:0:0:0:
245,238,68608,1,2,0:1:0:0:
200,306,68737,2,0,P|157:291|112:284,1,90.0000034332277,10|0,0:0|0:0,0:0:0:0:
291,168,68993,2,0,P|333:153|378:146,1,90.0000034332277,2|0,0:0|0:0,0:0:0:0:
159,74,69249,6,0,B|28:95|28:95|50:82|64:62,1,180.000006866455,2|0,1:2|0:0,0:0:0:0:
245,238,69634,1,0,0:0:0:0:
291,168,69762,2,0,P|297:123|312:80,1,90.0000034332277,8|0,0:0|0:0,0:0:0:0:
165,310,70019,2,0,P|158:265|143:222,1,90.0000034332277,2|0,0:0|0:0,0:0:0:0:
343,364,70275,5,8,0:3:0:0:
345,355,70339,1,8,0:3:0:0:
347,346,70403,1,8,0:3:0:0:
441,214,70532,5,8,0:3:0:0:
512,354,70660,1,8,0:3:0:0:
437,205,70788,2,0,P|422:247|415:292,1,90.0000034332277,8|0,0:3|0:0,0:0:0:0:
255,331,71044,5,8,0:3:0:0:
253,322,71108,1,8,0:3:0:0:
251,313,71173,1,8,0:3:0:0:
56,264,71301,5,8,0:3:0:0:
119,313,71429,1,8,0:3:0:0:
183,263,71557,2,0,P|176:218|161:175,1,90.0000034332277,8|0,0:3|0:0,0:0:0:0:
351,109,71814,1,8,0:0:0:0:
288,158,71942,1,0,0:0:0:0:
224,108,72070,2,0,P|230:63|245:20,1,90.0000034332277,2|0,0:0|0:0,0:0:0:0:
0,182,72326,6,0,P|33:281|56:386,1,210.000002002716,6|2,1:2|0:1,0:0:0:0:
241,238,72711,1,2,0:1:0:0:
162,256,72839,2,0,P|147:298|140:343,1,90.0000034332277,8|0,0:0|0:0,0:0:0:0:
322,217,73096,2,0,P|315:172|300:129,1,90.0000034332277,2|0,0:0|0:0,0:0:0:0:
20,28,73352,6,0,B|147:46|70:113|196:124,1,210.000002002716,2|0,1:2|0:0,0:0:0:0:
348,58,73737,1,0,0:0:0:0:
278,12,73865,2,0,P|235:26|190:33,1,90.0000034332277,8|0,0:0|0:0,0:0:0:0:
418,112,74121,2,0,P|462:118|505:133,1,90.0000034332277,2|0,0:0|0:0,0:0:0:0:
279,217,74378,6,0,P|293:174|300:129,1,90.0000034332277,2|0,1:2|0:0,0:0:0:0:
424,326,74634,1,2,0:0:0:0:
352,289,74762,1,2,0:1:0:0:
281,328,74890,2,0,P|238:342|193:349,1,90.0000034332277,10|0,0:0|0:0,0:0:0:0:
389,201,75147,2,0,P|431:215|476:222,1,90.0000034332277,2|0,0:0|0:0,0:0:0:0:
262,55,75403,2,0,P|219:69|174:76,1,90.0000034332277,2|0,1:2|0:0,0:0:0:0:
15,222,75660,5,8,1:2:0:0:
242,156,75788,1,0,0:0:0:0:
4,226,75916,2,0,B|48:241|48:241|51:244|51:244|90:257,1,90.0000034332277,8|0,1:2|0:0,0:0:0:0:
242,156,76173,2,0,P|197:162|154:177,1,90.0000034332277,2|0,0:0|0:0,0:0:0:0:
420,357,76429,6,0,B|455:248|455:248|434:206|379:193,1,210.000002002716,6|2,1:2|0:1,0:0:0:0:
207,247,76814,1,2,0:1:0:0:
265,304,76942,2,0,P|307:289|352:282,1,90.0000034332277,8|0,0:0|0:0,0:0:0:0:
154,177,77198,2,0,P|111:162|66:155,1,90.0000034332277,2|0,0:0|0:0,0:0:0:0:
310,38,77455,6,0,B|467:12|467:12|441:28|425:52,1,210.000002002716,2|0,1:2|0:0,0:0:0:0:
262,148,77839,1,0,0:0:0:0:
202,93,77967,2,0,P|216:50|223:5,1,90.0000034332277,8|0,0:0|0:0,0:0:0:0:
348,124,78224,2,0,P|354:168|369:211,1,90.0000034332277,2|0,0:0|0:0,0:0:0:0:
506,369,78480,6,0,P|463:354|418:347,1,90.0000034332277,2|0,1:2|0:0,0:0:0:0:
235,345,78737,1,2,0:0:0:0:
300,297,78865,1,2,0:0:0:0:
224,353,78993,2,0,P|181:367|136:374,1,90.0000034332277,10|0,0:0|0:0,0:0:0:0:
0,214,79249,2,0,P|42:228|87:235,1,90.0000034332277,2|0,0:0|0:0,0:0:0:0:
224,75,79506,2,0,P|181:89|136:96,1,90.0000034332277,2|0,1:2|0:0,0:0:0:0:
286,213,79762,5,8,1:2:0:0:
387,13,79890,1,0,0:0:0:0:
283,223,80019,2,0,B|327:208|327:208|330:205|330:205|369:192,1,90.0000034332277,8|0,1:2|0:0,0:0:0:0:
496,126,80275,2,0,P|451:119|408:104,1,90.0000034332277,2|0,0:0|0:0,0:0:0:0:
132,17,80532,6,0,P|165:116|188:221,1,210.000002002716,4|2,1:2|0:1,0:0:0:0:
124,370,80916,1,2,0:1:0:0:
72,307,81044,2,0,P|79:262|94:219,1,90.0000034332277,8|0,0:0|0:0,0:0:0:0:
261,136,81301,2,0,P|275:178|282:222,1,90.0000034332277,2|0,0:0|0:0,0:0:0:0:
509,180,81557,6,0,B|382:162|459:95|333:84,1,210.000002002716,2|0,1:2|0:0,0:0:0:0:
141,111,81942,1,0,0:0:0:0:
176,38,82070,2,0,P|218:23|262:16,1,90.0000034332277,8|0,0:0|0:0,0:0:0:0:
103,190,82326,2,0,P|60:175|16:168,1,90.0000034332277,2|0,0:0|0:0,0:0:0:0:
199,376,82583,6,0,P|205:331|219:288,1,90.0000034332277,2|0,1:2|0:0,0:0:0:0:
432,249,82839,1,2,0:0:0:0:
452,327,82967,1,2,0:1:0:0:
383,371,83096,2,0,P|340:356|296:349,1,90.0000034332277,10|0,0:0|0:0,0:0:0:0:
405,165,83352,2,0,P|447:150|491:143,1,90.0000034332277,2|0,0:0|0:0,0:0:0:0:
224,2,83608,6,0,P|237:44|244:89,1,90.0000034332277,2|0,1:2|0:0,0:0:0:0:
100,220,83865,1,2,0:0:0:0:
33,173,83993,1,0,0:0:0:0:
59,96,84121,2,0,P|101:82|146:75,1,90.0000034332277,10|0,0:0|0:0,0:0:0:0:
122,319,84378,2,0,P|79:305|34:298,1,90.0000034332277,2|0,0:0|0:0,0:0:0:0:
441,98,84634,6,0,P|432:142|426:186,1,90.0000034332277,2|0,1:2|0:0,0:0:0:0:
352,384,84890,2,0,P|345:339|337:295,1,90.0000034332277,2|2,1:2|0:1,0:0:0:0:
509,215,85147,6,0,B|342:181|416:291|255:263,1,270.000010299683,12|0,1:2|0:0,0:0:0:0:
71,98,85660,6,0,P|79:142|85:186,1,90.0000034332277,2|0,1:2|0:0,0:0:0:0:
160,384,85916,2,0,P|166:339|174:295,1,90.0000034332277,2|0,1:2|0:0,0:0:0:0:
3,215,86173,6,0,B|169:181|95:291|256:263,1,270.000010299683,12|2,1:2|0:0,0:0:0:0:
299,28,86685,6,0,P|198:41|214:141,1,225,6|0,1:2|0:0,0:0:0:0:
292,158,86942,2,0,P|313:151|335:145,1,45,2|0,0:0|0:0,0:0:0:0:
213,356,87198,6,0,P|313:342|297:242,1,225,6|0,1:2|0:0,0:0:0:0:
219,225,87455,2,0,P|198:232|176:238,1,45,2|0,0:0|0:0,0:0:0:0:
431,160,87711,5,6,1:2:0:0:
