osu file format v14

[General]
AudioFilename: platinum disco 192.mp3
AudioLeadIn: 0
PreviewTime: 55275
Countdown: 0
SampleSet: Soft
StackLeniency: 0.4
Mode: 0
LetterboxInBreaks: 0
WidescreenStoryboard: 1

[Editor]
Bookmarks: 532,2583,18993,35403,55916,72326,87711
DistanceSpacing: 1.1
BeatDivisor: 4
GridSize: 16
TimelineZoom: 1.7

[Metadata]
Title:Platinum Disco (TV Size)
TitleUnicode:白金ディスコ (TV Size)
Artist:Araragi Tsukihi (CV: Iguchi Yuka)
ArtistUnicode:阿良々木月火 (CV: 井口裕香)
Creator:Basensorex
Version:Oriental's Hard
Source:偽物語
Tags:nisemonogatari monogatari series opening op japanese jap jp j-pop jpop pop karen oriental armin a_r_m_i_n
BeatmapID:3271591
BeatmapSetID:1551428

[Difficulty]
HPDrainRate:5
CircleSize:3
OverallDifficulty:7
ApproachRate:8
SliderMultiplier:2.5
SliderTickRate:1

[Events]
//Background and Video events
0,0,"hot.jpg",0,0
//Break Periods
//Storyboard Layer 0 (Background)
//Storyboard Layer 1 (Fail)
//Storyboard Layer 2 (Pass)
//Storyboard Layer 3 (Foreground)
//Storyboard Layer 4 (Overlay)
//Storyboard Sound Samples

[TimingPoints]
532,512.820512820513,4,2,1,70,1,0
10019,-100,4,2,2,70,0,0
10275,-100,4,2,1,70,0,0
16942,-100,4,2,2,70,0,0
17711,-100,4,2,1,70,0,0
18993,-125,4,2,1,60,0,0
35403,-125,4,2,1,65,0,0
40532,-125,4,2,2,65,0,0
41044,-125,4,2,1,65,0,0
47711,-125,4,2,1,70,0,0
55147,-125,4,2,1,30,0,0
55403,-125,4,2,1,70,0,0
55916,-100,4,2,1,80,0,1
60403,-100,4,2,1,5,0,1
60532,-100,4,2,1,80,0,1
61429,-100,4,2,1,5,0,1
61558,-100,4,2,1,80,0,1
68608,-100,4,2,1,5,0,1
68737,-100,4,2,1,80,0,1
70275,-100,4,2,2,80,0,1
71044,-100,4,2,1,80,0,1
87711,-100,4,2,1,80,0,0

[Colours]
Combo1 : 255,201,36
Combo2 : 4,198,159
Combo3 : 96,96,96
Combo4 : 244,72,98

[HitObjects]
17,70,532,6,0,P|82:64|150:51,1,125,4|0,1:2|1:2,0:0:0:0:
218,23,916,1,0,1:2:0:0:
226,29,1044,2,0,P|270:91|241:164,1,125,4|0,1:2|1:2,0:0:0:0:
197,183,1429,1,0,1:2:0:0:
187,181,1557,1,4,1:2:0:0:
39,156,1814,2,0,P|45:186|51:217,1,62.5,0|0,1:2|1:2,0:0:0:0:
110,280,2070,2,0,P|102:310|97:341,1,62.5,4|0,1:2|0:0,0:0:0:0:
196,266,2326,1,0,1:2:0:0:
360,327,2583,6,0,P|368:297|377:267,1,62.5,6|0,1:2|0:0,0:0:0:0:
354,182,2839,2,0,P|362:152|371:122,1,62.5,2|2,0:0|0:1,0:0:0:0:
461,213,3096,2,0,P|367:223|274:235,1,187.5,10|0,0:0|0:0,0:0:0:0:
208,178,3608,2,0,B|156:186|143:238|143:238|116:195|64:199,1,187.5,2|0,1:2|0:0,0:0:0:0:
4,262,4121,1,8,0:0:0:0:
154,352,4378,2,0,P|184:343|215:339,1,62.5,2|0,0:0|0:0,0:0:0:0:
301,352,4634,6,0,P|340:296|323:253,1,62.5,2|0,1:2|0:0,0:0:0:0:
422,330,4890,2,0,P|429:300|419:270,1,62.5,2|2,0:0|0:1,0:0:0:0:
302,201,5147,2,0,P|296:167|290:138,1,62.5,10|0,0:0|0:0,0:0:0:0:
375,121,5403,2,0,P|381:155|387:184,1,62.5,2|0,0:0|0:0,0:0:0:0:
335,295,5660,2,0,P|273:286|211:278,1,125,2|8,1:2|0:3,0:0:0:0:
49,211,6173,2,0,P|28:124|94:65,1,187.5,8|0,0:3|0:0,0:0:0:0:
179,84,6685,6,0,P|210:79|241:76,1,62.5,2|0,1:2|0:0,0:0:0:0:
324,103,6942,2,0,P|355:98|386:95,1,62.5,2|2,0:0|0:1,0:0:0:0:
453,40,7198,2,0,P|442:101|431:163,1,125,10|2,0:0|0:0,0:0:0:0:
328,305,7711,2,0,P|297:300|266:297,1,62.5,2|0,1:2|0:0,0:0:0:0:
183,324,7967,2,0,P|152:319|121:316,1,62.5,2|0,0:0|0:0,0:0:0:0:
51,369,8224,2,0,P|62:307|73:246,1,125,10|2,0:0|0:0,0:0:0:0:
93,73,8737,6,0,P|110:146|181:156,1,125,2|0,1:2|0:0,0:0:0:0:
220,109,9121,1,2,0:1:0:0:
230,108,9249,2,0,P|294:105|364:95,1,125,8|0,0:0|0:0,0:0:0:0:
424,149,9634,1,0,0:0:0:0:
430,156,9762,1,0,1:2:0:0:
326,297,10019,2,0,B|294:295|274:325|274:325|269:295|231:279,2,125,8|8|8,0:3|0:3|0:3,0:0:0:0:
218,158,10788,6,0,P|190:172|156:176,1,62.5,6|0,1:2|0:0,0:0:0:0:
99,239,11044,2,0,P|68:235|40:221,1,62.5,2|2,0:0|0:1,0:0:0:0:
1,140,11301,2,0,B|22:15|22:15|22:46|47:68,1,187.5,10|0,0:0|0:0,0:0:0:0:
134,84,11814,2,0,P|227:70|321:58,1,187.5,2|0,1:2|0:0,0:0:0:0:
387,3,12326,1,8,0:0:0:0:
505,132,12583,2,0,P|494:161|489:192,1,62.5,2|0,0:0|0:0,0:0:0:0:
428,255,12839,6,0,P|400:269|369:268,1,62.5,2|0,1:2|0:0,0:0:0:0:
293,223,13096,2,0,P|299:190|303:161,1,62.5,2|2,0:0|0:1,0:0:0:0:
232,287,13352,2,0,P|204:301|173:300,1,62.5,10|0,0:0|0:0,0:0:0:0:
109,240,13608,2,0,P|114:209|119:178,1,62.5,2|0,0:0|0:0,0:0:0:0:
40,139,13865,2,0,P|31:201|21:263,1,125,2|8,1:2|0:3,0:0:0:0:
150,381,14378,2,0,P|238:349|331:338,1,187.5,8|0,0:3|0:0,0:0:0:0:
407,297,14890,6,0,P|431:276|439:247,1,62.5,2|0,1:2|0:0,0:0:0:0:
377,183,15147,2,0,P|346:188|314:191,1,62.5,2|2,0:0|0:1,0:0:0:0:
244,141,15403,2,0,P|255:80|262:18,1,125,10|2,0:0|0:0,0:0:0:0:
87,39,15916,2,0,P|50:45|-3:52,1,62.5,2|0,1:2|0:0,0:0:0:0:
40,135,16173,2,0,P|77:129|130:122,1,62.5,2|0,0:0|0:0,0:0:0:0:
163,187,16429,2,0,P|151:248|145:310,1,125,10|2,0:0|0:0,0:0:0:0:
312,363,16942,6,0,P|394:317|398:269,1,125,8|8,0:3|0:3,0:0:0:0:
363,214,17326,1,8,0:3:0:0:
352,209,17455,2,0,P|324:223|293:222,1,62.5,8|0,0:3|0:0,0:0:0:0:
405,138,17711,2,0,P|432:124|463:125,1,62.5,8|8,0:3|0:3,0:0:0:0:
334,92,17967,2,0,P|272:105|210:109,1,125,8|8,0:3|0:3,0:0:0:0:
50,41,18480,1,8,0:0:0:0:
3,210,18737,2,0,P|37:198|66:196,1,62.5,2|2,0:0|0:0,0:0:0:0:
142,227,18993,6,0,P|130:275|122:324,1,100,6|2,1:2|0:0,0:0:0:0:
189,377,19378,1,2,0:0:0:0:
198,373,19506,1,8,0:0:0:0:
319,254,19762,1,2,0:0:0:0:
224,113,20019,2,0,P|133:124|102:124,1,100,2|2,1:2|0:0,0:0:0:0:
60,68,20403,1,2,0:0:0:0:
56,62,20532,1,8,0:0:0:0:
219,17,20788,1,2,0:0:0:0:
365,109,21044,6,0,P|355:160|351:209,1,100,2|2,1:2|0:0,0:0:0:0:
407,272,21429,1,2,0:0:0:0:
401,279,21557,1,8,0:0:0:0:
261,184,21814,1,2,0:0:0:0:
329,28,22070,2,0,P|377:20|421:42,1,100,2|2,1:2|0:0,0:0:0:0:
467,114,22455,1,2,0:0:0:0:
464,124,22583,1,8,0:0:0:0:
401,279,22839,1,2,0:0:0:0:
239,222,23096,6,0,P|191:229|141:237,1,100,2|0,1:2|0:0,0:0:0:0:
68,193,23480,1,2,0:1:0:0:
61,186,23608,2,0,P|41:141|56:94,1,100,10|0,0:0|0:0,0:0:0:0:
211,25,24121,2,0,P|260:33|309:40,1,100,2|0,1:2|0:0,0:0:0:0:
377,93,24506,1,0,0:0:0:0:
381,101,24634,2,0,P|390:148|357:183,1,100,10|0,0:0|0:0,0:0:0:0:
229,295,25147,6,0,P|233:313|236:344,1,50,2|0,1:2|0:0,0:0:0:0:
320,329,25403,2,0,P|316:311|312:279,1,50,2|2,0:0|0:1,0:0:0:0:
255,215,25660,2,0,P|203:209|156:198,1,100,10|2,0:0|0:0,0:0:0:0:
63,255,26173,1,2,1:2:0:0:
168,108,26429,1,8,0:3:0:0:
168,108,26557,1,8,0:3:0:0:
168,108,26685,1,8,0:0:0:0:
236,237,26942,2,0,P|229:262|225:286,1,50,2|2,0:0|0:0,0:0:0:0:
287,344,27198,6,0,P|336:338|386:335,1,100,6|2,1:2|0:0,0:0:0:0:
454,283,27583,1,2,0:0:0:0:
450,274,27711,1,8,0:0:0:0:
310,176,27967,2,0,P|299:141|296:110,1,50,2|2,0:0|0:0,0:0:0:0:
370,84,28224,2,0,P|384:131|391:181,1,100,2|2,1:2|0:0,0:0:0:0:
349,254,28608,1,2,0:0:0:0:
341,254,28737,1,8,0:0:0:0:
176,210,28993,2,0,P|147:219|96:228,1,50,2|2,0:0|0:0,0:0:0:0:
104,304,29249,6,0,P|158:309|203:318,1,100,2|2,1:2|0:0,0:0:0:0:
286,335,29634,1,2,0:0:0:0:
292,342,29762,1,8,0:0:0:0:
439,257,30019,2,0,P|428:235|425:211,1,50,2|2,0:0|0:0,0:0:0:0:
389,132,30275,2,0,P|349:105|301:114,1,100,2|2,1:2|0:0,0:0:0:0:
237,171,30660,1,2,0:0:0:0:
234,181,30788,1,8,0:0:0:0:
359,294,31044,1,2,0:0:0:0:
197,348,31301,6,0,P|148:338|97:333,1,100,2|0,1:2|0:0,0:0:0:0:
12,186,31814,2,0,P|3:141|30:97,1,100,10|0,0:0|0:0,0:0:0:0:
190,38,32326,1,2,1:2:0:0:
334,128,32583,1,2,0:0:0:0:
494,70,32839,2,0,P|482:118|474:168,1,100,10|2,0:0|0:0,0:0:0:0:
426,331,33352,6,0,P|403:333|377:338,1,50,2|2,1:2|0:0,0:0:0:0:
302,297,33608,2,0,P|279:299|253:304,1,50,2|2,0:0|0:0,0:0:0:0:
176,343,33865,2,0,P|127:345|87:317,1,100,10|2,0:0|0:0,0:0:0:0:
51,240,34249,1,2,0:0:0:0:
55,230,34378,1,2,1:2:0:0:
178,113,34634,2,0,P|175:84|174:55,1,50,8|0,0:3|0:0,0:0:0:0:
91,45,34890,2,0,P|95:94|98:144,1,100,8|0,0:0|1:0,0:0:0:0:
252,216,35403,5,4,1:2:0:0:
315,57,35660,2,0,P|369:61|375:60,1,50,2|2,0:0|0:1,0:0:0:0:
440,98,35916,2,0,P|453:147|426:190,1,100,10|2,0:0|0:0,0:0:0:0:
334,329,36429,2,0,P|329:304|325:279,1,50,2|0,1:2|0:0,0:0:0:0:
347,197,36685,2,0,P|342:172|338:147,1,50,2|0,0:0|0:0,0:0:0:0:
258,116,36942,2,0,P|206:107|162:140,1,100,10|2,0:0|0:0,0:0:0:0:
44,248,37455,6,0,P|40:272|52:297,1,50,2|0,1:2|0:0,0:0:0:0:
111,354,37711,2,0,P|135:349|160:346,1,50,2|2,0:0|0:1,0:0:0:0:
233,303,37967,2,0,P|241:253|257:200,1,100,10|2,0:0|0:0,0:0:0:0:
359,70,38480,1,2,1:2:0:0:
393,236,38737,1,2,0:0:0:0:
277,111,38993,2,0,P|227:115|178:125,1,100,10|2,0:0|0:0,0:0:0:0:
54,242,39506,5,2,1:2:0:0:
173,362,39762,2,0,B|289:378|251:299|358:311,1,200,2|2,0:0|0:0,0:0:0:0:
484,196,40532,1,10,0:3:0:0:
345,96,40788,2,0,P|248:114|145:116,1,200,10|2,0:3|0:0,0:0:0:0:
22,1,41557,5,2,1:2:0:0:
62,166,41814,2,0,B|111:193|116:244|116:244|151:201|203:202,1,200,2|2,0:0|0:0,0:0:0:0:
345,107,42583,1,10,0:3:0:0:
444,244,42839,2,0,P|345:257|246:276,1,200,10|0,0:3|0:0,0:0:0:0:
170,123,43608,5,4,1:2:0:0:
25,213,43865,2,0,P|34:236|41:260,1,50,2|2,0:0|0:1,0:0:0:0:
82,334,44121,2,0,P|129:324|154:283,1,100,10|2,0:0|0:0,0:0:0:0:
178,114,44634,2,0,P|250:178|247:275,1,200,2|10,1:2|0:0,0:0:0:0:
109,174,45403,1,2,0:0:0:0:
198,29,45660,6,0,P|221:36|246:36,1,50,2|0,1:2|0:0,0:0:0:0:
321,77,45916,2,0,P|344:84|369:84,1,50,2|2,0:0|0:1,0:0:0:0:
442,39,46173,2,0,P|473:76|474:125,1,100,10|2,0:0|0:0,0:0:0:0:
350,241,46685,2,0,P|342:292|342:308,1,50,2|0,1:2|0:0,0:0:0:0:
258,276,46942,2,0,P|265:224|265:208,1,50,2|0,0:0|0:0,0:0:0:0:
318,160,47198,1,10,0:0:0:0:
430,288,47455,1,2,0:0:0:0:
277,361,47711,5,2,1:2:0:0:
277,361,47967,1,2,1:2:0:0:
130,274,48224,2,0,P|118:199|101:149,1,100,12|2,0:0|0:0,0:0:0:0:
225,49,48737,1,2,1:2:0:0:
225,49,48993,1,2,1:2:0:0:
372,136,49249,2,0,P|383:210|401:261,1,100,12|2,0:0|0:0,0:0:0:0:
243,321,49762,6,0,P|147:295|48:279,2,200,6|14|6,1:2|0:0|1:2,0:0:0:0:
437,40,51301,1,14,0:0:0:0:
500,372,51814,6,0,P|475:367|450:363,3,50,4|0|0|2,1:2|0:0|0:0|0:1,0:0:0:0:
400,286,52326,2,0,P|375:290|350:294,3,50,8|0|0|0,0:0|0:0|0:0|0:0,0:0:0:0:
292,367,52839,2,0,P|267:362|242:358,3,50,0|0|0|0,1:2|0:0|0:0|0:0,0:0:0:0:
191,281,53352,2,0,P|166:285|141:289,3,50,8|0|0|0,0:0|0:0|0:0|0:0,0:0:0:0:
60,257,53865,5,4,1:2:0:0:
60,257,54121,1,4,1:2:0:0:
132,104,54378,1,4,1:2:0:0:
132,104,54634,1,4,1:2:0:0:
0,1,54890,1,4,1:2:0:0:
230,245,55403,6,0,P|280:236|330:232,1,100,0|0,1:2|0:0,0:0:0:0:
485,135,55916,6,0,P|474:164|467:195,1,62.5,6|0,1:2|0:0,0:0:0:0:
479,337,56173,2,0,P|474:306|455:282,1,62.5,2|2,0:0|0:1,0:0:0:0:
386,230,56429,2,0,P|354:229|324:221,1,62.5,10|0,0:0|0:0,0:0:0:0:
239,242,56685,2,0,P|207:241|177:233,1,62.5,2|0,0:0|0:0,0:0:0:0:
94,262,56942,2,0,P|47:223|51:163,1,125,2|0,1:2|0:0,0:0:0:0:
196,65,57455,1,10,0:0:0:0:
249,231,57711,1,2,0:0:0:0:
415,177,57967,6,0,P|445:183|484:185,1,62.5,2|0,1:2|0:0,0:0:0:0:
366,103,58224,2,0,P|368:71|374:41,1,62.5,2|2,0:0|0:1,0:0:0:0:
286,41,58480,2,0,P|279:71|277:102,1,62.5,10|0,0:0|0:0,0:0:0:0:
208,157,58737,2,0,P|176:159|146:165,1,62.5,2|0,0:0|0:0,0:0:0:0:
77,111,58993,1,2,1:2:0:0:
12,272,59249,2,0,P|40:326|100:336,1,125,0|8,0:0|0:0,0:0:0:0:
241,232,59762,1,2,0:0:0:0:
388,326,60019,6,0,B|403:351|428:362|428:362|260:338,1,187.5,2|2,1:2|0:1,0:0:0:0:
211,327,60532,1,10,0:0:0:0:
150,170,60788,1,2,0:0:0:0:
273,54,61044,2,0,P|360:59|294:110,1,187.5,2|0,1:2|0:0,0:0:0:0:
237,138,61557,1,10,0:0:0:0:
158,25,61814,1,2,0:0:0:0:
43,126,62070,5,2,1:2:0:0:
36,134,62198,1,2,0:0:0:0:
31,141,62326,2,0,P|44:170|53:200,1,62.5,2|2,0:0|0:0,0:0:0:0:
112,275,62583,1,10,0:0:0:0:
120,282,62711,1,2,0:0:0:0:
127,287,62839,2,0,P|136:257|149:229,1,62.5,2|2,0:0|0:0,0:0:0:0:
239,191,63096,2,0,P|301:186|415:164,1,125,2|10,1:2|0:3,0:0:0:0:
500,19,63608,1,10,0:3:0:0:
339,89,63865,1,8,0:0:0:0:
486,179,64121,6,0,P|489:219|467:243,1,62.5,6|0,1:2|0:0,0:0:0:0:
413,354,64378,2,0,P|443:345|465:323,1,62.5,2|2,0:0|0:1,0:0:0:0:
395,270,64634,2,0,P|364:267|333:264,1,62.5,10|0,0:0|0:0,0:0:0:0:
256,305,64890,2,0,P|224:302|193:299,1,62.5,2|0,0:0|0:0,0:0:0:0:
118,253,65147,2,0,P|102:192|83:132,1,125,2|0,1:2|0:0,0:0:0:0:
206,8,65660,1,10,0:0:0:0:
186,181,65916,1,2,0:0:0:0:
69,49,66173,6,0,P|100:46|129:59,1,62.5,2|0,1:2|0:0,0:0:0:0:
208,96,66429,2,0,P|238:98|267:85,1,62.5,2|2,0:0|0:1,0:0:0:0:
362,11,66685,2,0,P|358:42|354:73,1,62.5,10|0,0:0|0:0,0:0:0:0:
322,154,66942,2,0,P|317:185|313:216,1,62.5,2|0,0:0|0:0,0:0:0:0:
386,265,67198,1,2,1:2:0:0:
242,365,67455,2,0,P|302:351|365:350,1,125,0|8,0:0|0:0,0:0:0:0:
401,179,67967,1,2,0:0:0:0:
250,268,68224,6,0,P|121:236|20:198,1,187.5,2|2,1:2|0:1,0:0:0:0:
0,164,68737,1,10,0:0:0:0:
96,327,68993,1,2,0:0:0:0:
166,152,69249,2,0,B|167:84|228:47|228:47|308:61|327:109,1,250,2|8,1:2|0:0,0:0:0:0:
412,255,70019,1,2,0:0:0:0:
251,324,70275,6,0,P|220:321|196:297,1,62.5,8|8,0:3|0:3,0:0:0:0:
124,180,70532,2,0,P|94:177|67:193,1,62.5,8|8,0:3|0:3,0:0:0:0:
111,324,70788,2,0,P|104:294|117:267,1,62.5,8|0,0:3|0:0,0:0:0:0:
217,177,71044,1,8,0:3:0:0:
213,169,71173,1,8,0:3:0:0:
209,161,71301,2,0,P|220:99|233:37,1,125,8|8,0:3|0:3,0:0:0:0:
405,10,71814,1,8,0:0:0:0:
496,158,72070,1,2,0:0:0:0:
385,292,72326,6,0,P|262:269|137:257,1,250,6|8,1:2|0:0,0:0:0:0:
20,125,73096,1,2,0:0:0:0:
170,36,73352,2,0,P|292:58|417:70,1,250,2|8,1:2|0:0,0:0:0:0:
456,241,74121,1,2,0:0:0:0:
282,206,74378,6,0,P|291:236|296:267,1,62.5,2|0,1:2|0:0,0:0:0:0:
234,329,74634,2,0,P|205:316|174:311,1,62.5,2|2,0:0|0:1,0:0:0:0:
98,268,74890,2,0,P|84:240|89:209,1,62.5,10|0,0:0|0:0,0:0:0:0:
150,147,75147,2,0,P|180:131|195:100,1,62.5,2|0,0:0|0:0,0:0:0:0:
132,44,75403,1,2,1:2:0:0:
11,171,75660,1,8,1:2:0:0:
11,171,75916,2,0,P|2:242|20:307,1,125,8|2,1:2|0:0,0:0:0:0:
174,362,76429,6,0,P|282:342|439:323,1,250,6|8,1:2|0:0,0:0:0:0:
498,167,77198,1,2,0:0:0:0:
360,57,77455,2,0,P|252:77|95:96,1,250,2|8,1:2|0:0,0:0:0:0:
101,269,78224,1,2,0:0:0:0:
258,345,78480,5,2,1:2:0:0:
211,175,78737,2,0,P|179:178|149:184,1,62.5,2|2,0:0|0:0,0:0:0:0:
107,260,78993,1,10,0:0:0:0:
279,231,79249,1,2,0:0:0:0:
168,94,79506,1,2,1:2:0:0:
334,160,79762,1,8,1:2:0:0:
334,160,80019,2,0,P|345:99|357:38,1,125,8|2,1:2|0:0,0:0:0:0:
442,191,80532,6,0,P|321:217|201:254,1,250,4|8,1:2|0:0,0:0:0:0:
104,108,81301,1,2,0:0:0:0:
34,268,81557,2,0,P|151:261|186:141,1,250,2|8,1:2|0:0,0:0:0:0:
68,21,82326,1,2,0:0:0:0:
237,66,82583,6,0,P|267:56|298:55,1,62.5,2|0,1:2|0:0,0:0:0:0:
379,86,82839,2,0,P|386:116|379:147,1,62.5,2|2,0:0|0:1,0:0:0:0:
328,218,83096,2,0,P|296:219|267:229,1,62.5,10|0,0:0|0:0,0:0:0:0:
194,277,83352,2,0,P|187:307|194:338,1,62.5,2|0,0:0|0:0,0:0:0:0:
275,369,83608,2,0,P|335:353|397:344,1,125,2|2,1:2|0:0,0:0:0:0:
464,182,84121,1,10,0:0:0:0:
295,134,84378,1,2,0:0:0:0:
156,240,84634,6,0,P|125:234|94:231,1,62.5,2|0,1:2|0:0,0:0:0:0:
84,144,84890,2,0,P|114:149|145:152,1,62.5,2|2,1:2|0:1,0:0:0:0:
242,199,85147,2,0,P|303:189|366:183,1,125,12|0,1:2|0:0,0:0:0:0:
471,42,85660,2,0,P|463:73|460:104,1,62.5,2|0,1:2|0:0,0:0:0:0:
495,184,85916,2,0,P|487:214|484:245,1,62.5,2|0,1:2|0:0,0:0:0:0:
393,303,86173,2,0,P|331:293|268:287,1,125,12|2,1:2|0:0,0:0:0:0:
174,159,86685,6,0,P|148:175|117:178,1,62.5,6|0,1:2|0:0,0:0:0:0:
61,246,86942,2,0,P|27:242|2:226,1,62.5,2|0,0:0|0:0,0:0:0:0:
60,106,87198,2,0,P|114:76|178:72,1,125,6|2,1:2|0:0,0:0:0:0:
262,224,87711,1,6,1:2:0:0:
