osu file format v14

[General]
AudioFilename: platinum disco 192.mp3
AudioLeadIn: 0
PreviewTime: 55275
Countdown: 0
SampleSet: Soft
StackLeniency: 0.4
Mode: 0
LetterboxInBreaks: 0
WidescreenStoryboard: 1

[Editor]
Bookmarks: 532,2583,18993,35403,50788,55916,72326,87711
DistanceSpacing: 1.1
BeatDivisor: 4
GridSize: 16
TimelineZoom: 1.7

[Metadata]
Title:Platinum Disco (TV Size)
TitleUnicode:白金ディスコ (TV Size)
Artist:Araragi Tsukihi (CV: Iguchi Yuka)
ArtistUnicode:阿良々木月火 (CV: 井口裕香)
Creator:Basensorex
Version:Normal
Source:偽物語
Tags:nisemonogatari monogatari series opening op japanese jap jp j-pop jpop pop karen oriental armin a_r_m_i_n
BeatmapID:3274144
BeatmapSetID:1551428

[Difficulty]
HPDrainRate:4
CircleSize:3
OverallDifficulty:4.2
ApproachRate:5.6
SliderMultiplier:1.6
SliderTickRate:1

[Events]
//Background and Video events
0,0,"hot.jpg",0,0
//Break Periods
//Storyboard Layer 0 (Background)
//Storyboard Layer 1 (Fail)
//Storyboard Layer 2 (Pass)
//Storyboard Layer 3 (Foreground)
//Storyboard Layer 4 (Overlay)
//Storyboard Sound Samples

[TimingPoints]
532,512.820512820513,4,2,1,70,1,0
10019,-100,4,2,2,70,0,0
10275,-100,4,2,1,70,0,0
16942,-100,4,2,2,70,0,0
17711,-100,4,2,1,70,0,0
18993,-111.111111111111,4,2,1,60,0,0
35403,-100,4,2,1,65,0,0
40532,-100,4,2,2,65,0,0
41044,-100,4,2,1,65,0,0
47711,-100,4,2,1,70,0,0
55147,-100,4,2,1,30,0,0
55403,-100,4,2,1,70,0,0
55916,-90.9090909090909,4,2,1,80,0,1
70275,-90.9090909090909,4,2,2,80,0,1
71044,-90.9090909090909,4,2,1,80,0,1
87711,-100,4,2,1,80,0,0

[Colours]
Combo1 : 255,201,36
Combo2 : 4,198,159
Combo3 : 96,96,96
Combo4 : 244,72,98

[HitObjects]
35,48,532,6,0,L|114:38,1,80,4|0,1:2|1:2,0:0:0:0:
178,98,1044,2,0,L|257:107,1,80,4|0,1:2|1:2,0:0:0:0:
314,40,1557,2,0,L|413:27,1,80,4|0,1:2|1:2,0:0:0:0:
471,70,2070,1,4,1:2:0:0:
499,243,2583,5,6,1:2:0:0:
450,316,2839,1,2,0:0:0:0:
369,277,3096,2,0,P|332:263|293:264,1,80,10|0,0:0|0:0,0:0:0:0:
228,323,3608,2,0,B|170:366|170:366|87:335,1,160,2|8,1:2|0:0,0:0:0:0:
52,253,4378,1,2,0:0:0:0:
18,171,4634,6,0,P|2:134|3:94,1,80,2|2,1:2|0:0,0:0:0:0:
66,33,5147,1,10,0:0:0:0:
140,79,5403,1,2,0:0:0:0:
208,23,5660,2,0,P|284:18|332:79,1,160,2|8,1:2|0:3,0:0:0:0:
222,216,6685,6,0,L|132:205,1,80,2|2,1:2|0:0,0:0:0:0:
58,231,7198,1,10,0:0:0:0:
39,317,7455,1,2,0:0:0:0:
115,360,7711,2,0,P|156:375|201:371,1,80,2|2,1:2|0:0,0:0:0:0:
262,320,8224,1,10,0:0:0:0:
331,374,8480,1,2,0:0:0:0:
405,327,8737,6,0,B|414:244|414:244|402:228|402:228|411:152,1,160,2|8,1:2|0:0,0:0:0:0:
371,91,9506,1,0,0:0:0:0:
284,104,9762,2,0,P|239:108|197:92,1,80,0|8,1:2|0:3,0:0:0:0:
134,46,10275,1,8,0:3:0:0:
34,191,10788,5,6,1:2:0:0:
3,273,11044,1,2,0:0:0:0:
64,335,11301,2,0,L|143:325,1,80,10|0,0:0|0:0,0:0:0:0:
211,268,11814,2,0,B|321:263|267:316|367:313,1,160,2|8,1:2|0:0,0:0:0:0:
434,267,12583,1,2,0:0:0:0:
507,218,12839,6,0,P|511:178|500:140,1,80,2|2,1:2|0:0,0:0:0:0:
466,58,13352,1,10,0:0:0:0:
384,25,13608,1,2,0:0:0:0:
306,67,13865,2,0,B|271:159|271:159|307:208,1,160,2|8,1:2|0:3,0:0:0:0:
218,360,14890,6,0,L|138:350,1,80,2|2,1:2|0:0,0:0:0:0:
51,338,15403,2,0,P|45:298|56:260,1,80,10|2,0:0|0:0,0:0:0:0:
13,183,15916,1,2,1:2:0:0:
54,105,16173,1,2,0:0:0:0:
141,96,16429,2,0,L|221:106,1,80,10|2,0:0|0:0,0:0:0:0:
266,30,16942,6,0,L|345:20,1,80,8|8,0:3|0:3,0:0:0:0:
422,62,17455,2,0,P|436:99|435:138,1,80,8|8,0:3|0:3,0:0:0:0:
404,223,17967,1,8,0:3:0:0:
404,223,18224,1,8,0:3:0:0:
442,302,18480,1,8,0:0:0:0:
271,327,18993,6,0,B|177:318|227:377|108:369,1,143.999995605469,6|8,1:2|0:0,0:0:0:0:
52,358,19762,1,2,0:0:0:0:
7,283,20019,2,0,P|3:247|-1:211,1,71.9999978027344,2|2,1:2|0:0,0:0:0:0:
49,141,20532,1,8,0:0:0:0:
218,174,21044,2,0,P|289:163|360:155,1,143.999995605469,2|8,1:2|0:0,0:0:0:0:
447,153,21814,1,2,0:0:0:0:
495,224,22070,2,0,P|508:257|509:293,1,71.9999978027344,2|2,1:2|0:0,0:0:0:0:
456,361,22583,1,8,0:0:0:0:
296,294,23096,6,0,P|226:298|199:363,2,143.999995605469,2|10|2,1:2|0:0|1:2,0:0:0:0:
393,151,24634,2,0,P|389:115|384:79,1,71.9999978027344,10|0,0:0|0:0,0:0:0:0:
306,41,25147,1,2,1:2:0:0:
232,85,25403,1,2,0:0:0:0:
153,47,25660,2,0,P|138:79|137:115,1,71.9999978027344,10|2,0:0|0:0,0:0:0:0:
153,200,26173,2,0,B|247:191|197:250|316:242,1,143.999995605469,2|8,1:2|0:0,0:0:0:0:
414,357,27198,6,0,P|479:333|504:268,1,143.999995605469,6|8,1:2|0:0,0:0:0:0:
504,181,27967,1,2,0:0:0:0:
496,94,28224,2,0,P|460:96|424:101,1,71.9999978027344,2|2,1:2|0:0,0:0:0:0:
348,59,28737,1,8,0:0:0:0:
222,177,29249,2,0,P|150:166|79:158,1,143.999995605469,2|8,1:2|0:0,0:0:0:0:
14,216,30019,1,2,0:0:0:0:
49,294,30275,2,0,P|82:307|118:308,1,71.9999978027344,2|2,1:2|0:0,0:0:0:0:
194,268,30788,1,8,0:0:0:0:
344,183,31301,6,0,B|329:100|366:133|348:41,2,143.999995605469,2|10|2,1:2|0:0|1:2,0:0:0:0:
391,255,32583,1,2,0:0:0:0:
355,333,32839,2,0,P|319:338|283:341,1,71.9999978027344,10|2,0:0|0:0,0:0:0:0:
205,304,33352,2,0,P|173:241|200:177,1,143.999995605469,2|10,1:2|0:0,0:0:0:0:
269,124,34121,1,2,0:0:0:0:
238,43,34378,1,2,1:2:0:0:
66,23,34890,1,8,0:0:0:0:
11,190,35403,6,0,P|5:229|16:267,1,80,4|2,1:2|0:0,0:0:0:0:
66,340,35916,1,10,0:0:0:0:
145,302,36173,1,2,0:0:0:0:
210,360,36429,2,0,L|299:370,1,80,2|2,1:2|0:0,0:0:0:0:
365,324,36942,2,0,L|375:234,1,80,10|2,0:0|0:0,0:0:0:0:
343,161,37455,5,2,1:2:0:0:
256,148,37711,1,2,0:0:0:0:
198,214,37967,2,0,P|155:229|111:224,1,80,10|2,0:0|0:0,0:0:0:0:
39,193,38480,1,2,1:2:0:0:
28,105,38737,1,2,0:0:0:0:
95,49,38993,2,0,P|138:34|182:39,1,80,10|2,0:0|0:0,0:0:0:0:
261,19,39506,5,2,1:2:0:0:
261,19,39762,2,0,B|304:77|304:77|273:159,1,160,2|2,0:0|0:0,0:0:0:0:
320,240,40532,1,10,0:3:0:0:
320,240,40788,1,10,0:3:0:0:
281,318,41044,1,8,0:0:0:0:
109,323,41557,5,2,1:2:0:0:
109,323,41814,2,0,P|66:258|94:186,1,160,2|2,0:0|0:0,0:0:0:0:
155,123,42583,1,10,0:3:0:0:
155,123,42839,1,10,0:3:0:0:
239,147,43096,1,8,0:0:0:0:
407,197,43608,6,0,P|421:234|419:273,1,80,4|2,1:2|0:0,0:0:0:0:
372,348,44121,1,10,0:0:0:0:
293,307,44378,1,2,0:0:0:0:
231,369,44634,2,0,B|156:360|156:360|142:371|142:371|74:363,1,160,2|10,1:2|0:0,0:0:0:0:
21,294,45403,1,2,0:0:0:0:
73,222,45660,5,2,1:2:0:0:
26,147,45916,1,2,0:0:0:0:
81,78,46173,2,0,P|123:62|167:67,1,80,10|2,0:0|0:0,0:0:0:0:
229,114,46685,1,2,1:2:0:0:
306,72,46942,1,2,0:0:0:0:
376,124,47198,2,0,L|386:213,1,80,10|2,0:0|0:0,0:0:0:0:
403,294,47711,5,2,1:2:0:0:
403,294,47967,1,2,1:2:0:0:
319,322,48224,1,12,0:0:0:0:
220,182,48737,5,2,1:2:0:0:
220,182,48993,1,2,1:2:0:0:
136,154,49249,1,12,0:0:0:0:
132,329,49762,6,0,L|211:319,1,80,6|0,1:2|0:0,0:0:0:0:
272,256,50275,2,0,L|351:265,1,80,14|0,0:0|0:0,0:0:0:0:
434,237,50788,2,0,P|449:194|444:150,1,80,6|0,1:2|0:0,0:0:0:0:
492,84,51301,2,0,P|462:49|421:31,1,80,14|0,0:0|0:0,0:0:0:0:
344,19,51814,6,0,B|240:8|297:77|169:64,1,160,4|8,1:2|0:0,0:0:0:0:
112,42,52583,1,0,0:0:0:0:
49,103,52839,2,0,L|57:182,1,80,0|0,1:2|0:0,0:0:0:0:
130,232,53352,2,0,L|121:311,1,80,8|0,0:0|0:0,0:0:0:0:
190,366,53865,5,4,1:2:0:0:
270,375,54121,1,4,1:2:0:0:
336,327,54378,1,4,1:2:0:0:
355,249,54634,1,4,1:2:0:0:
311,180,54890,1,4,1:2:0:0:
201,42,55403,2,0,P|164:26|124:27,1,80,0|0,1:2|0:0,0:0:0:0:
36,69,55916,5,6,1:2:0:0:
22,165,56173,1,2,0:0:0:0:
100,221,56429,2,0,B|141:241|141:241|188:226,1,88.000002685547,10|2,0:0|0:0,0:0:0:0:
238,149,56942,2,0,P|316:118|383:169,1,176.000005371094,2|10,1:2|0:0,0:0:0:0:
432,253,57711,1,2,0:0:0:0:
374,330,57967,5,2,1:2:0:0:
281,300,58224,1,2,0:0:0:0:
218,373,58480,2,0,L|130:361,1,88.000002685547,10|2,0:0|0:0,0:0:0:0:
62,293,58993,2,0,B|69:211|69:211|58:195|58:195|67:122,1,176.000005371094,2|8,1:2|0:0,0:0:0:0:
220,2,60019,6,0,B|261:22|261:22|308:7,1,88.000002685547,2|0,1:2|0:0,0:0:0:0:
363,84,60532,1,10,0:0:0:0:
452,46,60788,1,2,0:0:0:0:
511,122,61044,2,0,L|499:209,1,88.000002685547,2|0,1:2|0:0,0:0:0:0:
427,273,61557,1,10,0:0:0:0:
342,226,61814,1,2,0:0:0:0:
258,176,62070,6,0,B|278:134|278:134|263:87,1,88.000002685547,2|2,1:2|0:0,0:0:0:0:
193,29,62583,2,0,B|151:8|151:8|104:23,1,88.000002685547,10|2,0:0|0:0,0:0:0:0:
32,77,63096,1,2,1:2:0:0:
82,159,63352,1,10,0:3:0:0:
11,225,63608,2,0,L|21:312,1,88.000002685547,10|8,0:3|0:0,0:0:0:0:
100,368,64121,5,6,1:2:0:0:
176,307,64378,1,2,0:0:0:0:
255,361,64634,2,0,B|296:381|296:381|343:366,1,88.000002685547,10|2,0:0|0:0,0:0:0:0:
433,365,65147,2,0,B|474:307|474:307|437:209,1,176.000005371094,2|10,1:2|0:0,0:0:0:0:
476,120,65916,1,2,0:0:0:0:
415,44,66173,5,2,1:2:0:0:
328,87,66429,1,2,0:0:0:0:
260,17,66685,2,0,L|172:26,1,88.000002685547,10|2,0:0|0:0,0:0:0:0:
79,0,67198,2,0,B|41:98|41:98|83:155,1,176.000005371094,2|8,1:2|0:0,0:0:0:0:
129,343,68224,6,0,B|170:363|170:363|217:348,1,88.000002685547,2|0,1:2|0:0,0:0:0:0:
297,307,68737,1,10,0:0:0:0:
370,369,68993,1,2,0:0:0:0:
451,317,69249,2,0,P|487:240|448:165,1,176.000005371094,2|8,1:2|0:0,0:0:0:0:
397,82,70019,1,2,0:0:0:0:
300,92,70275,6,0,B|258:71|258:71|211:86,1,88.000002685547,8|8,0:3|0:3,0:0:0:0:
126,115,70788,2,0,L|136:202,1,88.000002685547,8|8,0:3|0:3,0:0:0:0:
150,302,71301,1,8,0:3:0:0:
150,302,71557,1,8,0:3:0:0:
236,345,71814,1,8,0:0:0:0:
429,331,72326,6,0,B|466:232|466:232|424:175,1,176.000005371094,6|8,1:2|0:0,0:0:0:0:
333,209,73096,1,2,0:0:0:0:
255,151,73352,2,0,B|141:138|207:207|73:198,1,176.000005371094,2|8,1:2|0:0,0:0:0:0:
14,141,74121,1,2,0:0:0:0:
61,56,74378,6,0,B|100:36|100:36|144:50,1,88.000002685547,2|2,1:2|0:0,0:0:0:0:
232,14,74890,2,0,B|271:33|271:33|315:19,1,88.000002685547,10|2,0:0|0:0,0:0:0:0:
409,7,75403,1,2,1:2:0:0:
479,81,75660,1,8,1:2:0:0:
479,81,75916,2,0,L|490:168,1,88.000002685547,8|2,1:2|0:0,0:0:0:0:
429,243,76429,6,0,P|368:301|287:280,1,176.000005371094,6|8,1:2|0:0,0:0:0:0:
201,326,77198,1,2,0:0:0:0:
121,270,77455,2,0,B|79:212|79:212|116:114,1,176.000005371094,2|8,1:2|0:0,0:0:0:0:
163,29,78224,1,2,0:0:0:0:
250,69,78480,6,0,L|260:156,1,88.000002685547,2|2,1:2|0:0,0:0:0:0:
333,221,78993,2,0,L|322:308,1,88.000002685547,10|2,0:0|0:0,0:0:0:0:
393,373,79506,1,2,1:2:0:0:
478,324,79762,1,8,1:2:0:0:
478,324,80019,2,0,B|497:284|497:284|483:240,1,88.000002685547,8|2,1:2|0:0,0:0:0:0:
445,153,80532,6,0,B|334:138|391:211|262:198,1,176.000005371094,4|8,1:2|0:0,0:0:0:0:
218,126,81301,1,2,0:0:0:0:
125,152,81557,2,0,P|68:214|92:295,1,176.000005371094,2|8,1:2|0:0,0:0:0:0:
168,356,82326,1,2,0:0:0:0:
256,316,82583,6,0,L|343:326,1,88.000002685547,2|2,1:2|0:0,0:0:0:0:
435,295,83096,1,10,0:0:0:0:
446,198,83352,1,2,0:0:0:0:
368,140,83608,2,0,B|328:120|328:120|284:134,1,88.000002685547,2|2,1:2|0:0,0:0:0:0:
208,76,84121,2,0,B|168:95|168:95|124:81,1,88.000002685547,10|2,0:0|0:0,0:0:0:0:
36,112,84634,5,2,1:2:0:0:
36,112,84890,1,2,1:2:0:0:
49,208,85147,1,12,1:2:0:0:
242,173,85660,5,2,1:2:0:0:
242,173,85916,1,2,1:2:0:0:
229,77,86173,1,12,1:2:0:0:
420,50,86685,6,0,L|430:137,1,88.000002685547,6|2,1:2|0:0,0:0:0:0:
505,199,87198,2,0,L|494:286,1,88.000002685547,6|2,1:2|0:0,0:0:0:0:
428,344,87711,1,6,1:2:0:0:
