osu file format v14

[General]
AudioFilename: platinum disco 192.mp3
AudioLeadIn: 0
PreviewTime: 55275
Countdown: 0
SampleSet: Soft
StackLeniency: 0.4
Mode: 0
LetterboxInBreaks: 0
WidescreenStoryboard: 1

[Editor]
DistanceSpacing: 1.1
BeatDivisor: 8
GridSize: 32
TimelineZoom: 1.7

[Metadata]
Title:Platinum Disco (TV Size)
TitleUnicode:白金ディスコ (TV Size)
Artist:Araragi Tsukihi (CV: Iguchi Yuka)
ArtistUnicode:阿良々木月火 (CV: 井口裕香)
Creator:Basensorex
Version:Insane
Source:偽物語
Tags:nisemonogatari monogatari series opening op japanese jap jp j-pop jpop pop karen oriental armin a_r_m_i_n
BeatmapID:3212946
BeatmapSetID:1551428

[Difficulty]
HPDrainRate:5.2
CircleSize:4.2
OverallDifficulty:8
ApproachRate:8.8
SliderMultiplier:2
SliderTickRate:1

[Events]
//Background and Video events
0,0,"hot.jpg",0,0
//Break Periods
//Storyboard Layer 0 (Background)
//Storyboard Layer 1 (Fail)
//Storyboard Layer 2 (Pass)
//Storyboard Layer 3 (Foreground)
//Storyboard Layer 4 (Overlay)
//Storyboard Sound Samples

[TimingPoints]
532,512.820512820513,4,2,1,70,1,0
532,-66.6666666666667,4,2,1,70,0,0
724,-66.6666666666667,4,2,1,5,0,0
788,-100,4,2,1,70,0,0
1044,-66.6666666666667,4,2,1,70,0,0
1237,-66.6666666666667,4,2,1,5,0,0
1301,-100,4,2,1,70,0,0
1557,-66.6666666666667,4,2,1,70,0,0
1749,-66.6666666666667,4,2,1,5,0,0
1814,-100,4,2,1,70,0,0
2070,-66.6666666666667,4,2,1,70,0,0
2262,-66.6666666666667,4,2,1,5,0,0
2326,-66.6666666666667,4,2,1,70,0,0
2583,-80,4,2,1,70,0,0
5916,-66.6666666666667,4,2,1,70,0,0
6685,-80,4,2,1,70,0,0
10019,-80,4,2,2,70,0,0
10275,-80,4,2,1,70,0,0
14121,-66.6666666666667,4,2,1,70,0,0
14378,-66.6666666666667,4,2,1,70,0,0
14890,-80,4,2,1,70,0,0
16942,-80,4,2,2,70,0,0
17711,-80,4,2,1,70,0,0
18993,-100,4,2,1,60,0,0
23096,-133.333333333333,4,2,1,60,0,0
23608,-114.285714285714,4,2,1,60,0,0
24121,-100,4,2,1,60,0,0
24634,-88.8888888888889,4,2,1,60,0,0
25147,-80,4,2,1,60,0,0
27198,-100,4,2,1,60,0,0
31301,-133.333333333333,4,2,1,60,0,0
31814,-100,4,2,1,60,0,0
32326,-80,4,2,1,60,0,0
35403,-66.6666666666667,4,2,1,65,0,0
35916,-100,4,2,1,65,0,0
40532,-66.6666666666667,4,2,2,65,0,0
41044,-100,4,2,1,65,0,0
42583,-66.6666666666667,4,2,1,65,0,0
43096,-100,4,2,1,65,0,0
43352,-66.6666666666667,4,2,1,65,0,0
43608,-100,4,2,1,65,0,0
47711,-80,4,2,1,70,0,0
48224,-50,4,2,1,70,0,0
48737,-80,4,2,1,70,0,0
49249,-50,4,2,1,70,0,0
49762,-100,4,2,1,70,0,0
50275,-88.8888888888889,4,2,1,70,0,0
50788,-80,4,2,1,70,0,0
51301,-72.7272727272727,4,2,1,70,0,0
51814,-133.333333333333,4,2,1,70,0,0
52326,-100,4,2,1,70,0,0
53865,-66.6666666666667,4,2,1,70,0,0
55147,-66.6666666666667,4,2,1,30,0,0
55403,-400,4,2,1,70,0,0
55916,-66.6666666666667,4,2,1,80,0,1
63096,-100,4,2,1,80,0,1
63608,-66.6666666666667,4,2,1,80,0,1
70275,-66.6666666666667,4,2,2,80,0,1
71044,-66.6666666666667,4,2,1,80,0,1
72326,-57.1428571428571,4,2,1,80,0,1
72711,-66.6666666666667,4,2,1,80,0,1
73352,-57.1428571428571,4,2,1,80,0,1
73737,-66.6666666666667,4,2,1,80,0,1
75660,-57.1428571428571,4,2,1,80,0,1
76429,-57.1428571428571,4,2,1,80,0,1
76814,-66.6666666666667,4,2,1,80,0,1
77455,-57.1428571428571,4,2,1,80,0,1
77839,-66.6666666666667,4,2,1,80,0,1
79762,-57.1428571428571,4,2,1,80,0,1
80532,-57.1428571428571,4,2,1,80,0,1
80916,-66.6666666666667,4,2,1,80,0,1
81557,-57.1428571428571,4,2,1,80,0,1
81942,-66.6666666666667,4,2,1,80,0,1
85147,-44.4444444444445,4,2,1,80,0,1
85660,-66.6666666666667,4,2,1,80,0,1
86173,-44.4444444444445,4,2,1,80,0,1
86685,-40,4,2,1,80,0,1
86878,-40,4,2,1,5,0,1
86942,-200,4,2,1,80,0,1
87134,-200,4,2,1,5,0,1
87198,-40,4,2,1,80,0,1
87390,-40,4,2,1,5,0,1
87455,-200,4,2,1,80,0,1
87647,-200,4,2,1,5,0,1
87711,-200,4,2,1,80,0,0

[Colours]
Combo1 : 255,201,36
Combo2 : 4,198,159
Combo3 : 96,96,96
Combo4 : 244,72,98

[HitObjects]
25,85,532,6,0,P|50:37|104:31,1,112.500004291535,4|0,1:2|0:0,0:0:0:0:
120,41,788,2,0,P|113:65|108:89,1,50,0|0,1:2|1:2,0:0:0:0:
152,196,1044,6,0,B|218:181|186:153|261:139,1,112.500004291535,4|0,1:2|0:0,0:0:0:0:
265,145,1301,2,0,P|271:169|276:193,1,50,0|0,1:2|1:2,0:0:0:0:
331,59,1557,6,0,P|385:70|442:88,1,112.500004291535,4|0,1:2|0:0,0:0:0:0:
456,75,1814,2,0,P|480:68|504:63,1,50,0|0,1:2|1:2,0:0:0:0:
440,182,2070,2,0,P|415:175|351:162,1,75.0000028610231,4|0,1:2|0:0,0:0:0:0:
512,269,2326,5,0,1:2:0:0:
512,269,2583,6,0,B|437:278|473:317|394:330,1,125,6|2,1:2|0:0,0:0:0:0:
313,359,2967,1,2,0:1:0:0:
304,342,3096,2,0,P|311:311|321:282,1,62.5,10|0,0:0|0:0,0:0:0:0:
229,161,3352,2,0,P|239:190|246:220,1,62.5
71,370,3608,6,0,P|13:356|0:298,1,125,2|0,1:2|0:0,0:0:0:0:
171,282,3993,1,0,0:0:0:0:
155,293,4121,2,0,P|125:282|95:275,1,62.5,8|0,0:0|0:0,0:0:0:0:
0,203,4378,2,0,P|30:195|59:185,1,62.5,2|0,0:0|0:0,0:0:0:0:
127,33,4634,6,0,P|116:62|109:92,1,62.5,2|0,1:2|0:0,0:0:0:0:
246,220,4890,1,2,0:0:0:0:
249,201,5019,1,2,0:1:0:0:
246,182,5147,2,0,P|216:171|186:164,1,62.5,10|0,0:0|0:0,0:0:0:0:
298,97,5403,2,0,P|327:86|357:79,1,62.5,2|0,0:0|0:0,0:0:0:0:
512,30,5660,6,0,P|497:74|487:120,1,93.75,2|0,1:2|0:0,0:0:0:0:
482,141,5916,2,0,B|493:176|493:176|495:179|495:179|506:210,1,75.0000028610231,8|0,0:3|0:0,0:0:0:0:
429,262,6173,2,0,B|418:297|418:297|416:300|416:300|405:331,1,75.0000028610231,8|0,0:3|0:0,0:0:0:0:
249,384,6429,1,0,0:0:0:0:
244,362,6557,1,0,0:0:0:0:
240,343,6685,6,0,P|270:332|300:325,1,62.5,2|0,1:2|0:0,0:0:0:0:
429,262,6942,2,0,P|399:251|369:244,1,62.5,2|2,0:0|0:1,0:0:0:0:
254,162,7198,2,0,P|265:192|272:222,1,62.5,10|0,0:0|0:0,0:0:0:0:
377,89,7455,2,0,P|366:119|359:149,1,62.5,2|0,0:0|0:0,0:0:0:0:
240,33,7711,6,0,P|270:25|299:15,1,62.5,2|0,1:2|0:0,0:0:0:0:
169,101,7967,2,0,P|138:93|109:83,1,62.5,2|0,0:0|0:0,0:0:0:0:
0,0,8224,2,0,P|11:30|18:60,1,62.5,10|0,0:0|0:0,0:0:0:0:
26,218,8480,2,0,P|33:187|43:158,1,62.5,2|0,0:0|0:0,0:0:0:0:
228,193,8737,6,0,B|153:202|189:241|110:254,1,125,2|0,1:2|0:0,0:0:0:0:
0,332,9121,1,2,0:1:0:0:
16,322,9249,2,0,P|47:329|76:339,1,62.5,8|0,0:0|0:0,0:0:0:0:
168,373,9506,2,0,P|199:366|229:355,1,62.5
324,228,9762,6,0,P|313:257|306:288,1,62.5,0|0,1:2|0:0,0:0:0:0:
418,383,10019,2,0,P|411:352|400:322,1,62.5,8|0,0:3|0:0,0:0:0:0:
485,150,10275,1,8,0:3:0:0:
478,199,10403,1,8,0:3:0:0:
471,248,10532,1,8,0:3:0:0:
471,248,10788,6,0,P|411:227|350:214,1,125,6|2,1:2|0:0,0:0:0:0:
312,111,11173,1,2,0:1:0:0:
327,121,11301,2,0,P|356:110|386:103,1,62.5,10|0,0:0|0:0,0:0:0:0:
278,27,11557,2,0,P|247:20|218:9,1,62.5
131,183,11814,6,0,P|189:169|202:111,1,125,2|0,1:2|0:0,0:0:0:0:
109,17,12198,1,0,0:0:0:0:
99,32,12326,2,0,P|109:61|116:91,1,62.5,8|0,0:0|0:0,0:0:0:0:
19,207,12583,2,0,P|25:176|36:147,1,62.5,2|0,0:0|0:0,0:0:0:0:
152,269,12839,6,0,P|122:279|92:286,1,62.5,2|0,1:2|0:0,0:0:0:0:
217,183,13096,1,2,0:0:0:0:
229,196,13224,1,2,0:1:0:0:
240,210,13352,2,0,P|250:239|257:269,1,62.5,10|0,0:0|0:0,0:0:0:0:
329,383,13608,2,0,P|335:352|346:323,1,62.5,2|0,0:0|0:0,0:0:0:0:
512,238,13865,6,0,P|468:223|422:213,1,93.75,2|0,1:2|0:0,0:0:0:0:
411,197,14121,2,0,B|376:208|376:208|373:210|373:210|342:221,1,75.0000028610231,8|0,0:3|0:0,0:0:0:0:
258,269,14378,2,0,B|223:258|223:258|220:256|220:256|189:245,1,75.0000028610231,8|0,0:3|0:0,0:0:0:0:
82,384,14634,1,0,0:0:0:0:
101,372,14762,1,0,0:0:0:0:
117,362,14890,6,0,P|111:331|100:302,1,62.5,2|0,1:2|0:0,0:0:0:0:
21,200,15147,2,0,P|9:229|4:259,1,62.5,2|2,0:0|0:1,0:0:0:0:
180,157,15403,2,0,P|149:163|120:174,1,62.5,10|0,0:0|0:0,0:0:0:0:
4,73,15660,2,0,P|35:79|64:90,1,62.5,2|0,0:0|0:0,0:0:0:0:
180,0,15916,6,0,P|168:29|163:59,1,62.5,2|0,1:2|0:0,0:0:0:0:
324,152,16173,1,2,0:0:0:0:
320,133,16301,1,0,0:0:0:0:
316,114,16429,2,0,P|286:102|256:97,1,62.5,10|0,0:0|0:0,0:0:0:0:
382,40,16685,2,0,P|411:28|441:23,1,62.5,2|0,0:0|0:0,0:0:0:0:
424,163,16942,6,0,P|414:132|409:121,2,31.25,8|8|8,0:3|0:3|0:3,0:0:0:0:
508,225,17198,1,8,0:3:0:0:
501,274,17326,1,8,0:3:0:0:
494,323,17455,1,8,0:3:0:0:
494,323,17711,6,0,P|504:292|509:281,2,31.25,8|8|8,0:3|0:3|0:3,0:0:0:0:
404,337,17967,1,8,0:3:0:0:
374,360,18096,1,8,0:3:0:0:
336,364,18224,2,0,P|305:358|276:346,1,62.5,8|0,0:3|0:0,0:0:0:0:
182,226,18480,2,0,P|192:255|197:286,1,62.5,8|0,0:0|0:0,0:0:0:0:
18,333,18737,1,2,0:0:0:0:
5,318,18865,1,2,0:0:0:0:
6,301,18993,6,0,B|67:314|37:340|109:354,1,100,6|2,1:2|0:0,0:0:0:0:
197,286,19378,1,2,0:0:0:0:
186,275,19506,2,0,P|157:268|116:266,1,50,8|0,0:0|0:0,0:0:0:0:
29,199,19762,2,0,P|53:196|78:189,1,50,2|0,0:0|0:0,0:0:0:0:
191,30,20019,6,0,P|174:77|163:127,1,100,2|2,1:2|0:0,0:0:0:0:
257,213,20403,1,2,0:0:0:0:
266,201,20532,2,0,P|263:176|256:151,1,50,8|0,0:0|0:0,0:0:0:0:
358,84,20788,2,0,P|351:108|348:133,1,50,2|0,0:0|0:0,0:0:0:0:
501,233,21044,6,0,P|478:190|430:185,1,100,2|2,1:2|0:0,0:0:0:0:
328,288,21429,1,2,0:0:0:0:
339,277,21557,2,0,P|368:270|409:268,1,50,8|0,0:0|0:0,0:0:0:0:
491,358,21814,2,0,P|462:351|421:349,1,50,2|0,0:0|0:0,0:0:0:0:
234,304,22070,6,0,B|170:314|203:343|131:357,1,100,2|2,1:2|0:0,0:0:0:0:
48,325,22455,1,2,0:0:0:0:
59,314,22583,2,0,P|66:285|68:244,1,50,8|0,0:0|0:0,0:0:0:0:
147,185,22839,2,0,P|149:209|156:234,1,50,2|0,0:0|0:0,0:0:0:0:
0,144,23096,6,0,P|36:136|72:125,1,75.0000028610231,2|0,1:2|0:0,0:0:0:0:
90,38,23480,1,2,0:1:0:0:
102,32,23608,6,0,P|144:40|186:52,1,87.500000834465,10|0,0:0|0:0,0:0:0:0:
234,146,23993,1,0,0:0:0:0:
248,150,24121,6,0,P|301:139|353:124,1,100,2|0,1:2|0:0,0:0:0:0:
363,6,24506,1,0,0:0:0:0:
379,1,24634,6,0,P|440:13|500:30,1,112.500004291535,10|0,0:0|0:0,0:0:0:0:
505,109,25019,1,0,0:0:0:0:
495,125,25147,6,0,P|484:155|477:185,1,62.5,2|0,1:2|0:0,0:0:0:0:
408,294,25403,2,0,P|400:263|390:234,1,62.5,2|2,0:0|0:1,0:0:0:0:
505,109,25660,6,0,P|494:139|487:169,1,62.5,10|0,0:0|0:0,0:0:0:0:
395,309,25916,2,0,P|387:278|377:249,1,62.5,2|0,0:0|0:0,0:0:0:0:
183,295,26173,6,0,B|257:307|222:343|301:356,1,125,2|8,1:2|0:3,0:0:0:0:
393,215,26557,1,8,0:3:0:0:
377,249,26685,2,0,P|347:260|317:267,1,62.5,8|0,0:0|0:0,0:0:0:0:
218,179,26942,1,2,0:0:0:0:
233,190,27070,1,2,0:0:0:0:
250,193,27198,6,0,P|266:146|277:97,1,100,6|2,1:2|0:0,0:0:0:0:
225,9,27583,1,2,0:0:0:0:
212,17,27711,2,0,P|183:24|142:26,1,50,8|0,0:0|0:0,0:0:0:0:
19,78,27967,1,2,0:0:0:0:
31,69,28096,1,2,0:0:0:0:
45,65,28224,6,0,P|87:87|93:135,1,100,2|2,1:2|0:0,0:0:0:0:
8,249,28608,1,2,0:0:0:0:
0,236,28737,2,0,P|7:207|9:166,1,50,8|0,0:0|0:0,0:0:0:0:
91,306,28993,1,2,0:0:0:0:
90,320,29121,1,2,0:0:0:0:
85,334,29249,6,0,B|141:322|116:297|187:287,1,100,2|2,1:2|0:0,0:0:0:0:
300,374,29634,1,2,0:0:0:0:
287,366,29762,2,0,P|258:359|217:357,1,50,8|0,0:0|0:0,0:0:0:0:
298,205,30019,1,2,0:0:0:0:
311,199,30147,1,2,0:0:0:0:
325,199,30275,6,0,P|341:246|352:295,1,100,2|2,1:2|0:0,0:0:0:0:
438,384,30660,1,2,0:0:0:0:
433,369,30788,2,0,P|435:344|442:319,1,50,8|0,0:0|0:0,0:0:0:0:
503,210,31044,2,0,P|509:234|512:259,1,50,2|0,0:0|0:0,0:0:0:0:
462,95,31301,6,0,P|444:129|400:142,1,75.0000028610231,2|0,1:2|0:0,0:0:0:0:
327,101,31685,1,2,0:1:0:0:
326,85,31814,6,0,P|308:51|244:37,1,100,10|0,0:0|0:0,0:0:0:0:
164,59,32198,1,0,0:0:0:0:
149,70,32326,6,0,P|160:100|167:130,1,62.5,2|0,1:2|0:0,0:0:0:0:
56,225,32583,2,0,P|63:194|73:165,1,62.5,2|0,0:0|0:0,0:0:0:0:
164,59,32839,6,0,P|175:89|182:119,1,62.5,10|0,0:0|0:0,0:0:0:0:
37,236,33096,2,0,P|44:205|54:176,1,62.5,2|0,0:0|0:0,0:0:0:0:
48,361,33352,5,2,1:2:0:0:
69,330,33480,1,2,0:0:0:0:
102,312,33608,1,2,0:0:0:0:
140,311,33737,1,2,0:0:0:0:
220,339,33865,5,10,0:0:0:0:
250,338,33993,1,2,0:0:0:0:
276,323,34121,1,2,0:0:0:0:
293,298,34249,1,2,0:0:0:0:
310,215,34378,6,0,B|384:227|349:263|428:276,1,125,2|8,1:2|0:3,0:0:0:0:
492,217,34762,1,0,0:0:0:0:
508,183,34890,2,0,P|500:152|490:123,1,62.5,8|0,0:0|0:0,0:0:0:0:
383,19,35147,1,0,1:0:0:0:
399,28,35275,1,0,1:0:0:0:
409,45,35403,6,0,P|374:108|302:112,1,150.000005722046,4|2,1:2|0:0,0:0:0:0:
217,68,35788,1,2,0:1:0:0:
207,56,35916,2,0,P|213:31|220:7,1,50,10|0,0:0|0:0,0:0:0:0:
120,111,36173,2,0,P|113:86|106:62,1,50,2|0,0:0|0:0,0:0:0:0:
18,180,36429,6,0,P|42:186|66:193,1,50,2|0,1:2|0:0,0:0:0:0:
0,264,36685,2,0,P|24:270|48:277,1,50,2|0,0:0|0:0,0:0:0:0:
187,238,36942,6,0,P|162:244|138:251,1,50,10|0,0:0|0:0,0:0:0:0:
205,322,37198,2,0,P|180:328|156:335,1,50,2|0,0:0|0:0,0:0:0:0:
282,235,37455,6,0,P|288:259|294:283,1,50,2|0,1:2|0:0,0:0:0:0:
434,384,37711,1,2,0:0:0:0:
421,376,37839,1,2,0:1:0:0:
408,367,37967,2,0,P|383:360|359:354,1,50,10|0,0:0|0:0,0:0:0:0:
459,281,38224,2,0,P|483:274|507:268,1,50,2|0,0:0|0:0,0:0:0:0:
453,145,38480,6,0,P|447:170|440:194,1,50,2|0,1:2|0:0,0:0:0:0:
369,127,38737,2,0,P|363:152|356:176,1,50,2|0,0:0|0:0,0:0:0:0:
200,29,38993,6,0,P|206:54|213:78,1,50,10|0,0:0|0:0,0:0:0:0:
284,11,39249,2,0,P|290:36|297:60,1,50,2|0,0:0|0:0,0:0:0:0:
95,133,39506,6,0,P|119:139|143:145,1,50,2|0,1:2|0:0,0:0:0:0:
44,284,39762,1,2,0:0:0:0:
39,269,39890,1,2,0:1:0:0:
35,254,40019,2,0,P|29:230|23:206,1,50,8|0,0:0|0:0,0:0:0:0:
137,289,40275,2,0,P|131:313|125:337,1,50,2|0,0:0|0:0,0:0:0:0:
211,222,40532,6,0,B|264:239|264:239|268:243|268:243|316:258,1,112.500004291535,10|0,0:3|0:0,0:0:0:0:
322,276,40788,6,0,B|375:293|375:293|379:297|379:297|427:312,1,112.500004291535,10|0,0:3|0:0,0:0:0:0:
442,305,41044,6,0,P|458:257|469:208,1,100,8|2,0:0|0:0,0:0:0:0:
411,145,41429,1,0,0:0:0:0:
399,135,41557,6,0,P|375:141|351:147,1,50,2|0,1:2|0:0,0:0:0:0:
294,0,41814,1,2,0:0:0:0:
291,15,41942,1,2,0:1:0:0:
288,29,42070,2,0,P|282:53|276:77,1,50,8|0,0:0|0:0,0:0:0:0:
199,168,42326,2,0,P|193:144|187:120,1,50,2|0,0:0|0:0,0:0:0:0:
109,7,42583,6,0,B|61:39|61:39|77:103,1,112.500004291535,10|0,0:3|0:0,0:0:0:0:
80,110,42839,2,0,B|93:163|93:163|45:195,1,112.500004291535,10|0,0:3|0:0,0:0:0:0:
27,204,43096,6,0,P|33:228|39:252,1,50,8|0,0:0|0:0,0:0:0:0:
66,342,43352,6,0,B|130:331|101:301|163:288,1,112.500004291535
178,288,43608,6,0,P|226:304|275:315,1,100,4|2,1:2|0:0,0:0:0:0:
383,208,43993,1,2,0:1:0:0:
373,219,44121,2,0,P|367:243|361:267,1,50,10|0,0:0|0:0,0:0:0:0:
453,363,44378,2,0,P|447:339|441:315,1,50,2|0,0:0|0:0,0:0:0:0:
512,186,44634,6,0,P|489:143|441:138,1,100,2|0,1:2|0:0,0:0:0:0:
383,208,45019,1,0,0:0:0:0:
370,199,45147,2,0,P|346:193|322:187,1,50,10|0,0:0|0:0,0:0:0:0:
230,113,45403,2,0,P|254:107|278:101,1,50,2|0,0:0|0:0,0:0:0:0:
171,0,45660,6,0,P|165:24|159:48,1,50,2|0,1:2|0:0,0:0:0:0:
85,165,45916,1,2,0:0:0:0:
82,150,46044,1,2,0:1:0:0:
78,135,46173,2,0,P|72:111|66:87,1,50,10|0,0:0|0:0,0:0:0:0:
164,244,46429,2,0,P|170:220|176:196,1,50,2|0,0:0|0:0,0:0:0:0:
43,328,46685,6,0,P|67:322|91:316,1,50,2|0,1:2|0:0,0:0:0:0:
257,384,46942,1,2,0:0:0:0:
242,381,47070,1,0,0:0:0:0:
227,377,47198,2,0,P|203:371|179:365,1,50,10|0,0:0|0:0,0:0:0:0:
307,267,47455,2,0,P|283:273|259:279,1,50,2|0,0:0|0:0,0:0:0:0:
382,358,47711,6,0,P|389:326|397:294,1,62.5,2|0,1:2|0:0,0:0:0:0:
477,196,47967,2,0,P|484:226|492:256,1,62.5,2|2,1:2|0:1,0:0:0:0:
378,377,48224,6,0,P|354:279|330:182,1,200,12|2,0:0|0:0,0:0:0:0:
130,26,48737,6,0,P|122:57|114:89,1,62.5,2|0,1:2|0:0,0:0:0:0:
35,188,48993,2,0,P|27:157|20:127,1,62.5,2|0,1:2|0:0,0:0:0:0:
134,7,49249,6,0,P|157:104|181:201,1,200,12|2,0:0|0:0,0:0:0:0:
104,255,49634,1,0,0:0:0:0:
94,266,49762,6,0,P|84:313|114:352,1,100,6|0,1:2|0:0,0:0:0:0:
208,342,50147,1,2,0:1:0:0:
217,327,50275,6,0,P|223:271|185:229,1,112.500004291535,14|0,0:0|0:0,0:0:0:0:
188,231,50788,6,0,P|250:210|314:195,1,125,6|0,1:2|0:0,0:0:0:0:
428,132,51173,1,0,0:0:0:0:
408,124,51301,6,0,P|340:108|275:87,1,137.500001311302,14|0,0:0|0:0,0:0:0:0:
276,87,51814,6,0,P|257:91|239:96,3,37.5000014305115,4|0|0|2,1:2|0:0|0:0|0:1,0:0:0:0:
128,19,52326,2,0,P|152:25|176:31,3,50,8|0|0|0,0:0|0:0|0:0|0:0,0:0:0:0:
31,74,52839,5,0,1:2:0:0:
10,112,52967,1,0,0:0:0:0:
17,154,53096,1,0,0:0:0:0:
52,178,53224,1,0,0:0:0:0:
126,212,53352,5,8,0:0:0:0:
161,255,53480,1,0,0:0:0:0:
163,311,53608,1,0,0:0:0:0:
131,357,53737,1,0,0:0:0:0:
48,361,53865,6,0,P|40:324|27:288,1,75.0000028610231,4|0,1:2|0:0,0:0:0:0:
143,61,54121,2,0,P|130:96|122:133,1,75.0000028610231,4|0,1:2|0:0,0:0:0:0:
339,361,54378,6,0,P|346:324|359:288,1,75.0000028610231,4|0,1:2|0:0,0:0:0:0:
223,126,54634,2,0,P|235:161|243:198,1,75.0000028610231,4|0,1:2|0:0,0:0:0:0:
448,101,54890,5,4,1:2:0:0:
448,101,55147,6,0,P|441:126|436:151,2,50.0000019073487,0|0|0,1:2|1:2|1:2,0:0:0:0:
509,0,55403,6,0,L|512:31,1,25,0|0,1:2|0:0,0:0:0:0:
512,25,55916,6,0,P|476:12|439:5,1,75.0000028610231,6|0,1:2|0:0,0:0:0:0:
327,174,56173,1,2,0:0:0:0:
345,141,56301,1,2,0:1:0:0:
377,122,56429,2,0,P|412:109|448:102,1,75.0000028610231,10|0,0:0|0:0,0:0:0:0:
512,213,56685,2,0,P|476:200|440:193,1,75.0000028610231,2|0,0:0|0:0,0:0:0:0:
346,373,56942,6,0,B|436:358|391:319|473:303,1,150.000005722046,2|0,1:2|0:0,0:0:0:0:
327,174,57326,1,0,0:0:0:0:
314,209,57455,2,0,P|327:245|334:281,1,75.0000028610231,10|0,0:0|0:0,0:0:0:0:
224,384,57711,2,0,P|231:347|244:312,1,75.0000028610231,2|0,0:0|0:0,0:0:0:0:
89,251,57967,6,0,P|115:276|152:281,1,75.0000028610231,2|0,1:2|0:0,0:0:0:0:
68,161,58224,2,0,P|31:165|4:191,1,75.0000028610231,2|2,0:0|0:1,0:0:0:0:
158,188,58480,2,0,P|165:151|178:116,1,75.0000028610231,10|0,0:0|0:0,0:0:0:0:
73,0,58737,2,0,P|86:35|93:71,1,75.0000028610231,2|0,0:0|0:0,0:0:0:0:
255,171,58993,6,0,P|325:144|398:128,1,150.000005722046,2|0,1:2|0:0,0:0:0:0:
512,152,59378,1,0,0:0:0:0:
485,178,59506,2,0,P|471:213|464:249,1,75.0000028610231,8|0,0:0|0:0,0:0:0:0:
377,56,59762,2,0,P|390:91|398:128,1,75.0000028610231,2|0,0:0|0:0,0:0:0:0:
283,263,60019,6,0,P|210:261|168:202,1,150.000005722046,2|0,1:2|0:0,0:0:0:0:
186,74,60403,1,2,0:1:0:0:
212,47,60532,2,0,P|247:33|283:26,1,75.0000028610231,10|0,0:0|0:0,0:0:0:0:
102,123,60788,2,0,P|65:115|30:101,1,75.0000028610231,2|0,0:0|0:0,0:0:0:0:
41,273,61044,6,0,B|124:260|86:219|168:203,1,150.000005722046,2|0,1:2|0:0,0:0:0:0:
259,253,61429,1,0,0:0:0:0:
232,279,61557,2,0,P|218:314|211:350,1,75.0000028610231,10|0,0:0|0:0,0:0:0:0:
358,260,61814,2,0,P|350:223|336:188,1,75.0000028610231,2|0,0:0|0:0,0:0:0:0:
442,0,62070,5,2,1:2:0:0:
400,31,62198,1,2,0:0:0:0:
387,81,62326,1,2,0:0:0:0:
408,129,62455,1,2,0:0:0:0:
472,181,62583,5,10,0:0:0:0:
498,207,62711,1,2,0:0:0:0:
505,243,62839,1,2,0:0:0:0:
493,278,62967,1,2,0:0:0:0:
444,345,63096,6,0,P|419:348|395:356,3,50,2|2|10|2,1:2|0:0|0:3|0:0,0:0:0:0:
395,269,63608,1,10,0:3:0:0:
349,242,63737,1,8,0:3:0:0:
300,261,63865,2,0,P|286:295|278:332,1,75.0000028610231,8|0,0:0|0:0,0:0:0:0:
0,196,64121,6,0,P|36:183|73:176,1,75.0000028610231,6|0,1:2|0:0,0:0:0:0:
185,345,64378,1,2,0:0:0:0:
167,312,64506,1,2,0:1:0:0:
135,293,64634,2,0,P|100:280|64:273,1,75.0000028610231,10|0,0:0|0:0,0:0:0:0:
0,384,64890,2,0,P|36:371|72:364,1,75.0000028610231,2|0,0:0|0:0,0:0:0:0:
212,221,65147,6,0,P|229:151|177:102,1,150.000005722046,2|0,1:2|0:0,0:0:0:0:
77,77,65532,1,0,0:0:0:0:
51,104,65660,2,0,P|64:139|71:175,1,75.0000028610231,10|0,0:0|0:0,0:0:0:0:
177,102,65916,2,0,P|184:65|197:30,1,75.0000028610231,2|0,0:0|0:0,0:0:0:0:
276,191,66173,6,0,P|249:216|212:220,1,75.0000028610231,2|0,1:2|0:0,0:0:0:0:
297,24,66429,2,0,P|333:28|360:53,1,75.0000028610231,2|2,0:0|0:1,0:0:0:0:
386,225,66685,2,0,P|378:188|365:153,1,75.0000028610231,10|0,0:0|0:0,0:0:0:0:
468,29,66942,2,0,P|454:64|447:100,1,75.0000028610231,2|0,0:0|0:0,0:0:0:0:
512,271,67198,6,0,B|429:284|467:325|385:341,1,150.000005722046,2|0,1:2|0:0,0:0:0:0:
291,252,67583,1,0,0:0:0:0:
267,280,67711,2,0,P|280:315|287:351,1,75.0000028610231,8|0,0:0|0:0,0:0:0:0:
189,213,67967,2,0,P|175:248|168:284,1,75.0000028610231,2|0,0:0|0:0,0:0:0:0:
43,382,68224,6,0,P|26:308|0:238,1,150.000005722046,2|0,1:2|0:0,0:0:0:0:
88,104,68608,1,2,0:1:0:0:
112,132,68737,2,0,P|98:167|91:203,1,75.0000028610231,10|0,0:0|0:0,0:0:0:0:
205,118,68993,2,0,P|197:81|184:46,1,75.0000028610231,2|0,0:0|0:0,0:0:0:0:
405,137,69249,6,0,P|356:189|286:172,1,150.000005722046,2|0,1:2|0:0,0:0:0:0:
312,39,69634,1,0,0:0:0:0:
340,63,69762,2,0,P|375:49|411:42,1,75.0000028610231,8|0,0:0|0:0,0:0:0:0:
286,172,70019,2,0,P|250:158|214:151,1,75.0000028610231,2|0,0:0|0:0,0:0:0:0:
386,265,70275,6,0,P|392:282|397:300,2,37.5000014305115,8|8|8,0:3|0:3|0:3,0:0:0:0:
295,269,70532,1,8,0:3:0:0:
243,278,70660,1,8,0:3:0:0:
191,287,70788,2,0,P|177:322|170:358,1,75.0000028610231,8|0,0:3|0:0,0:0:0:0:
134,206,71044,6,0,P|116:199|98:194,2,37.5000014305115,8|8|8,0:3|0:3|0:3,0:0:0:0:
215,152,71301,1,8,0:3:0:0:
233,119,71429,1,8,0:3:0:0:
225,82,71557,2,0,P|190:68|154:61,1,75.0000028610231,8|0,0:3|0:0,0:0:0:0:
294,21,71814,2,0,P|330:13|365:0,1,75.0000028610231,8|0,0:0|0:0,0:0:0:0:
336,179,72070,2,0,P|328:142|314:107,1,75.0000028610231,2|0,0:0|0:0,0:0:0:0:
461,29,72326,6,0,B|477:18|493:-6|493:-6|472:118,1,175.00000166893,6|2,1:2|0:1,0:0:0:0:
503,206,72711,1,2,0:1:0:0:
481,236,72839,2,0,P|454:261|417:265,1,75.0000028610231,8|0,0:0|0:0,0:0:0:0:
392,349,73096,2,0,P|356:338|334:308,1,75.0000028610231,2|0,0:0|0:0,0:0:0:0:
190,198,73352,6,0,B|290:165|290:165|328:185|335:216,1,175.00000166893,2|0,1:2|0:0,0:0:0:0:
164,284,73737,1,0,0:0:0:0:
128,270,73865,2,0,P|103:243|99:206,1,75.0000028610231,8|0,0:0|0:0,0:0:0:0:
13,188,74121,2,0,P|23:152|53:130,1,75.0000028610231,2|0,0:0|0:0,0:0:0:0:
163,70,74378,6,0,P|127:62|92:49,1,75.0000028610231,2|0,1:2|0:0,0:0:0:0:
254,144,74634,2,0,P|218:152|183:165,1,75.0000028610231,2|2,0:0|0:1,0:0:0:0:
326,49,74890,2,0,P|290:41|255:28,1,75.0000028610231,10|0,0:0|0:0,0:0:0:0:
402,187,75147,2,0,P|366:195|331:208,1,75.0000028610231,2|0,0:0|0:0,0:0:0:0:
490,25,75403,2,0,P|454:17|419:4,1,75.0000028610231,2|0,1:2|0:0,0:0:0:0:
503,205,75660,6,0,B|496:163|496:163|497:160|497:160|489:119,1,87.500000834465,8|0,1:2|0:0,0:0:0:0:
317,295,75916,2,0,B|324:253|324:253|323:250|323:250|330:209,1,87.500000834465,8|0,1:2|0:0,0:0:0:0:
512,384,76173,1,2,0:0:0:0:
229,241,76429,6,0,B|131:256|176:304|79:323,1,175.00000166893,6|2,1:2|0:1,0:0:0:0:
8,258,76814,1,2,0:1:0:0:
11,219,76942,2,0,P|21:183|51:161,1,75.0000028610231,8|0,0:0|0:0,0:0:0:0:
24,80,77198,2,0,P|59:71|93:86,1,75.0000028610231,2|0,0:0|0:0,0:0:0:0:
339,80,77455,6,0,P|257:48|172:29,1,175.00000166893,2|0,1:2|0:0,0:0:0:0:
317,174,77839,1,0,0:0:0:0:
356,171,77967,2,0,P|391:160|413:130,1,75.0000028610231,8|0,0:0|0:0,0:0:0:0:
497,153,78224,2,0,P|505:117|490:83,1,75.0000028610231,2|0,0:0|0:0,0:0:0:0:
306,307,78480,6,0,P|319:342|327:378,1,75.0000028610231,2|0,1:2|0:0,0:0:0:0:
498,253,78737,1,2,0:0:0:0:
464,235,78865,1,2,0:0:0:0:
428,245,78993,2,0,P|414:280|406:316,1,75.0000028610231,10|0,0:0|0:0,0:0:0:0:
313,144,79249,2,0,P|326:179|334:215,1,75.0000028610231,2|0,0:0|0:0,0:0:0:0:
497,153,79506,2,0,P|460:144|425:131,1,75.0000028610231,2|0,1:2|0:0,0:0:0:0:
244,48,79762,6,0,B|286:41|286:41|289:42|289:42|329:34,1,87.500000834465,8|0,1:2|0:0,0:0:0:0:
155,231,80019,2,0,B|197:238|197:238|200:237|200:237|240:244,1,87.500000834465,8|0,1:2|0:0,0:0:0:0:
86,24,80275,1,2,0:0:0:0:
75,342,80532,6,0,B|59:353|43:377|43:377|64:251,1,175.00000166893,4|2,1:2|0:1,0:0:0:0:
5,183,80916,1,2,0:1:0:0:
13,145,81044,2,0,P|37:117|74:110,1,75.0000028610231,8|0,0:0|0:0,0:0:0:0:
86,24,81301,2,0,P|122:30|147:58,1,75.0000028610231,2|0,0:0|0:0,0:0:0:0:
311,69,81557,6,0,B|213:84|258:132|161:151,1,175.00000166893,2|0,1:2|0:0,0:0:0:0:
158,242,81942,1,0,0:0:0:0:
183,270,82070,2,0,P|218:281|253:269,1,75.0000028610231,8|0,0:0|0:0,0:0:0:0:
306,342,82326,2,0,P|333:317|340:280,1,75.0000028610231,2|0,0:0|0:0,0:0:0:0:
500,265,82583,6,0,P|464:251|428:243,1,75.0000028610231,2|0,1:2|0:0,0:0:0:0:
305,186,82839,2,0,P|341:177|376:164,1,75.0000028610231,2|2,0:0|0:1,0:0:0:0:
487,62,83096,2,0,P|473:97|465:133,1,75.0000028610231,10|0,0:0|0:0,0:0:0:0:
362,353,83352,2,0,P|353:316|340:281,1,75.0000028610231,2|0,0:0|0:0,0:0:0:0:
49,283,83608,6,0,P|83:346|154:356,1,150.000005722046,2|2,1:2|0:0,0:0:0:0:
248,263,83993,1,0,0:0:0:0:
212,250,84121,2,0,P|175:258|140:271,1,75.0000028610231,10|0,0:0|0:0,0:0:0:0:
9,176,84378,2,0,P|44:189|80:197,1,75.0000028610231,2|0,0:0|0:0,0:0:0:0:
371,108,84634,6,0,P|334:99|297:90,1,75.0000028610231,2|0,1:2|0:0,0:0:0:0:
142,17,84890,2,0,P|178:7|215:0,1,75.0000028610231,2|2,1:2|0:1,0:0:0:0:
386,112,85147,6,0,P|276:138|167:165,1,225.000008583069,12|0,1:2|0:0,0:0:0:0:
141,276,85660,6,0,P|177:284|214:293,1,75.0000028610231,2|0,1:2|0:0,0:0:0:0:
370,367,85916,2,0,P|333:376|296:384,1,75.0000028610231,2|0,1:2|0:0,0:0:0:0:
126,272,86173,6,0,P|235:245|344:218,1,225.000008583069,12|2,1:2|0:0,0:0:0:0:
483,14,86685,6,0,P|396:24|385:111,1,187.5,6|0,1:2|0:0,0:0:0:0:
391,126,86942,2,0,P|407:122|423:118,1,25,2|0,0:0|0:0,0:0:0:0:
505,242,87198,6,0,B|400:257|448:308|345:329,1,187.5,6|0,1:2|0:0,0:0:0:0:
329,332,87455,2,0,P|325:316|321:300,1,25,2|2,0:0|0:1,0:0:0:0:
284,114,87711,5,6,1:2:0:0:
