osu file format v14

[General]
AudioFilename: audio.mp3
AudioLeadIn: 0
PreviewTime: 50549
Countdown: 1
SampleSet: Soft
StackLeniency: 0.7
Mode: 0
LetterboxInBreaks: 0
WidescreenStoryboard: 1

[Editor]
DistanceSpacing: 1
BeatDivisor: 4
GridSize: 4
TimelineZoom: 2.699997

[Metadata]
Title:07734
TitleUnicode:07734
Artist:Araragi Koyomi (CV: Kamiya Hiroshi)
ArtistUnicode:阿良々木 暦 (CV: 神谷 浩史)
Creator:depzdai
Version:Hard
Source:続・終物語
Tags:meg rock zoku monogatari zokuomonogatari reverse final season opening hello goodbye
BeatmapID:1972703
BeatmapSetID:943071

[Difficulty]
HPDrainRate:5
CircleSize:3
OverallDifficulty:6.5
ApproachRate:8
SliderMultiplier:2
SliderTickRate:1

[Events]
//Background and Video events
0,0,"Raragi.jpg",0,0
//Break Periods
2,136315,143713
//Storyboard Layer 0 (Background)
//Storyboard Layer 1 (Fail)
//Storyboard Layer 2 (Pass)
//Storyboard Layer 3 (Foreground)
//Storyboard Sound Samples

[TimingPoints]
463,521.739130434783,4,2,1,80,1,0
463,-111.111111111111,4,2,1,60,0,0
16636,-125,4,2,7,60,0,0
17158,-100,4,2,1,80,0,0
25506,-100,4,2,2,80,0,0
31767,-100,4,2,1,80,0,0
33854,-125,4,2,3,80,0,0
41680,-100,4,2,7,80,0,0
42202,-100,4,2,1,80,0,0
67245,-125,4,2,1,40,0,0
67767,-125,4,2,1,5,0,0
67867,-125,4,2,1,40,0,0
68810,-90.9090909090909,4,2,7,60,0,0
69332,-100,4,2,1,80,0,0
70115,-100,4,2,2,80,0,0
70376,-100,4,2,1,80,0,0
71158,-100,4,2,2,80,0,0
71419,-100,4,2,1,80,0,0
73245,-100,4,2,2,80,0,0
73506,-100,4,2,1,80,0,0
74289,-100,4,2,2,80,0,0
74549,-100,4,2,1,80,0,0
75593,-100,4,2,2,80,0,0
80549,-100,4,2,8,80,0,0
80649,-100,4,2,2,80,0,0
81071,-100,4,2,8,80,0,0
81171,-100,4,2,2,80,0,0
81332,-100,4,2,1,80,0,0
82115,-100,4,2,8,80,0,0
82215,-100,4,2,1,80,0,0
83941,-90.9090909090909,4,2,1,80,0,0
84723,-90.9090909090909,4,2,1,5,0,0
84823,-90.9090909090909,4,2,1,80,0,0
85506,-90.9090909090909,4,2,1,5,0,0
85606,-90.9090909090909,4,2,1,80,0,0
86289,-125,4,2,1,60,0,0
87463,-125,4,2,1,5,0,0
87593,-90.9090909090909,4,2,1,80,0,0
87984,-90.9090909090909,4,2,1,5,0,0
88115,-90.9090909090909,4,2,1,80,0,0
88897,-90.9090909090909,4,2,1,5,0,0
88997,-90.9090909090909,4,2,1,80,0,0
89680,-90.9090909090909,4,2,1,5,0,0
89941,-90.9090909090909,4,2,1,80,0,0
90462,-125,4,2,1,60,0,0
91636,-125,4,2,1,5,0,0
91767,-90.9090909090909,4,2,1,80,0,0
92158,-90.9090909090909,4,2,1,5,0,0
92289,-100,4,2,3,80,0,0
95941,-90.9090909090909,4,2,3,80,0,0
96462,-100,4,2,3,80,0,0
100115,-90.9090909090909,4,2,3,80,0,0
100180,-90.9090909090909,4,2,3,10,0,0
100245,-90.9090909090909,4,2,3,20,0,0
100310,-90.9090909090909,4,2,3,35,0,0
100376,-90.9090909090909,4,2,3,50,0,0
100441,-90.9090909090909,4,2,3,65,0,0
100506,-90.9090909090909,4,2,3,80,0,0
100636,-100,4,2,3,80,0,0
103310,-100,4,2,3,5,0,0
103410,-100,4,2,3,80,0,0
103832,-100,4,2,3,5,0,0
103932,-100,4,2,3,80,0,0
104289,-83.3333333333333,4,2,3,80,0,0
104810,-100,4,2,3,80,0,0
108006,-100,4,2,3,5,0,0
108462,-111.111111111111,4,2,3,40,0,0
108984,-90.9090909090909,4,2,1,80,0,0
112636,-83.3333333333333,4,2,1,80,0,0
113158,-90.9090909090909,4,2,1,80,0,0
116810,-83.3333333333333,4,2,1,80,0,0
117332,-90.9090909090909,4,2,1,80,0,0
120984,-83.3333333333333,4,2,1,80,0,0
121506,-90.9090909090909,4,2,1,80,0,0
125158,-83.3333333333333,4,2,1,80,0,0
125680,-83.3333333333333,4,2,1,80,0,1
134028,-125,4,2,1,40,0,0
136115,-111.111111111111,4,2,1,60,0,0
152289,-111.111111111111,4,2,7,60,0,0
152810,-100,4,2,1,80,0,0
161158,-100,4,2,2,80,0,0
167419,-100,4,2,1,80,0,0
169506,-111.111111111111,4,2,1,10,0,0
169897,-111.111111111111,4,2,1,20,0,0
170289,-111.111111111111,4,2,1,35,0,0
170549,-100,4,2,1,50,0,0
170810,-100,4,2,1,65,0,0
171071,-83.3333333333333,4,2,7,80,0,0
171593,-90.9090909090909,4,2,1,80,0,0
177854,-90.9090909090909,4,2,1,80,0,1
186202,-100,4,2,1,80,0,0
194549,-90.9090909090909,4,2,1,80,0,1
198462,-83.3333333333333,4,2,1,80,0,1
202897,-166.666666666667,4,2,1,5,0,0
203419,-166.666666666667,4,2,1,10,0,0
203941,-166.666666666667,4,2,1,20,0,0
204462,-166.666666666667,4,2,1,30,0,0
204984,-166.666666666667,4,2,1,40,0,0
205506,-166.666666666667,4,2,1,50,0,0
206028,-166.666666666667,4,2,1,60,0,0
206549,-166.666666666667,4,2,1,5,0,0
206680,-166.666666666667,4,2,1,80,0,0
207071,-166.666666666667,4,2,1,70,0,0
207593,-166.666666666667,4,2,1,60,0,0
208115,-166.666666666667,4,2,1,50,0,0
208636,-166.666666666667,4,2,1,40,0,0
209158,-166.666666666667,4,2,1,30,0,0
209680,-166.666666666667,4,2,1,20,0,0
210202,-166.666666666667,4,2,1,10,0,0
210723,-166.666666666667,4,2,1,5,0,0

[Colours]
Combo1 : 158,158,158
Combo2 : 209,209,209

[HitObjects]
131,129,463,6,0,P|218:125|276:94,3,134.999995880127,0|0|0|0,0:0|0:0|0:0|0:0,0:0:0:0:
135,158,2028,2,0,P|123:210|129:268,1,89.9999972534181,0|0,0:0|0:0,0:0:0:0:
198,298,2549,6,0,P|285:302|343:333,3,134.999995880127,0|0|0|0,0:0|0:0|0:0|0:0,0:0:0:0:
202,269,4115,2,0,P|190:217|196:159,1,89.9999972534181
276,151,4636,6,0,P|272:64|241:6,3,134.999995880127
305,147,6202,2,0,P|357:159|415:153,1,89.9999972534181
370,245,6723,6,0,P|366:332|335:390,3,134.999995880127,0|0|0|0,0:0|0:0|0:0|0:0,0:0:0:0:
399,249,8288,2,0,P|451:237|509:243,1,89.9999972534181,0|0,0:0|0:0,0:0:0:0:
361,164,8810,6,0,P|304:128|238:125,1,134.999995880127,0|0,0:0|0:0,0:0:0:0:
169,241,9593,2,0,P|143:190|151:85,1,134.999995880127,0|0,0:0|0:0,0:0:0:0:
251,38,10376,2,0,P|253:83|238:125,1,89.9999972534181,0|8,0:0|0:1,0:0:0:0:
141,113,10897,6,0,P|140:180|169:241,1,134.999995880127,0|0,0:0|0:0,0:0:0:0:
303,241,11680,2,0,P|271:289|176:334,1,134.999995880127,0|0,0:0|0:0,0:0:0:0:
87,272,12463,2,0,P|124:248|169:241,1,89.9999972534181,0|8,0:0|0:1,0:0:0:0:
205,328,12984,6,0,P|264:295|303:241,1,134.999995880127,0|0,0:0|0:0,0:0:0:0:
238,125,13767,2,0,P|304:128|361:164,1,134.999995880127,0|0,0:0|0:0,0:0:0:0:
371,295,14549,2,0,P|331:275|303:241,1,89.9999972534181,0|8,0:0|0:1,0:0:0:0:
361,164,15071,6,0,P|370:99|356:26,1,134.999995880127,0|0,0:0|0:0,0:0:0:0:
261,7,15723,2,0,P|230:35|176:60,1,89.9999972534181,0|0,0:0|0:0,0:0:0:0:
137,57,16115,2,0,P|125:110|127:154,1,89.9999972534181,0|0,0:0|0:0,0:0:0:0:
105,241,16636,1,8,0:1:0:0:
100,229,17158,6,0,B|143:238|197:222|197:222|252:248|323:241,1,200,0|0,1:0|1:0,0:0:0:0:
287,256,18202,2,0,P|273:304|277:368,2,100,0|0|0,1:0|0:0|1:0,0:0:0:0:
438,124,19245,2,0,B|395:115|341:131|341:131|286:105|215:112,1,200,0|0,1:0|1:0,0:0:0:0:
251,97,20289,2,0,P|265:49|261:-15,1,100,0|0,1:0|0:0,0:0:0:0:
166,13,20810,1,0,1:0:0:0:
41,169,21332,6,0,B|77:204|79:248|79:248|52:275|49:325,1,150,0|0,1:0|0:0,0:0:0:0:
72,346,21854,2,0,P|110:360|189:353,1,100,0|0,1:0|0:0,0:0:0:0:
252,303,22376,2,0,P|251:255|265:186,2,100,0|0|0,1:0|0:0|1:0,0:0:0:0:
447,261,23419,6,0,B|411:226|409:182|409:182|445:142|441:71,1,200,0|0,1:0|1:0,0:0:0:0:
242,51,24463,2,0,P|282:87|346:101,1,100,0|0,1:0|0:0,0:0:0:0:
360,194,24984,1,0,1:0:0:0:
360,194,25115,2,0,P|320:230|256:244,1,100,0|0,0:0|0:0,0:0:0:0:
249,285,25506,6,0,B|203:237|144:257|144:257|135:281|110:328,1,150,0|0,1:0|0:0,0:0:0:0:
135,338,26028,1,0,1:0:0:0:
336,333,26549,2,0,B|382:381|441:361|441:361,1,100,0|8,1:0|0:0,0:0:0:0:
488,284,27071,2,0,P|473:238|465:173,1,100,0|8,1:0|0:0,0:0:0:0:
407,105,27593,6,0,B|377:130|363:175|363:175|304:195|258:147,1,200,0|0,1:0|1:0,0:0:0:0:
222,52,28376,1,8,0:0:0:0:
134,99,28636,2,0,P|89:89|31:93,1,100,0|8,1:0|0:0,0:0:0:0:
18,191,29158,1,0,1:0:0:0:
148,342,29680,6,0,B|148:284|190:239|190:239|177:212|176:186,1,150,0|0,1:0|0:0,0:0:0:0:
227,194,30202,2,0,P|237:151|283:86,1,100,0|8,1:0|0:0,0:0:0:0:
363,81,30723,2,0,P|411:120|423:196,1,100,0|8,1:0|0:0,0:0:0:0:
461,247,31245,2,0,P|410:262|345:257,1,100,0|8,1:0|0:0,0:0:0:0:
267,188,31767,6,0,B|267:246|225:291|225:291|244:323|242:392,1,200
341,358,32549,1,0,0:0:0:0:
439,342,32810,2,0,P|437:290|413:224,1,100,0|0,0:0|0:0,0:0:0:0:
396,129,33332,1,0,0:0:0:0:
383,151,33854,6,0,P|312:160|260:188,2,120,4|0|0,1:2|0:0|1:0,0:0:0:0:
446,212,34897,2,0,P|420:270|417:328,1,120,0|0,0:0|0:0,0:0:0:0:
248,165,35941,2,0,P|274:223|277:281,1,120,0|0,1:0|0:0,0:0:0:0:
253,315,36463,2,0,P|215:312|150:325,1,80,0|0,0:0|1:0,0:0:0:0:
93,281,36984,1,0,0:0:0:0:
77,274,37506,2,0,P|83:246|81:169,1,80,8|0,0:0|0:0,0:0:0:0:
138,124,38028,6,0,P|92:99|15:95,2,120,0|0|0,1:0|0:0|1:0,0:0:0:0:
221,95,39071,1,0,0:0:0:0:
240,102,39593,1,8,0:0:0:0:
403,37,40115,6,0,P|409:97|438:157,1,120,0|0,1:0|0:0,0:0:0:0:
474,165,40636,2,0,P|472:211|450:268,1,80,0|0,0:0|1:0,0:0:0:0:
374,248,41158,2,0,P|320:235|225:233,1,120,0|0,0:0|0:0,0:0:0:0:
287,276,41680,6,0,B|238:295|214:341|214:341|188:334|128:359,1,150,8|0,0:1|0:0,0:0:0:0:
110,334,42202,6,0,P|85:258|102:165,1,150,4|0,1:2|0:0,0:0:0:0:
129,149,42723,2,0,P|172:135|228:137,1,100,8|8,0:1|1:2,0:0:0:0:
304,59,43245,2,0,P|353:61|457:-6,1,150,0|0,0:0|0:0,0:0:0:0:
485,47,43767,2,0,P|488:96|501:144,1,100,8|8,0:1|0:0,0:0:0:0:
403,194,44289,6,0,P|428:270|411:363,1,150,0|0,1:0|0:0,0:0:0:0:
370,360,44810,1,8,0:1:0:0:
275,303,45071,1,8,1:2:0:0:
168,330,45332,2,0,P|113:317|65:286,1,100,0|8,0:0|0:0,0:0:0:0:
68,240,45723,1,0,1:0:0:0:
61,185,45854,2,0,P|72:140|116:98,1,100,8|8,0:1|0:0,0:0:0:0:
217,121,46376,6,0,P|276:84|379:129,1,150,4|0,1:2|0:0,0:0:0:0:
405,96,46897,2,0,P|395:158|410:224,1,100,8|8,0:1|1:2,0:0:0:0:
455,289,47419,2,0,P|396:326|293:281,1,150,0|0,0:0|0:0,0:0:0:0:
267,314,47941,1,8,0:1:0:0:
185,240,48202,1,8,1:2:0:0:
213,133,48463,6,0,B|222:118|248:109|248:109|300:153|395:127,1,150,0|0,1:2|0:0,0:0:0:0:
333,189,48984,2,0,P|351:247|332:317,1,100,8|8,0:1|1:2,0:0:0:0:
237,292,49506,2,0,B|227:306|201:315|201:315|149:271|54:297,1,150,0|0,0:0|0:0,0:0:0:0:
117,236,50028,2,0,P|98:177|100:151,2,50,8|8|0,0:1|0:1|1:0,0:0:0:0:
215,185,50549,6,0,P|231:133|221:49,1,100,6|8,1:2|0:0,0:0:0:0:
193,47,50941,1,2,0:0:0:0:
155,7,51071,2,0,P|101:26|48:28,1,100,8|10,0:1|1:2,0:0:0:0:
21,132,51593,2,0,P|91:140|185:196,1,150,2|0,0:0|0:0,0:0:0:0:
215,166,52115,1,8,0:1:0:0:
182,271,52376,1,8,0:0:0:0:
275,344,52636,6,0,P|291:292|281:208,1,100,6|8,1:2|0:0,0:0:0:0:
253,206,53028,1,2,0:0:0:0:
215,166,53158,2,0,P|241:131|320:104,1,100,8|10,0:1|1:2,0:0:0:0:
385,48,53680,2,0,P|418:145|409:213,1,150,2|0,0:0|1:0,0:0:0:0:
463,216,54202,2,0,P|464:278|481:315,1,100,8|8,0:1|0:0,0:0:0:0:
357,307,54723,6,0,P|313:333|240:346,1,100,6|8,1:2|0:0,0:0:0:0:
211,332,55115,1,2,0:0:0:0:
157,320,55245,1,8,0:1:0:0:
128,213,55506,1,10,1:2:0:0:
30,264,55767,2,0,P|15:322|18:370,1,100,2|8,0:0|0:0,0:0:0:0:
133,218,56289,1,8,0:1:0:0:
73,125,56549,1,8,1:2:0:0:
98,17,56810,6,0,P|151:15|229:46,1,100,6|8,1:2|0:0,0:0:0:0:
216,79,57202,1,2,0:0:0:0:
237,131,57332,2,0,P|284:120|368:124,1,100,8|10,0:1|1:2,0:0:0:0:
441,148,57854,2,0,P|457:195|450:278,1,100,2|8,0:0|0:0,0:0:0:0:
419,283,58245,1,0,0:0:0:0:
380,322,58376,1,8,0:1:0:0:
276,285,58636,1,8,1:2:0:0:
165,353,58897,6,0,P|161:297|135:223,1,100,6|8,1:2|0:0,0:0:0:0:
182,209,59289,1,2,0:0:0:0:
214,163,59419,2,0,P|180:128|133:113,1,100,8|10,0:1|1:2,0:0:0:0:
36,164,59941,2,0,P|81:223|149:254,1,150,2|0,0:0|0:0,0:0:0:0:
166,306,60463,1,8,0:1:0:0:
268,266,60723,1,8,0:0:0:0:
352,335,60984,6,0,P|394:350|470:342,1,100,6|8,1:2|0:0,0:0:0:0:
475,300,61376,1,2,0:0:0:0:
502,252,61506,2,0,P|484:213|475:139,1,100,8|10,0:1|1:2,0:0:0:0:
399,75,62028,2,0,P|340:135|320:207,1,150,2|0,0:0|1:0,0:0:0:0:
334,249,62549,2,0,P|276:260|197:240,1,100,8|0,0:1|0:0,0:0:0:0:
193,219,62941,1,0,0:0:0:0:
151,183,63071,6,0,B|116:211|84:220|84:220|117:278|92:352,1,200,0|8,1:2|1:0,0:0:0:0:
204,361,63854,1,8,0:0:0:0:
235,255,64115,2,0,B|270:227|302:218|302:218|269:160|294:86,1,200,0|8,1:2|1:0,0:0:0:0:
182,77,64898,1,8,0:0:0:0:
151,183,65158,6,0,P|110:210|50:226,1,100,8|8,1:0|1:0,0:0:0:0:
147,322,65680,1,8,1:0:0:0:
235,255,65941,1,8,1:0:0:0:
343,275,66202,2,0,P|380:306|408:341,3,50,8|8|8|8,1:0|1:0|1:0|1:0,0:0:0:0:
433,309,66723,1,8,1:0:0:0:
471,271,66853,1,8,1:0:0:0:
483,218,66983,1,8,1:0:0:0:
464,167,67114,1,8,1:0:0:0:
422,133,67245,6,0,B|321:107|357:154|250:125,1,160
252,102,68289,1,0,0:0:0:0:
155,118,68549,1,0,0:0:0:0:
58,134,68810,6,0,P|52:220|63:342,1,165.000005035401,8|0,0:1|0:0,0:0:0:0:
82,341,69332,6,0,B|202:378|144:312|288:352,1,200,0|0,1:0|1:0,0:0:0:0:
355,285,70115,2,0,P|366:308|372:332,1,50,2|2,0:0|0:0,0:0:0:0:
418,353,70376,2,0,P|465:323|492:241,1,100,0|0,1:0|0:0,0:0:0:0:
467,187,70897,1,0,1:0:0:0:
369,162,71158,2,0,P|358:139|352:115,1,50,2|2,0:0|0:0,0:0:0:0:
302,105,71419,6,0,B|276:108|256:127|256:127|228:124|208:113|208:113|191:128|165:131,1,150,0|0,1:0|0:0,0:0:0:0:
123,159,71941,2,0,P|79:135|81:62,1,100,0|0,1:0|0:0,0:0:0:0:
152,34,72463,2,0,P|192:20|260:33,1,100,0|0,1:0|0:0,0:0:0:0:
331,82,72984,1,0,1:0:0:0:
298,176,73245,2,0,P|300:222|289:254,1,50,2|2,0:0|0:0,0:0:0:0:
327,266,73506,6,0,B|361:262|388:237|388:237|425:241|452:256|452:256|475:235|510:231,1,200,0|0,1:0|1:0,0:0:0:0:
465,141,74289,2,0,P|463:95|474:63,1,50,2|2,0:0|0:0,0:0:0:0:
479,44,74549,2,0,P|431:33|337:38,1,100,0|0,1:0|0:0,0:0:0:0:
283,4,75071,2,0,P|226:52|141:48,1,150,0|0,1:0|0:0,0:0:0:0:
129,8,75593,6,0,P|140:61|49:134,1,150,0|0,1:0|0:0,0:0:0:0:
45,97,76115,1,0,1:0:0:0:
11,191,76376,2,0,P|11:234|21:269,1,50,10|2,0:0|0:0,0:0:0:0:
44,278,76636,2,0,P|85:296|166:294,1,100,0|8,1:0|0:0,0:0:0:0:
223,354,77158,1,0,1:0:0:0:
311,307,77419,2,0,P|311:264|301:229,1,50,10|2,0:0|0:0,0:0:0:0:
351,229,77680,6,0,P|408:181|472:180,2,100,0|8|0,1:0|0:0|1:0,0:0:0:0:
438,278,78463,2,0,P|438:321|448:356,1,50,10|2,0:0|0:0,0:0:0:0:
398,356,78723,1,0,1:0:0:0:
311,307,78984,1,8,0:0:0:0:
211,313,79245,2,0,P|168:297|101:296,1,100,0|10,0:0|0:0,0:0:0:0:
49,217,79767,6,0,P|32:164|94:60,1,150,0|0,1:0|0:0,0:0:0:0:
114,66,80289,1,0,1:0:0:0:
204,106,80549,1,8,0:0:0:0:
267,28,80810,2,0,P|313:52|388:60,1,100,0|8,1:0|0:0,0:0:0:0:
458,80,81332,2,0,P|457:129|479:174,1,100,0|8,1:0|0:0,0:0:0:0:
435,199,81724,1,0,0:0:0:0:
391,224,81854,6,0,P|408:277|312:387,1,200,0|0,1:0|0:0,0:0:0:0:
229,378,82636,1,8,0:0:0:0:
203,279,82897,2,0,P|253:286|303:282,2,100,0|8|0,0:0|0:0|0:0,0:0:0:0:
104,81,83941,6,0,B|163:73|203:38|203:38|248:64|273:108|273:108|317:88|342:54|342:54|374:68|386:85,1,330.000010070801,4|0,1:2|0:0,0:0:0:0:
477,145,84984,6,0,B|502:142|532:115|450:65|433:112|413:220|497:267,1,220.000006713867,4|0,1:2|0:0,0:0:0:0:
348,206,85767,6,0,B|368:255|345:302|345:302|326:341|360:369|360:369|383:382|423:358|395:295|346:313|346:313|302:329|237:293|237:293|202:329|194:373|194:373|183:271|85:281|85:281|112:300|157:289,1,715.000021820069,4|4,1:2|0:3,0:0:0:0:
170,258,87593,6,0,B|200:191|163:100|131:110|104:144,1,165.000005035401,4|0,1:2|0:0,0:0:0:0:
78,151,88115,6,0,B|87:184|141:199|179:152|179:152|197:121|210:71|267:76|267:76|313:95|374:79,1,330.000010070801,4|0,1:2|0:0,0:0:0:0:
451,163,89158,6,0,B|390:201|390:291|390:291|353:295|311:239,1,220.000006713867,4|0,1:2|0:0,0:0:0:0:
255,153,89941,6,0,B|245:117|303:120|294:170|263:171|263:171|242:171|178:164|190:40|190:40|142:131|70:118|70:118|143:207|90:260|90:260|119:231|168:233|168:233|202:254|248:259,1,715.000021820069,4|0,1:2|0:0,0:0:0:0:
269,262,91767,6,0,P|341:231|366:108,1,165.000005035401,4|0,1:2|0:0,0:0:0:0:
415,118,92289,6,0,P|406:93|400:29,1,50,6|2,1:2|0:0,0:0:0:0:
367,27,92549,2,0,P|318:43|229:29,1,100,2|8,0:0|1:0,0:0:0:0:
192,121,93071,2,0,P|183:146|177:210,1,50,2|2,0:0|0:0,0:0:0:0:
144,212,93332,6,0,P|95:196|6:210,1,100,6|0,1:2|0:0,0:0:0:0:
73,304,93854,1,2,1:2:0:0:
120,330,93984,2,0,P|169:330|217:314,1,100,2|2,0:0|0:0,0:0:0:0:
268,336,94376,6,0,P|271:246|306:189,1,150,6|0,1:2|0:0,0:0:0:0:
349,219,94897,2,0,P|396:212|472:224,1,100,8|0,1:0|0:0,0:0:0:0:
483,322,95419,1,0,1:0:0:0:
467,342,95941,6,0,B|421:360|358:339|358:339|329:357|285:357,1,165.000005035401,4|0,1:2|0:0,0:0:0:0:
253,340,96463,6,0,P|241:313|210:283,1,50,6|2,1:2|0:0,0:0:0:0:
185,263,96723,2,0,P|134:280|85:339,1,100,2|8,0:0|1:0,0:0:0:0:
78,202,97245,2,0,P|90:175|121:145,1,50,2|2,0:0|0:0,0:0:0:0:
146,125,97506,6,0,P|197:142|246:201,1,100,6|0,1:2|0:0,0:0:0:0:
328,224,98028,2,0,P|379:207|428:74,1,200,6|0,1:2|1:0,0:0:0:0:
323,50,98810,2,0,P|287:58|228:52,1,50,2|2,0:0|0:0,0:0:0:0:
230,26,99071,1,8,1:0:0:0:
120,12,99332,1,2,0:0:0:0:
38,85,99593,1,0,1:0:0:0:
25,111,100115,6,0,B|52:157|41:207|41:207|85:223|107:252,1,165.000005035401,4|0,1:2|0:0,0:0:0:0:
122,288,100636,6,0,P|143:275|167:267,1,50,6|2,1:2|0:0,0:0:0:0:
204,226,100897,2,0,P|216:287|253:342,1,100,2|8,0:0|1:0,0:0:0:0:
342,296,101419,2,0,P|363:308|387:316,1,50,2|2,0:0|0:0,0:0:0:0:
424,358,101680,6,0,P|436:297|473:242,1,100,6|0,1:2|0:0,0:0:0:0:
493,160,102202,1,2,1:2:0:0:
441,140,102332,2,0,P|429:79|392:24,1,100,2|2,0:0|0:0,0:0:0:0:
356,37,102723,6,0,P|302:86|195:60,1,150,6|0,1:2|0:0,0:0:0:0:
185,49,103245,2,0,P|139:67|101:107,1,100,8|0,1:0|0:0,0:0:0:0:
62,205,103767,1,0,1:0:0:0:
74,233,104289,2,0,B|94:254|117:257|117:257|189:246|226:156,1,179.999994506836,4|0,1:2|0:0,0:0:0:0:
241,131,104810,6,0,P|270:122|338:118,1,50,6|2,1:2|0:0,0:0:0:0:
333,86,105071,2,0,P|355:125|370:198,1,100,2|8,0:0|1:0,0:0:0:0:
391,286,105593,2,0,P|361:277|294:273,1,50,2|2,0:0|0:0,0:0:0:0:
299,241,105854,6,0,P|277:280|262:353,1,100,6|0,1:2|0:0,0:0:0:0:
364,372,106376,2,0,P|452:352|397:195,1,300,6|2,1:2|0:0,0:0:0:0:
350,218,107289,1,2,0:0:0:0:
299,241,107419,1,8,0:1:0:0:
201,190,107680,1,2,0:0:0:0:
120,265,107941,1,0,0:0:0:0:
94,277,108463,6,0,P|69:216|82:143,1,134.999995880127,0|0,0:0|0:0,0:0:0:0:
113,99,108984,6,0,P|144:102|199:95,1,55.0000016784668,6|2,1:2|0:0,0:0:0:0:
205,52,109245,2,0,P|246:28|337:17,1,110.000003356934,2|8,0:0|1:0,0:0:0:0:
376,114,109767,1,2,0:0:0:0:
355,170,109897,1,2,0:0:0:0:
334,226,110028,6,0,P|280:215|232:189,1,110.000003356934,6|0,1:2|0:0,0:0:0:0:
116,224,110549,2,0,P|108:199|92:170,2,55.0000016784668,8|2|0,1:0|0:0|0:0,0:0:0:0:
110,284,110941,1,2,0:0:0:0:
104,344,111071,6,0,P|166:294|245:309,1,165.000005035401,6|0,1:2|0:0,0:0:0:0:
274,255,111593,2,0,P|329:252|383:262,1,110.000003356934,8|0,1:0|0:0,0:0:0:0:
437,287,111984,1,0,0:0:0:0:
472,336,112115,1,0,1:2:0:0:
452,355,112636,6,0,B|452:320|458:293|458:293|447:272|441:246|441:246|454:222|454:159,1,179.999994506836,8|0,1:0|0:0,0:0:0:0:
426,125,113158,6,0,P|398:111|342:102,1,55.0000016784668,6|2,1:2|0:0,0:0:0:0:
337,56,113419,1,2,0:0:0:0:
232,116,113680,1,8,1:0:0:0:
154,23,113941,2,0,P|145:48|119:84,1,55.0000016784668,2|2,0:0|0:0,0:0:0:0:
70,84,114202,2,0,P|89:139|86:242,1,110.000003356934,6|0,1:2|0:0,0:0:0:0:
64,243,114593,1,0,0:0:0:0:
55,302,114723,6,0,P|97:365|217:362,1,165.000005035401,6|0,1:2|0:0,0:0:0:0:
235,354,115245,2,0,P|272:320|368:307,1,110.000003356934,0|2,1:2|0:0,0:0:0:0:
388,305,115636,1,2,0:0:0:0:
445,325,115767,2,0,P|434:275|470:186,1,110.000003356934,8|2,1:0|0:0,0:0:0:0:
479,168,116158,1,0,0:0:0:0:
458,110,116289,1,0,1:2:0:0:
472,87,116810,6,0,B|481:106|478:127|478:127|504:174|484:225|484:225|460:246|450:297,1,179.999994506836,4|0,1:2|0:0,0:0:0:0:
417,294,117332,6,0,P|390:284|328:279,1,55.0000016784668,6|2,1:2|0:0,0:0:0:0:
312,313,117593,2,0,P|278:258|281:192,1,110.000003356934,2|8,0:0|1:0,0:0:0:0:
315,95,118115,2,0,P|342:105|404:110,1,55.0000016784668,2|2,0:0|0:0,0:0:0:0:
420,76,118376,6,0,P|454:131|451:197,1,110.000003356934,6|0,1:2|0:0,0:0:0:0:
417,294,118897,2,0,P|395:266|385:231,1,55.0000016784668,8|2,1:0|0:0,0:0:0:0:
332,272,119158,2,0,P|296:277|261:268,1,55.0000016784668,0|2,0:0|0:0,0:0:0:0:
224,302,119419,5,6,1:2:0:0:
107,267,119680,2,0,P|120:233|145:207,1,55.0000016784668,0|0,0:0|0:0,0:0:0:0:
135,158,119941,1,8,1:0:0:0:
223,74,120202,2,0,P|244:102|255:137,1,55.0000016784668,0|0,0:0|0:0,0:0:0:0:
304,152,120463,2,0,P|305:223|279:277,1,110.000003356934,0|0,1:2|0:0,0:0:0:0:
236,285,120854,1,0,0:0:0:0:
242,344,120984,6,0,B|210:331|173:331|173:331|143:348|99:362|99:362|78:348|71:325,1,179.999994506836,8|0,1:0|0:0,0:0:0:0:
70,280,121506,6,0,P|81:251|89:209,1,55.0000016784668,6|2,1:2|0:0,0:0:0:0:
135,191,121767,1,2,0:0:0:0:
256,190,122028,1,8,1:0:0:0:
276,70,122289,2,0,P|247:80|179:85,1,55.0000016784668,2|2,0:0|0:0,0:0:0:0:
174,48,122549,2,0,P|118:31|37:54,1,110.000003356934,6|0,1:2|0:0,0:0:0:0:
44,94,122941,1,0,0:0:0:0:
21,150,123071,6,0,P|97:211|187:186,1,165.000005035401,6|0,1:2|0:0,0:0:0:0:
215,227,123593,2,0,P|225:254|228:299,1,55.0000016784668,0|0,1:2|0:0,0:0:0:0:
262,330,123854,1,2,0:0:0:0:
317,352,123984,1,2,0:0:0:0:
376,339,124115,2,0,P|395:296|392:214,1,110.000003356934,8|0,1:0|0:0,0:0:0:0:
358,119,124636,1,0,1:0:0:0:
241,150,124897,1,0,0:0:0:0:
242,17,125158,6,0,B|266:22|291:35|291:35|330:33|362:17|362:17|389:25|434:20,1,179.999994506836,4|0,1:2|0:0,0:0:0:0:
466,63,125680,6,0,P|454:106|452:164,1,59.9999981689454,0|0,1:2|0:0,0:0:0:0:
441,187,125941,2,0,P|397:198|346:225,1,59.9999981689454,8|0,1:0|0:0,0:0:0:0:
322,227,126202,2,0,P|290:195|241:164,1,59.9999981689454,0|0,1:0|0:0,0:0:0:0:
227,143,126463,2,0,P|239:99|241:41,1,59.9999981689454,8|0,1:0|0:0,0:0:0:0:
189,41,126723,2,0,P|168:19|145:0,1,59.9999981689454,0|0,1:0|0:0,0:0:0:0:
83,23,126984,2,0,P|54:29|26:40,1,59.9999981689454,8|0,1:0|0:0,0:0:0:0:
1,101,127245,1,0,1:0:0:0:
71,197,127506,1,8,1:0:0:0:
37,324,127767,6,0,P|58:346|81:365,1,59.9999981689454,0|0,1:0|0:0,0:0:0:0:
143,342,128028,2,0,P|172:336|200:325,1,59.9999981689454,8|0,1:0|0:0,0:0:0:0:
211,259,128289,2,0,P|220:230|224:201,1,59.9999981689454,0|0,1:0|0:0,0:0:0:0:
234,134,128549,2,0,P|263:128|291:117,1,59.9999981689454,8|0,1:0|0:0,0:0:0:0:
354,94,128810,2,0,P|375:116|398:135,1,59.9999981689454,0|0,1:0|0:0,0:0:0:0:
450,176,129071,2,0,P|440:204|436:233,1,59.9999981689454,8|0,1:0|0:0,0:0:0:0:
450,298,129332,1,0,1:0:0:0:
326,344,129593,1,8,1:0:0:0:
180,273,129854,5,8,1:0:0:0:
236,239,129984,2,0,P|241:183|223:112,1,119.999996337891,8|8,1:0|1:0,0:0:0:0:
193,65,130376,2,0,P|137:60|66:78,1,119.999996337891,8|8,1:0|1:0,0:0:0:0:
19,107,130767,2,0,P|14:163|32:234,1,119.999996337891,8|8,1:0|1:0,0:0:0:0:
62,281,131158,2,0,P|118:286|189:268,1,119.999996337891,8|8,1:0|1:0,0:0:0:0:
236,239,131549,1,8,1:0:0:0:
297,213,131680,1,8,1:0:0:0:
362,212,131810,1,8,1:0:0:0:
424,233,131941,6,0,P|430:258|433:302,2,59.9999981689454,8|8|8,1:0|1:0|1:0,0:0:0:0:
446,154,132332,2,0,P|471:156|514:166,2,59.9999981689454,8|8|8,1:0|1:0|1:0,0:0:0:0:
377,108,132723,1,8,1:0:0:0:
377,108,132854,2,0,P|386:84|410:46,1,59.9999981689454,8|8,1:0|1:0,0:0:0:0:
311,157,133115,1,8,1:0:0:0:
311,157,133245,2,0,P|289:138|269:115,1,59.9999981689454,8|8,1:0|1:0,0:0:0:0:
341,236,133506,5,8,1:0:0:0:
273,267,133636,1,8,1:0:0:0:
198,275,133766,1,8,1:0:0:0:
125,259,133897,1,8,1:0:0:0:
61,222,134029,6,0,P|105:161|135:201,1,120
84,189,134549,2,0,P|92:114|138:133,1,120
151,139,135071,2,0,P|195:78|225:118,1,120
174,106,135591,2,0,P|182:31|228:50,1,120
241,56,136115,5,4,0:0:0:0:
377,88,144463,6,0,B|398:102|405:128|405:128|360:162|363:236,1,134.999995880127,0|0,0:0|0:0,0:0:0:0:
231,223,145245,2,0,B|259:241|274:295|274:295|300:302|323:291,1,134.999995880127,0|0,0:0|0:0,0:0:0:0:
443,233,146028,2,0,P|408:206|363:200,1,89.9999972534181,0|8,0:0|0:1,0:0:0:0:
323,291,146549,6,0,B|300:302|274:295|274:295|259:241|231:223,1,134.999995880127,0|0,0:0|0:0,0:0:0:0:
278,97,147332,2,0,B|248:112|193:98|193:98|174:117|173:142,1,134.999995880127,0|0,0:0|0:0,0:0:0:0:
162,275,148115,2,0,P|203:258|231:223,1,89.9999972534181,0|8,0:0|0:1,0:0:0:0:
173,142,148636,6,0,B|174:117|193:98|193:98|248:112|278:97,1,134.999995880127,0|0,0:0|0:0,0:0:0:0:
364,201,149419,2,0,B|365:168|405:127|405:127|398:101|377:88,1,134.999995880127,0|0,0:0|0:0,0:0:0:0:
266,11,150202,2,0,P|260:55|277:97,1,89.9999972534181,0|8,0:0|0:1,0:0:0:0:
377,88,150723,6,0,B|424:109|469:93|469:93|484:118|508:128,1,134.999995880127,0|0,0:0|0:0,0:0:0:0:
504,221,151376,2,0,P|455:230|406:266,1,89.9999972534181,0|0,0:0|0:0,0:0:0:0:
401,296,151767,2,0,P|363:263|310:245,1,89.9999972534181,0|0,0:0|0:0,0:0:0:0:
218,257,152289,1,8,0:1:0:0:
227,248,152810,6,0,B|210:196|241:144|241:144|222:125|214:78,1,150,0|0,1:0|0:0,0:0:0:0:
228,58,153332,1,0,1:0:0:0:
245,46,153854,2,0,P|296:52|369:41,2,100,0|0|0,1:0|0:0|1:0,0:0:0:0:
426,130,154897,6,0,B|443:182|412:234|412:234|446:276|435:334,1,200,0|0,1:0|1:0,0:0:0:0:
420,338,155941,2,0,P|369:332|296:343,2,100,0|0|0,1:0|0:0|1:0,0:0:0:0:
275,199,156984,2,0,B|195:168|136:217|136:217|135:238|139:260,1,150,0|0,1:0|0:0,0:0:0:0:
143,267,157506,2,0,P|96:215|65:200,1,100,0|0,1:0|0:0,0:0:0:0:
103,107,158028,2,0,P|99:66|116:-15,2,100,0|0|0,1:0|0:0|1:0,0:0:0:0:
300,77,159071,6,0,B|380:108|439:59|439:59|447:16|413:-16,1,200,0|0,1:0|1:0,0:0:0:0:
448,12,160115,2,0,P|452:53|435:134,1,100,0|0,1:0|0:0,0:0:0:0:
481,203,160636,1,0,1:0:0:0:
481,203,160767,2,0,P|442:224|356:229,1,100,0|0,0:0|0:0,0:0:0:0:
353,269,161158,6,0,B|303:249|255:266|255:266|271:294|269:324,1,150,0|0,1:0|0:0,0:0:0:0:
242,355,161680,2,0,P|184:349|156:307,1,100,0|8,1:0|0:0,0:0:0:0:
86,249,162202,2,0,P|99:191|97:130,1,100,0|8,1:0|0:0,0:0:0:0:
68,55,162723,1,0,1:0:0:0:
267,37,163245,6,0,B|317:57|365:40,2,100,0|8|0,1:0|0:0|1:0,0:0:0:0:
187,98,164028,1,8,0:0:0:0:
280,137,164289,2,0,B|287:190|326:223,1,100,0|8,1:0|0:0,0:0:0:0:
406,162,164810,2,0,B|415:112|458:79,1,100,0|8,1:0|0:0,0:0:0:0:
510,192,165332,6,0,P|509:264|423:318,1,150,0|0,1:0|0:0,0:0:0:0:
418,347,165854,2,0,P|360:339|296:342,1,100,0|8,1:0|0:0,0:0:0:0:
253,263,166376,1,0,1:0:0:0:
161,310,166636,1,8,0:0:0:0:
76,239,166897,2,0,P|67:187|69:97,1,100,0|8,1:0|0:0,0:0:0:0:
155,62,167419,6,0,B|170:97|197:109|197:109|247:77|334:86,1,200
376,184,168202,1,0,0:0:0:0:
466,120,168463,2,0,P|445:74|416:33,1,100
308,70,168984,1,0,0:0:0:0:
327,85,169506,6,0,P|250:89|189:110,2,134.999995880127,0|0|0,0:0|0:0|0:0,0:0:0:0:
291,178,170549,2,0,P|231:133|191:69,1,150,0|0,0:0|0:0,0:0:0:0:
178,128,171071,6,0,B|160:148|137:157|137:157|140:195|124:228|124:228|95:238|75:259,1,179.999994506836,8|0,0:1|0:0,0:0:0:0:
70,317,171593,6,0,P|102:349|200:325,1,110.000003356934,4|0,1:2|0:0,0:0:0:0:
212,315,171984,1,8,0:1:0:0:
258,276,172115,2,0,P|267:232|256:122,1,110.000003356934,0|8,1:0|0:1,0:0:0:0:
379,124,172636,2,0,P|382:213|411:311,1,165.000005035401,0|8,1:0|0:1,0:0:0:0:
455,313,173158,1,0,1:2:0:0:
501,201,173419,1,8,0:1:0:0:
451,90,173680,6,0,P|400:108|314:92,1,110.000003356934,4|0,1:2|0:0,0:0:0:0:
304,59,174071,1,8,0:1:0:0:
244,44,174202,2,0,P|232:110|188:164,1,110.000003356934,0|8,1:0|0:1,0:0:0:0:
113,219,174723,2,0,P|172:260|210:361,1,165.000005035401,0|8,1:0|0:1,0:0:0:0:
148,334,175245,1,0,1:0:0:0:
268,239,175506,2,0,P|287:277|297:326,1,55.0000016784668,8|0,0:1|0:0,0:0:0:0:
326,343,175767,6,0,P|357:267|423:219,1,165.000005035401,4|8,1:2|0:1,0:0:0:0:
487,232,176289,1,0,1:0:0:0:
478,106,176549,2,0,P|441:104|395:94,1,55.0000016784668,8|0,0:1|0:0,0:0:0:0:
389,47,176810,6,0,P|313:33|231:81,1,165.000005035401,0|8,1:0|0:1,0:0:0:0:
221,133,177332,1,0,1:0:0:0:
100,125,177593,1,8,0:1:0:0:
48,156,177723,1,8,0:1:0:0:
10,203,177854,6,0,P|3:272|24:321,1,110.000003356934,4|0,1:2|0:1,0:0:0:0:
71,335,178245,1,8,0:1:0:0:
123,304,178376,2,0,P|179:344|232:350,1,110.000003356934,2|10,1:0|0:1,0:0:0:0:
268,317,178767,1,2,0:1:0:0:
267,256,178897,2,0,P|304:216|355:196,1,110.000003356934,2|0,1:0|0:0,0:0:0:0:
357,114,179289,2,0,P|410:126|452:160,1,110.000003356934,10|0,0:1|0:0,0:0:0:0:
499,229,179680,1,10,0:1:0:0:
383,293,179941,6,0,P|329:275|252:271,1,110.000003356934,4|0,1:2|0:0,0:0:0:0:
220,293,180332,1,8,0:1:0:0:
183,341,180463,2,0,P|171:285|136:216,1,110.000003356934,2|10,1:0|0:1,0:0:0:0:
96,208,180854,1,2,0:1:0:0:
35,199,180984,2,0,P|67:154|108:118,1,110.000003356934,2|0,1:0|0:0,0:0:0:0:
111,35,181376,2,0,P|165:40|217:57,1,110.000003356934,10|0,0:1|0:0,0:0:0:0:
276,118,181767,2,0,P|315:108|341:95,1,55.0000016784668,8|8,0:1|0:1,0:0:0:0:
407,134,182028,6,0,P|392:186|401:240,1,110.000003356934,4|2,1:2|0:1,0:0:0:0:
340,240,182419,1,8,0:1:0:0:
282,220,182549,2,0,P|229:234|186:268,1,110.000003356934,2|10,1:0|0:1,0:0:0:0:
156,215,182940,1,2,0:1:0:0:
144,154,183071,2,0,P|93:134|54:95,1,110.000003356934,2|0,1:0|0:0,0:0:0:0:
127,52,183463,2,0,P|169:17|222:3,1,110.000003356934,10|0,0:1|0:0,0:0:0:0:
304,20,183854,1,10,0:1:0:0:
238,134,184115,6,0,P|225:195|236:279,1,110.000003356934,4|0,1:2|0:0,0:0:0:0:
282,266,184506,1,8,0:1:0:0:
327,226,184636,2,0,P|373:267|451:300,1,110.000003356934,2|10,1:0|0:1,0:0:0:0:
464,254,185028,1,2,0:1:0:0:
454,194,185158,2,0,P|467:133|456:49,1,110.000003356934,4|0,1:2|0:0,0:0:0:0:
382,97,185549,2,0,P|336:56|258:23,1,110.000003356934,10|0,0:1|0:0,0:0:0:0:
213,24,185941,1,10,0:1:0:0:
133,39,186071,1,8,0:1:0:0:
68,90,186202,6,0,B|12:164|55:231|55:231|83:229|125:240,1,200,4|8,1:2|1:0,0:0:0:0:
165,337,186984,1,0,0:0:0:0:
251,253,187245,2,0,B|307:179|264:112|264:112|236:114|194:103,1,200,8|8,1:0|1:0,0:0:0:0:
154,6,188027,1,0,0:0:0:0:
273,15,188289,6,0,B|346:35|417:6|417:6|432:46|473:75,1,200,8|8,1:0|1:0,0:0:0:0:
506,153,189071,1,0,0:0:0:0:
389,182,189333,2,0,B|316:162|245:191|245:191|230:151|189:122,1,200,8|8,1:0|1:0,0:0:0:0:
97,135,190115,1,0,0:0:0:0:
89,257,190376,6,0,B|78:296|94:334|94:334|130:325|168:338|168:338|188:357|215:360,1,200,4|8,1:2|1:0,0:0:0:0:
336,339,191158,1,0,0:0:0:0:
368,213,191419,2,0,B|379:174|363:136|363:136|327:145|289:132|289:132|269:113|242:110,1,200,8|8,1:0|1:0,0:0:0:0:
141,186,192202,1,0,0:0:0:0:
210,296,192463,6,0,B|239:298|264:291|264:291|288:317|320:331|320:331|338:314|359:309|359:309|375:317|397:320,1,200,4|8,1:2|1:0,0:0:0:0:
480,227,193245,1,0,0:0:0:0:
402,123,193506,2,0,B|372:120|347:127|347:127|323:101|292:88|292:88|274:105|253:110|253:110|237:102|215:99,1,200,8|8,1:0|1:0,0:0:0:0:
110,34,194289,1,0,0:0:0:0:
25,149,194549,6,0,P|26:220|63:291,1,110.000003356934,4|8,1:2|1:0,0:0:0:0:
81,301,194941,1,0,0:0:0:0:
126,341,195071,2,0,P|163:300|211:274,1,110.000003356934,8|8,1:0|1:0,0:0:0:0:
300,154,195593,2,0,P|301:225|338:296,1,110.000003356934,8|8,1:0|1:0,0:0:0:0:
358,303,195984,1,0,0:0:0:0:
401,346,196115,2,0,P|438:305|486:279,1,110.000003356934,8|8,1:0|1:0,0:0:0:0:
499,220,196506,1,0,0:0:0:0:
470,166,196636,6,0,P|412:149|329:155,1,110.000003356934,8|8,1:0|1:0,0:0:0:0:
342,90,197028,1,0,0:0:0:0:
287,63,197158,2,0,P|243:104|206:179,1,110.000003356934,8|8,1:0|1:0,0:0:0:0:
226,207,197549,1,0,0:0:0:0:
256,259,197680,6,0,P|198:242|115:248,1,110.000003356934,8|8,1:0|1:0,0:0:0:0:
128,183,198072,1,0,0:0:0:0:
73,156,198202,2,0,P|29:197|-7:272,1,110.000003356934,8|8,1:0|1:0,0:0:0:0:
12,300,198593,1,8,1:0:0:0:
42,352,198723,6,0,P|74:358|123:348,1,59.9999981689454,4|8,1:2|1:0,0:0:0:0:
172,369,198984,2,0,P|187:340|193:290,1,59.9999981689454,8|8,1:0|1:0,0:0:0:0:
228,250,199245,2,0,P|205:226|160:205,1,59.9999981689454,8|8,1:0|1:0,0:0:0:0:
132,159,199505,2,0,P|147:130|153:80,1,59.9999981689454,8|8,1:0|1:0,0:0:0:0:
188,39,199767,6,0,P|220:45|269:35,1,59.9999981689454,4|8,1:2|1:0,0:0:0:0:
319,56,200027,2,0,P|323:88|347:131,1,59.9999981689454,8|8,1:0|1:0,0:0:0:0:
344,186,200289,2,0,P|376:192|425:182,1,59.9999981689454,8|8,1:0|1:0,0:0:0:0:
475,202,200549,2,0,P|490:173|496:123,1,59.9999981689454,8|8,1:0|1:0,0:0:0:0:
473,70,200810,5,4,1:2:0:0:
425,34,200940,1,8,1:0:0:0:
366,26,201070,1,8,1:0:0:0:
311,47,201201,1,8,1:0:0:0:
272,92,201331,5,4,1:2:0:0:
217,113,201463,1,8,1:0:0:0:
158,105,201593,1,8,1:0:0:0:
111,70,201723,1,8,1:0:0:0:
31,104,201854,6,0,P|29:119|22:136,6,29.9999990844727,4|0|8|0|8|0|8,1:2|0:0|1:0|0:0|1:0|0:0|1:0,0:0:0:0:
61,169,202376,6,0,P|68:181|78:192,6,29.9999990844727,4|0|8|0|8|0|8,1:2|0:0|1:0|0:0|1:0|0:0|1:0,0:0:0:0:
256,192,202897,12,0,206549,0:0:0:0:
11,58,206680,6,0,B|-12:113|17:171|85:162|114:129|112:55|74:8|74:8|130:23|181:15|181:15|197:117|135:190|135:190|177:192|213:180|213:180|191:277|230:364|230:364|251:351|279:351|279:351|330:352|349:309|333:267|284:262|284:262|333:265|357:221|341:175|291:169|291:169|351:174|405:156|405:156|429:211|406:269|406:269|447:247|489:246|489:246|493:210|499:175|499:175|496:265|507:361,1,1769.99994598389,2|0,0:1|0:0,0:0:0:0:
