osu file format v14

[General]
AudioFilename: audio.mp3
AudioLeadIn: 0
PreviewTime: -1
Countdown: 1
SampleSet: Normal
StackLeniency: 0.7
Mode: 0
LetterboxInBreaks: 0
WidescreenStoryboard: 0

[Editor]
Bookmarks: 9865,17065
DistanceSpacing: 1.8
BeatDivisor: 4
GridSize: 4
TimelineZoom: 2.999999

[Metadata]
Title:Xperanza
TitleUnicode:Xperanza
Artist:Aran
ArtistUnicode:Aran
Creator:Supreme
Version:Pretty damn hard i guess
Source:
Tags:
BeatmapID:1981455
BeatmapSetID:948834

[Difficulty]
HPDrainRate:6
CircleSize:4
OverallDifficulty:7
ApproachRate:9.5
SliderMultiplier:1.8
SliderTickRate:1

[Events]
//Background and Video events
//Break Periods
//Storyboard Layer 0 (Background)
//Storyboard Layer 1 (Fail)
//Storyboard Layer 2 (Pass)
//Storyboard Layer 3 (Foreground)
//Storyboard Sound Samples

[TimingPoints]
2065,300,4,1,0,100,1,0
2065,-153.846153846153,4,1,0,60,0,0
11665,-105.263157894737,4,1,0,60,0,0
12865,-153.846153846154,4,1,0,60,0,0
14065,-100,4,1,0,60,0,0
16465,-153.846153846154,4,1,0,60,0,0
16465,-100,4,1,0,60,0,0
16765,-153.846153846154,4,1,0,60,0,0
17065,-100,4,1,0,60,0,0
17365,-153.846153846153,4,1,0,60,0,0
17665,-100,4,1,0,60,0,0
17965,-153.846153846153,4,1,0,60,0,0
20065,-100,4,1,0,60,0,0
25765,-333.333333333333,4,1,0,60,0,0
26215,-100,4,1,0,60,0,0
29065,-76.9230769230769,4,1,0,60,0,0
29365,-100,4,1,0,60,0,0

[HitObjects]
256,192,865,12,0,1765,0:0:0:0:
106,78,2065,5,0,0:0:0:0:
208,247,2365,1,0,0:0:0:0:
404,67,2815,1,0,0:0:0:0:
310,67,2965,1,0,0:0:0:0:
216,64,3115,1,0,0:0:0:0:
263,154,3265,5,0,0:0:0:0:
390,184,3415,2,0,P|411:141|400:64,1,116.999994644165
263,154,3865,5,0,0:0:0:0:
389,269,4015,1,0,0:0:0:0:
442,56,4165,2,0,P|398:64|363:55,1,58.4999973220826
304,73,4465,6,0,P|314:117|285:176,1,87.749995983124
249,222,4765,2,0,P|223:192|189:168,1,58.4999973220826
132,106,5065,1,0,0:0:0:0:
53,166,5215,1,0,0:0:0:0:
118,240,5365,1,0,0:0:0:0:
132,106,5515,1,0,0:0:0:0:
116,260,5665,6,0,P|147:271|170:293,1,58.4999973220826
36,351,5965,2,0,L|42:280,1,58.4999973220826
124,181,6265,2,0,L|118:239,1,58.4999973220826
53,131,6565,2,0,L|59:60,1,58.4999973220826
356,60,6865,6,0,P|344:107|364:150,1,87.749995983124
418,209,7165,2,0,L|358:260,1,58.4999973220826
294,319,7465,1,0,0:0:0:0:
217,243,7615,1,0,0:0:0:0:
137,316,7765,1,0,0:0:0:0:
57,246,7915,1,0,0:0:0:0:
136,176,8065,1,0,0:0:0:0:
222,64,8215,6,0,P|302:76|332:65,1,87.749995983124
337,51,8515,2,0,P|357:87|357:116,1,58.4999973220826
438,154,8815,2,0,P|417:187|396:207,1,58.4999973220826
299,227,9115,1,0,0:0:0:0:
148,348,9265,6,0,P|196:358|243:349,1,87.749995983124
259,329,9565,2,0,P|227:317|206:285,1,58.4999973220826
252,198,9865,2,0,P|284:210|305:242,1,58.4999973220826
154,203,10165,2,0,P|152:161|173:127,1,58.4999973220826
247,83,10465,5,0,0:0:0:0:
73,48,10615,1,0,0:0:0:0:
158,150,10765,5,0,0:0:0:0:
155,18,10915,1,0,0:0:0:0:
33,85,11065,1,0,0:0:0:0:
158,150,11215,1,0,0:0:0:0:
247,98,11365,6,0,P|278:114|329:103,1,87.749995983124
381,35,11665,2,0,B|447:84|410:127|392:161|441:209,1,170.999995433807
495,277,12115,1,0,0:0:0:0:
326,337,12265,1,0,0:0:0:0:
251,294,12415,1,0,0:0:0:0:
184,239,12565,1,0,0:0:0:0:
259,199,12715,5,0,0:0:0:0:
163,354,12865,2,0,P|112:335|93:315,1,58.4999973220826
135,165,13165,1,0,0:0:0:0:
382,120,13315,6,0,P|374:171|397:223,1,87.749995983124
438,282,13615,2,0,P|417:304|374:311,1,58.4999973220826
251,294,13915,1,0,0:0:0:0:
379,191,14065,2,0,P|321:163|333:64,1,175.499991966248
382,120,14515,5,0,0:0:0:0:
244,72,14665,1,0,0:0:0:0:
179,185,14815,5,0,0:0:0:0:
305,122,14965,1,0,0:0:0:0:
372,204,15115,5,0,0:0:0:0:
245,157,15265,1,0,0:0:0:0:
190,294,15415,5,0,0:0:0:0:
293,219,15565,1,0,0:0:0:0:
123,338,15715,2,0,P|107:286|124:251,1,85.4999977169037
213,137,16015,2,0,L|202:239,1,85.4999977169037
71,121,16315,1,0,0:0:0:0:
220,18,16465,6,0,P|269:37|308:35,1,90
437,125,16765,2,0,P|388:106|360:108,1,58.4999973220826
203,222,17065,2,0,L|280:165,1,90
304,337,17365,2,0,L|224:309,1,58.4999973220826
97,195,17665,2,0,P|109:145|95:110,1,90
24,251,17965,2,0,P|48:287|80:300,1,58.4999973220826
178,217,18265,5,0,0:0:0:0:
236,347,18415,1,0,0:0:0:0:
229,129,18565,5,0,0:0:0:0:
210,277,18715,1,0,0:0:0:0:
102,334,18865,5,0,0:0:0:0:
58,316,18940,1,0,0:0:0:0:
37,273,19015,1,0,0:0:0:0:
37,225,19090,1,0,0:0:0:0:
62,185,19165,1,0,0:0:0:0:
105,168,19240,1,0,0:0:0:0:
150,180,19315,1,0,0:0:0:0:
178,217,19390,1,0,0:0:0:0:
219,239,19465,5,0,0:0:0:0:
265,237,19540,1,0,0:0:0:0:
300,206,19615,1,0,0:0:0:0:
308,159,19690,1,0,0:0:0:0:
296,113,19765,1,0,0:0:0:0:
262,80,19840,1,0,0:0:0:0:
215,75,19915,1,0,0:0:0:0:
174,99,19990,1,0,0:0:0:0:
162,145,20065,6,0,L|207:160,3,42.7499988584519
66,107,20365,2,0,L|82:60,4,45
37,221,20815,1,0,0:0:0:0:
148,311,20965,2,0,L|191:279,1,45
212,134,21115,2,0,L|169:166,1,45
372,87,21265,5,0,0:0:0:0:
383,105,21340,1,0,0:0:0:0:
392,123,21415,1,0,0:0:0:0:
396,143,21490,1,0,0:0:0:0:
400,163,21565,1,0,0:0:0:0:
403,184,21640,1,0,0:0:0:0:
404,205,21715,1,0,0:0:0:0:
405,226,21790,1,0,0:0:0:0:
403,247,21865,6,0,P|357:252|343:248,3,42.7499988584519
282,163,22165,2,0,P|277:209|281:223,3,42.7499988584519
280,325,22465,5,0,0:0:0:0:
262,336,22540,1,0,0:0:0:0:
244,345,22615,1,0,0:0:0:0:
224,349,22690,1,0,0:0:0:0:
204,353,22765,1,0,0:0:0:0:
183,356,22840,1,0,0:0:0:0:
162,357,22915,1,0,0:0:0:0:
141,358,22990,1,0,0:0:0:0:
120,356,23065,6,0,P|115:310|119:296,3,42.7499988584519
189,214,23365,2,0,P|194:260|190:274,3,42.7499988584519
112,131,23665,5,0,0:0:0:0:
133,129,23740,1,0,0:0:0:0:
153,123,23815,1,0,0:0:0:0:
172,113,23890,1,0,0:0:0:0:
189,100,23965,1,0,0:0:0:0:
204,85,24040,1,0,0:0:0:0:
214,66,24115,1,0,0:0:0:0:
221,46,24190,1,0,0:0:0:0:
225,25,24265,6,0,P|176:19|161:22,3,42.7499988584519
71,36,24565,2,0,P|111:52|127:54,3,42.7499988584519
68,174,24865,6,0,L|107:216,1,45
181,314,25015,2,0,L|181:358,1,45
241,206,25165,2,0,L|280:164,1,45
377,310,25315,2,0,L|377:354,1,45
433,104,25465,1,0,0:0:0:0:
361,92,25540,1,0,0:0:0:0:
290,80,25615,1,0,0:0:0:0:
219,66,25690,1,0,0:0:0:0:
148,53,25765,2,0,P|140:79|142:109,1,53.9999983520508
212,289,26215,6,0,P|238:237|232:167,1,90
43,354,26515,2,0,L|131:322,1,90
212,290,26815,1,0,0:0:0:0:
129,206,26965,1,0,0:0:0:0:
214,128,27115,1,0,0:0:0:0:
118,29,27265,6,0,L|192:67,1,45
262,15,27415,2,0,L|312:-2,1,45
327,106,27565,2,0,L|401:144,1,45
456,92,27715,2,0,L|506:75,1,45
480,228,27865,6,0,P|416:229|395:213,1,90
327,106,28165,1,0,0:0:0:0:
299,325,28315,1,0,0:0:0:0:
218,178,28465,6,0,P|170:196|117:198,1,90
57,85,28765,1,0,0:0:0:0:
225,70,28915,1,0,0:0:0:0:
54,275,29065,1,0,0:0:0:0:
203,255,29215,2,0,P|229:328|276:356,1,116.999994644165
332,179,29515,1,0,0:0:0:0:
341,357,29665,2,0,P|367:301|357:251,1,90
427,165,29965,2,0,P|395:115|357:94,1,90
256,145,30265,5,0,0:0:0:0:
231,325,30415,1,0,0:0:0:0:
123,64,30565,5,0,0:0:0:0:
192,227,30715,1,0,0:0:0:0:
