osu file format v14

[General]
AudioFilename: audio.mp3
AudioLeadIn: 0
PreviewTime: 78775
Countdown: 0
SampleSet: Normal
StackLeniency: 0.3
Mode: 0
LetterboxInBreaks: 0
WidescreenStoryboard: 1

[Editor]
Bookmarks: 1702,10240,11713,14525,18811,27382,35954,39838,44525,48811,53097,57382,61266,61668,65954,70240,74525,78811,87382,95686,95954,104525,105998,108811,113097,117382,118052,118454,122740,127025,131311,135597,144168,153811,154481,154882,163454,165731,167740,170954,180061,189168,197740,205507,214882,216356,219168,222382,223320,223454,232025,234436,236311,240597,256668,260954
DistanceSpacing: 1
BeatDivisor: 4
GridSize: 16
TimelineZoom: 2.7

[Metadata]
Title:Snow Drive(01.23)
TitleUnicode:スノウドライヴ(01.23)
Artist:Araki
ArtistUnicode:あらき
Creator:Roberthin05
Version:Fenotrevosoo666's Expert
Source:
Tags:Omoi Snowdrive Vocaloid Saheki camelopower Fenotrevosoo666
BeatmapID:1840597
BeatmapSetID:865568

[Difficulty]
HPDrainRate:6.5
CircleSize:3.5
OverallDifficulty:8.2
ApproachRate:9.2
SliderMultiplier:1.92
SliderTickRate:1

[Events]
//Background and Video events
0,0,"BG B.png",0,0
//Break Periods
2,28836,35116
2,42716,56781
2,70573,76871
2,83241,91067
2,107805,111455
2,118386,162884
2,166733,214312
2,218162,231455
2,235305,260384
//Storyboard Layer 0 (Background)
//Storyboard Layer 1 (Fail)
//Storyboard Layer 2 (Pass)
//Storyboard Layer 3 (Foreground)
//Storyboard Sound Samples

[TimingPoints]
1703,267.857142857143,4,1,1,82,1,0
1970,-100,4,1,1,33,0,0
2439,-100,4,1,1,5,0,0
2506,-100,4,1,1,66,0,0
2707,-100,4,1,1,5,0,0
2774,-100,4,1,1,66,0,0
3042,-100,4,1,1,82,0,0
3711,-100,4,1,1,66,0,0
3845,-100,4,1,1,82,0,0
5586,-100,4,1,1,66,0,0
5720,-100,4,1,1,82,0,0
6256,-100,4,1,1,33,0,0
6725,-100,4,1,1,5,0,0
6792,-100,4,1,1,66,0,0
6993,-100,4,1,1,5,0,0
7060,-100,4,1,1,66,0,0
7328,-100,4,1,1,82,0,0
9203,-200,4,1,1,82,0,0
9470,-200,4,1,1,50,0,0
9738,-200,4,1,1,82,0,0
10240,267.857142857143,4,1,1,82,1,0
10240,-133.333333333333,4,1,1,82,0,0
10373,-133.333333333333,4,1,1,66,0,0
10507,-133.333333333333,4,1,1,82,0,0
11177,-133.333333333333,4,1,1,66,0,0
11311,-133.333333333333,4,1,1,82,0,0
11713,-100,4,1,1,82,0,0
13990,-80,4,1,1,82,0,0
14123,-80,4,1,1,5,0,0
14257,-80,4,1,1,82,0,0
14391,-80,4,1,1,5,0,0
14525,-100,4,1,1,82,0,0
14659,-100,4,1,1,66,0,0
14793,-100,4,1,1,82,0,0
15195,-100,4,1,1,66,0,0
15329,-100,4,1,1,82,0,0
15731,-100,4,1,1,66,0,0
15865,-80,4,1,1,82,0,0
15998,-80,4,1,1,66,0,0
16132,-80,4,1,1,82,0,0
16266,-80,4,1,1,66,0,0
16400,-80,4,1,1,82,0,0
16534,-80,4,1,1,66,0,0
16668,-80,4,1,1,82,0,0
16936,-80,4,1,1,5,0,0
17070,-80,4,1,1,66,0,0
17204,-80,4,1,1,82,0,0
17472,-80,4,1,1,5,0,0
17606,-80,4,1,1,66,0,0
17740,-100,4,1,1,82,0,0
17940,-100,4,1,1,5,0,0
18007,-80,4,1,1,82,0,0
18208,-80,4,1,1,5,0,0
18275,-57.1428571428571,4,1,1,82,0,0
18320,-57.1428571428571,4,1,1,5,0,0
18409,-57.1428571428571,4,1,1,82,0,0
18454,-57.1428571428571,4,1,1,5,0,0
18543,-57.1428571428571,4,1,1,82,0,0
18811,-66.6666666666667,4,1,1,82,0,1
35954,-100,4,1,1,82,0,0
36222,-200,4,1,1,82,0,0
36623,-100,4,1,1,82,0,0
37025,-200,4,1,1,82,0,0
37427,-100,4,1,1,82,0,0
38365,-200,4,1,1,82,0,0
38766,-100,4,1,1,82,0,0
57382,-100,4,1,1,82,0,0
78811,-100,4,1,1,82,0,0
91668,-100,4,1,1,82,0,0
93744,-100,4,1,1,5,0,0
93811,-100,4,1,1,82,0,0
94815,-100,4,1,1,5,0,0
94882,-400,4,1,1,82,0,0
95150,-400,4,1,1,5,0,0
95552,-100,4,1,1,82,0,0
95954,-100,4,1,1,82,0,1
104525,-100,4,1,1,82,0,1
113097,-100,4,1,1,82,0,0
154882,-100,4,1,1,82,0,1
163454,-100,4,1,1,82,0,1
170954,-100,4,1,1,82,0,0
189168,-100,4,1,1,82,0,0
205507,-100,4,1,1,82,0,1
214882,-100,4,1,1,82,0,1
222382,-100,4,1,1,82,0,0
223454,-100,4,1,1,82,0,1
232025,-100,4,1,1,82,0,1
240597,-100,4,1,1,82,0,0
256668,-100,4,1,1,82,0,0
260954,-100,4,1,1,82,0,0

[Colours]
Combo1 : 160,95,214
Combo2 : 112,230,176
Combo3 : 239,144,48

[HitObjects]
158,232,1702,6,0,B|118:264|63:240|63:240|0:236|5:149|66:150|66:150|126:155|123:238|63:240|63:240|24:274|24:332|89:346,1,528
134,363,2506,2,0,P|204:361|255:308,1,144
270,265,2774,2,0,B|295:218|265:171|265:171|239:135|270:82,1,192,0|0,1:0|1:0,1:0:0:0:
407,219,3310,5,0,0:0:0:0:
269,84,3444,1,0,0:0:0:0:
362,60,3578,2,0,P|362:107|338:148,1,96
246,174,3845,2,0,P|175:115|193:25,1,192
55,157,4247,2,0,P|35:250|101:309,1,192
295,262,4649,5,0,0:0:0:0:
107,310,4783,1,0,0:0:0:0:
157,124,4917,2,0,P|245:100|311:166,1,192
125,211,5453,6,0,P|137:256|178:280,1,96
362,332,5720,1,0,0:0:0:0:
177,279,5854,1,0,0:0:0:0:
315,145,5988,6,0,B|356:104|422:121|422:121|484:143|519:56|461:27|461:27|398:5|358:92|422:121|422:121|459:153|451:207,1,528
437,250,6792,2,0,P|401:309|333:326,1,144
284,319,7060,2,0,B|231:317|206:268|206:268|187:227|126:227,1,192,0|0,1:0|1:0,1:0:0:0:
462,40,7863,5,0,0:0:0:0:
276,90,7997,1,0,0:0:0:0:
418,219,8131,2,0,P|371:297|279:294,1,192
174,131,8533,6,0,P|163:84|176:39,2,96
185,227,8935,2,0,P|137:216|101:184,1,96
16,230,9203,2,0,B|21:274|21:274|70:279|70:279|77:325|77:325|127:326,1,192,0|0,2:0|2:0,2:0:0:0:
329,358,10240,6,0,P|363:368|400:357,1,72.0000027465821
363,297,10507,1,0,0:0:0:0:
436,299,10641,2,0,P|460:323|470:359,2,72.0000027465821
290,295,11043,6,0,P|255:296|222:276,1,72.0000027465821
276,229,11311,1,0,0:0:0:0:
204,210,11445,2,0,P|175:227|156:259,2,72.0000027465821
335,65,11847,5,0,0:0:0:0:
391,52,11914,1,0,0:0:0:0:
441,81,11981,2,0,P|402:107|356:99,1,96
448,13,12248,2,0,P|490:31|511:74,2,96
254,13,12650,5,0,0:0:0:0:
199,30,12717,1,0,0:0:0:0:
170,81,12784,2,0,P|217:85|254:55,1,96
132,23,13052,2,0,P|105:60|107:107,2,96
302,118,13454,5,0,0:0:0:0:
358,153,13521,1,0,0:0:0:0:
393,208,13588,2,0,P|412:252|406:298,2,96
442,33,13990,6,0,P|485:74|513:126,1,120
450,295,14257,6,0,P|433:233|405:180,1,120
241,84,14525,6,0,P|275:116|293:160,1,96
296,354,14793,1,0,0:0:0:0:
194,168,14927,1,0,0:0:0:0:
195,360,15061,6,0,P|156:332|130:287,1,96
81,103,15329,1,0,0:0:0:0:
35,289,15463,1,0,0:0:0:0:
168,150,15597,6,0,P|200:115|246:102,1,96
433,153,15865,6,0,L|346:236,1,120
384,96,16132,6,0,L|467:9,1,120
326,47,16400,6,0,L|239:130,1,120
185,264,16668,6,0,B|146:329|84:322|84:322|29:278|56:215|56:215|125:215|140:149,1,360
50,111,17204,2,0,B|54:41|127:25|127:25|155:90|222:80|222:80|241:15|309:16,1,360
295,92,17740,6,0,P|259:153|194:183,1,144
312,206,18007,6,0,B|268:250|268:250|212:246|212:246|159:286,1,180
314,306,18275,6,0,B|297:327|297:327|297:356,1,56.0000005340576
412,263,18409,6,0,B|403:290|403:290|403:317,1,56.0000005340576
403,177,18543,5,0,0:0:0:0:
403,164,18610,1,0,0:0:0:0:
403,152,18677,1,0,0:0:0:0:
403,139,18744,1,0,0:0:0:0:
404,126,18811,6,0,L|404:54,2,72.0000027465821
269,193,19079,6,0,L|271:337,1,144.000005493164
146,261,19347,2,0,L|147:118,1,144.000005493164
44,13,19615,1,0,0:0:0:0:
45,155,19748,1,0,0:0:0:0:
146,52,19882,2,0,L|195:0,2,72.0000027465821
249,159,20150,2,0,L|394:159,1,144.000005493164
496,260,20418,1,0,0:0:0:0:
351,261,20552,1,0,0:0:0:0:
452,159,20686,2,0,L|401:108,1,72.0000027465821
332,82,20820,2,0,L|382:133,1,72.0000027465821
385,206,20954,2,0,L|436:257,2,72.0000027465821
280,306,21222,2,0,L|280:162,1,144.000005493164
154,89,21490,2,0,L|155:232,1,144.000005493164
280,306,21757,1,0,0:0:0:0:
280,162,21891,1,0,0:0:0:0:
308,235,22025,1,0,0:0:0:0:
308,235,22092,1,0,0:0:0:0:
308,235,22159,1,0,0:0:0:0:
388,115,22293,1,0,0:0:0:0:
388,115,22360,1,0,0:0:0:0:
388,115,22427,1,0,0:0:0:0:
293,6,22561,1,0,0:0:0:0:
293,6,22628,1,0,0:0:0:0:
293,6,22695,1,0,0:0:0:0:
294,242,22829,1,0,0:0:0:0:
294,242,22896,1,0,0:0:0:0:
294,242,22963,1,0,0:0:0:0:
207,127,23097,2,0,L|135:125,2,72.0000027465821
226,75,23365,2,0,L|377:74,1,144.000005493164
226,75,23632,2,0,L|384:80,1,144.000005493164
175,168,23900,1,0,0:0:0:0:
175,168,24034,1,0,0:0:0:0:
242,217,24168,2,0,L|320:216,2,72.0000027465821
221,299,24436,2,0,L|373:297,1,144.000005493164
367,155,24704,1,0,0:0:0:0:
367,155,24838,1,0,0:0:0:0:
199,107,24972,6,0,L|155:49,1,72.0000027465821
130,148,25106,6,0,L|86:90,1,72.0000027465821
116,234,25240,2,0,L|160:292,2,72.0000027465821
256,192,25507,2,0,L|400:190,1,144.000005493164
256,192,25775,2,0,L|416:195,1,144.000005493164
197,134,26043,1,0,0:0:0:0:
197,134,26177,1,0,0:0:0:0:
268,89,26311,2,0,L|354:94,2,72.0000027465821
268,89,26579,2,0,L|331:49,2,72.0000027465821
174,57,26847,1,0,0:0:0:0:
174,57,26914,1,0,0:0:0:0:
174,57,26981,1,0,0:0:0:0:
125,110,27115,1,0,0:0:0:0:
125,110,27181,1,0,0:0:0:0:
125,110,27248,1,0,0:0:0:0:
164,188,27382,2,0,L|324:193,1,144.000005493164
386,171,35686,6,0,P|445:136|448:66,1,144.000005493164
299,191,35954,6,0,P|285:235|310:274,1,96
332,82,36222,6,0,P|305:43|259:45,1,96
108,167,36623,6,0,P|64:182|21:164,2,96
156,250,37025,6,0,P|189:283|191:330,1,96
340,206,37427,6,0,P|385:193|427:213,2,96
132,201,37829,2,0,P|86:214|42:198,1,96
207,86,38097,2,0,P|250:69|296:80,1,96
390,250,38365,6,0,P|359:285|313:292,1,96
373,109,38766,6,0,P|402:72|448:62,2,96
450,286,39168,6,0,P|419:321|373:328,1,96
270,163,39436,2,0,P|239:127|193:120,1,96
336,249,39704,6,0,L|366:288,2,48
288,259,39905,1,0,0:0:0:0:
236,228,39972,1,0,0:0:0:0:
189,245,40039,1,0,0:0:0:0:
143,214,40106,1,0,0:0:0:0:
256,192,40240,6,0,L|459:191,1,192
256,192,40641,6,0,L|459:191,1,192
256,192,41043,2,0,L|360:160,1,96
256,192,41311,1,0,0:0:0:0:
256,192,41378,1,0,0:0:0:0:
256,192,41445,1,0,0:0:0:0:
256,192,41579,1,0,0:0:0:0:
256,192,41713,2,0,L|384:168,2,96
256,192,42115,2,0,L|376:176,1,96
256,192,42382,1,0,0:0:0:0:
256,192,42449,1,0,0:0:0:0:
256,192,42516,1,0,0:0:0:0:
256,192,57382,5,0,0:0:0:0:
256,192,57516,1,0,0:0:0:0:
256,192,57650,1,0,0:0:0:0:
256,192,57784,1,0,0:0:0:0:
256,192,57918,1,0,0:0:0:0:
256,192,58052,1,0,0:0:0:0:
256,192,58186,2,0,L|352:192,1,96
256,192,58454,5,0,0:0:0:0:
256,192,58588,1,0,0:0:0:0:
256,192,58722,1,0,0:0:0:0:
256,192,58856,1,0,0:0:0:0:
256,192,58990,1,0,0:0:0:0:
256,192,59123,1,0,0:0:0:0:
256,192,59257,2,0,L|352:192,1,96
256,192,59525,5,0,0:0:0:0:
256,192,59659,1,0,0:0:0:0:
256,192,59793,1,0,0:0:0:0:
256,192,59927,1,0,0:0:0:0:
160,286,60061,2,0,L|119:260,1,48
99,198,60195,2,0,L|68:161,1,48
256,192,60329,2,0,L|304:192,2,48
256,192,60597,1,0,0:0:0:0:
256,192,60731,1,0,0:0:0:0:
256,192,60865,1,0,0:0:0:0:
268,238,60998,1,0,0:0:0:0:
268,238,61065,1,0,0:0:0:0:
268,238,61132,1,0,0:0:0:0:
59,198,61266,2,0,L|184:214,2,96
42,266,61668,1,0,0:0:0:0:
152,204,61735,1,0,0:0:0:0:
243,284,61802,1,0,0:0:0:0:
359,153,61936,1,0,0:0:0:0:
160,94,62070,2,0,L|133:169,2,48
179,151,62338,1,0,0:0:0:0:
37,213,62472,2,0,L|132:218,1,96
16,243,62740,1,0,0:0:0:0:
69,284,62806,1,0,0:0:0:0:
69,284,62873,1,0,0:0:0:0:
42,258,62940,1,0,0:0:0:0:
39,254,63007,1,0,0:0:0:0:
100,319,63141,1,0,0:0:0:0:
288,238,63275,1,0,0:0:0:0:
24,126,63409,1,0,0:0:0:0:
126,147,63543,2,0,L|237:144,1,96
332,57,63811,2,0,L|336:255,1,192
206,141,64213,2,0,L|221:260,2,96
3,113,64615,2,0,L|27:218,1,96
118,200,64882,1,0,0:0:0:0:
124,206,64949,1,0,0:0:0:0:
124,206,65016,1,0,0:0:0:0:
310,168,65150,1,0,0:0:0:0:
37,213,65284,2,0,L|99:217,2,48
254,285,65552,1,0,0:0:0:0:
92,84,65686,2,0,L|181:142,1,96
29,213,65954,2,0,L|224:198,1,192
34,153,66356,1,0,0:0:0:0:
110,181,66423,1,0,0:0:0:0:
74,216,66490,1,0,0:0:0:0:
110,181,66556,1,0,0:0:0:0:
86,228,66623,1,0,0:0:0:0:
93,266,66757,2,0,L|203:266,1,96
110,169,67025,2,0,L|303:168,1,192
34,153,67427,1,0,0:0:0:0:
110,181,67494,1,0,0:0:0:0:
74,216,67561,1,0,0:0:0:0:
110,181,67628,1,0,0:0:0:0:
86,228,67695,1,0,0:0:0:0:
93,266,67829,2,0,L|203:266,1,96
131,148,68097,1,0,0:0:0:0:
131,148,68164,1,0,0:0:0:0:
131,148,68231,1,0,0:0:0:0:
116,211,68365,1,0,0:0:0:0:
87,172,68498,2,0,L|147:171,2,48
197,201,68766,1,0,0:0:0:0:
10,209,68900,2,0,L|182:204,1,144
10,209,69168,2,0,L|282:197,1,240
10,209,69570,2,0,L|279:191,1,240
219,282,69972,2,0,L|346:277,1,96
242,171,70240,1,0,0:0:0:0:
113,198,70306,1,0,0:0:0:0:
113,198,70373,1,0,0:0:0:0:
140,227,77472,6,0,L|279:217,1,96
140,227,77740,5,0,0:0:0:0:
160,148,77806,1,0,0:0:0:0:
140,227,77873,1,0,0:0:0:0:
160,148,77940,1,0,0:0:0:0:
140,227,78007,1,0,0:0:0:0:
160,148,78074,1,0,0:0:0:0:
140,227,78141,1,0,0:0:0:0:
140,227,78275,6,0,L|258:202,3,96
282,57,78811,6,0,B|362:108|377:168|304:173|233:238|306:327|433:319|468:253|457:156|379:133|211:151,1,528
187,156,79615,2,0,B|103:145|23:260|57:342|131:359|177:274,1,336
205,237,80150,6,0,P|265:209|326:251,1,144
259,282,80418,6,0,P|253:216|313:173,1,144
324,248,80686,6,0,P|370:293|442:275,1,144
461,231,80954,2,0,B|458:171|444:137|415:113|390:97|355:99|319:99|281:128|258:147|246:175|237:200|229:223|216:233|190:261|159:253|132:230|119:157|118:93|190:110,1,528
186,72,81757,2,0,B|251:40|285:38|325:38|364:52|387:82|409:139|388:192|348:232|319:248|275:243|251:212|228:191|225:163|233:124|271:89|305:71|330:69|376:107|387:128|399:183|402:244|386:282|373:299,1,672
71,285,91668,6,0,B|18:190|56:131|100:97|163:65|198:58|235:56|289:78|321:123|336:169|320:240|277:298|225:314|146:290|109:218|107:162|86:106|110:67|171:38|209:17|271:4|373:19|416:74|389:188|337:269|315:307|327:335|360:370|402:368|473:351|534:298|591:128|509:79|431:56|337:60|290:116|269:224|383:337|330:354|250:357|104:355|134:248|115:205,1,1488
117,160,93811,6,0,B|117:61|130:64|181:72|270:31|273:135|224:202|205:316|316:299|439:196|424:148|337:106|369:46|299:23|279:1|198:-4|123:10,1,720
81,24,94882,2,0,B|69:25|60:40|134:101,1,96
374,251,95552,2,0,L|356:318,1,48
187,257,95686,2,0,L|47:206,1,144
161,151,95954,2,0,L|446:313,1,288
103,195,96623,1,0,0:0:0:0:
103,195,96690,1,0,0:0:0:0:
103,195,96757,1,0,0:0:0:0:
103,195,96824,1,0,0:0:0:0:
103,195,96891,1,0,0:0:0:0:
103,195,97025,2,0,L|294:185,1,192
181,314,97427,1,0,0:0:0:0:
181,314,97494,1,0,0:0:0:0:
181,314,97561,2,0,L|304:291,1,96
318,209,97829,2,0,L|173:260,1,144
128,135,98097,2,0,L|337:120,1,192
81,186,98498,1,0,0:0:0:0:
81,186,98565,1,0,0:0:0:0:
81,186,98632,1,0,0:0:0:0:
81,186,98699,1,0,0:0:0:0:
81,186,98766,1,0,0:0:0:0:
107,226,98900,2,0,L|272:184,1,144
267,69,99168,2,0,L|173:283,1,192
153,109,99704,2,0,L|228:249,1,144
66,195,99972,2,0,L|217:275,1,144
77,162,100240,2,0,B|311:268|336:118|200:-1|83:4|70:159|137:276|177:294|254:313|309:307|356:267|386:221|369:142,1,720
364,127,101311,2,0,B|367:62|253:86|203:196|450:359,1,384
200,203,102115,1,0,0:0:0:0:
200,203,102181,1,0,0:0:0:0:
200,203,102248,1,0,0:0:0:0:
200,203,102382,2,0,L|412:166,1,192
200,203,102784,2,0,L|327:179,2,96
137,229,103186,2,0,L|184:227,2,48
284,311,103454,2,0,B|21:127|79:97|155:66|232:60|276:66|316:84|326:138|328:172|306:221|257:231,1,576
329,358,104525,2,0,P|363:368|400:357,1,72.0000027465821
363,297,104793,1,0,0:0:0:0:
436,299,104927,2,0,P|460:323|470:359,2,72.0000027465821
290,295,105329,2,0,P|255:296|222:276,1,72.0000027465821
276,229,105597,1,0,0:0:0:0:
204,210,105731,2,0,P|175:227|156:259,2,72.0000027465821
335,65,106132,1,0,0:0:0:0:
391,52,106199,1,0,0:0:0:0:
441,81,106266,2,0,P|402:107|356:99,1,96
448,13,106534,2,0,P|490:31|511:74,2,96
254,13,106936,1,0,0:0:0:0:
199,30,107003,1,0,0:0:0:0:
170,81,107070,2,0,P|217:85|254:55,1,96
132,23,107338,2,0,P|105:60|107:107,2,96
167,261,112025,6,0,B|218:164|353:153|391:199|402:244|390:315|278:358|176:330|220:97,1,576
120,175,113097,5,0,0:0:0:0:
474,290,113231,1,0,0:0:0:0:
256,36,113632,1,0,0:0:0:0:
268,362,113766,1,0,0:0:0:0:
449,68,114168,1,0,0:0:0:0:
150,258,114302,1,0,0:0:0:0:
474,247,114704,1,0,0:0:0:0:
169,109,114838,1,0,0:0:0:0:
419,358,115240,1,0,0:0:0:0:
67,201,115373,1,0,0:0:0:0:
453,53,115775,1,0,0:0:0:0:
203,356,115909,1,0,0:0:0:0:
152,6,116311,1,0,0:0:0:0:
387,276,116445,1,0,0:0:0:0:
0,154,116713,1,0,0:0:0:0:
512,164,116981,1,0,0:0:0:0:
215,160,118052,1,0,0:0:0:0:
215,160,118119,1,0,0:0:0:0:
215,160,118186,1,0,0:0:0:0:
329,358,163454,6,0,P|363:368|400:357,1,72.0000027465821
363,297,163722,1,0,0:0:0:0:
436,299,163856,2,0,P|460:323|470:359,2,72.0000027465821
290,295,164257,2,0,P|255:296|222:276,1,72.0000027465821
276,229,164525,1,0,0:0:0:0:
204,210,164659,2,0,P|175:227|156:259,2,72.0000027465821
335,65,165061,1,0,0:0:0:0:
391,52,165128,1,0,0:0:0:0:
441,81,165195,2,0,P|402:107|356:99,1,96
448,13,165463,2,0,P|490:31|511:74,2,96
254,13,165865,1,0,0:0:0:0:
199,30,165931,1,0,0:0:0:0:
170,81,165998,2,0,P|217:85|254:55,1,96
132,23,166266,2,0,P|105:60|107:107,2,96
329,358,214882,6,0,P|363:368|400:357,1,72.0000027465821
363,297,215150,1,0,0:0:0:0:
436,299,215284,2,0,P|460:323|470:359,2,72.0000027465821
290,295,215686,2,0,P|255:296|222:276,1,72.0000027465821
276,229,215954,1,0,0:0:0:0:
204,210,216088,2,0,P|175:227|156:259,2,72.0000027465821
335,65,216490,1,0,0:0:0:0:
391,52,216556,1,0,0:0:0:0:
441,81,216623,2,0,P|402:107|356:99,1,96
448,13,216891,2,0,P|490:31|511:74,2,96
254,13,217293,1,0,0:0:0:0:
199,30,217360,1,0,0:0:0:0:
170,81,217427,2,0,P|217:85|254:55,1,96
132,23,217695,2,0,P|105:60|107:107,2,96
329,358,232025,6,0,P|363:368|400:357,1,72.0000027465821
363,297,232293,1,0,0:0:0:0:
436,299,232427,2,0,P|460:323|470:359,2,72.0000027465821
290,295,232829,2,0,P|255:296|222:276,1,72.0000027465821
276,229,233097,1,0,0:0:0:0:
204,210,233231,2,0,P|175:227|156:259,2,72.0000027465821
335,65,233632,1,0,0:0:0:0:
391,52,233699,1,0,0:0:0:0:
441,81,233766,2,0,P|402:107|356:99,1,96
448,13,234034,2,0,P|490:31|511:74,2,96
254,13,234436,1,0,0:0:0:0:
199,30,234503,1,0,0:0:0:0:
170,81,234570,2,0,P|217:85|254:55,1,96
132,23,234838,2,0,P|105:60|107:107,2,96
256,192,260954,12,0,262561,0:0:0:0:
