osu file format v14

[General]
AudioFilename: audio.mp3
AudioLeadIn: 0
PreviewTime: -1
Countdown: 1
SampleSet: Soft
StackLeniency: 0.2
Mode: 0
LetterboxInBreaks: 0
WidescreenStoryboard: 0

[Editor]
DistanceSpacing: 1.3
BeatDivisor: 4
GridSize: 16
TimelineZoom: 1.2

[Metadata]
Title:About me
TitleUnicode:About me
Artist:Araki/Mes
ArtistUnicode:Araki/Mes
Creator:Sophia
Version:Perfect Girl
Source:
Tags:
BeatmapID:1296617
BeatmapSetID:614660

[Difficulty]
HPDrainRate:6
CircleSize:5
OverallDifficulty:7
ApproachRate:8
SliderMultiplier:1.4
SliderTickRate:1

[Events]
//Background and Video events
0,0,"response.jpg",0,0
//Break Periods
//Storyboard Layer 0 (Background)
//Storyboard Layer 1 (Fail)
//Storyboard Layer 2 (Pass)
//Storyboard Layer 3 (Foreground)
//Storyboard Sound Samples

[TimingPoints]
1942,447.761194029851,4,2,0,100,1,0

[HitObjects]
256,192,1942,5,0,0:0:0:0:
336,192,2165,1,0,0:0:0:0:
368,192,2277,1,0,0:0:0:0:
368,288,2501,1,0,0:0:0:0:
448,288,2725,1,0,0:0:0:0:
448,288,3061,1,0,0:0:0:0:
448,288,3285,1,0,0:0:0:0:
448,288,3509,1,0,0:0:0:0:
448,288,3733,5,0,0:0:0:0:
448,192,3956,1,0,0:0:0:0:
448,160,4068,1,0,0:0:0:0:
448,48,4292,1,0,0:0:0:0:
336,48,4516,1,0,0:0:0:0:
336,48,4852,1,0,0:0:0:0:
336,48,5076,1,0,0:0:0:0:
336,48,5300,1,0,0:0:0:0:
336,48,5524,5,0,0:0:0:0:
208,48,5747,1,0,0:0:0:0:
176,48,5859,1,0,0:0:0:0:
176,160,6083,1,0,0:0:0:0:
64,160,6307,1,0,0:0:0:0:
64,160,6643,1,0,0:0:0:0:
64,160,6867,1,0,0:0:0:0:
64,160,7091,1,0,0:0:0:0:
64,160,7315,5,0,0:0:0:0:
64,256,7539,1,0,0:0:0:0:
64,288,7650,1,0,0:0:0:0:
160,288,7874,1,0,0:0:0:0:
160,384,8098,1,0,0:0:0:0:
256,384,8322,1,0,0:0:0:0:
288,384,8434,1,0,0:0:0:0:
384,384,8658,1,0,0:0:0:0:
384,384,8882,1,0,0:0:0:0:
384,288,9106,5,0,0:0:0:0:
384,192,9330,1,0,0:0:0:0:
384,144,9442,1,0,0:0:0:0:
288,144,9665,1,0,0:0:0:0:
288,48,9889,1,0,0:0:0:0:
288,48,10225,1,0,0:0:0:0:
288,48,10449,1,0,0:0:0:0:
288,48,10673,1,0,0:0:0:0:
288,48,10897,5,0,0:0:0:0:
192,48,11121,1,0,0:0:0:0:
144,48,11233,1,0,0:0:0:0:
144,144,11456,1,0,0:0:0:0:
240,144,11680,1,0,0:0:0:0:
240,144,12016,1,0,0:0:0:0:
240,144,12240,1,0,0:0:0:0:
240,144,12464,1,0,0:0:0:0:
240,144,12688,5,0,0:0:0:0:
336,144,12912,1,0,0:0:0:0:
384,144,13024,1,0,0:0:0:0:
480,144,13247,1,0,0:0:0:0:
480,240,13471,1,0,0:0:0:0:
480,240,13807,1,0,0:0:0:0:
480,240,14031,1,0,0:0:0:0:
480,240,14255,1,0,0:0:0:0:
480,240,14479,5,0,0:0:0:0:
384,240,14703,1,0,0:0:0:0:
336,240,14815,1,0,0:0:0:0:
240,240,15039,1,0,0:0:0:0:
240,144,15262,1,0,0:0:0:0:
144,144,15486,1,0,0:0:0:0:
144,192,15598,1,0,0:0:0:0:
144,288,15822,1,0,0:0:0:0:
144,288,16046,1,0,0:0:0:0:
144,288,16270,5,0,0:0:0:0:
48,288,16494,1,0,0:0:0:0:
48,240,16606,1,0,0:0:0:0:
48,144,16830,1,0,0:0:0:0:
48,48,17053,1,0,0:0:0:0:
48,48,17389,1,0,0:0:0:0:
48,48,17613,1,0,0:0:0:0:
48,48,17837,1,0,0:0:0:0:
48,48,18061,5,0,0:0:0:0:
144,48,18285,1,0,0:0:0:0:
192,48,18397,1,0,0:0:0:0:
288,48,18621,1,0,0:0:0:0:
384,48,18844,1,0,0:0:0:0:
384,48,19180,1,0,0:0:0:0:
384,48,19404,1,0,0:0:0:0:
384,48,19628,1,0,0:0:0:0:
384,48,19852,5,0,0:0:0:0:
384,144,20076,1,0,0:0:0:0:
432,144,20188,1,0,0:0:0:0:
432,240,20412,1,0,0:0:0:0:
432,336,20636,1,0,0:0:0:0:
432,336,20971,1,0,0:0:0:0:
432,336,21195,1,0,0:0:0:0:
432,336,21419,1,0,0:0:0:0:
432,336,21643,5,0,0:0:0:0:
336,336,21867,1,0,0:0:0:0:
336,288,21979,1,0,0:0:0:0:
336,192,22203,1,0,0:0:0:0:
240,192,22427,1,0,0:0:0:0:
240,96,22650,1,0,0:0:0:0:
192,96,22762,1,0,0:0:0:0:
96,96,22986,1,0,0:0:0:0:
96,96,23210,1,0,0:0:0:0:
96,192,23434,5,0,0:0:0:0:
96,240,23546,1,0,0:0:0:0:
96,288,23658,1,0,0:0:0:0:
192,288,23882,1,0,0:0:0:0:
288,288,24106,1,0,0:0:0:0:
384,288,24330,1,0,0:0:0:0:
432,288,24442,1,0,0:0:0:0:
432,192,24665,1,0,0:0:0:0:
432,96,24889,1,0,0:0:0:0:
384,96,25001,1,0,0:0:0:0:
336,96,25113,1,0,0:0:0:0:
192,96,25449,5,0,0:0:0:0:
96,96,25673,1,0,0:0:0:0:
192,96,25897,1,0,0:0:0:0:
192,192,26121,1,0,0:0:0:0:
192,240,26233,1,0,0:0:0:0:
192,288,26344,1,0,0:0:0:0:
240,288,26456,1,0,0:0:0:0:
384,288,26792,1,0,0:0:0:0:
384,192,27016,5,0,0:0:0:0:
384,144,27128,1,0,0:0:0:0:
384,96,27240,1,0,0:0:0:0:
288,96,27464,1,0,0:0:0:0:
192,96,27688,1,0,0:0:0:0:
96,96,27912,1,0,0:0:0:0:
96,144,28024,1,0,0:0:0:0:
96,240,28247,1,0,0:0:0:0:
96,336,28471,1,0,0:0:0:0:
144,336,28583,1,0,0:0:0:0:
192,336,28695,1,0,0:0:0:0:
336,336,29031,5,0,0:0:0:0:
336,240,29255,1,0,0:0:0:0:
432,240,29479,1,0,0:0:0:0:
432,144,29703,1,0,0:0:0:0:
432,96,29815,1,0,0:0:0:0:
336,96,30039,1,0,0:0:0:0:
192,96,30374,1,0,0:0:0:0:
96,96,30598,5,0,0:0:0:0:
96,144,30710,1,0,0:0:0:0:
96,192,30822,1,0,0:0:0:0:
192,192,31046,1,0,0:0:0:0:
288,192,31270,1,0,0:0:0:0:
384,192,31494,1,0,0:0:0:0:
384,240,31606,1,0,0:0:0:0:
480,240,31830,1,0,0:0:0:0:
480,336,32053,1,0,0:0:0:0:
432,336,32165,1,0,0:0:0:0:
384,336,32277,1,0,0:0:0:0:
240,336,32613,5,0,0:0:0:0:
240,240,32837,1,0,0:0:0:0:
64,240,33285,1,0,0:0:0:0:
64,192,33397,1,0,0:0:0:0:
64,144,33509,1,0,0:0:0:0:
64,96,33621,1,0,0:0:0:0:
208,96,33956,1,0,0:0:0:0:
304,96,34180,5,0,0:0:0:0:
352,96,34292,1,0,0:0:0:0:
400,96,34404,1,0,0:0:0:0:
496,96,34628,1,0,0:0:0:0:
496,192,34852,1,0,0:0:0:0:
496,288,35076,1,0,0:0:0:0:
496,336,35188,1,0,0:0:0:0:
400,336,35412,1,0,0:0:0:0:
304,336,35636,1,0,0:0:0:0:
304,288,35747,1,0,0:0:0:0:
304,240,35859,1,0,0:0:0:0:
304,96,36195,5,0,0:0:0:0:
208,96,36419,1,0,0:0:0:0:
112,96,36643,1,0,0:0:0:0:
112,192,36867,1,0,0:0:0:0:
112,240,36979,1,0,0:0:0:0:
208,240,37203,1,0,0:0:0:0:
208,384,37539,1,0,0:0:0:0:
32,384,37986,5,0,0:0:0:0:
32,288,38210,1,0,0:0:0:0:
32,192,38434,1,0,0:0:0:0:
32,96,38658,1,0,0:0:0:0:
32,96,38994,1,0,0:0:0:0:
32,96,39330,1,0,0:0:0:0:
208,96,39777,1,0,0:0:0:0:
384,96,40225,5,0,0:0:0:0:
384,192,40449,1,0,0:0:0:0:
384,240,40561,1,0,0:0:0:0:
288,240,40785,1,0,0:0:0:0:
192,240,41009,1,0,0:0:0:0:
192,192,41121,1,0,0:0:0:0:
192,16,41568,1,0,0:0:0:0:
368,16,42016,5,0,0:0:0:0:
464,16,42240,1,0,0:0:0:0:
464,112,42464,1,0,0:0:0:0:
464,160,42576,1,0,0:0:0:0:
464,304,42912,1,0,0:0:0:0:
48,304,45150,5,0,0:0:0:0:
48,208,45374,1,0,0:0:0:0:
144,208,45598,1,0,0:0:0:0:
144,304,45822,1,0,0:0:0:0:
288,304,46158,1,0,0:0:0:0:
288,160,46494,1,0,0:0:0:0:
464,160,46942,1,0,0:0:0:0:
464,64,47165,1,0,0:0:0:0:
368,64,47389,5,0,0:0:0:0:
272,64,47613,1,0,0:0:0:0:
224,64,47725,1,0,0:0:0:0:
128,64,47949,1,0,0:0:0:0:
32,64,48173,1,0,0:0:0:0:
32,112,48285,1,0,0:0:0:0:
32,208,48509,1,0,0:0:0:0:
128,208,48733,1,0,0:0:0:0:
304,208,49180,5,0,0:0:0:0:
400,208,49404,1,0,0:0:0:0:
400,160,49516,1,0,0:0:0:0:
400,256,49740,1,0,0:0:0:0:
304,256,49964,1,0,0:0:0:0:
256,256,50076,1,0,0:0:0:0:
32,64,52315,5,0,0:0:0:0:
128,64,52539,1,0,0:0:0:0:
224,64,52762,1,0,0:0:0:0:
320,64,52986,1,0,0:0:0:0:
464,64,53322,1,0,0:0:0:0:
464,208,53658,1,0,0:0:0:0:
288,208,54106,1,0,0:0:0:0:
112,208,54553,5,0,0:0:0:0:
112,304,54777,1,0,0:0:0:0:
160,304,54889,1,0,0:0:0:0:
256,304,55113,1,0,0:0:0:0:
352,304,55337,1,0,0:0:0:0:
352,256,55449,1,0,0:0:0:0:
352,80,55897,1,0,0:0:0:0:
176,80,56344,5,0,0:0:0:0:
80,80,56568,1,0,0:0:0:0:
80,176,56792,1,0,0:0:0:0:
80,224,56904,1,0,0:0:0:0:
176,224,57128,1,0,0:0:0:0:
176,272,57240,1,0,0:0:0:0:
464,304,59703,5,0,0:0:0:0:
464,208,59927,1,0,0:0:0:0:
368,208,60150,1,0,0:0:0:0:
224,208,60486,1,0,0:0:0:0:
224,352,60822,1,0,0:0:0:0:
400,352,61270,1,0,0:0:0:0:
400,176,61718,5,0,0:0:0:0:
400,80,61942,1,0,0:0:0:0:
352,80,62053,1,0,0:0:0:0:
256,80,62277,1,0,0:0:0:0:
160,80,62501,1,0,0:0:0:0:
112,80,62613,1,0,0:0:0:0:
112,256,63061,1,0,0:0:0:0:
288,256,63509,5,0,0:0:0:0:
288,160,63733,1,0,0:0:0:0:
384,160,63956,1,0,0:0:0:0:
432,160,64068,1,0,0:0:0:0:
432,256,64292,1,0,0:0:0:0:
480,256,64404,1,0,0:0:0:0:
48,304,65747,5,0,0:0:0:0:
144,304,65971,1,0,0:0:0:0:
240,304,66195,1,0,0:0:0:0:
240,208,66419,1,0,0:0:0:0:
240,64,66755,1,0,0:0:0:0:
384,64,67091,1,0,0:0:0:0:
384,240,67539,5,0,0:0:0:0:
480,240,67762,1,0,0:0:0:0:
480,144,67986,1,0,0:0:0:0:
480,48,68210,1,0,0:0:0:0:
336,48,68546,1,0,0:0:0:0:
192,48,68882,1,0,0:0:0:0:
16,48,69330,5,0,0:0:0:0:
16,144,69553,1,0,0:0:0:0:
112,144,69777,1,0,0:0:0:0:
384,144,70449,1,0,0:0:0:0:
480,144,70673,1,0,0:0:0:0:
480,320,71121,1,0,0:0:0:0:
384,320,71344,1,0,0:0:0:0:
288,320,71568,1,0,0:0:0:0:
16,144,72912,5,0,0:0:0:0:
16,240,73136,1,0,0:0:0:0:
16,336,73359,1,0,0:0:0:0:
112,336,73583,1,0,0:0:0:0:
256,336,73919,1,0,0:0:0:0:
256,192,74255,1,0,0:0:0:0:
432,192,74703,5,0,0:0:0:0:
432,96,74927,1,0,0:0:0:0:
432,0,75150,1,0,0:0:0:0:
336,0,75374,1,0,0:0:0:0:
192,0,75710,1,0,0:0:0:0:
192,144,76046,1,0,0:0:0:0:
288,144,76270,1,0,0:0:0:0:
288,240,76494,1,0,0:0:0:0:
192,240,76718,1,0,0:0:0:0:
96,240,76942,1,0,0:0:0:0:
368,240,77613,5,0,0:0:0:0:
368,144,77837,1,0,0:0:0:0:
368,320,78285,1,0,0:0:0:0:
272,320,78509,1,0,0:0:0:0:
176,320,78733,1,0,0:0:0:0:
432,96,79852,5,0,0:0:0:0:
256,96,80300,1,0,0:0:0:0:
256,272,80747,5,0,0:0:0:0:
368,272,80971,1,0,0:0:0:0:
368,160,81195,1,0,0:0:0:0:
368,48,81419,1,0,0:0:0:0:
144,48,81867,1,0,0:0:0:0:
144,160,82091,1,0,0:0:0:0:
144,272,82315,5,0,0:0:0:0:
368,272,82762,1,0,0:0:0:0:
256,272,82986,1,0,0:0:0:0:
256,160,83210,5,0,0:0:0:0:
480,160,83658,1,0,0:0:0:0:
480,272,83882,1,0,0:0:0:0:
480,160,84106,5,0,0:0:0:0:
368,160,84330,1,0,0:0:0:0:
368,48,84553,1,0,0:0:0:0:
256,48,84777,1,0,0:0:0:0:
256,160,85001,1,0,0:0:0:0:
32,160,85449,1,0,0:0:0:0:
32,272,85673,1,0,0:0:0:0:
144,272,85897,5,0,0:0:0:0:
368,272,86344,1,0,0:0:0:0:
256,272,86568,1,0,0:0:0:0:
256,160,86792,5,0,0:0:0:0:
368,160,87016,1,0,0:0:0:0:
368,48,87240,1,0,0:0:0:0:
480,48,87464,1,0,0:0:0:0:
480,272,87912,5,0,0:0:0:0:
368,272,88136,1,0,0:0:0:0:
256,272,88359,1,0,0:0:0:0:
144,272,88583,1,0,0:0:0:0:
144,48,89031,1,0,0:0:0:0:
144,160,89255,1,0,0:0:0:0:
256,160,89479,5,0,0:0:0:0:
480,160,89927,1,0,0:0:0:0:
368,160,90150,1,0,0:0:0:0:
368,48,90374,1,0,0:0:0:0:
368,272,90822,1,0,0:0:0:0:
256,272,91046,1,0,0:0:0:0:
144,272,91270,1,0,0:0:0:0:
256,272,91494,5,0,0:0:0:0:
256,160,91718,1,0,0:0:0:0:
368,160,91942,1,0,0:0:0:0:
368,48,92165,1,0,0:0:0:0:
144,48,92613,1,0,0:0:0:0:
144,160,92837,1,0,0:0:0:0:
144,272,93061,1,0,0:0:0:0:
144,48,93509,5,0,0:0:0:0:
144,160,93733,1,0,0:0:0:0:
144,272,93956,1,0,0:0:0:0:
144,160,94628,1,0,0:0:0:0:
144,272,94852,1,0,0:0:0:0:
240,272,95076,5,0,0:0:0:0:
240,176,95300,1,0,0:0:0:0:
288,176,95412,1,0,0:0:0:0:
336,176,95524,1,0,0:0:0:0:
432,176,95747,1,0,0:0:0:0:
480,176,95859,1,0,0:0:0:0:
480,80,96083,1,0,0:0:0:0:
384,80,96307,5,0,0:0:0:0:
336,80,96419,1,0,0:0:0:0:
288,80,96531,1,0,0:0:0:0:
240,80,96643,1,0,0:0:0:0:
192,80,96755,1,0,0:0:0:0:
144,80,96867,5,0,0:0:0:0:
144,96,96923,1,0,0:0:0:0:
144,112,96979,1,0,0:0:0:0:
144,160,97091,5,0,0:0:0:0:
144,208,97203,1,0,0:0:0:0:
144,256,97315,1,0,0:0:0:0:
144,304,97427,1,0,0:0:0:0:
192,304,97539,5,0,0:0:0:0:
240,304,97650,1,0,0:0:0:0:
240,256,97762,1,0,0:0:0:0:
288,256,97874,1,0,0:0:0:0:
288,208,97986,1,0,0:0:0:0:
336,208,98098,1,0,0:0:0:0:
336,160,98210,1,0,0:0:0:0:
384,160,98322,1,0,0:0:0:0:
384,112,98434,1,0,0:0:0:0:
432,112,98546,1,0,0:0:0:0:
432,64,98658,1,0,0:0:0:0:
432,16,98770,5,0,0:0:0:0:
416,16,98826,1,0,0:0:0:0:
400,16,98882,1,0,0:0:0:0:
352,16,98994,5,0,0:0:0:0:
304,16,99106,1,0,0:0:0:0:
256,16,99218,1,0,0:0:0:0:
208,16,99330,1,0,0:0:0:0:
160,16,99442,1,0,0:0:0:0:
64,16,99665,5,0,0:0:0:0:
64,64,99777,1,0,0:0:0:0:
64,112,99889,1,0,0:0:0:0:
64,160,100001,5,0,0:0:0:0:
112,160,100113,1,0,0:0:0:0:
112,208,100225,1,0,0:0:0:0:
160,208,100337,1,0,0:0:0:0:
256,208,100561,5,0,0:0:0:0:
352,208,100785,1,0,0:0:0:0:
352,256,100897,1,0,0:0:0:0:
352,304,101009,1,0,0:0:0:0:
400,304,101121,1,0,0:0:0:0:
448,304,101233,1,0,0:0:0:0:
448,256,101344,5,0,0:0:0:0:
448,240,101400,1,0,0:0:0:0:
448,224,101456,1,0,0:0:0:0:
448,176,101568,5,0,0:0:0:0:
448,128,101680,1,0,0:0:0:0:
400,128,101792,1,0,0:0:0:0:
400,80,101904,1,0,0:0:0:0:
304,80,102128,1,0,0:0:0:0:
160,80,102464,5,0,0:0:0:0:
64,80,102688,1,0,0:0:0:0:
64,176,102912,1,0,0:0:0:0:
64,272,103136,1,0,0:0:0:0:
160,272,103359,1,0,0:0:0:0:
208,272,103471,1,0,0:0:0:0:
208,176,103695,1,0,0:0:0:0:
256,176,103807,1,0,0:0:0:0:
432,176,104255,5,0,0:0:0:0:
432,224,104367,1,0,0:0:0:0:
384,224,104479,1,0,0:0:0:0:
384,272,104591,1,0,0:0:0:0:
336,272,104703,1,0,0:0:0:0:
336,320,104815,1,0,0:0:0:0:
288,320,104927,5,0,0:0:0:0:
272,320,104983,1,0,0:0:0:0:
256,320,105039,1,0,0:0:0:0:
208,320,105150,5,0,0:0:0:0:
160,320,105262,1,0,0:0:0:0:
160,272,105374,1,0,0:0:0:0:
112,272,105486,1,0,0:0:0:0:
112,224,105598,1,0,0:0:0:0:
64,224,105710,1,0,0:0:0:0:
64,80,106046,5,0,0:0:0:0:
160,80,106270,1,0,0:0:0:0:
256,80,106494,1,0,0:0:0:0:
352,80,106718,1,0,0:0:0:0:
448,80,106942,1,0,0:0:0:0:
448,176,107165,1,0,0:0:0:0:
448,224,107277,1,0,0:0:0:0:
448,320,107501,1,0,0:0:0:0:
352,320,107725,5,0,0:0:0:0:
256,320,107949,1,0,0:0:0:0:
208,320,108061,5,0,0:0:0:0:
208,304,108117,1,0,0:0:0:0:
208,288,108173,1,0,0:0:0:0:
208,240,108285,5,0,0:0:0:0:
208,192,108397,1,0,0:0:0:0:
208,48,108733,5,0,0:0:0:0:
256,48,108844,1,0,0:0:0:0:
304,48,108956,1,0,0:0:0:0:
256,320,109628,5,0,0:0:0:0:
256,224,109852,1,0,0:0:0:0:
256,128,110076,1,0,0:0:0:0:
256,32,110300,1,0,0:0:0:0:
112,32,110636,1,0,0:0:0:0:
256,32,110971,1,0,0:0:0:0:
448,32,111419,1,0,0:0:0:0:
448,224,111867,5,0,0:0:0:0:
448,128,112091,1,0,0:0:0:0:
448,176,112203,1,0,0:0:0:0:
448,272,112427,1,0,0:0:0:0:
352,272,112650,1,0,0:0:0:0:
304,272,112762,1,0,0:0:0:0:
304,80,113210,1,0,0:0:0:0:
112,80,113658,5,0,0:0:0:0:
112,176,113882,1,0,0:0:0:0:
112,272,114106,1,0,0:0:0:0:
160,272,114218,1,0,0:0:0:0:
304,272,114553,1,0,0:0:0:0:
448,32,116792,5,0,0:0:0:0:
352,32,117016,1,0,0:0:0:0:
256,32,117240,1,0,0:0:0:0:
256,128,117464,1,0,0:0:0:0:
112,128,117800,1,0,0:0:0:0:
112,272,118136,1,0,0:0:0:0:
304,272,118583,1,0,0:0:0:0:
208,272,118807,1,0,0:0:0:0:
208,176,119031,5,0,0:0:0:0:
304,176,119255,1,0,0:0:0:0:
256,176,119367,1,0,0:0:0:0:
256,80,119591,1,0,0:0:0:0:
352,80,119815,1,0,0:0:0:0:
304,80,119927,1,0,0:0:0:0:
496,80,120374,1,0,0:0:0:0:
496,272,120822,5,0,0:0:0:0:
400,272,121046,1,0,0:0:0:0:
352,272,121158,1,0,0:0:0:0:
256,272,121382,1,0,0:0:0:0:
352,272,121606,1,0,0:0:0:0:
400,272,121718,1,0,0:0:0:0:
64,80,123956,5,0,0:0:0:0:
64,176,124180,1,0,0:0:0:0:
160,176,124404,1,0,0:0:0:0:
160,80,124628,1,0,0:0:0:0:
304,80,124964,1,0,0:0:0:0:
304,224,125300,1,0,0:0:0:0:
112,224,125747,1,0,0:0:0:0:
112,32,126195,5,0,0:0:0:0:
208,32,126419,1,0,0:0:0:0:
304,32,126643,1,0,0:0:0:0:
352,32,126755,1,0,0:0:0:0:
352,128,126979,1,0,0:0:0:0:
400,128,127091,1,0,0:0:0:0:
208,128,127539,1,0,0:0:0:0:
16,128,127986,5,0,0:0:0:0:
16,224,128210,1,0,0:0:0:0:
16,368,128546,1,0,0:0:0:0:
112,368,128770,1,0,0:0:0:0:
160,368,128882,1,0,0:0:0:0:
464,352,131121,5,0,0:0:0:0:
464,256,131344,1,0,0:0:0:0:
368,256,131568,1,0,0:0:0:0:
368,352,131792,1,0,0:0:0:0:
224,352,132128,1,0,0:0:0:0:
368,352,132464,1,0,0:0:0:0:
368,160,132912,1,0,0:0:0:0:
176,160,133359,5,0,0:0:0:0:
272,160,133583,1,0,0:0:0:0:
368,160,133807,1,0,0:0:0:0:
320,160,133919,1,0,0:0:0:0:
320,64,134143,1,0,0:0:0:0:
272,64,134255,1,0,0:0:0:0:
80,64,134703,1,0,0:0:0:0:
80,256,135150,5,0,0:0:0:0:
128,256,135262,1,0,0:0:0:0:
176,256,135374,1,0,0:0:0:0:
176,352,135598,1,0,0:0:0:0:
224,352,135710,1,0,0:0:0:0:
368,352,136046,1,0,0:0:0:0:
368,32,137389,5,0,0:0:0:0:
272,32,137613,1,0,0:0:0:0:
176,32,137837,1,0,0:0:0:0:
80,32,138061,1,0,0:0:0:0:
80,176,138397,1,0,0:0:0:0:
224,176,138733,1,0,0:0:0:0:
416,176,139180,5,0,0:0:0:0:
320,176,139404,1,0,0:0:0:0:
224,176,139628,1,0,0:0:0:0:
128,176,139852,1,0,0:0:0:0:
128,320,140188,1,0,0:0:0:0:
272,320,140524,1,0,0:0:0:0:
464,320,140971,5,0,0:0:0:0:
464,224,141195,1,0,0:0:0:0:
464,128,141419,1,0,0:0:0:0:
176,128,142091,1,0,0:0:0:0:
272,128,142315,1,0,0:0:0:0:
272,320,142762,1,0,0:0:0:0:
368,320,142986,1,0,0:0:0:0:
464,320,143210,1,0,0:0:0:0:
64,320,144553,5,0,0:0:0:0:
64,224,144777,1,0,0:0:0:0:
64,128,145001,1,0,0:0:0:0:
64,32,145225,1,0,0:0:0:0:
208,32,145561,1,0,0:0:0:0:
352,32,145897,1,0,0:0:0:0:
352,224,146344,5,0,0:0:0:0:
352,320,146568,1,0,0:0:0:0:
256,320,146792,1,0,0:0:0:0:
160,320,147016,1,0,0:0:0:0:
160,176,147352,1,0,0:0:0:0:
304,176,147688,5,0,0:0:0:0:
208,176,147912,1,0,0:0:0:0:
112,176,148136,1,0,0:0:0:0:
16,176,148359,1,0,0:0:0:0:
16,272,148583,1,0,0:0:0:0:
208,272,149031,5,0,0:0:0:0:
304,272,149255,1,0,0:0:0:0:
400,272,149479,1,0,0:0:0:0:
400,80,149927,1,0,0:0:0:0:
304,80,150150,1,0,0:0:0:0:
208,80,150374,1,0,0:0:0:0:
16,80,151494,5,0,0:0:0:0:
208,80,151942,1,0,0:0:0:0:
400,80,152389,5,0,0:0:0:0:
400,208,152613,1,0,0:0:0:0:
400,336,152837,1,0,0:0:0:0:
272,336,153061,1,0,0:0:0:0:
272,80,153509,1,0,0:0:0:0:
144,80,153733,1,0,0:0:0:0:
144,208,153956,5,0,0:0:0:0:
400,208,154404,1,0,0:0:0:0:
272,208,154628,1,0,0:0:0:0:
272,80,154852,5,0,0:0:0:0:
272,336,155300,1,0,0:0:0:0:
144,336,155524,1,0,0:0:0:0:
144,208,155747,5,0,0:0:0:0:
272,208,155971,1,0,0:0:0:0:
400,208,156195,1,0,0:0:0:0:
400,80,156419,1,0,0:0:0:0:
272,80,156643,1,0,0:0:0:0:
16,80,157091,5,0,0:0:0:0:
144,80,157315,1,0,0:0:0:0:
144,208,157539,5,0,0:0:0:0:
400,208,157986,1,0,0:0:0:0:
272,208,158210,1,0,0:0:0:0:
272,336,158434,5,0,0:0:0:0:
400,336,158658,1,0,0:0:0:0:
400,208,158882,1,0,0:0:0:0:
400,80,159106,1,0,0:0:0:0:
144,80,159553,5,0,0:0:0:0:
272,80,159777,1,0,0:0:0:0:
272,208,160001,1,0,0:0:0:0:
144,208,160225,1,0,0:0:0:0:
400,208,160673,1,0,0:0:0:0:
272,208,160897,1,0,0:0:0:0:
272,80,161121,5,0,0:0:0:0:
272,336,161568,1,0,0:0:0:0:
144,336,161792,1,0,0:0:0:0:
16,336,162016,1,0,0:0:0:0:
16,80,162464,1,0,0:0:0:0:
16,208,162688,1,0,0:0:0:0:
144,208,162912,1,0,0:0:0:0:
144,80,163136,5,0,0:0:0:0:
144,208,163359,1,0,0:0:0:0:
144,336,163583,1,0,0:0:0:0:
272,336,163807,1,0,0:0:0:0:
272,80,164255,1,0,0:0:0:0:
272,208,164479,1,0,0:0:0:0:
400,208,164703,1,0,0:0:0:0:
144,208,165150,5,0,0:0:0:0:
144,80,165374,1,0,0:0:0:0:
272,80,165598,1,0,0:0:0:0:
144,80,166270,1,0,0:0:0:0:
272,80,166494,1,0,0:0:0:0:
272,176,166718,5,0,0:0:0:0:
368,176,166942,1,0,0:0:0:0:
464,176,167165,1,0,0:0:0:0:
464,224,167277,1,0,0:0:0:0:
464,272,167389,1,0,0:0:0:0:
464,320,167501,1,0,0:0:0:0:
368,320,167725,1,0,0:0:0:0:
272,320,167949,1,0,0:0:0:0:
176,320,168173,1,0,0:0:0:0:
176,176,168509,5,0,0:0:0:0:
176,128,168621,1,0,0:0:0:0:
224,128,168733,1,0,0:0:0:0:
224,80,168844,5,0,0:0:0:0:
256,80,168900,1,0,0:0:0:0:
288,80,168956,1,0,0:0:0:0:
336,80,169068,5,0,0:0:0:0:
384,80,169180,1,0,0:0:0:0:
384,128,169292,1,0,0:0:0:0:
432,128,169404,1,0,0:0:0:0:
432,176,169516,1,0,0:0:0:0:
480,176,169628,1,0,0:0:0:0:
480,224,169740,5,0,0:0:0:0:
480,272,169852,1,0,0:0:0:0:
480,320,169964,1,0,0:0:0:0:
432,320,170076,1,0,0:0:0:0:
384,320,170188,1,0,0:0:0:0:
384,272,170300,1,0,0:0:0:0:
336,272,170412,1,0,0:0:0:0:
336,224,170524,1,0,0:0:0:0:
288,224,170636,1,0,0:0:0:0:
240,224,170747,5,0,0:0:0:0:
240,256,170803,1,0,0:0:0:0:
240,288,170859,1,0,0:0:0:0:
240,320,170915,1,0,0:0:0:0:
240,352,170971,1,0,0:0:0:0:
208,352,171027,1,0,0:0:0:0:
176,352,171083,1,0,0:0:0:0:
128,352,171195,5,0,0:0:0:0:
128,256,171419,1,0,0:0:0:0:
128,208,171531,1,0,0:0:0:0:
128,112,171755,1,0,0:0:0:0:
224,112,171979,1,0,0:0:0:0:
320,112,172203,5,0,0:0:0:0:
368,112,172315,1,0,0:0:0:0:
368,160,172427,1,0,0:0:0:0:
416,160,172539,1,0,0:0:0:0:
416,208,172650,1,0,0:0:0:0:
464,208,172762,1,0,0:0:0:0:
464,256,172874,1,0,0:0:0:0:
416,256,172986,1,0,0:0:0:0:
416,304,173098,5,0,0:0:0:0:
368,304,173210,1,0,0:0:0:0:
368,352,173322,1,0,0:0:0:0:
320,352,173434,1,0,0:0:0:0:
272,352,173546,1,0,0:0:0:0:
224,352,173658,1,0,0:0:0:0:
224,304,173770,1,0,0:0:0:0:
176,304,173882,1,0,0:0:0:0:
176,256,173994,5,0,0:0:0:0:
176,208,174106,1,0,0:0:0:0:
128,208,174218,1,0,0:0:0:0:
128,160,174330,5,0,0:0:0:0:
96,160,174386,1,0,0:0:0:0:
64,160,174442,1,0,0:0:0:0:
64,112,174553,5,0,0:0:0:0:
64,64,174665,1,0,0:0:0:0:
112,64,174777,1,0,0:0:0:0:
160,64,174889,1,0,0:0:0:0:
160,112,175001,1,0,0:0:0:0:
208,112,175113,1,0,0:0:0:0:
256,112,175225,1,0,0:0:0:0:
256,64,175337,5,0,0:0:0:0:
304,64,175449,1,0,0:0:0:0:
352,64,175561,1,0,0:0:0:0:
352,16,175673,1,0,0:0:0:0:
400,16,175785,1,0,0:0:0:0:
448,16,175897,1,0,0:0:0:0:
448,64,176009,1,0,0:0:0:0:
448,112,176121,1,0,0:0:0:0:
448,160,176233,5,0,0:0:0:0:
416,160,176289,1,0,0:0:0:0:
384,160,176344,1,0,0:0:0:0:
336,160,176456,5,0,0:0:0:0:
336,192,176512,1,0,0:0:0:0:
336,224,176568,1,0,0:0:0:0:
336,272,176680,5,0,0:0:0:0:
336,320,176792,1,0,0:0:0:0:
288,320,176904,1,0,0:0:0:0:
192,320,177128,5,0,0:0:0:0:
144,320,177240,1,0,0:0:0:0:
144,272,177352,1,0,0:0:0:0:
144,224,177464,1,0,0:0:0:0:
192,224,177576,1,0,0:0:0:0:
192,176,177688,1,0,0:0:0:0:
240,176,177800,1,0,0:0:0:0:
240,128,177912,1,0,0:0:0:0:
288,128,178024,1,0,0:0:0:0:
288,80,178136,1,0,0:0:0:0:
336,80,178247,1,0,0:0:0:0:
384,80,178359,5,0,0:0:0:0:
384,112,178415,1,0,0:0:0:0:
384,144,178471,1,0,0:0:0:0:
384,176,178527,1,0,0:0:0:0:
384,208,178583,1,0,0:0:0:0:
384,256,178695,5,0,0:0:0:0:
432,256,178807,1,0,0:0:0:0:
480,256,178919,1,0,0:0:0:0:
480,208,179031,1,0,0:0:0:0:
480,160,179143,1,0,0:0:0:0:
480,112,179255,5,0,0:0:0:0:
480,64,179367,1,0,0:0:0:0:
432,64,179479,1,0,0:0:0:0:
432,16,179591,1,0,0:0:0:0:
384,16,179703,5,0,0:0:0:0:
336,16,179815,1,0,0:0:0:0:
336,64,179927,1,0,0:0:0:0:
336,112,180039,1,0,0:0:0:0:
288,112,180150,1,0,0:0:0:0:
192,112,180374,5,0,0:0:0:0:
80,112,180598,1,0,0:0:0:0:
80,224,180822,1,0,0:0:0:0:
80,336,181046,1,0,0:0:0:0:
240,336,181382,1,0,0:0:0:0:
400,336,181718,1,0,0:0:0:0:
400,128,182165,5,0,0:0:0:0:
288,128,182389,1,0,0:0:0:0:
288,16,182613,1,0,0:0:0:0:
176,16,182837,1,0,0:0:0:0:
176,176,183173,1,0,0:0:0:0:
176,336,183509,1,0,0:0:0:0:
384,336,183956,5,0,0:0:0:0:
384,224,184180,1,0,0:0:0:0:
384,112,184404,1,0,0:0:0:0:
64,112,185076,1,0,0:0:0:0:
176,112,185300,1,0,0:0:0:0:
384,112,185747,5,0,0:0:0:0:
272,112,185971,1,0,0:0:0:0:
272,224,186195,1,0,0:0:0:0:
64,48,187539,5,0,0:0:0:0:
176,48,187762,1,0,0:0:0:0:
288,48,187986,1,0,0:0:0:0:
400,48,188210,1,0,0:0:0:0:
400,208,188546,1,0,0:0:0:0:
400,368,188882,1,0,0:0:0:0:
192,368,189330,5,0,0:0:0:0:
192,256,189553,1,0,0:0:0:0:
192,144,189777,1,0,0:0:0:0:
80,144,190001,1,0,0:0:0:0:
80,304,190337,5,0,0:0:0:0:
80,144,190673,1,0,0:0:0:0:
192,144,190897,1,0,0:0:0:0:
304,144,191121,1,0,0:0:0:0:
416,144,191344,1,0,0:0:0:0:
416,256,191568,1,0,0:0:0:0:
96,256,192240,5,0,0:0:0:0:
208,256,192464,1,0,0:0:0:0:
208,48,192912,1,0,0:0:0:0:
208,160,193136,1,0,0:0:0:0:
320,160,193359,1,0,0:0:0:0:
432,320,195374,5,0,0:0:0:0:
80,320,196270,1,0,0:0:0:0:
80,64,197165,1,0,0:0:0:0:
432,64,198061,1,0,0:0:0:0:
80,64,198956,5,0,0:0:0:0:
80,320,199852,1,0,0:0:0:0:
432,320,200747,1,0,0:0:0:0:
432,64,201643,1,0,0:0:0:0:
432,320,202539,5,0,0:0:0:0:
432,64,203434,1,0,0:0:0:0:
80,64,204330,1,0,0:0:0:0:
80,320,204777,1,0,0:0:0:0:
432,320,205225,1,0,0:0:0:0:
384,112,205673,5,0,0:0:0:0:
128,112,206121,1,0,0:0:0:0:
128,272,206568,1,0,0:0:0:0:
384,272,207016,1,0,0:0:0:0:
336,160,207464,5,0,0:0:0:0:
176,160,207912,1,0,0:0:0:0:
176,224,208359,1,0,0:0:0:0:
336,224,208807,5,0,0:0:0:0:
256,224,209255,1,0,0:0:0:0:
176,224,209703,5,0,0:0:0:0:
32,224,209927,1,0,0:0:0:0:
32,80,210150,1,0,0:0:0:0:
176,80,210374,1,0,0:0:0:0:
464,80,210822,5,0,0:0:0:0:
320,80,211046,1,0,0:0:0:0:
320,144,211158,1,0,0:0:0:0:
320,208,211270,5,0,0:0:0:0:
32,208,211718,1,0,0:0:0:0:
176,208,211942,1,0,0:0:0:0:
176,352,212165,5,0,0:0:0:0:
464,352,212613,1,0,0:0:0:0:
464,208,212837,1,0,0:0:0:0:
176,208,213285,5,0,0:0:0:0:
320,208,213509,1,0,0:0:0:0:
320,64,213733,1,0,0:0:0:0:
176,64,213956,1,0,0:0:0:0:
176,352,214404,1,0,0:0:0:0:
320,352,214628,1,0,0:0:0:0:
464,352,214852,5,0,0:0:0:0:
464,64,215300,1,0,0:0:0:0:
464,208,215524,1,0,0:0:0:0:
320,208,215747,5,0,0:0:0:0:
32,208,216195,1,0,0:0:0:0:
176,208,216419,1,0,0:0:0:0:
464,208,216867,5,0,0:0:0:0:
464,64,217091,1,0,0:0:0:0:
320,64,217315,1,0,0:0:0:0:
176,64,217539,1,0,0:0:0:0:
176,336,217986,1,0,0:0:0:0:
320,336,218210,1,0,0:0:0:0:
176,336,218434,5,0,0:0:0:0:
176,48,218882,1,0,0:0:0:0:
176,192,219106,1,0,0:0:0:0:
32,192,219330,1,0,0:0:0:0:
304,192,219777,1,0,0:0:0:0:
448,192,220001,1,0,0:0:0:0:
448,336,220225,1,0,0:0:0:0:
304,336,220449,5,0,0:0:0:0:
304,192,220673,1,0,0:0:0:0:
304,48,220897,1,0,0:0:0:0:
160,48,221121,1,0,0:0:0:0:
432,48,221568,5,0,0:0:0:0:
432,192,221792,1,0,0:0:0:0:
288,192,222016,1,0,0:0:0:0:
0,192,222464,1,0,0:0:0:0:
144,192,222688,5,0,0:0:0:0:
144,48,222912,1,0,0:0:0:0:
144,192,223583,1,0,0:0:0:0:
144,48,223807,1,0,0:0:0:0:
288,48,224031,5,0,0:0:0:0:
432,48,224255,1,0,0:0:0:0:
432,192,224479,1,0,0:0:0:0:
432,336,224703,1,0,0:0:0:0:
288,336,224927,1,0,0:0:0:0:
224,336,225039,1,0,0:0:0:0:
160,336,225150,1,0,0:0:0:0:
96,336,225262,1,0,0:0:0:0:
96,192,225486,1,0,0:0:0:0:
160,192,225598,1,0,0:0:0:0:
224,192,225710,1,0,0:0:0:0:
432,192,226046,5,0,0:0:0:0:
288,192,226270,1,0,0:0:0:0:
288,48,226494,1,0,0:0:0:0:
144,48,226718,1,0,0:0:0:0:
80,48,226830,1,0,0:0:0:0:
80,112,226942,1,0,0:0:0:0:
16,112,227053,1,0,0:0:0:0:
16,320,227389,1,0,0:0:0:0:
160,320,227613,5,0,0:0:0:0:
160,256,227725,1,0,0:0:0:0:
160,192,227837,1,0,0:0:0:0:
160,48,228061,1,0,0:0:0:0:
304,48,228285,1,0,0:0:0:0:
448,48,228509,1,0,0:0:0:0:
448,112,228621,1,0,0:0:0:0:
448,256,228844,1,0,0:0:0:0:
304,256,229068,1,0,0:0:0:0:
304,192,229180,1,0,0:0:0:0:
304,128,229292,1,0,0:0:0:0:
96,128,229628,5,0,0:0:0:0:
96,272,229852,1,0,0:0:0:0:
240,272,230076,1,0,0:0:0:0:
384,272,230300,1,0,0:0:0:0:
448,272,230412,1,0,0:0:0:0:
448,208,230524,1,0,0:0:0:0:
448,144,230636,1,0,0:0:0:0:
240,144,230971,1,0,0:0:0:0:
240,272,231195,5,0,0:0:0:0:
240,336,231307,1,0,0:0:0:0:
304,336,231419,1,0,0:0:0:0:
448,336,231643,1,0,0:0:0:0:
448,192,231867,1,0,0:0:0:0:
448,48,232091,1,0,0:0:0:0:
384,48,232203,1,0,0:0:0:0:
240,48,232427,1,0,0:0:0:0:
96,48,232650,1,0,0:0:0:0:
160,48,232762,1,0,0:0:0:0:
160,112,232874,1,0,0:0:0:0:
160,320,233210,5,0,0:0:0:0:
16,320,233434,1,0,0:0:0:0:
16,176,233658,1,0,0:0:0:0:
16,32,233882,1,0,0:0:0:0:
80,32,233994,1,0,0:0:0:0:
144,32,234106,1,0,0:0:0:0:
208,32,234218,1,0,0:0:0:0:
416,32,234553,1,0,0:0:0:0:
416,176,234777,5,0,0:0:0:0:
352,176,234889,1,0,0:0:0:0:
352,240,235001,1,0,0:0:0:0:
208,240,235225,1,0,0:0:0:0:
208,96,235449,1,0,0:0:0:0:
352,96,235673,1,0,0:0:0:0:
416,96,235785,1,0,0:0:0:0:
416,240,236009,1,0,0:0:0:0:
416,384,236233,1,0,0:0:0:0:
352,384,236344,1,0,0:0:0:0:
288,384,236456,1,0,0:0:0:0:
80,384,236792,5,0,0:0:0:0:
80,240,237016,1,0,0:0:0:0:
80,96,237240,1,0,0:0:0:0:
224,96,237464,1,0,0:0:0:0:
288,96,237576,1,0,0:0:0:0:
288,32,237688,1,0,0:0:0:0:
352,32,237800,1,0,0:0:0:0:
352,240,238136,1,0,0:0:0:0:
352,352,238359,5,0,0:0:0:0:
304,352,238471,1,0,0:0:0:0:
256,352,238583,1,0,0:0:0:0:
160,352,238807,1,0,0:0:0:0:
160,256,239031,1,0,0:0:0:0:
160,160,239255,5,0,0:0:0:0:
208,160,239367,1,0,0:0:0:0:
304,160,239591,1,0,0:0:0:0:
400,160,239815,1,0,0:0:0:0:
448,160,239927,1,0,0:0:0:0:
496,160,240039,1,0,0:0:0:0:
496,16,240374,5,0,0:0:0:0:
400,16,240598,1,0,0:0:0:0:
304,16,240822,1,0,0:0:0:0:
208,16,241046,1,0,0:0:0:0:
208,64,241158,1,0,0:0:0:0:
160,64,241270,1,0,0:0:0:0:
160,112,241382,1,0,0:0:0:0:
160,256,241718,1,0,0:0:0:0:
256,256,241942,5,0,0:0:0:0:
304,256,242053,1,0,0:0:0:0:
304,208,242165,1,0,0:0:0:0:
304,112,242389,1,0,0:0:0:0:
400,112,242613,1,0,0:0:0:0:
496,112,242837,5,0,0:0:0:0:
496,160,242949,1,0,0:0:0:0:
496,256,243173,1,0,0:0:0:0:
496,352,243397,1,0,0:0:0:0:
448,352,243509,1,0,0:0:0:0:
400,352,243621,1,0,0:0:0:0:
