osu file format v14

[General]
AudioFilename: audio.mp3
AudioLeadIn: 0
PreviewTime: 73131
Countdown: 0
SampleSet: Soft
StackLeniency: 0.2
Mode: 0
LetterboxInBreaks: 0
WidescreenStoryboard: 0

[Editor]
Bookmarks: 88249,105124,157624,172624
DistanceSpacing: 0.7
BeatDivisor: 7
GridSize: 8
TimelineZoom: 3.799998

[Metadata]
Title:Odo
TitleUnicode:踊
Artist:Araki x nqrse x Meychan
ArtistUnicode:あらき × nqrse × めいちゃん
Creator:Chizu-Kun
Version:Say No!
Source:
Tags:deco*27 giga teddyloid かゆか 藍瀬 まなみ orihara dance japanese pop jpop j-pop jrap rap j-rap hip hop alevi axaptice
BeatmapID:3158086
BeatmapSetID:1545055

[Difficulty]
HPDrainRate:6
CircleSize:4
OverallDifficulty:9
ApproachRate:9.5
SliderMultiplier:2.5
SliderTickRate:1

[Events]
//Background and Video events
0,0,"nomthismaptqvm.jpg",0,0
//Break Periods
//Storyboard Layer 0 (Background)
//Storyboard Layer 1 (Fail)
//Storyboard Layer 2 (Pass)
//Storyboard Layer 3 (Foreground)
//Storyboard Layer 4 (Overlay)
//Storyboard Sound Samples

[TimingPoints]
1999,468.75,4,2,10,50,1,0
1999,-50,4,2,10,50,0,0
2467,-100,4,2,10,50,0,0
3874,-66.6666666666667,4,2,10,50,0,0
4049,-66.6666666666667,4,2,10,5,0,0
4108,-133.333333333333,4,2,10,50,0,0
4284,-133.333333333333,4,2,10,5,0,0
4342,-66.6666666666667,4,2,10,50,0,0
4518,-66.6666666666667,4,2,10,5,0,0
4577,-133.333333333333,4,2,10,50,0,0
4752,-133.333333333333,4,2,10,5,0,0
4811,-133.333333333333,4,2,10,50,0,0
4987,-133.333333333333,4,2,10,5,0,0
5046,-133.333333333333,4,2,10,50,0,0
5221,-133.333333333333,4,2,10,5,0,0
5280,-133.333333333333,4,2,10,50,0,0
5456,-133.333333333333,4,2,10,5,0,0
5514,-133.333333333333,4,2,10,50,0,0
5690,-133.333333333333,4,2,10,5,0,0
5749,-50,4,2,10,50,0,0
6217,-100,4,2,10,50,0,0
7624,-66.6666666666667,4,2,10,50,0,0
7799,-66.6666666666667,4,2,10,5,0,0
7858,-66.6666666666667,4,2,10,50,0,0
8034,-66.6666666666667,4,2,10,5,0,0
8092,-100,4,2,10,50,0,0
8268,-100,4,2,10,5,0,0
8327,-100,4,2,10,50,0,0
8502,-100,4,2,10,5,0,0
8561,-100,4,2,10,50,0,0
9499,-43.4782608695652,4,2,1,52,0,0
10436,-38.4615384615385,4,2,1,54,0,0
11139,-100,4,2,1,54,0,0
11198,-100,4,2,1,5,0,0
11256,-100,4,2,1,54,0,0
11315,-100,4,2,1,5,0,0
11374,-34.4827586206897,4,2,1,56,0,0
12311,-40,4,2,1,58,0,0
12780,-66.6666666666667,4,2,1,58,0,0
13249,-50,4,2,1,60,0,0
13952,-100,4,2,1,60,0,0
14127,-100,4,2,1,5,0,0
14186,-100,4,2,1,60,0,0
15065,-100,4,2,1,5,0,0
15124,-100,4,2,1,60,0,0
16999,-66.6666666666667,4,2,1,60,0,0
17174,-66.6666666666667,4,2,1,5,0,0
17233,-66.6666666666667,4,2,1,60,0,0
17643,-66.6666666666667,4,2,1,5,0,0
17702,-66.6666666666667,4,2,1,60,0,0
18112,-66.6666666666667,4,2,1,5,0,0
18171,-66.6666666666667,4,2,1,60,0,0
18581,-66.6666666666667,4,2,1,5,0,0
18640,-66.6666666666667,4,2,1,60,0,0
19049,-66.6666666666667,4,2,1,5,0,0
19108,-66.6666666666667,4,2,1,60,0,0
19284,-66.6666666666667,4,2,1,5,0,0
19343,-66.6666666666667,4,2,1,60,0,0
19752,-66.6666666666667,4,2,1,5,0,0
19811,-66.6666666666667,4,2,1,60,0,0
20749,-100,4,2,1,60,0,0
27077,-50,4,2,1,60,0,0
27135,-50,4,2,1,5,0,0
27194,-58.8235294117647,4,2,1,60,0,0
27252,-58.8235294117647,4,2,1,5,0,0
27311,-71.4285714285714,4,2,1,60,0,0
27370,-71.4285714285714,4,2,1,5,0,0
27545,-50,4,2,1,60,0,0
27603,-50,4,2,1,5,0,0
27662,-58.8235294117647,4,2,1,60,0,0
27720,-52.6315789473684,4,2,1,5,0,0
27779,-71.4285714285714,4,2,1,60,0,0
27838,-71.4285714285714,4,2,1,5,0,0
28014,-50,4,2,1,60,0,0
28073,-50,4,2,1,5,0,0
28131,-50,4,2,1,60,0,0
28189,-50,4,2,1,5,0,0
28249,-83.3333333333333,4,2,2,60,0,0
32233,-52.6315789473684,4,2,2,60,0,0
32409,-52.6315789473684,4,2,2,5,0,0
32467,-52.6315789473684,4,2,2,60,0,0
32643,-52.6315789473684,4,2,2,5,0,0
32701,-52.6315789473684,4,2,2,60,0,0
33346,-52.6315789473684,4,2,2,5,0,0
33404,-52.6315789473684,4,2,2,60,0,0
33581,-52.6315789473684,4,2,2,5,0,0
33639,-52.6315789473684,4,2,2,60,0,0
35749,-66.6666666666667,4,2,1,70,0,0
43249,-58.8235294117647,4,2,1,70,0,0
46999,-33.3333333333333,4,2,1,70,0,0
47467,-500,4,2,1,70,0,0
47643,-500,4,2,1,5,0,0
47702,-500,4,2,1,70,0,0
48874,-58.8235294117647,4,2,1,70,0,0
49108,-100,4,2,1,70,0,0
49342,-58.8235294117647,4,2,1,70,0,0
50749,-50,4,2,1,50,0,0
51217,-100,4,2,1,50,0,0
52624,-66.6666666666667,4,2,1,50,0,0
52799,-66.6666666666667,4,2,1,5,0,0
52858,-100,4,2,1,50,0,0
53034,-100,4,2,1,5,0,0
53092,-66.6666666666667,4,2,1,50,0,0
53268,-66.6666666666667,4,2,1,5,0,0
53327,-100,4,2,1,50,0,0
53502,-100,4,2,1,5,0,0
53561,-100,4,2,1,50,0,0
53737,-100,4,2,1,5,0,0
53796,-100,4,2,1,50,0,0
53971,-100,4,2,1,5,0,0
54030,-100,4,2,1,50,0,0
54206,-100,4,2,1,5,0,0
54265,-100,4,2,1,50,0,0
54440,-100,4,2,1,5,0,0
54499,-50,4,2,1,50,0,0
54967,-100,4,2,1,50,0,0
56374,-66.6666666666667,4,2,1,50,0,0
56549,-66.6666666666667,4,2,1,5,0,0
56608,-66.6666666666667,4,2,1,50,0,0
56784,-66.6666666666667,4,2,1,5,0,0
56842,-100,4,2,1,50,0,0
57018,-100,4,2,1,5,0,0
57077,-100,4,2,1,50,0,0
57252,-100,4,2,1,5,0,0
57311,-100,4,2,1,50,0,0
58249,-40,4,2,1,52,0,0
59186,-35.7142857142857,4,2,1,54,0,0
59889,-100,4,2,1,54,0,0
59948,-100,4,2,1,5,0,0
60006,-100,4,2,1,54,0,0
60065,-100,4,2,1,5,0,0
60124,-32.258064516129,4,2,1,56,0,0
61061,-34.4827586206897,4,2,1,58,0,0
61530,-66.6666666666667,4,2,1,58,0,0
61999,-50,4,2,1,60,0,0
62702,-100,4,2,1,60,0,0
62877,-100,4,2,1,5,0,0
62936,-100,4,2,1,60,0,0
63815,-100,4,2,1,5,0,0
63874,-100,4,2,1,60,0,0
65749,-142.857142857143,4,2,2,40,0,0
66686,-142.857142857143,4,2,1,45,0,0
67624,-71.4285714285714,4,2,1,50,0,0
68561,-71.4285714285714,4,2,1,55,0,0
69499,-100,4,2,1,60,0,0
69967,-76.9230769230769,4,2,1,60,0,0
70436,-62.5,4,2,1,65,0,0
70905,-52.6315789473684,4,2,1,65,0,0
71374,-52.6315789473684,4,2,1,70,0,0
71842,-100,4,2,1,70,0,0
72545,-50,4,2,1,70,0,0
73014,-100,4,2,1,70,0,0
73190,-100,4,2,1,5,0,0
73249,-40,4,2,2,90,0,0
79342,-66.6666666666667,4,2,2,90,0,0
79811,-55.5555555555556,4,2,2,90,0,0
80280,-47.6190476190476,4,2,2,90,0,0
80749,-40,4,2,2,90,0,0
86374,-100,4,2,2,90,0,0
88249,-100,4,2,5,80,0,0
88717,-100,4,2,5,80,0,0
88776,-100,4,2,5,5,0,0
88834,-125,4,2,5,80,0,0
88893,-125,4,2,5,5,0,0
88952,-166.666666666667,4,2,5,80,0,0
89010,-166.666666666667,4,2,5,5,0,0
89069,-250,4,2,5,80,0,0
89127,-250,4,2,5,5,0,0
89186,-250,4,2,5,80,0,0
89303,-55.5555555555556,4,2,5,80,0,0
89596,-55.5555555555556,4,2,5,5,0,0
89655,-100,4,2,5,80,0,0
90241,-55.5555555555556,4,2,5,80,0,0
90592,-100,4,2,5,80,0,0
90651,-100,4,2,5,5,0,0
90709,-125,4,2,5,80,0,0
90768,-125,4,2,5,5,0,0
90827,-166.666666666667,4,2,5,80,0,0
90885,-166.666666666667,4,2,5,5,0,0
90944,-250,4,2,5,80,0,0
91002,-250,4,2,5,5,0,0
91061,-250,4,2,5,80,0,0
91178,-55.5555555555556,4,2,5,80,0,0
91471,-55.5555555555556,4,2,5,5,0,0
91530,-66.6666666666667,4,2,5,80,0,0
91999,-100,4,2,5,80,0,0
93405,-66.6666666666667,4,2,5,80,0,0
93874,-100,4,2,5,80,0,0
94811,-66.6666666666667,4,2,5,80,0,0
95749,-50,4,2,5,80,0,0
96217,-66.6666666666667,4,2,5,80,0,0
96276,-66.6666666666667,4,2,5,5,0,0
96334,-66.6666666666667,4,2,5,80,0,0
96393,-66.6666666666667,4,2,5,5,0,0
96451,-66.6666666666667,4,2,5,80,0,0
96510,-66.6666666666667,4,2,5,5,0,0
96568,-66.6666666666667,4,2,5,80,0,0
96627,-66.6666666666667,4,2,5,5,0,0
96685,-66.6666666666667,4,2,5,80,0,0
96920,-29.4117647058824,4,2,5,80,0,0
98092,-66.6666666666667,4,2,5,80,0,0
98151,-66.6666666666667,4,2,5,5,0,0
98209,-66.6666666666667,4,2,5,80,0,0
98268,-66.6666666666667,4,2,5,5,0,0
98326,-66.6666666666667,4,2,5,80,0,0
98385,-66.6666666666667,4,2,5,5,0,0
98443,-66.6666666666667,4,2,5,80,0,0
98502,-66.6666666666667,4,2,5,5,0,0
98560,-66.6666666666667,4,2,5,80,0,0
98795,-29.4117647058824,4,2,5,80,0,0
99499,-66.6666666666667,4,2,5,80,0,0
105124,-125,4,2,1,50,0,0
108874,-100,4,2,1,50,0,0
112624,-71.4285714285714,4,2,2,60,0,0
119186,-100,4,2,2,60,0,0
120124,-55.5555555555556,4,2,1,50,0,0
120592,-142.857142857143,4,2,1,50,0,0
127624,-100,4,2,1,50,0,0
129499,-83.3333333333333,4,2,1,50,0,0
129967,-71.4285714285714,4,2,1,50,0,0
130436,-62.5,4,2,1,50,0,0
130905,-55.5555555555556,4,2,1,50,0,0
131374,-100,4,2,1,50,0,0
135124,-100,4,2,1,60,0,0
138874,-100,4,2,1,65,0,0
142389,-66.6666666666667,4,2,1,65,0,0
142565,-66.6666666666667,4,2,1,5,0,0
142624,-58.8235294117647,4,2,6,70,0,0
142682,-58.8235294117647,4,2,6,5,0,0
142741,-58.8235294117647,4,2,6,70,0,0
142799,-58.8235294117647,4,2,6,5,0,0
142858,-58.8235294117647,4,2,6,70,0,0
142916,-58.8235294117647,4,2,6,5,0,0
142975,-58.8235294117647,4,2,6,70,0,0
143034,-58.8235294117647,4,2,6,5,0,0
143092,-37.037037037037,4,2,6,70,0,0
143268,-37.037037037037,4,2,6,5,0,0
143327,-58.8235294117647,4,2,6,70,0,0
143385,-58.8235294117647,4,2,6,5,0,0
143444,-58.8235294117647,4,2,6,70,0,0
143502,-58.8235294117647,4,2,6,5,0,0
143561,-58.8235294117647,4,2,6,70,0,0
143620,-58.8235294117647,4,2,6,5,0,0
143679,-58.8235294117647,4,2,6,70,0,0
143737,-58.8235294117647,4,2,6,5,0,0
144030,-58.8235294117647,4,2,6,70,0,0
144088,-58.8235294117647,4,2,6,5,0,0
144147,-58.8235294117647,4,2,6,70,0,0
144206,-58.8235294117647,4,2,6,5,0,0
144265,-58.8235294117647,4,2,6,70,0,0
144323,-58.8235294117647,4,2,6,5,0,0
144382,-58.8235294117647,4,2,6,70,0,0
144440,-58.8235294117647,4,2,6,5,0,0
144499,-66.6666666666667,4,2,6,70,0,0
144557,-66.6666666666667,4,2,6,5,0,0
144616,-66.6666666666667,4,2,6,70,0,0
144674,-66.6666666666667,4,2,6,5,0,0
144733,-66.6666666666667,4,2,6,70,0,0
144791,-66.6666666666667,4,2,6,5,0,0
144850,-66.6666666666667,4,2,6,70,0,0
144909,-66.6666666666667,4,2,6,5,0,0
144967,-37.037037037037,4,2,6,70,0,0
145143,-37.037037037037,4,2,6,5,0,0
145202,-66.6666666666667,4,2,6,70,0,0
145260,-66.6666666666667,4,2,6,5,0,0
145319,-66.6666666666667,4,2,6,70,0,0
145377,-66.6666666666667,4,2,6,5,0,0
145436,-66.6666666666667,4,2,6,70,0,0
145495,-66.6666666666667,4,2,6,5,0,0
145554,-66.6666666666667,4,2,6,70,0,0
145612,-66.6666666666667,4,2,6,5,0,0
145905,-66.6666666666667,4,2,6,70,0,0
145963,-66.6666666666667,4,2,6,5,0,0
146022,-66.6666666666667,4,2,6,70,0,0
146081,-66.6666666666667,4,2,6,5,0,0
146140,-66.6666666666667,4,2,6,70,0,0
146374,-76.9230769230769,4,2,6,70,0,0
150124,-50,4,2,6,80,0,0
150358,-100,4,2,6,80,0,0
150592,-50,4,2,6,80,0,0
150827,-66.6666666666667,4,2,6,80,0,0
150885,-66.6666666666667,4,2,6,5,0,0
150944,-66.6666666666667,4,2,6,80,0,0
151002,-66.6666666666667,4,2,6,5,0,0
151061,-66.6666666666667,4,2,6,80,0,0
151120,-66.6666666666667,4,2,6,5,0,0
151179,-66.6666666666667,4,2,6,80,0,0
151237,-66.6666666666667,4,2,6,5,0,0
151295,-28.5714285714286,4,2,6,80,0,0
151999,-66.6666666666667,4,2,6,80,0,0
152057,-66.6666666666667,4,2,6,5,0,0
152116,-66.6666666666667,4,2,6,80,0,0
152174,-66.6666666666667,4,2,6,5,0,0
152233,-66.6666666666667,4,2,6,80,0,0
152291,-66.6666666666667,4,2,6,5,0,0
152350,-66.6666666666667,4,2,6,80,0,0
152409,-66.6666666666667,4,2,6,5,0,0
152468,-66.6666666666667,4,2,6,80,0,0
152760,-66.6666666666667,4,2,6,5,0,0
152819,-66.6666666666667,4,2,6,80,0,0
152877,-66.6666666666667,4,2,6,5,0,0
152936,-66.6666666666667,4,2,6,80,0,0
152995,-66.6666666666667,4,2,6,5,0,0
153054,-66.6666666666667,4,2,6,80,0,0
153112,-66.6666666666667,4,2,6,5,0,0
153170,-28.5714285714286,4,2,6,80,0,0
153874,-66.6666666666667,4,2,6,80,0,0
155749,-100,4,2,6,80,0,0
157624,-125,4,2,1,60,0,0
165124,-125,4,2,2,60,0,0
170749,-76.9230769230769,4,2,2,60,0,0
172624,-142.857142857143,4,2,1,80,0,0
174499,-90.9090909090909,4,2,1,80,0,0
175905,-40,4,2,1,80,0,0
176374,-40,4,2,2,90,0,0
178717,-66.6666666666667,4,2,2,90,0,0
179186,-55.5555555555556,4,2,2,90,0,0
179655,-47.6190476190476,4,2,2,90,0,0
180124,-40,4,2,2,90,0,0
191374,-50,4,2,2,90,0,0
195124,-40,4,2,2,90,0,0
200749,-50,4,2,2,90,0,0
202624,-100,4,2,1,90,0,0

[Colours]
Combo1 : 141,141,141
Combo2 : 228,166,160
Combo3 : 236,216,208
Combo4 : 159,63,173
Combo5 : 172,139,209
Combo6 : 206,206,206

[HitObjects]
476,44,1999,6,0,B|423:109|459:207|489:160|578:224|534:395|396:320|412:279|441:234,1,375,6|0,3:2|0:0,0:0:0:0:
382,195,2467,2,0,P|368:190|352:187,2,31.25,10|0|0,0:2|0:0|0:0,0:0:0:0:
508,160,2702,1,0,0:0:0:0:
508,160,2936,1,0,0:0:0:0:
345,261,3170,6,0,P|331:257|314:256,2,31.25
410,310,3405,1,8,0:2:0:0:
374,384,3639,1,2,0:2:0:0:
180,319,3874,6,0,P|112:335|47:362,1,140.625005364418,2|0,0:2|0:0,0:0:0:0:
36,358,4108,2,0,P|68:343|101:331,1,70.3125026822091,2|0,0:2|0:0,0:0:0:0:
251,193,4342,6,0,B|214:209|185:167|200:159|166:123|117:140,1,140.625005364418,10|0,0:2|0:0,0:0:0:0:
121,145,4577,2,0,P|97:120|97:86,1,70.3125026822091,2|0,3:2|0:0,0:0:0:0:
169,63,4811,2,0,P|193:88|193:122,1,70.3125026822091,2|0,0:2|0:0,0:0:0:0:
84,211,5045,6,0,P|53:231|28:259,1,70.3125026822091,2|0,3:2|0:0,0:0:0:0:
29,271,5280,2,0,P|51:243|78:222,1,70.3125026822091,10|0,0:2|0:0,0:0:0:0:
161,277,5514,2,0,P|194:264|228:259,1,70.3125026822091,2|0,3:2|0:0,0:0:0:0:
293,324,5749,6,0,B|341:336|376:373|376:373|549:207|362:149|415:356,1,375,2|0,3:2|0:0,0:0:0:0:
445,365,6217,6,0,P|460:375|474:393,2,31.25,10|0|0,0:2|0:0|0:0,0:0:0:0:
383,240,6452,1,0,0:0:0:0:
383,240,6686,1,0,0:0:0:0:
482,298,6920,6,0,P|499:301|522:298,2,31.25
406,248,7155,1,8,0:2:0:0:
419,158,7389,1,0,0:0:0:0:
343,55,7624,6,0,L|183:42,1,140.625005364418,2|0,0:2|0:0,0:0:0:0:
172,49,7858,2,0,L|312:60,1,140.625005364418,2|0,0:2|0:0,0:0:0:0:
308,175,8092,6,0,P|308:208|243:230,1,93.75,10|0,0:2|0:0,0:0:0:0:
203,189,8327,2,0,P|209:144|251:128,1,93.75,2|0,0:2|0:0,0:0:0:0:
308,175,8561,1,2,3:2:0:0:
70,308,8795,6,0,B|150:296|114:344|197:336,1,125,2|8,3:2|0:2,0:0:0:0:
187,336,9264,1,2,3:2:0:0:
53,20,9499,6,0,P|68:171|68:307,1,287.500005483627,6|2,3:1|0:2,0:0:0:0:
69,307,9967,1,10,0:2:0:0:
69,307,10202,1,2,3:2:0:0:
220,13,10436,6,0,P|195:177|186:339,1,324.999985122681,6|2,3:1|0:2,0:0:0:0:
186,335,10905,1,10,0:2:0:0:
346,133,11139,6,0,B|332:127|332:127|311:134,1,31.25,2|0,3:2|0:0,0:0:0:0:
420,165,11256,2,0,B|435:169|435:169|451:164,1,31.25,0|0,3:0|0:0,0:0:0:0:
368,12,11374,2,0,P|386:193|387:373,1,362.500011062622,6|2,3:1|0:2,0:0:0:0:
387,374,11842,1,10,0:2:0:0:
387,374,12077,1,2,3:2:0:0:
420,165,12311,6,0,P|437:50|348:136,1,312.5,6|0,3:1|3:0,0:0:0:0:
387,374,12780,2,0,B|342:385|342:385|374:350,1,93.7500035762788,10|0,0:2|0:0,0:0:0:0:
356,253,13014,2,0,B|400:241|400:241|368:276,1,93.7500035762788,2|0,3:2|0:0,0:0:0:0:
464,320,13249,6,0,B|405:322|335:324|335:324|342:246|330:168|330:168|375:174|419:165,1,375,6|0,3:2|0:0,0:0:0:0:
482,209,13717,1,10,0:2:0:0:
307,53,13952,6,0,P|262:40|215:41,1,93.75,0|0,3:0|0:0,0:0:0:0:
430,12,14186,2,0,P|377:44|315:48,1,125,0|0,3:0|0:0,0:0:0:0:
127,99,14655,1,10,3:2:0:0:
126,98,14889,2,0,L|115:191,1,93.75,0|0,3:0|0:0,0:0:0:0:
68,253,15124,5,2,3:2:0:0:
20,0,15358,1,0,3:0:0:0:
190,324,15592,5,10,0:2:0:0:
249,17,15827,1,0,3:0:0:0:
424,310,16061,5,2,3:2:0:0:
68,253,16295,1,2,3:2:0:0:
512,233,16530,5,10,0:2:0:0:
0,311,16764,1,2,3:2:0:0:
345,303,16999,6,0,B|360:308|378:320|378:320|313:313|285:349,1,140.625005364418,2|0,0:2|0:0,0:0:0:0:
212,339,17233,1,0,0:0:0:0:
345,304,17467,6,0,B|360:309|378:321|378:321|313:313|284:349,1,140.625005364418,2|0,0:2|0:0,0:0:0:0:
211,337,17701,1,0,0:0:0:0:
345,305,17936,6,0,B|360:310|377:323|377:323|313:314|284:349,1,140.625005364418,2|0,0:2|0:0,0:0:0:0:
211,336,18170,1,0,0:0:0:0:
345,306,18405,6,0,B|360:312|377:325|377:325|313:314|283:349,1,140.625005364418,2|0,0:2|0:0,0:0:0:0:
211,335,18638,1,0,0:0:0:0:
298,98,18815,1,0,0:0:0:0:
309,103,18874,6,0,B|365:97|365:97|390:105|390:105|453:99,1,140.625005364418,2|0,0:2|0:0,0:0:0:0:
235,173,19108,6,0,P|203:112|221:46,1,140.625005364418,2|0,0:2|0:0,0:0:0:0:
391,138,19342,2,0,P|254:187|221:46,1,328.125012516976,2|0,0:2|0:0,0:0:0:0:
289,9,19811,5,8,0:3:0:0:
462,208,20045,1,8,0:3:0:0:
482,231,20124,1,8,0:3:0:0:
451,236,20202,1,8,0:3:0:0:
464,227,20280,1,8,0:3:0:0:
345,303,20514,1,8,0:3:0:0:
240,377,20749,6,0,L|116:358,1,125,2|2,3:2|0:2,0:0:0:0:
116,358,21100,1,2,0:2:0:0:
173,271,21217,2,0,L|49:289,1,125,2|2,3:2|0:2,0:0:0:0:
116,358,21569,1,0,0:0:0:0:
263,201,21686,2,0,L|139:182,1,125,2|2,3:2|0:2,0:0:0:0:
89,124,22038,1,0,0:0:0:0:
88,122,22155,1,2,3:2:0:0:
312,3,22389,1,2,0:2:0:0:
498,140,22624,6,0,B|499:203|446:191|457:267,1,125,2|2,3:2|0:2,0:0:0:0:
455,253,23092,1,2,3:2:0:0:
391,65,23327,2,0,B|354:65|354:65|382:83,1,62.5,2|0,0:2|0:0,0:0:0:0:
458,28,23561,2,0,P|412:75|424:136,1,125,2|2,3:2|0:2,0:0:0:0:
498,140,23913,1,0,0:0:0:0:
420,130,24030,2,0,P|357:148|337:207,1,125,0|0,3:0|0:0,0:0:0:0:
479,312,24499,6,0,B|449:291|440:258|440:258|416:286|376:287,1,125,2|2,3:2|0:2,0:0:0:0:
347,348,24850,1,0,0:0:0:0:
348,216,24967,2,0,B|318:237|309:270|309:270|285:242|245:241,1,125,2|2,3:2|0:2,0:0:0:0:
216,180,25318,1,0,0:0:0:0:
217,312,25436,2,0,B|187:291|178:258|178:258|154:286|114:287,1,125,2|2,3:2|0:2,0:0:0:0:
82,347,25788,1,0,0:0:0:0:
80,349,25905,1,0,3:0:0:0:
32,126,26139,1,2,0:2:0:0:
301,206,26374,6,0,B|332:228|369:208|366:196|394:183|432:205,1,125,2|2,3:2|0:2,0:0:0:0:
488,160,26725,1,0,0:0:0:0:
486,162,26842,1,2,3:2:0:0:
367,4,27077,6,0,L|323:59,1,62.5,2|0,0:2|0:0,0:0:0:0:
263,15,27194,6,0,L|253:67,1,53.125001013279
179,67,27311,6,0,L|193:108,1,43.749998664856,2|0,3:2|0:0,0:0:0:0:
0,180,27545,6,0,L|44:125,1,62.5,2|0,0:2|0:0,0:0:0:0:
104,169,27662,6,0,L|113:116,1,53.125001013279
188,117,27779,6,0,L|173:75,1,43.749998664856,0|0,3:0|0:0,0:0:0:0:
246,251,28014,6,0,B|217:235|217:235|184:245,1,62.5,0|0,0:2|0:0,0:0:0:0:
309,306,28131,2,0,B|338:322|338:322|371:312,1,62.5
255,364,28249,6,0,P|268:291|268:214,1,149.999995422363,2|2,3:2|0:2,0:0:0:0:
322,155,28600,1,2,0:2:0:0:
269,215,28717,1,10,0:2:0:0:
474,294,28952,1,2,0:2:0:0:
438,369,29069,1,0,0:0:0:0:
484,284,29186,6,0,L|470:134,1,149.999995422363,2|2,3:2|0:2,0:0:0:0:
269,215,29538,1,0,0:0:0:0:
322,155,29655,2,0,L|308:5,1,149.999995422363,8|2,0:2|0:2,0:0:0:0:
49,188,30124,6,0,B|95:163|134:184|123:194|162:214|208:182,1,149.999995422363,2|2,3:2|0:2,0:0:0:0:
269,215,30475,1,0,0:0:0:0:
192,190,30592,1,10,0:2:0:0:
77,351,30827,1,2,0:2:0:0:
0,319,30944,1,0,0:0:0:0:
88,364,31061,6,0,B|118:326|118:326|219:326,1,149.999995422363,2|2,3:2|0:2,0:0:0:0:
288,367,31413,1,0,0:0:0:0:
219,326,31530,1,8,0:2:0:0:
431,363,31764,1,2,0:2:0:0:
271,66,31999,5,0,3:2:0:0:
512,223,32233,6,0,B|462:165|378:174|378:174|355:195,1,178.124995243549,2|0,0:2|0:0,0:0:0:0:
485,103,32467,2,0,B|464:176|384:203|384:203|354:193,1,178.124995243549,10|0,0:2|0:0,0:0:0:0:
334,201,32702,1,2,0:2:0:0:
330,201,32819,1,0,0:0:0:0:
326,201,32936,1,0,3:2:0:0:
94,64,33170,6,0,B|78:183|78:183|116:187|133:220,1,178.124995243549,2|0,0:2|0:0,0:0:0:0:
1,130,33405,2,0,B|118:155|118:155|109:192|134:220,1,178.124995243549,8|0,0:2|0:0,0:0:0:0:
142,228,33639,1,2,0:2:0:0:
420,334,33874,5,2,3:2:0:0:
352,384,33991,1,2,0:2:0:0:
342,300,34108,1,2,0:2:0:0:
504,323,34342,5,2,3:2:0:0:
216,360,34577,1,2,0:2:0:0:
441,191,34811,5,2,0:2:0:0:
350,67,34928,1,2,0:2:0:0:
496,115,35045,1,2,0:2:0:0:
350,162,35163,1,2,0:2:0:0:
505,113,35280,5,2,0:2:0:0:
423,86,35397,1,0,0:0:0:0:
343,60,35514,1,2,0:2:0:0:
57,144,35749,6,0,B|51:259|129:203|126:326,1,187.500007152558,2|2,3:2|1:2,0:0:0:0:
78,373,36100,1,2,1:2:0:0:
141,151,36217,2,0,B|125:265|59:196|41:318,1,187.500007152558,0|2,3:2|1:2,0:0:0:0:
372,384,36686,6,0,B|363:318|309:285|309:285|273:298|240:279,1,187.500007152558,2|0,3:2|1:0,0:0:0:0:
281,216,37038,1,2,1:2:0:0:
290,366,37155,5,2,3:2:0:0:
372,384,37272,1,2,0:2:0:0:
289,369,37389,1,2,1:2:0:0:
372,380,37506,1,2,0:2:0:0:
423,260,37624,6,0,B|447:213|482:182|482:182|453:149|449:100,1,187.500007152558,2|2,3:2|1:2,0:0:0:0:
428,28,37975,1,2,1:2:0:0:
512,245,38092,2,0,B|473:209|429:191|429:191|443:151|432:103,1,187.500007152558,0|2,3:2|1:2,0:0:0:0:
163,284,38561,6,0,B|250:282|302:349|302:349|296:362|295:376,1,187.500007152558,2|0,3:2|1:0,0:0:0:0:
372,380,38913,1,0,1:2:0:0:
294,283,39030,5,2,3:2:0:0:
228,327,39147,1,2,0:2:0:0:
173,384,39264,1,2,1:2:0:0:
14,186,39499,6,0,B|34:183|61:185|61:185|80:147|122:109|122:109|147:115|175:104,1,187.500007152558,2|2,3:2|1:2,0:0:0:0:
241,98,39850,1,2,1:2:0:0:
0,85,39967,2,0,B|20:82|45:72|45:72|74:105|124:131|124:131|141:121|164:121,1,187.500007152558,0|2,3:2|1:2,0:0:0:0:
408,36,40436,6,0,B|441:64|441:64|449:136|410:205,1,187.500007152558,2|2,3:2|1:2,0:0:0:0:
359,259,40788,1,2,1:2:0:0:
408,36,40905,2,0,B|366:48|366:48|326:108|336:189,1,187.500007152558,0|2,3:0|1:2,0:0:0:0:
214,384,41374,6,0,B|202:327|138:303|138:303|112:335|77:335,1,187.500007152558,2|2,3:2|1:2,0:0:0:0:
4,301,41725,1,2,1:2:0:0:
71,254,41842,2,0,B|98:262|110:283|110:283|110:257|131:232,1,93.7500035762788,0|0,3:2|0:0,0:0:0:0:
113,77,42077,2,0,B|86:69|74:48|74:48|74:74|53:99,1,93.7500035762788,2|0,1:2|0:0,0:0:0:0:
281,52,42311,6,0,B|240:49|240:49|237:52|237:52|189:50,1,93.7500035762788,2|0,3:2|0:0,0:0:0:0:
356,134,42545,1,2,1:2:0:0:
271,170,42663,1,2,1:2:0:0:
361,141,42780,2,0,B|320:138|320:138|317:141|317:141|221:136|221:136|217:139|217:139|159:137,1,187.500007152558,2|2,3:2|1:2,0:0:0:0:
429,244,43249,6,0,B|388:226|340:248|325:295|341:331|341:331|342:311|349:293|358:281,1,212.500004053116,2|2,3:2|1:2,0:0:0:0:
416,328,43600,1,0,1:0:0:0:
283,381,43717,5,2,3:2:0:0:
202,335,43834,1,2,0:2:0:0:
284,377,43952,1,2,1:2:0:0:
200,338,44069,1,2,0:2:0:0:
285,184,44186,6,0,B|218:169|218:169|154:207|154:207|85:195,1,212.500004053116,2|2,3:2|1:2,0:0:0:0:
15,224,44538,1,0,1:2:0:0:
138,130,44655,5,2,3:2:0:0:
162,40,44772,1,2,0:2:0:0:
134,130,44890,1,2,1:2:0:0:
166,41,45007,1,2,0:2:0:0:
307,136,45124,6,0,B|449:145|353:51|505:66,1,212.500004053116,2|2,3:2|1:2,0:0:0:0:
467,138,45475,1,0,1:0:0:0:
331,49,45592,2,0,P|225:42|119:39,1,212.500004053116,2|2,3:2|1:2,0:0:0:0:
55,93,45944,1,2,0:2:0:0:
130,26,46061,5,2,3:2:0:0:
162,325,46295,1,2,1:2:0:0:
94,383,46413,1,0,1:2:0:0:
184,323,46530,2,0,B|311:418|343:261|242:280,1,212.500004053116,2|0,3:2|1:2,0:0:0:0:
258,139,46999,6,0,B|211:138|177:183|188:233|224:257|259:256|259:256|307:255|342:301|328:352|291:376|256:373,1,375.000014305115,8|0,3:1|0:0,0:0:0:0:
259,373,47467,6,0,L|263:353,1,18.75,2|0,0:2|0:0,0:0:0:0:
267,331,47702,1,2,0:2:0:0:
436,236,47936,1,2,0:2:0:0:
205,37,48288,1,2,0:2:0:0:
198,43,48405,1,2,0:2:0:0:
359,90,48639,1,2,0:2:0:0:
120,220,48874,5,2,3:2:0:0:
67,280,48991,1,0,0:0:0:0:
120,339,49108,2,0,P|150:334|181:331,1,62.5,2|0,0:2|0:0,0:0:0:0:
0,366,49342,2,0,P|105:350|210:338,1,212.500004053116,2|2,3:2|0:2,0:0:0:0:
488,262,49811,6,0,P|389:289|350:384,1,212.500004053116,0|2,3:2|1:2,0:0:0:0:
350,384,50163,1,2,1:2:0:0:
343,200,50280,2,0,P|300:293|349:383,1,212.500004053116,2|2,3:2|0:2,0:0:0:0:
111,110,50749,6,0,B|64:138|1:97|1:97|87:126|158:73|90:55|193:6|253:56,1,375,6|0,3:2|0:0,0:0:0:0:
270,114,51217,2,0,P|268:129|262:144,2,31.25,10|0|0,0:2|0:0|0:0,0:0:0:0:
347,14,51452,1,0,0:0:0:0:
347,14,51686,1,0,0:0:0:0:
178,156,51920,6,0,P|177:171|172:186,2,31.25
111,110,52155,1,8,0:2:0:0:
44,156,52389,1,2,0:2:0:0:
110,322,52624,6,0,P|176:313|218:366,1,140.625005364418,2|0,0:2|0:0,0:0:0:0:
225,366,52858,2,0,P|206:322|165:302,1,93.75,2|0,0:2|0:0,0:0:0:0:
296,238,53092,6,0,B|333:254|362:212|347:204|381:168|430:185,1,140.625005364418,10|0,0:2|0:0,0:0:0:0:
426,192,53327,2,0,P|433:145|442:99,1,93.75,2|0,3:2|0:0,0:0:0:0:
364,70,53561,2,0,P|355:116|347:162,1,93.75,2|0,0:2|0:0,0:0:0:0:
226,195,53795,6,0,P|180:185|145:155,1,93.75,2|0,3:2|0:0,0:0:0:0:
148,143,54030,2,0,P|182:174|227:185,1,93.75,10|0,0:2|0:0,0:0:0:0:
79,235,54264,2,0,P|45:266|0:277,1,93.75,2|0,3:2|0:0,0:0:0:0:
183,309,54499,6,0,B|217:308|246:326|260:353|260:353|269:266|400:202|482:343|306:316,1,375,2|0,3:2|0:0,0:0:0:0:
235,244,54967,6,0,P|227:230|218:217,2,31.25,10|0|0,0:2|0:0|0:0,0:0:0:0:
260,352,55202,1,0,0:0:0:0:
260,352,55436,1,0,0:0:0:0:
279,166,55670,6,0,P|270:152|259:141,2,31.25
367,160,55905,1,8,0:2:0:0:
406,82,56139,1,0,0:0:0:0:
180,14,56374,6,0,P|115:31|97:96,1,140.625005364418,2|0,0:2|0:0,0:0:0:0:
123,129,56608,2,0,P|106:63|153:16,1,140.625005364418,2|0,0:2|0:0,0:0:0:0:
311,104,56842,6,0,B|336:145|336:145|314:185,1,93.75,10|0,0:2|0:0,0:0:0:0:
240,190,57077,2,0,B|215:149|215:149|237:109,1,93.75,2|0,0:2|0:0,0:0:0:0:
311,104,57311,1,2,3:2:0:0:
490,276,57545,2,0,B|463:264|446:235|446:235|421:257|386:259,1,125,2|8,3:2|0:2,0:0:0:0:
388,259,58014,1,2,3:2:0:0:
240,342,58249,6,0,L|272:31,1,312.5,6|2,3:1|0:2,0:0:0:0:
271,31,58717,1,10,0:2:0:0:
271,31,58952,1,2,3:2:0:0:
307,368,59186,6,0,B|292:125|213:304|191:44,1,349.999989318848,6|2,3:1|0:2,0:0:0:0:
192,51,59655,1,10,0:2:0:0:
254,250,59889,6,0,L|305:244,1,31.25,2|0,3:2|0:0,0:0:0:0:
187,207,60006,2,0,L|137:192,1,31.25,0|0,3:0|0:0,0:0:0:0:
205,367,60124,2,0,B|179:302|201:232|251:192|251:192|306:149|321:77|298:16,1,387.50000295639,6|2,3:1|0:2,0:0:0:0:
299,17,60592,1,10,0:2:0:0:
299,17,60827,1,2,3:2:0:0:
476,277,61061,6,0,B|494:250|493:216|477:191|477:191|538:230|538:321|470:368|402:354|368:312,1,362.500011062622,6|0,3:1|0:0,0:0:0:0:
340,93,61530,6,0,B|329:72|352:43|352:43|353:67|365:85,1,93.7500035762788,10|0,0:2|0:0,0:0:0:0:
403,154,61764,2,0,B|414:175|391:204|391:204|390:180|378:162,1,93.7500035762788,2|0,3:2|0:0,0:0:0:0:
503,115,61999,6,0,B|485:101|408:130|368:117|368:117|370:133|302:201|306:210|306:210|302:202|196:230|177:208,1,375,6|0,3:2|0:0,0:0:0:0:
123,155,62467,1,10,0:2:0:0:
247,308,62702,2,0,P|289:288|335:290,1,93.75,0|0,3:0|0:0,0:0:0:0:
132,327,62936,2,0,P|192:339|248:314,1,125,0|0,3:0|0:0,0:0:0:0:
426,376,63405,1,8,0:2:0:0:
426,376,63639,2,0,L|439:270,1,93.75,0|0,3:0|0:0,0:0:0:0:
503,247,63874,5,2,3:2:0:0:
382,0,64108,1,0,0:0:0:0:
298,384,64342,5,10,0:2:0:0:
427,116,64576,1,0,3:0:0:0:
117,354,64811,5,2,3:2:0:0:
426,376,65045,1,2,3:2:0:0:
57,228,65280,6,0,B|29:214|29:214|-8:225,1,62.5,10|0,0:2|0:0,0:0:0:0:
455,146,65514,2,0,B|483:160|483:160|520:149,1,62.5,2|0,3:2|0:0,0:0:0:0:
253,0,65749,6,0,B|237:21|231:47|231:47|249:58|264:110|278:129|278:129|269:145|268:164,3,174.999994659424,2|2|2|2,3:2|0:2|3:2|0:2,0:0:0:0:
268,154,67389,1,0,3:0:0:0:
269,383,67624,6,0,B|287:377|305:302|305:302|280:286|306:148|283:122|283:122|307:89|327:54,3,349.999989318848,2|2|2|2,3:2|0:2|3:2|0:2,0:0:0:0:
324,60,69264,1,0,3:0:0:0:
475,214,69499,6,0,L|414:198,1,62.5,2|0,3:2|0:0,0:0:0:0:
489,226,69733,2,0,L|428:210,1,62.5,2|0,0:2|0:0,0:0:0:0:
238,371,69967,6,0,L|320:349,1,81.2499962806703,2|0,3:2|0:0,0:0:0:0:
219,384,70202,2,0,L|301:362,1,81.2499962806703,2|0,0:2|0:0,0:0:0:0:
475,101,70436,6,0,B|453:90|439:66|439:66|419:80|390:78,1,100,2|0,3:2|0:0,0:0:0:0:
512,117,70670,2,0,B|485:115|465:129|465:129|451:105|429:94,1,100,2|0,0:2|0:0,0:0:0:0:
44,320,70905,6,0,B|96:306|96:306|111:291|111:291|152:278,1,118.749996829033,2|0,3:2|0:0,0:0:0:0:
0,299,71139,2,0,B|41:311|41:311|56:326|56:326|108:340,1,118.749996829033,2|0,0:2|0:0,0:0:0:0:
341,22,71374,5,4,3:2:0:0:
188,45,71530,5,0,0:0:0:0:
213,199,71686,5,0,0:0:0:0:
367,173,71842,6,0,P|429:185|487:207,1,125,2|2,0:2|0:2,0:0:0:0:
497,209,72155,1,0,0:0:0:0:
506,220,72233,1,0,0:0:0:0:
512,231,72311,2,0,P|512:251|509:272,2,41.6666666666667
458,327,72545,6,0,B|435:343|407:352|407:352|387:335|347:319,1,125,2|0,0:2|0:0,0:0:0:0:
294,205,72780,2,0,B|271:189|243:180|243:180|223:196|183:212,1,125,10|0,0:2|0:0,0:0:0:0:
82,327,73014,2,0,B|75:346|75:359|75:359|87:370|97:378|97:378|100:355|112:338,1,93.75,10|0,0:2|0:0,0:0:0:0:
10,289,73249,6,0,B|20:298|90:290|90:290|96:283|96:283|159:272|167:284,1,156.25,6|0,3:2|0:0,0:0:0:0:
32,18,73483,2,0,B|23:28|31:98|31:98|38:104|38:104|49:167|37:175,1,156.25,2|0,1:2|0:0,0:0:0:0:
308,54,73717,2,0,B|298:45|228:53|228:53|222:60|222:60|159:71|151:59,1,156.25,10|0,0:2|0:0,0:0:0:0:
299,349,73952,1,2,1:2:0:0:
294,354,74069,1,0,0:0:0:0:
337,275,74186,6,0,B|370:235|426:254|426:254|434:254|434:254|360:351|252:303,1,312.5,2|0,3:2|1:0,0:0:0:0:
130,174,74538,1,0,1:0:0:0:
63,220,74655,2,0,B|41:246|13:254|13:254|20:301|21:352|21:352|67:330|114:310|114:310|106:281|115:257,1,312.5,10|0,0:2|1:0,0:0:0:0:
172,6,75124,5,0,3:0:0:0:
465,204,75358,2,0,B|448:221|422:231|422:231|487:238|514:171,1,156.25,2|0,1:2|0:0,0:0:0:0:
249,318,75592,2,0,B|242:295|246:267|246:267|207:320|252:376,1,156.25,10|0,0:2|0:0,0:0:0:0:
292,64,75827,2,0,B|314:69|336:86|336:86|310:26|238:37,1,156.25,2|0,1:2|0:0,0:0:0:0:
395,306,76061,6,0,B|435:294|477:317|488:356|488:356|455:328|455:278|488:251|488:251|510:234|517:205|506:181,1,312.5,2|0,3:2|1:0,0:0:0:0:
247,134,76413,1,0,0:0:0:0:
235,145,76530,2,0,B|196:156|155:153|155:153|193:156|237:173,1,156.25,10|0,0:2|0:0,0:0:0:0:
418,45,76764,2,0,B|457:34|498:37|498:37|460:34|416:17,1,156.25,0|0,1:0|0:0,0:0:0:0:
319,70,76999,5,2,3:2:0:0:
408,229,77155,5,2,0:2:0:0:
275,384,77311,5,2,0:2:0:0:
110,253,77467,6,0,B|63:225|0:266|0:266|86:237|126:282|89:308|199:286,1,312.5,10|0,0:2|1:0,0:0:0:0:
254,220,77819,1,0,1:0:0:0:
202,148,77936,5,2,3:2:0:0:
0,266,78092,5,2,0:2:0:0:
192,375,78249,5,2,0:2:0:0:
402,244,78405,6,0,B|449:238|482:216|482:216|455:259|409:285|409:285|373:213|328:191,1,312.5,10|0,0:2|1:0,0:0:0:0:
0,67,78874,5,2,3:2:0:0:
85,20,78991,1,2,0:2:0:0:
131,105,79108,1,2,1:2:0:0:
46,152,79225,1,2,0:2:0:0:
181,35,79342,6,0,P|192:10|206:54,1,93.7500035762788,10|0,0:2|0:0,0:0:0:0:
51,231,79577,2,0,P|40:256|26:212,1,93.7500035762788,2|0,1:2|0:0,0:0:0:0:
304,54,79811,6,0,P|291:108|281:164,1,112.499996566773,2|0,3:2|0:0,0:0:0:0:
345,242,80045,1,2,1:2:0:0:
355,252,80163,1,0,1:0:0:0:
281,164,80280,6,0,B|251:181|251:181|200:162|200:162|250:168,1,131.249995994568,10|0,0:2|0:0,0:0:0:0:
444,313,80514,2,0,B|474:296|474:296|525:315|525:315|475:309,1,131.249995994568,2|0,1:2|0:0,0:0:0:0:
105,228,80749,6,0,B|60:213|18:233|18:233|57:230|87:250,1,156.25,2|0,3:2|0:0,0:0:0:0:
282,296,80983,2,0,B|266:341|285:383|285:383|283:344|304:314,1,156.25,2|0,1:2|0:0,0:0:0:0:
378,102,81217,2,0,B|423:118|465:99|465:99|426:101|396:80,1,156.25,10|0,0:2|0:0,0:0:0:0:
175,73,81452,1,2,1:2:0:0:
166,63,81569,1,0,0:0:0:0:
86,46,81686,6,0,B|61:31|32:33|12:50|12:50|40:10|93:1|138:28|133:102|215:101,1,312.5,2|0,3:2|1:0,0:0:0:0:
451,25,82038,1,0,1:0:0:0:
378,102,82155,2,0,B|321:129|316:212|384:252|442:231|464:189|464:189|436:207|401:206|376:189,1,312.5,10|0,0:2|1:0,0:0:0:0:
142,384,82624,5,0,3:0:0:0:
57,173,82858,6,0,B|34:169|-2:180|-2:180|6:159|17:150|17:150|45:145|78:174,1,156.25,2|0,1:2|0:0,0:0:0:0:
292,101,83092,2,0,B|307:84|316:46|316:46|330:64|332:78|332:78|322:104|280:119,1,156.25,10|0,0:2|0:0,0:0:0:0:
233,335,83327,2,0,B|241:357|269:383|269:383|246:386|233:382|233:382|215:359|224:316,1,156.25,2|0,1:2|0:0,0:0:0:0:
156,82,83561,6,0,B|163:55|157:28|141:8|141:8|202:39|221:116|182:171|182:171|152:183|131:209|123:237,1,312.5,2|0,3:2|1:0,0:0:0:0:
351,268,83913,1,0,0:0:0:0:
363,276,84030,2,0,B|372:289|391:294|391:294|406:277|447:274|447:274|406:276|375:272,1,156.25,10|0,0:2|0:0,0:0:0:0:
125,359,84264,2,0,B|116:346|97:341|97:341|82:358|41:361|41:361|82:359|113:363,1,156.25,0|0,1:0|0:0,0:0:0:0:
371,126,84499,5,2,3:2:0:0:
167,52,84655,5,2,0:2:0:0:
1,192,84811,5,2,0:2:0:0:
195,291,84967,6,0,B|194:337|234:374|278:372|278:372|279:328|308:294|346:283|346:283|366:305|397:311|423:300,1,312.5,10|0,0:2|1:0,0:0:0:0:
495,248,85319,1,0,1:0:0:0:
465,152,85436,5,2,3:2:0:0:
289,287,85592,5,2,0:2:0:0:
85,203,85749,5,2,0:2:0:0:
262,76,85905,6,0,B|283:58|311:53|335:61|335:61|286:19|204:39|179:116|213:168,1,312.5,10|0,0:2|1:0,0:0:0:0:
501,372,86374,6,0,B|497:325|466:289|424:277|424:277|410:318|371:345|331:349|331:349|305:311|262:296|221:304|221:304|190:335|145:343|106:329,1,500,2|2,3:2|0:2,0:0:0:0:
154,75,87545,5,10,0:3:0:0:
155,63,87624,1,8,0:3:0:0:
157,51,87702,1,8,0:3:0:0:
158,39,87780,1,8,0:3:0:0:
223,138,88014,1,8,0:3:0:0:
83,204,88249,6,0,B|59:209|42:178|8:203|8:203|34:195|59:207,1,125,0|0,3:2|0:0,0:0:0:0:
483,236,88717,6,0,L|513:227,1,31.25,6|0,3:2|0:0,0:0:0:0:
438,295,88834,6,0,L|459:310,1,25,2|0,0:2|0:0,0:0:0:0:
363,298,88952,6,0,L|364:321,1,18.7499994277954,2|0,0:2|0:0,0:0:0:0:
313,241,89069,6,0,L|298:254,1,12.5,2|0,0:2|0:0,0:0:0:0:
389,177,89186,5,2,3:2:0:0:
392,173,89303,2,0,B|398:146|445:137|445:137|378:136|342:157|342:157|325:142|297:135|297:135|264:159|224:147,1,281.249991416931,2|0,0:2|0:0,0:0:0:0:
250,77,89655,5,2,3:2:0:0:
159,219,89772,1,2,0:2:0:0:
81,69,89889,1,2,0:2:0:0:
140,367,90124,5,2,3:2:0:0:
79,318,90241,2,0,B|70:355|38:383|38:383|96:333|176:331,1,224.999993133545,2|0,0:2|0:0,0:0:0:0:
397,358,90592,6,0,L|414:384,1,31.25,2|0,3:2|0:0,0:0:0:0:
400,284,90709,6,0,L|425:286,1,25,2|0,0:2|0:0,0:0:0:0:
344,234,90827,6,0,L|359:217,1,18.7499994277954,2|0,0:2|0:0,0:0:0:0:
269,245,90944,6,0,L|265:225,1,12.5,2|0,0:2|0:0,0:0:0:0:
286,343,91061,5,2,3:2:0:0:
290,339,91178,2,0,B|319:306|353:296|353:296|371:225|372:157|372:157|406:147|429:126,1,281.249991416931,2|0,0:2|0:0,0:0:0:0:
512,70,91530,2,0,B|487:92|457:103|427:105|427:105|402:84|372:72|342:70,1,187.500007152558,2|0,3:2|0:0,0:0:0:0:
111,13,91999,5,2,3:2:0:0:
112,19,92057,1,2,0:2:0:0:
113,26,92116,1,2,0:2:0:0:
97,46,92174,2,0,L|61:45,3,31.25,2|2|0|2,0:2|0:2|0:0|0:2,0:0:0:0:
217,95,92467,5,2,3:2:0:0:
216,101,92525,1,2,0:2:0:0:
215,108,92584,1,2,0:2:0:0:
231,128,92643,2,0,L|267:127,3,31.25,2|2|0|2,0:2|0:2|0:0|0:2,0:0:0:0:
147,259,92936,5,2,3:2:0:0:
49,185,93053,1,0,0:0:0:0:
152,271,93170,1,2,0:2:0:0:
43,172,93287,1,0,0:0:0:0:
226,336,93405,6,0,B|249:339|273:330|273:330|248:339|236:358,1,93.7500035762788,2|0,3:2|0:0,0:0:0:0:
477,238,93639,2,0,B|454:235|430:244|430:244|455:235|467:216,1,93.7500035762788,2|0,0:2|0:0,0:0:0:0:
294,109,93874,5,2,3:2:0:0:
294,116,93932,1,2,0:2:0:0:
295,124,93991,1,2,0:2:0:0:
296,132,94049,1,2,0:2:0:0:
313,149,94108,2,0,L|308:199,2,31.25,2|0|8,0:2|0:0|0:1,0:0:0:0:
350,290,94342,5,0,3:2:0:0:
300,363,94460,1,2,0:2:0:0:
161,246,94577,5,8,0:1:0:0:
166,334,94694,1,2,0:2:0:0:
241,306,94811,6,0,B|259:289|267:261|267:261|248:281|233:296,1,93.7500035762788,2|0,3:2|0:0,0:0:0:0:
159,126,95045,2,0,B|141:143|133:171|133:171|152:151|167:136,1,93.7500035762788,10|0,0:1|0:0,0:0:0:0:
52,237,95280,5,10,3:2:0:0:
161,246,95397,1,8,0:2:0:0:
147,358,95514,1,8,0:2:0:0:
38,346,95631,1,8,0:2:0:0:
13,114,95749,6,2,B|50:104|73:77|73:77|146:89|185:107|185:107|212:85|246:72,1,250,6|2,3:2|0:0,0:0:0:0:
340,9,96100,1,0,3:0:0:0:
351,15,96217,6,0,L|341:61,1,46.8750017881394,0|0,3:2|0:0,0:0:0:0:
442,104,96334,6,0,L|400:125,1,46.8750017881394,2|0,0:2|0:0,0:0:0:0:
432,230,96452,6,0,L|389:212,1,46.8750017881394,2|0,0:2|0:0,0:0:0:0:
329,303,96569,6,0,L|315:258,1,46.8750017881394,2|0,0:2|0:0,0:0:0:0:
252,150,96686,5,2,3:2:0:0:
256,151,96803,1,2,0:2:0:0:
388,211,96920,6,2,B|335:237|272:227|231:185|219:135|219:135|204:78|153:39|94:36|49:60,1,425.000008106232,2|2,0:0|3:2,0:0:0:0:
418,35,97272,2,2,B|383:-3|327:-20|266:-1|232:47|232:47|203:89|151:114|88:103|48:60,1,425.000008106232,2|2,0:2|0:0,0:0:0:0:
457,134,97624,2,2,P|260:56|49:60,1,425.000008106232,2|2,3:2|0:0,0:0:0:0:
49,59,97975,1,0,0:0:0:0:
0,245,98092,6,0,L|44:190,1,46.8750017881394,2|0,3:2|0:0,0:0:0:0:
91,339,98209,6,0,L|65:273,1,46.8750017881394,2|0,0:2|0:0,0:0:0:0:
217,307,98327,6,0,L|147:296,1,46.8750017881394,2|0,0:2|0:0,0:0:0:0:
252,181,98444,6,0,L|208:236,1,46.8750017881394,2|0,0:2|0:0,0:0:0:0:
122,140,98561,5,2,3:2:0:0:
120,144,98678,1,2,0:2:0:0:
0,245,98795,6,2,B|67:278|145:263|196:215|196:215|251:163|331:155|393:187,1,425.000008106232,2|2,0:0|3:2,0:0:0:0:
29,77,99147,2,2,B|97:67|170:102|204:170|204:170|235:233|303:274|379:264,1,425.000008106232,2|2,0:2|0:0,0:0:0:0:
450,238,99499,5,2,3:2:0:0:
461,236,99557,1,2,0:2:0:0:
473,235,99616,1,2,0:2:0:0:
484,234,99674,1,2,0:2:0:0:
507,249,99733,2,0,L|516:134,1,93.7500035762788,2|2,0:2|0:2,0:0:0:0:
299,154,99967,5,2,3:2:0:0:
310,152,100025,1,2,0:2:0:0:
322,151,100084,1,2,0:2:0:0:
333,150,100142,1,2,0:2:0:0:
363,128,100202,2,0,L|370:221,1,93.7500035762788,2|2,0:2|0:2,0:0:0:0:
364,374,100436,5,2,3:2:0:0:
225,353,100553,1,0,0:0:0:0:
375,368,100670,1,2,0:2:0:0:
213,358,100787,1,0,0:0:0:0:
51,348,100905,6,0,B|85:344|85:344|102:355|102:355|81:361|81:361|56:351,1,93.7500035762788,2|0,3:2|0:0,0:0:0:0:
185,60,101139,2,0,B|151:56|151:56|134:67|134:67|155:73|155:73|180:63,1,93.7500035762788,2|0,0:2|0:0,0:0:0:0:
27,197,101374,5,2,3:2:0:0:
39,198,101433,1,2,0:2:0:0:
50,199,101491,1,2,0:2:0:0:
62,200,101550,1,2,0:2:0:0:
82,219,101608,2,0,L|129:206,2,46.8750017881394,2|0|8,0:2|0:0|0:1,0:0:0:0:
193,156,101842,5,2,3:2:0:0:
293,270,101959,1,2,0:2:0:0:
280,118,102076,1,8,0:1:0:0:
201,248,102193,1,0,0:0:0:0:
340,189,102311,6,0,B|363:172|400:173|400:173|380:178|374:188,1,93.7500035762788,2|0,3:2|0:0,0:0:0:0:
512,353,102545,2,0,B|491:368|457:367|457:367|475:363|498:338,1,93.7500035762788,2|0,0:2|0:0,0:0:0:0:
289,348,102780,6,0,B|273:353|260:362|251:374|251:374|246:335|270:299|307:286|340:296,2,187.500007152558,10|8|8,0:3|0:3|0:3,0:0:0:0:
291,338,103952,5,2,0:2:0:0:
299,330,104069,1,2,0:2:0:0:
278,329,104186,5,2,3:2:0:0:
192,319,104303,1,2,3:2:0:0:
138,252,104420,1,2,3:2:0:0:
147,164,104538,1,2,3:2:0:0:
247,86,104655,5,10,3:2:0:0:
242,113,104772,1,8,3:2:0:0:
238,141,104889,1,10,3:2:0:0:
234,169,105006,1,8,3:2:0:0:
255,192,105124,6,0,P|242:118|221:46,1,150,2|2,3:2|1:2,0:0:0:0:
221,46,105592,1,0,3:0:0:0:
298,285,105827,5,10,0:2:0:0:
295,288,105944,1,8,0:2:0:0:
292,291,106061,2,0,B|260:335|262:363|262:363|247:356|224:354,1,100,2|8,3:2|0:2,0:0:0:0:
410,266,106413,1,2,0:2:0:0:
414,267,106530,2,0,B|382:223|384:195|384:195|369:202|346:204,1,100,0|2,3:2|0:2,0:0:0:0:
175,321,106999,6,0,P|102:312|70:384,1,150,2|2,3:2|0:2,0:0:0:0:
68,372,107467,1,0,3:0:0:0:
8,206,107702,5,10,0:2:0:0:
11,209,107819,1,8,0:2:0:0:
15,213,107936,2,0,P|60:229|102:206,1,100,2|10,3:2|0:2,0:0:0:0:
92,122,108288,1,8,0:2:0:0:
88,118,108405,2,0,P|42:101|0:124,1,100,2|2,3:2|0:2,0:0:0:0:
206,36,108874,6,0,P|294:35|325:120,1,187.5,2|2,3:2|0:2,0:0:0:0:
271,165,109342,1,0,3:0:0:0:
468,107,109577,5,10,0:2:0:0:
465,110,109694,1,8,0:2:0:0:
461,114,109811,2,0,P|404:134|388:192,1,125,2|8,3:2|0:2,0:0:0:0:
484,321,110163,1,2,0:2:0:0:
488,325,110280,2,0,P|499:265|456:222,1,125,0|2,3:0|0:2,0:0:0:0:
392,363,110749,6,0,L|269:345,1,125,2|0,3:2|0:0,0:0:0:0:
213,267,111100,1,2,0:2:0:0:
208,272,111217,2,0,L|85:290,1,125,0|2,3:0|0:2,0:0:0:0:
256,187,111569,1,0,0:0:0:0:
251,182,111686,6,0,L|168:170,1,62.5,2|0,3:2|0:0,0:0:0:0:
345,83,111920,2,0,L|283:91,1,62.5,2|0,0:2|0:2,0:0:0:0:
439,182,112155,1,2,3:2:0:0:
428,180,112272,1,0,0:0:0:0:
418,179,112389,1,2,0:2:0:0:
191,25,112624,6,0,P|105:44|22:72,1,174.999994659424,6|2,3:2|1:2,0:0:0:0:
22,72,112975,1,0,0:0:0:0:
277,74,113092,2,0,P|194:46|108:26,1,174.999994659424,10|2,0:2|1:2,0:0:0:0:
108,26,113444,1,0,0:0:0:0:
363,25,113561,2,0,P|280:52|194:72,1,174.999994659424,2|0,3:2|1:0,0:0:0:0:
194,72,113913,1,2,0:2:0:0:
449,74,114030,2,0,P|366:46|280:26,1,174.999994659424,8|2,0:2|1:2,0:0:0:0:
468,255,114499,6,0,B|494:241|504:208|504:208|429:188|429:188|455:199|466:226,1,174.999994659424,2|2,3:2|1:2,0:0:0:0:
482,250,114850,1,0,0:0:0:0:
349,311,114967,2,0,B|375:325|385:358|385:358|310:378|310:378|336:367|347:340,1,174.999994659424,10|2,0:2|1:2,0:0:0:0:
362,316,115319,1,0,0:0:0:0:
236,255,115436,2,0,B|262:241|272:208|272:208|197:188|197:188|223:199|234:226,1,174.999994659424,2|0,3:2|1:0,0:0:0:0:
247,249,115788,1,2,0:2:0:0:
120,311,115905,2,0,B|146:325|156:358|156:358|81:378|81:378|107:367|118:340,1,174.999994659424,10|2,0:2|1:2,0:0:0:0:
33,52,116374,6,0,B|63:62|91:62|91:62|135:112|137:168,1,174.999994659424,2|2,3:2|1:2,0:0:0:0:
74,215,116725,1,0,0:0:0:0:
157,12,116842,2,0,B|168:41|186:62|186:62|176:128|134:166,1,174.999994659424,10|2,0:2|1:2,0:0:0:0:
74,215,117194,1,0,0:0:0:0:
266,82,117311,2,0,B|250:109|246:137|246:137|189:172|133:164,1,174.999994659424,2|2,3:2|1:2,0:0:0:0:
74,215,117663,1,0,0:0:0:0:
283,211,117779,2,0,B|252:217|227:231|227:231|164:210|134:162,1,174.999994659424,10|2,0:2|1:2,0:0:0:0:
369,58,118249,6,0,L|456:63,1,87.499997329712,2|0,3:2|0:0,0:0:0:0:
464,73,118483,2,0,L|376:67,1,87.499997329712,2|0,1:2|0:0,0:0:0:0:
378,196,118717,2,0,L|290:201,1,87.499997329712,10|0,0:2|0:0,0:0:0:0:
283,211,118951,2,0,L|370:205,1,87.499997329712,2|0,0:2|0:0,0:0:0:0:
452,271,119186,6,0,P|483:274|512:287,1,62.5,2|0,0:2|0:0,0:0:0:0:
492,363,119420,2,0,P|460:360|432:348,1,62.5,2|0,3:2|0:0,0:0:0:0:
354,323,119655,1,8,0:2:0:0:
352,312,119772,1,0,1:0:0:0:
350,302,119889,1,2,1:2:0:0:
227,0,120124,6,0,B|284:55|283:144|229:198|229:198|220:167|198:144|171:132|171:132|199:144|229:145,1,337.499989700318,4|0,3:2|0:0,0:0:0:0:
296,48,120592,2,0,L|353:40,1,43.749998664856,2|0,0:2|0:0,0:0:0:0:
423,81,120827,2,0,L|434:48,3,21.874999332428
434,94,121061,5,2,0:2:0:0:
481,176,121217,5,2,0:2:0:0:
434,260,121374,5,2,0:2:0:0:
337,260,121530,6,0,P|275:239|215:262,1,131.249995994568,2|2,0:2|0:2,0:0:0:0:
215,261,121999,6,0,P|263:267|295:245,1,87.499997329712,2|8,0:2|0:2,0:0:0:0:
185,384,122467,1,10,3:2:0:0:
84,343,122702,2,0,L|48:344,3,21.874999332428
95,335,122936,5,2,0:2:0:0:
22,241,123092,5,2,0:2:0:0:
129,151,123249,5,2,0:2:0:0:
64,58,123405,6,0,B|26:84|26:84|55:179,1,131.249995994568,2|2,0:2|0:2,0:0:0:0:
50,165,123874,6,0,B|86:138|86:138|154:157,1,87.499997329712,0|10,3:0|0:2,0:0:0:0:
227,26,124342,1,10,0:2:0:0:
332,81,124577,2,0,L|371:70,3,21.874999332428
320,90,124811,5,2,0:2:0:0:
470,193,124967,5,2,0:2:0:0:
272,279,125124,5,2,0:2:0:0:
422,382,125280,6,0,B|427:366|448:350|448:350|448:301|424:263,1,131.249995994568,2|2,0:2|0:2,0:0:0:0:
425,264,125749,6,0,L|375:251,1,43.749998664856,2|0,0:2|0:0,0:0:0:0:
233,371,125983,2,0,L|275:359,1,43.749998664856,2|0,0:2|0:0,0:0:0:0:
341,190,126217,2,0,L|250:167,1,87.499997329712,2|2,3:0|3:0,0:0:0:0:
34,379,126686,5,2,3:0:0:0:
249,248,126920,1,2,3:0:0:0:
17,165,127155,5,2,3:0:0:0:
91,279,127389,1,2,3:0:0:0:
221,103,127624,6,0,B|239:68|235:25|235:25|209:19|187:-7,2,125,2|2|2,3:2|0:2|0:2,0:0:0:0:
103,14,128327,2,0,L|64:8,3,31.25,2|0|0|0,0:2|0:0|0:0|0:0,0:0:0:0:
111,24,128561,5,2,0:2:0:0:
82,111,128795,1,2,0:2:0:0:
100,200,129030,1,2,0:2:0:0:
160,268,129264,1,2,0:2:0:0:
245,296,129499,6,0,L|392:266,1,149.999995422363,2|0,0:2|0:0,0:0:0:0:
220,143,129967,2,0,B|255:140|255:140|354:199|354:199|385:194,1,174.999994659424,2|0,3:2|0:0,0:0:0:0:
437,77,130436,2,0,B|451:175|451:175|455:180|455:180|470:283,1,200,2|0,0:2|0:0,0:0:0:0:
468,273,130788,1,0,0:0:0:0:
459,376,130905,2,0,B|404:360|404:360|378:194,1,224.999993133545,2|0,0:2|0:0,0:0:0:0:
261,43,131374,6,0,B|225:40|196:29|196:29|189:63|162:92,2,125,2|0|0,3:2|0:0|0:0,0:0:0:0:
174,222,132077,1,2,0:2:0:0:
257,222,132194,1,2,0:2:0:0:
215,153,132311,6,0,B|201:171|201:194|211:212|211:212|224:225|216:261|207:273,2,125,2|2|2,0:2|0:2|0:2,0:0:0:0:
317,91,133014,1,0,0:0:0:0:
403,165,133249,2,0,B|417:183|417:206|407:224|407:224|395:243|398:266|410:283,1,125,2|0,0:2|0:0,0:0:0:0:
230,384,133717,6,0,P|194:334|132:334,1,125,0|2,3:0|0:2,0:0:0:0:
134,333,134186,1,2,0:2:0:0:
0,260,134420,1,0,3:0:0:0:
73,203,134655,2,0,L|79:164,4,31.25,2|0|0|0|0,0:2|0:0|0:0|0:0|0:0,0:0:0:0:
298,144,135124,5,0,3:0:0:0:
302,148,135241,1,0,1:0:0:0:
306,152,135358,2,0,L|375:116,1,62.5,0|0,1:0|1:0,0:0:0:0:
214,240,135592,1,0,3:0:0:0:
210,236,135709,1,0,1:0:0:0:
206,232,135826,2,0,L|137:268,1,62.5,0|0,1:0|1:0,0:0:0:0:
330,228,136061,5,0,3:0:0:0:
327,234,136178,1,0,1:0:0:0:
323,241,136295,2,0,L|393:317,1,62.5,0|0,1:0|1:0,0:0:0:0:
180,154,136529,1,0,3:0:0:0:
183,148,136646,1,0,1:0:0:0:
187,141,136763,2,0,L|117:65,1,62.5,0|0,1:0|1:0,0:0:0:0:
238,282,136999,5,0,3:0:0:0:
229,279,137116,1,0,1:0:0:0:
222,277,137233,2,0,L|161:372,1,62.5,0|0,1:0|1:0,0:0:0:0:
272,100,137467,1,0,3:0:0:0:
281,103,137584,1,0,1:0:0:0:
288,105,137701,2,0,L|349:10,1,62.5,0|0,1:0|1:0,0:0:0:0:
136,199,137936,5,0,3:0:0:0:
136,188,138053,1,0,1:0:0:0:
136,177,138170,2,0,L|76:159,1,62.5,0|0,1:0|1:0,0:0:0:0:
374,182,138404,1,0,3:0:0:0:
374,194,138521,1,0,1:0:0:0:
374,205,138638,2,0,L|433:223,1,62.5,0|0,1:0|1:0,0:0:0:0:
336,27,138874,5,0,3:0:0:0:
254,55,138991,1,0,1:0:0:0:
371,111,139108,5,0,3:0:0:0:
343,30,139225,1,0,1:0:0:0:
287,148,139342,5,0,3:0:0:0:
368,118,139459,1,0,1:0:0:0:
251,62,139577,5,0,3:0:0:0:
280,144,139694,1,0,1:0:0:0:
141,200,139811,5,0,3:0:0:0:
223,228,139928,1,0,1:0:0:0:
105,284,140045,5,0,3:0:0:0:
134,203,140162,1,0,1:0:0:0:
190,321,140279,5,0,3:0:0:0:
108,291,140396,1,0,1:0:0:0:
226,235,140514,5,0,3:0:0:0:
197,317,140631,1,0,1:0:0:0:
256,192,140749,12,8,142155,0:2:0:0:
356,98,142389,6,0,B|384:79|367:26|367:26|368:42|335:64|340:81,1,140.625005364418,8|0,0:3|0:0,0:0:0:0:
345,116,142624,6,0,P|366:132|381:154,1,53.125001013279,2|0,3:0|0:0,0:0:0:0:
288,247,142741,2,0,P|312:236|338:234,1,53.125001013279,2|0,0:2|0:0,0:0:0:0:
372,361,142858,2,0,P|375:334|386:310,1,53.125001013279,2|0,0:2|0:0,0:0:0:0:
512,345,142975,2,0,P|491:329|476:306,1,53.125001013279,2|0,0:2|0:0,0:0:0:0:
458,210,143092,6,0,B|412:202|365:211|365:211|345:192|315:178|315:178|270:192|214:178,1,253.125000965595,8|0,3:2|0:0,0:0:0:0:
207,159,143327,6,0,P|193:132|166:110,1,53.125001013279,2|0,0:2|0:0,0:0:0:0:
161,290,143444,2,0,P|187:276|201:255,1,53.125001013279,2|0,0:2|0:0,0:0:0:0:
30,244,143561,2,0,P|45:270|64:284,1,53.125001013279,2|0,3:2|0:0,0:0:0:0:
76,113,143678,2,0,P|51:127|35:147,1,53.125001013279,2|0,0:2|0:0,0:0:0:0:
324,43,144030,6,0,B|312:14|312:14|316:44,1,53.125001013279,10|0,3:2|0:0,0:0:0:0:
398,112,144147,2,0,B|417:87|417:87|393:105,1,53.125001013279,2|0,0:2|0:0,0:0:0:0:
375,210,144264,2,0,B|406:214|406:214|378:202,1,53.125001013279,2|0,0:2|0:0,0:0:0:0:
278,239,144381,2,0,B|290:268|290:268|285:237,1,53.125001013279,2|0,0:2|0:0,0:0:0:0:
146,74,144499,6,0,B|146:50|146:50|160:32,1,46.8750017881394,2|0,3:2|0:0,0:0:0:0:
185,143,144616,2,0,B|209:143|209:143|227:157,1,46.8750017881394,2|0,0:2|0:0,0:0:0:0:
115,182,144733,2,0,B|115:206|115:206|101:224,1,46.8750017881394,2|0,0:2|0:0,0:0:0:0:
76,113,144850,2,0,B|52:113|52:113|34:99,1,46.8750017881394,2|0,0:2|0:0,0:0:0:0:
130,128,144967,6,0,B|168:153|181:201|161:243|128:263|128:263|103:301|114:351|151:375,1,253.125000965595,8|0,3:2|0:0,0:0:0:0:
144,351,145202,2,0,L|196:365,1,46.8750017881394,2|0,0:2|0:0,0:0:0:0:
226,276,145319,2,0,L|252:322,1,46.8750017881394,2|0,0:2|0:0,0:0:0:0:
337,280,145436,2,0,L|323:332,1,46.8750017881394,2|0,3:2|0:0,0:0:0:0:
410,361,145553,2,0,L|363:387,1,46.8750017881394,2|0,0:2|0:0,0:0:0:0:
334,75,145905,6,0,B|302:69|302:69|325:86,1,46.8750017881394,10|0,3:2|0:0,0:0:0:0:
482,119,146022,2,0,B|514:125|514:125|491:108,1,46.8750017881394,2|0,0:2|0:0,0:0:0:0:
416,73,146139,2,0,L|414:24,3,46.8750017881394,2|0|2|0,0:2|0:0|0:2|0:0,0:0:0:0:
364,146,146374,5,2,3:2:0:0:
366,159,146432,1,2,0:2:0:0:
368,175,146491,1,2,0:2:0:0:
349,195,146549,2,0,L|308:194,3,40.6249981403352,2|2|0|2,0:2|0:2|0:0|0:2,0:0:0:0:
457,221,146842,5,10,3:2:0:0:
454,236,146900,1,2,0:2:0:0:
451,254,146959,1,2,0:2:0:0:
472,275,147018,2,0,L|513:274,3,40.6249981403352,2|2|0|2,0:2|0:2|0:0|0:2,0:0:0:0:
333,306,147311,5,2,3:2:0:0:
457,221,147428,1,0,0:0:0:0:
330,315,147545,1,2,0:2:0:0:
459,210,147662,1,0,0:0:0:0:
382,105,147780,6,0,B|348:84|348:84|310:100,1,81.2499962806703,10|0,3:2|0:0,0:0:0:0:
84,98,148014,2,0,B|118:119|118:119|156:103,1,81.2499962806703,2|0,0:2|0:0,0:0:0:0:
219,0,148249,1,2,3:2:0:0:
220,16,148307,1,2,0:2:0:0:
222,32,148366,1,2,0:2:0:0:
223,48,148424,1,2,0:2:0:0:
244,58,148483,2,0,L|234:102,2,40.6249981403352,2|0|8,0:2|0:0|0:1,0:0:0:0:
340,166,148717,5,0,3:0:0:0:
325,253,148834,1,2,0:2:0:0:
150,205,148952,5,10,0:1:0:0:
191,283,149069,1,0,0:0:0:0:
150,361,149186,6,0,L|53:352,1,81.2499962806703,2|0,3:2|0:0,0:0:0:0:
325,253,149420,2,0,L|406:245,1,81.2499962806703,10|0,0:1|0:0,0:0:0:0:
84,98,149655,1,2,3:2:0:0:
404,57,150124,6,2,B|506:-45|284:65|396:112|446:152,1,187.5,2|0,3:2|0:0,0:0:0:0:
419,150,150358,2,0,P|440:150|464:160,3,31.25,2|0|0|0,3:0|0:0|0:0|0:0,0:0:0:0:
352,182,150592,6,0,P|294:158|232:148,1,125,8|0,0:2|0:0,0:0:0:0:
145,53,150827,6,0,L|135:7,1,46.8750017881394,2|0,0:2|0:0,0:0:0:0:
86,117,150944,2,0,L|44:96,1,46.8750017881394,2|0,0:2|0:0,0:0:0:0:
97,204,151062,2,0,L|54:222,1,46.8750017881394,2|0,3:2|0:0,0:0:0:0:
171,250,151179,2,0,L|157:295,1,46.8750017881394,2|0,0:2|0:0,0:0:0:0:
347,107,151295,6,2,B|478:-80|500:172|239:98|239:98|223:144|175:156,1,437.500004172325,2|10,0:0|0:2,0:0:0:0:
346,195,151647,2,2,B|477:382|499:129|238:203|238:203|222:157|174:145,1,437.500004172325,2|2,0:2|0:2,0:0:0:0:
283,285,151999,6,0,P|297:305|316:317,1,46.8750017881394,2|0,3:2|0:0,0:0:0:0:
202,292,152116,2,0,P|191:315|190:337,1,46.8750017881394,2|0,0:2|0:0,0:0:0:0:
155,225,152233,2,0,P|129:227|109:237,1,46.8750017881394,2|0,0:2|0:0,0:0:0:0:
189,150,152350,2,0,P|174:129|155:117,1,46.8750017881394,2|0,0:2|0:0,0:0:0:0:
262,198,152467,5,8,0:2:0:0:
420,29,152702,6,0,L|374:17,1,46.8750017881394,2|0,0:2|0:0,0:0:0:0:
461,142,152819,2,0,L|472:96,1,46.8750017881394,2|0,0:2|0:0,0:0:0:0:
348,183,152936,2,0,L|393:194,1,46.8750017881394,2|0,3:2|0:0,0:0:0:0:
307,70,153053,2,0,L|295:115,1,46.8750017881394,2|0,0:2|0:0,0:0:0:0:
475,228,153170,6,2,B|446:168|377:141|313:167|283:217|283:217|260:249|222:263|187:257|187:257|164:232|120:221|120:221|143:225|171:216,1,437.500004172325,2|10,0:0|0:2,0:0:0:0:
455,345,153522,2,2,B|405:389|332:389|281:343|271:284|271:284|261:247|230:220|196:212|196:212|165:228|120:222|120:222|143:226|167:244,1,437.500004172325,2|2,0:2|0:2,0:0:0:0:
56,16,153874,5,2,3:2:0:0:
57,24,153932,1,2,0:2:0:0:
58,34,153991,1,2,0:2:0:0:
59,42,154049,1,2,0:2:0:0:
39,62,154108,2,0,L|165:49,1,93.7500035762788,2|2,0:2|0:2,0:0:0:0:
133,151,154342,5,10,0:2:0:0:
131,159,154400,1,2,0:2:0:0:
130,169,154459,1,2,0:2:0:0:
128,177,154517,1,2,0:2:0:0:
145,204,154577,2,0,L|19:191,1,93.7500035762788,2|2,0:2|0:2,0:0:0:0:
70,356,154811,5,2,3:2:0:0:
218,333,154928,1,0,0:0:0:0:
61,349,155045,5,2,0:2:0:0:
226,338,155162,1,0,0:0:0:0:
395,316,155280,6,0,B|412:329|412:328|412:328|398:356|396:387|396:387|394:364|387:341,1,93.7500035762788,10|0,0:2|0:0,0:0:0:0:
223,139,155514,2,0,B|206:126|206:127|206:127|220:99|222:68|222:68|224:91|231:114,1,93.7500035762788,2|0,0:2|0:0,0:0:0:0:
442,205,155749,6,0,L|481:195,4,31.25,2|2|2|2|2,0:2|0:2|0:2|0:2|0:2,0:0:0:0:
369,167,156100,1,2,0:2:0:0:
357,163,156217,2,0,L|347:101,1,62.5,2|2,3:2|0:2,0:0:0:0:
433,46,156452,2,0,L|442:107,1,62.5,2|2,0:2|3:2,0:0:0:0:
372,258,156686,5,2,0:2:0:0:
257,33,156920,1,2,0:2:0:0:
138,257,157155,1,6,0:2:0:0:
474,118,157624,5,10,0:2:0:0:
485,110,157741,2,0,L|511:-6,2,100,2|2|2,0:2|0:2|0:2,0:0:0:0:
416,170,158327,1,2,0:2:0:0:
512,284,158561,1,8,0:2:0:0:
501,294,158678,2,0,L|374:281,1,100,2|2,0:2|0:2,0:0:0:0:
341,334,159030,1,8,0:2:0:0:
253,217,159264,1,2,0:2:0:0:
132,274,159499,5,10,0:2:0:0:
122,285,159616,2,0,L|135:412,2,100,2|2|2,0:2|0:2|0:2,0:0:0:0:
176,206,160202,1,2,0:2:0:0:
14,131,160436,1,10,0:2:0:0:
25,121,160553,2,0,L|151:102,1,100,2|2,0:2|0:2,0:0:0:0:
168,42,160905,1,8,0:2:0:0:
474,118,161374,5,10,0:2:0:0:
485,110,161491,2,0,L|511:-6,2,100,2|2|2,0:2|0:2|0:2,0:0:0:0:
416,170,162077,1,2,0:2:0:0:
512,284,162311,1,10,0:2:0:0:
501,294,162428,2,0,L|374:281,1,100,2|2,0:2|0:2,0:0:0:0:
341,334,162780,1,8,0:2:0:0:
253,217,163014,2,0,L|183:213,1,50,2|2,0:2|0:2,0:0:0:0:
132,274,163249,5,10,0:2:0:0:
122,285,163366,2,0,L|135:412,2,100,2|2|2,0:2|0:2|0:2,0:0:0:0:
176,206,163952,1,2,0:2:0:0:
0,92,164186,5,10,0:2:0:0:
155,65,164420,1,2,0:2:0:0:
310,38,164655,1,10,0:2:0:0:
465,11,164889,1,2,0:2:0:0:
451,384,165124,5,10,3:2:0:0:
449,372,165358,1,8,0:2:0:0:
446,362,165592,1,10,3:2:0:0:
440,352,165827,1,8,0:2:0:0:
433,344,166061,1,8,3:2:0:0:
424,337,166295,1,8,0:2:0:0:
414,332,166530,1,8,3:2:0:0:
404,330,166764,1,8,0:2:0:0:
314,266,166999,5,8,3:2:0:0:
312,277,167233,1,8,0:2:0:0:
309,287,167467,1,8,3:2:0:0:
303,297,167702,1,8,0:2:0:0:
296,305,167936,1,8,3:2:0:0:
287,312,168170,1,8,0:2:0:0:
277,317,168405,1,8,3:2:0:0:
267,319,168639,1,8,0:2:0:0:
52,296,168874,5,8,3:2:0:0:
49,310,168991,1,8,0:2:0:0:
63,312,169108,1,8,3:2:0:0:
65,299,169225,1,8,0:2:0:0:
228,208,169342,5,8,3:2:0:0:
232,228,169459,1,8,0:2:0:0:
211,231,169576,1,8,3:2:0:0:
207,211,169693,1,8,0:2:0:0:
45,98,169811,5,8,3:2:0:0:
39,127,169928,1,8,0:2:0:0:
70,132,170045,1,8,3:2:0:0:
76,102,170162,1,8,0:2:0:0:
268,20,170280,5,8,3:2:0:0:
276,64,170397,1,8,0:2:0:0:
229,71,170514,1,8,3:2:0:0:
222,27,170631,1,8,0:2:0:0:
210,251,170749,5,8,3:2:0:0:
157,318,170866,2,0,P|118:331|78:334,1,81.2499962806703,8|8,3:2|0:2,0:0:0:0:
211,31,171100,1,8,3:2:0:0:
308,65,171217,2,0,L|470:73,1,162.499992561341,8|8,3:2|3:2,0:0:0:0:
512,181,171569,1,8,3:2:0:0:
501,194,171686,6,0,B|492:245|492:245|501:230|513:225,1,81.2499962806703,8|8,3:2|3:2,0:0:0:0:
384,333,171920,2,0,B|393:384|393:384|384:369|372:364,1,81.2499962806703,8|8,3:2|3:2,0:0:0:0:
405,100,172155,6,0,P|391:65|462:94,1,162.499992561341,8|0,3:2|0:0,0:0:0:0:
97,35,172624,6,0,B|63:59|41:89|41:89|7:40|7:40|37:103|36:187|36:187|46:114|46:114|90:121|131:156,1,437.5,6|2,3:2|0:2,0:0:0:0:
226,60,174499,6,0,P|224:148|224:60,1,275.000008392334,2|2,0:2|0:2,0:0:0:0:
318,2,175202,1,2,0:2:0:0:
403,63,175436,2,0,B|393:133|393:133|421:201|421:201|408:261,1,206.250006294251,2|2,0:2|0:2,0:0:0:0:
512,356,175905,6,0,B|494:302|439:273|387:282|387:282|377:308|360:328|339:342|339:342|315:328|288:324|263:327,1,312.5,8|0,0:2|0:0,0:0:0:0:
201,262,176256,1,0,0:0:0:0:
296,236,176374,5,2,3:2:0:0:
144,384,176530,5,2,0:2:0:0:
70,182,176686,5,2,0:2:0:0:
257,33,176842,6,0,B|309:18|359:74|359:74|284:23|234:56|263:91|162:41,1,312.5,10|0,0:2|1:0,0:0:0:0:
98,0,177194,1,0,1:0:0:0:
25,64,177311,5,2,3:2:0:0:
0,251,177467,5,2,0:2:0:0:
164,380,177624,5,2,0:2:0:0:
346,297,177780,6,0,B|386:285|428:308|439:347|439:347|406:319|406:269|439:242|439:242|429:198|460:151,1,312.5,10|0,0:2|1:0,0:0:0:0:
242,63,178249,5,2,3:2:0:0:
142,79,178366,1,2,0:2:0:0:
158,179,178483,1,2,1:2:0:0:
258,163,178600,1,2,0:2:0:0:
327,99,178717,6,0,B|332:81|349:77|349:77|375:96|425:95,1,93.7500035762788,10|0,0:2|0:0,0:0:0:0:
299,247,178952,2,0,B|294:265|277:269|277:269|251:250|201:251,1,93.7500035762788,2|0,1:2|0:0,0:0:0:0:
484,198,179186,6,0,B|508:247|508:247|477:296,1,112.499996566773,2|0,3:2|0:0,0:0:0:0:
239,130,179420,2,0,B|215:81|215:81|245:31,1,112.499996566773,2|0,1:2|1:0,0:0:0:0:
387,339,179655,6,0,B|332:340|332:340|310:352|310:352|250:353,1,131.249995994568,10|0,0:2|0:0,0:0:0:0:
351,50,179889,2,0,B|405:48|405:48|428:37|428:37|488:36,1,131.249995994568,2|0,1:2|0:0,0:0:0:0:
127,110,180124,6,0,B|56:110|65:27|65:27|63:60|88:79,1,156.25,2|0,3:2|0:0,0:0:0:0:
136,314,180358,2,0,B|136:384|53:375|53:375|86:377|105:352,1,156.25,2|0,1:2|0:0,0:0:0:0:
360,290,180592,2,0,B|430:290|421:372|421:372|423:339|398:320,1,156.25,10|0,0:2|0:0,0:0:0:0:
332,100,180827,1,2,1:2:0:0:
337,95,180944,1,0,0:0:0:0:
410,54,181061,6,0,B|442:44|458:22|458:22|488:40|496:73|496:73|443:52|374:102|311:69,1,312.5,2|0,3:2|1:0,0:0:0:0:
138,0,181413,1,0,1:0:0:0:
76,79,181530,2,0,B|51:102|36:124|36:124|60:163|69:217|69:217|117:199|148:152|148:152|145:123|135:101,1,312.5,10|0,0:2|1:0,0:0:0:0:
287,384,181999,5,0,3:0:0:0:
459,113,182233,2,0,B|483:118|506:137|506:137|478:73|402:85,1,156.25,2|0,1:2|0:0,0:0:0:0:
235,238,182467,2,0,B|227:214|232:184|232:184|191:240|239:301,1,156.25,10|0,0:2|0:0,0:0:0:0:
460,351,182702,2,0,B|442:369|415:379|415:379|484:387|512:315,1,156.25,2|0,1:2|0:0,0:0:0:0:
283,122,182936,6,0,B|232:88|164:109|213:144|122:168|51:118|51:118|68:88|62:46|62:46,1,312.5,2|0,3:2|1:0,0:0:0:0:
241,0,183288,1,0,0:0:0:0:
256,9,183405,2,0,B|293:15|325:2|325:2|333:10|325:24|325:24|294:14|258:31,1,156.25,10|0,0:2|0:0,0:0:0:0:
74,185,183639,2,0,B|37:191|5:178|5:178|-3:186|5:200|5:200|36:190|72:207,1,156.25,0|0,1:0|0:0,0:0:0:0:
295,311,183874,5,2,3:2:0:0:
193,74,184030,5,2,0:2:0:0:
28,273,184186,5,2,0:2:0:0:
334,384,184342,6,0,B|370:366|412:312|353:322|379:234|437:228|437:228|467:239|497:238|497:238|463:242|441:260,1,312.5,10|0,0:2|1:0,0:0:0:0:
482,161,184694,1,0,1:0:0:0:
410,105,184811,5,0,3:2:0:0:
206,257,184967,5,2,0:2:0:0:
0,114,185124,5,2,0:2:0:0:
227,0,185280,6,0,B|293:2|326:101|230:157|165:104|171:49|171:49|183:72|210:82|235:74|249:56,1,312.5,10|0,0:2|1:0,0:0:0:0:
39,373,185749,5,2,3:2:0:0:
194,279,185866,1,2,0:2:0:0:
26,367,185983,1,2,1:2:0:0:
207,285,186100,1,2,0:2:0:0:
96,221,186217,6,0,B|79:209|67:195|67:195|65:170|79:135|79:135|80:170|97:188,1,156.25,8|0,0:2|0:0,0:0:0:0:
306,289,186452,2,0,B|323:301|335:315|335:315|337:340|323:375|323:375|322:340|305:322,1,156.25,2|0,1:2|0:0,0:0:0:0:
438,112,186686,6,0,B|452:100|472:92|472:92|447:66|396:69|396:69|391:83|377:94,1,156.25,2|0,3:2|0:0,0:0:0:0:
227,50,186920,2,0,B|192:58|169:87|164:120|164:120|157:51|216:-7|293:3|332:52,1,312.5,2|10,1:2|3:2,0:0:0:0:
438,113,187272,1,0,0:0:0:0:
448,124,187389,2,0,B|441:185|441:185|457:219|457:219|444:297,1,156.25,2|0,3:2|0:0,0:0:0:0:
277,351,187624,6,0,B|239:355|208:346|208:346|191:348|180:356|180:356|152:341|98:348,1,156.25,6|0,3:2|0:0,0:0:0:0:
361,139,187858,2,0,B|365:177|356:208|356:208|358:225|366:236|366:236|351:264|358:318,1,156.25,2|0,1:2|0:0,0:0:0:0:
149,55,188092,2,0,B|187:51|218:60|218:60|235:58|246:50|246:50|274:65|328:58,1,156.25,10|0,0:2|0:0,0:0:0:0:
80,262,188327,1,2,1:2:0:0:
74,256,188444,1,0,0:0:0:0:
0,228,188561,6,0,B|24:213|50:206|76:210|76:210|167:336|262:208|148:186,1,312.5,2|0,3:2|1:0,0:0:0:0:
333,364,188913,1,0,1:0:0:0:
406,301,189030,2,0,B|397:285|470:239|470:223|470:223|482:199|435:128|408:121|408:121|419:131|397:199|410:201,1,312.5,10|0,0:2|1:0,0:0:0:0:
140,0,189499,5,0,3:0:0:0:
51,176,189733,2,0,B|-12:174|-12:174|3:181|13:190|13:190|80:192,1,156.25,2|0,1:2|0:0,0:0:0:0:
274,95,189967,2,0,B|307:41|307:41|294:51|281:55|281:55|246:112,1,156.25,10|0,0:2|0:0,0:0:0:0:
237,329,190202,2,0,B|267:385|267:385|265:368|268:355|268:355|236:296,1,156.25,2|0,1:2|0:0,0:0:0:0:
86,95,190436,6,0,B|65:77|40:68|15:67|15:67|55:41|109:51|140:90|142:132|142:132|140:99|155:69|179:50,1,312.5,2|0,3:2|1:0,0:0:0:0:
331,210,190788,1,0,0:0:0:0:
342,215,190905,2,0,B|327:235|331:302|318:307|318:307|324:294|305:263|313:246,1,156.25,10|0,0:2|0:0,0:0:0:0:
492,99,191139,2,0,B|477:79|481:12|468:7|468:7|474:20|455:51|463:68,1,156.25,0|0,1:0|0:0,0:0:0:0:
246,110,191374,6,0,P|189:123|184:181,1,125,2|0,3:2|0:0,0:0:0:0:
86,95,191608,1,2,1:2:0:0:
184,181,191725,2,0,B|182:226|165:255|165:255|126:262|90:305|90:305|118:271|135:216,1,250,2|0,0:2|0:0,0:0:0:0:
233,382,192077,2,0,B|270:371|287:343|287:343|311:364|357:366,1,125,2|0,1:2|0:0,0:0:0:0:
453,308,192311,2,0,P|410:212|340:291,2,250,2|2|8,3:2|1:2|0:2,0:0:0:0:
481,42,193014,6,0,B|457:30|416:41|416:41|414:71|391:102,1,125,2|0,1:2|0:0,0:0:0:0:
512,164,193249,2,0,P|440:66|319:49,1,250,2|0,3:2|1:2,0:0:0:0:
223,104,193600,1,0,0:0:0:0:
212,112,193717,2,0,B|173:111|140:88|140:88|164:113|174:150,1,125,10|0,0:2|0:0,0:0:0:0:
331,301,193952,2,0,B|370:302|403:325|403:325|379:300|369:263,1,125,2|0,1:2|0:0,0:0:0:0:
396,107,194186,2,0,B|397:60|425:21|425:21|395:50|350:62,1,125,2|0,3:2|0:0,0:0:0:0:
120,278,194421,2,0,B|119:325|91:364|91:364|121:335|166:323,1,125,2|0,1:2|1:2,0:0:0:0:
15,74,194655,2,0,B|48:64|61:33|61:33|98:30|117:63|117:63|144:96|201:82|212:26|181:-6|148:-5,1,250,10|0,0:2|1:2,0:0:0:0:
490,320,195124,6,0,B|482:292|465:286|465:286|462:331|435:365|435:365|455:353|475:346,1,156.25,2|0,3:2|0:0,0:0:0:0:
426,49,195358,2,0,B|398:57|392:74|392:74|437:77|471:104|471:104|459:84|452:64,1,156.25,2|0,1:2|0:0,0:0:0:0:
154,97,195592,2,0,B|162:125|179:131|179:131|182:86|209:52|209:52|189:64|169:71,1,156.25,10|0,0:2|0:0,0:0:0:0:
199,371,195827,1,2,1:2:0:0:
192,364,195944,1,0,0:0:0:0:
115,362,196061,6,0,B|136:337|172:332|198:348|198:348|225:357|263:354|291:323|291:323|292:285|271:259|271:259|273:296|259:328,1,312.5,0|0,3:2|1:2,0:0:0:0:
98,230,196413,1,0,1:2:0:0:
20,182,196530,2,0,B|38:162|-10:79|8:67|8:67|35:45|72:11|72:11|48:33|103:117|59:139,1,312.5,10|0,0:2|1:2,0:0:0:0:
354,9,196999,5,0,3:2:0:0:
469,238,197233,2,0,B|451:269|424:279|423:279|423:279|529:248,1,156.25,2|0,1:2|0:0,0:0:0:0:
245,345,197467,2,0,B|227:314|232:286|233:285|233:285|206:392,1,156.25,10|0,0:2|0:0,0:0:0:0:
289,98,197702,2,0,B|324:98|347:117|347:118|347:118|268:41,1,156.25,2|0,1:2|0:0,0:0:0:0:
377,363,197936,6,0,B|408:331|408:331|305:335|305:335|284:356|284:356|177:363|177:363|205:328,1,312.5,2|0,3:2|1:2,0:0:0:0:
89,238,198288,1,0,0:0:0:0:
76,251,198405,2,0,B|39:264|-3:270|-3:270|38:266|77:274,1,156.25,10|0,0:2|0:0,0:0:0:0:
212,115,198639,2,0,B|249:102|291:96|291:96|250:100|211:92,1,156.25,0|0,1:2|0:0,0:0:0:0:
122,0,198874,5,2,3:2:0:0:
0,182,199030,5,2,0:2:0:0:
135,352,199186,5,2,0:2:0:0:
231,160,199342,6,0,B|237:113|259:80|259:80|216:107|190:153|190:153|262:189|284:234,1,312.5,10|0,0:2|1:2,0:0:0:0:
360,271,199694,1,0,0:0:0:0:
446,225,199811,5,2,3:2:0:0:
424,0,199967,5,2,0:2:0:0:
189,16,200124,5,2,0:2:0:0:
205,241,200280,6,0,B|221:217|248:206|274:213|274:213|231:189|180:203|150:247|186:312|111:345,1,312.5,10|0,0:2|1:2,0:0:0:0:
375,238,200749,5,0,3:2:0:0:
495,355,200866,1,2,0:2:0:0:
376,218,200983,1,2,0:2:0:0:
493,374,201100,1,2,0:2:0:0:
317,311,201217,6,0,B|311:302|285:296|285:296|264:296|225:318|225:318|242:313|251:318,1,125,2|0,0:2|0:0,0:0:0:0:
430,152,201452,2,0,B|436:161|462:167|462:167|483:167|522:145|522:145|505:150|496:145,1,125,2|0,0:2|0:0,0:0:0:0:
280,6,201686,2,0,B|221:1|172:53|180:119|222:152|222:152|205:126|210:92|232:73,2,250,2|2|0,0:2|0:2|0:0,0:0:0:0:
430,152,202389,1,0,0:0:0:0:
286,336,202624,5,2,3:1:0:0:
265,333,202741,1,2,0:2:0:0:
244,331,202858,1,2,0:1:0:0:
223,329,202975,1,2,0:1:0:0:
132,366,203209,1,2,0:1:0:0:
67,305,203444,1,2,0:1:0:0:
55,295,203561,6,0,B|66:258|38:233|38:233|28:280,2,93.75,2|2|10,3:1|0:1|0:2,0:0:0:0:
159,151,204147,1,2,0:2:0:0:
261,268,204499,5,2,3:1:0:0:
281,265,204616,1,2,0:1:0:0:
302,263,204733,1,2,0:1:0:0:
323,261,204850,1,2,0:1:0:0:
451,349,205084,5,2,0:1:0:0:
431,346,205201,1,2,0:1:0:0:
410,344,205318,1,2,0:1:0:0:
389,342,205436,1,8,3:0:0:0:
314,161,205704,6,8,L|297:127,2,35.7142857142857,8|8|8,0:3|0:3|0:3,0:3:0:0:
334,173,205905,5,8,0:3:0:0:
512,80,206139,1,8,0:3:0:0:
466,181,206374,1,8,0:3:0:0:
