osu file format v14

[General]
AudioFilename: audio.mp3
AudioLeadIn: 0
PreviewTime: 73131
Countdown: 0
SampleSet: Soft
StackLeniency: 0.2
Mode: 0
LetterboxInBreaks: 0
WidescreenStoryboard: 1

[Editor]
Bookmarks: 88249,105124,157624,172624
DistanceSpacing: 0.7
BeatDivisor: 4
GridSize: 8
TimelineZoom: 3.399998

[Metadata]
Title:Odo
TitleUnicode:踊
Artist:Araki x nqrse x Meychan
ArtistUnicode:あらき × nqrse × めいちゃん
Creator:Chizu-Kun
Version:Normal
Source:
Tags:deco*27 giga teddyloid かゆか 藍瀬 まなみ orihara dance japanese pop jpop j-pop jrap rap j-rap hip hop alevi axaptice
BeatmapID:3160535
BeatmapSetID:1545055

[Difficulty]
HPDrainRate:3
CircleSize:3
OverallDifficulty:4
ApproachRate:5
SliderMultiplier:1.3
SliderTickRate:1

[Events]
//Background and Video events
0,0,"nomthismaptqvm.jpg",0,0
//Break Periods
2,157824,167674
//Storyboard Layer 0 (Background)
//Storyboard Layer 1 (Fail)
//Storyboard Layer 2 (Pass)
//Storyboard Layer 3 (Foreground)
//Storyboard Layer 4 (Overlay)
//Storyboard Sound Samples

[TimingPoints]
1999,468.75,4,2,10,100,1,0
1999,-100,4,2,10,100,0,0
9499,-100,4,2,1,100,0,0
28249,-100,4,2,2,100,0,0
35749,-100,4,2,1,100,0,0
65749,-100,4,2,2,100,0,0
66686,-100,4,2,1,100,0,0
73249,-100,4,2,2,100,0,0
88249,-100,4,2,5,100,0,0
105124,-100,4,2,1,100,0,0
112624,-100,4,2,2,100,0,0
120124,-100,4,2,1,100,0,0
142624,-100,4,2,6,100,0,0
157624,-100,4,2,1,100,0,0
165124,-100,4,2,2,100,0,0
172624,-100,4,2,1,100,0,0
176374,-100,4,2,2,100,0,0
202624,-100,4,2,1,100,0,0

[Colours]
Combo1 : 141,141,141
Combo2 : 228,166,160
Combo3 : 236,216,208
Combo4 : 159,63,173
Combo5 : 172,139,209
Combo6 : 206,206,206

[HitObjects]
26,343,1999,6,0,P|61:350|87:333,1,65,6|0,3:2|0:0,0:0:0:0:
152,285,2467,2,0,B|154:212|154:212|178:177|178:177|182:97,1,195,10|0,0:2|0:0,0:0:0:0:
333,21,3639,2,0,P|363:11|394:21,1,65,2|2,0:2|0:2,0:0:0:0:
446,88,4108,2,0,P|455:118|445:149,1,65,2|10,0:2|0:2,0:0:0:0:
379,201,4577,1,2,3:2:0:0:
379,201,4811,2,0,P|348:210|317:200,1,65,2|2,0:2|3:2,0:0:0:0:
266,133,5280,2,0,P|235:124|204:134,1,65,10|2,0:2|3:2,0:0:0:0:
163,207,5749,6,0,L|172:309,1,65,2|0,3:2|0:0,0:0:0:0:
104,326,6217,2,0,P|15:321|14:233,1,195,10|0,0:2|0:0,0:0:0:0:
196,56,7624,2,0,L|179:152,1,65,2|2,0:2|0:2,0:0:0:0:
113,165,8092,2,0,L|130:261,1,65,10|2,0:2|0:2,0:0:0:0:
190,290,8561,1,2,3:2:0:0:
190,290,8795,2,0,P|251:303|280:359,1,130,2|2,3:2|3:2,0:0:0:0:
353,315,9499,6,0,L|376:187,1,130,6|10,3:1|0:2,0:0:0:0:
313,30,10436,2,0,L|185:6,1,130,6|10,3:1|0:2,0:0:0:0:
44,99,11373,2,0,L|20:226,1,130,6|10,3:1|0:2,0:0:0:0:
138,348,12311,2,0,L|265:371,1,130,6|10,3:1|0:2,0:0:0:0:
401,268,13249,6,0,B|439:212|439:212|406:158,1,130,6|10,3:2|0:2,0:0:0:0:
325,158,13952,1,0,3:0:0:0:
325,158,14186,2,0,B|287:214|287:214|319:267,1,130,0|10,3:0|3:2,0:0:0:0:
181,366,15124,2,0,B|103:360|103:360|96:362|96:362|42:358,2,130,2|10|2,3:2|0:2|3:2,0:0:0:0:
252,319,16295,1,2,3:2:0:0:
252,319,16530,2,0,P|252:290|245:254,1,65,10|2,0:2|3:2,0:0:0:0:
187,192,16999,6,0,L|57:180,1,130,2|2,0:2|0:2,0:0:0:0:
75,11,17936,2,0,L|205:23,1,130,2|2,0:2|0:2,0:0:0:0:
68,31,20749,6,0,B|36:45|36:45|44:140,2,130,2|2|2,3:2|3:2|3:2,0:0:0:0:
145,77,21920,1,2,0:2:0:0:
145,77,22155,2,0,L|254:68,1,65,2|2,3:2|0:2,0:0:0:0:
288,103,22624,2,0,P|361:74|414:109,1,130,2|2,3:2|3:2,0:0:0:0:
420,263,23561,2,0,P|347:292|294:257,1,130,2|0,3:2|3:0,0:0:0:0:
229,231,24264,1,0,0:0:0:0:
229,231,24499,6,0,L|77:220,2,130,2|2|2,3:2|3:2|3:2,0:0:0:0:
295,283,25670,2,0,P|282:344|228:376,1,130,2|2,0:2|0:2,0:0:0:0:
146,354,26374,2,0,L|-6:343,2,130,2|2|2,3:2|3:2|3:2,0:0:0:0:
295,282,27780,2,0,P|300:251|314:221,1,65,0|0,3:0|0:2,0:0:0:0:
389,183,28249,6,0,L|410:54,1,130,2|10,3:2|0:2,0:0:0:0:
335,15,28952,1,2,0:2:0:0:
335,15,29186,2,0,P|281:45|279:107,1,130,2|8,3:2|0:2,0:0:0:0:
227,174,29889,1,2,0:2:0:0:
163,117,30124,2,0,L|23:98,2,130,2|10|2,3:2|0:2|3:2,0:0:0:0:
227,174,31295,2,0,P|200:233|184:296,1,130,2|2,0:2|0:2,0:0:0:0:
207,377,31999,5,0,3:2:0:0:
122,370,32233,2,0,L|59:383,2,65,2|10|2,0:2|0:2|0:2,0:0:0:0:
81,205,33170,2,0,L|18:192,2,65,2|8|2,0:2|0:2|0:2,0:0:0:0:
139,143,33874,6,0,P|196:116|259:138,1,130,2|2,3:2|3:2,0:0:0:0:
202,201,34577,1,2,0:2:0:0:
269,251,34811,2,0,L|397:231,1,130,2|2,0:2|0:2,0:0:0:0:
443,159,35514,1,2,0:2:0:0:
404,83,35749,6,0,B|329:56|329:56|294:92,1,130,2|0,3:2|3:2,0:0:0:0:
223,142,36452,1,2,1:2:0:0:
223,142,36686,2,0,L|93:133,1,130,2|2,3:2|3:2,0:0:0:0:
1,275,37624,6,0,P|61:270|82:327,1,130,2|0,3:2|3:2,0:0:0:0:
155,380,38327,1,2,1:2:0:0:
155,380,38561,2,0,L|283:361,1,130,2|2,3:2|3:2,0:0:0:0:
443,308,39499,6,0,P|408:258|434:201,1,130,2|0,3:2|3:2,0:0:0:0:
444,120,40202,1,2,1:2:0:0:
444,120,40436,2,0,L|302:108,1,130,2|0,3:2|3:0,0:0:0:0:
204,237,41374,6,0,P|184:297|215:352,1,130,2|0,3:2|3:2,0:0:0:0:
302,372,42077,1,2,1:2:0:0:
302,372,42311,2,0,L|382:359,1,65,2|2,3:2|1:2,0:0:0:0:
388,279,42780,2,0,L|308:266,1,65,2|2,3:2|1:2,0:0:0:0:
311,184,43249,6,0,P|268:137|197:134,1,130,2|2,3:2|3:2,0:0:0:0:
126,166,43952,1,2,1:2:0:0:
126,166,44186,2,0,L|43:167,1,65,2|2,3:2|1:2,0:0:0:0:
4,229,44655,1,2,3:2:0:0:
6,313,44889,1,2,1:2:0:0:
75,361,45124,6,0,P|136:346|186:384,1,130,2|2,3:2|3:2,0:0:0:0:
248,326,45827,1,2,1:2:0:0:
248,326,46061,2,0,L|333:308,2,65,2|2|2,3:2|1:2|3:2,0:0:0:0:
135,198,46999,1,8,3:1:0:0:
133,17,48874,6,0,L|158:105,1,65,2|2,3:2|0:2,0:0:0:0:
231,103,49342,1,2,3:2:0:0:
169,260,49811,2,0,B|180:290|180:290|167:320,1,65,0|2,3:2|1:2,0:0:0:0:
82,313,50280,2,0,B|71:283|71:283|83:252,1,65,2|2,3:2|0:2,0:0:0:0:
129,181,50749,5,6,3:2:0:0:
271,272,51217,2,0,B|344:259|344:259|399:285|399:285|457:273,1,195,10|0,0:2|0:0,0:0:0:0:
323,170,52389,2,0,L|310:106,1,65,2|2,0:2|0:2,0:0:0:0:
234,67,52858,2,0,L|221:130,1,65,2|10,0:2|0:2,0:0:0:0:
170,199,53327,1,2,3:2:0:0:
170,199,53561,2,0,P|141:214|109:217,1,65,2|2,0:2|3:2,0:0:0:0:
79,137,54030,2,0,P|107:121|139:118,1,65,10|2,0:2|3:2,0:0:0:0:
220,130,54499,5,2,3:2:0:0:
378,186,54967,2,0,B|401:164|401:164|388:1,1,195,10|0,0:2|0:0,0:0:0:0:
144,71,56374,6,0,L|59:64,1,65,2|2,0:2|0:2,0:0:0:0:
73,149,56842,2,0,L|137:154,1,65,10|2,0:2|0:2,0:0:0:0:
221,130,57311,1,2,3:2:0:0:
221,130,57545,2,0,B|256:184|256:184|225:242,1,130,2|2,3:2|3:2,0:0:0:0:
287,308,58249,6,0,P|350:295|415:299,1,130,6|10,3:1|0:2,0:0:0:0:
354,141,59186,2,0,P|341:77|345:12,1,130,6|10,3:1|0:2,0:0:0:0:
192,84,60124,2,0,P|128:96|63:92,1,130,6|10,3:1|0:2,0:0:0:0:
141,242,61061,2,0,P|153:305|149:370,1,130,6|10,3:1|0:2,0:0:0:0:
283,267,61999,6,0,B|348:241|348:241|400:276,1,130,6|10,3:2|0:2,0:0:0:0:
467,226,62702,1,0,3:0:0:0:
467,226,62936,2,0,P|482:164|473:100,1,130,0|8,3:0|0:2,0:0:0:0:
402,52,63639,1,0,3:0:0:0:
402,52,63874,6,0,L|272:40,2,130,2|10|2,3:2|0:2|3:2,0:0:0:0:
485,100,65045,1,2,3:2:0:0:
485,100,65280,2,0,P|489:131|477:161,1,65,10|2,0:2|3:2,0:0:0:0:
397,213,65749,5,2,3:2:0:0:
367,379,66217,1,2,0:2:0:0:
201,349,66686,1,2,3:2:0:0:
231,183,67155,1,2,0:2:0:0:
397,213,67624,5,2,3:2:0:0:
367,379,68092,1,2,0:2:0:0:
201,349,68561,1,2,3:2:0:0:
231,183,69030,1,2,0:2:0:0:
397,213,69499,6,0,L|423:132,1,65,2|2,3:2|0:2,0:0:0:0:
378,76,69967,2,0,L|316:56,1,65,2|2,3:2|0:2,0:0:0:0:
241,95,70436,2,0,L|221:156,1,65,2|2,3:2|0:2,0:0:0:0:
260,231,70905,2,0,L|321:250,1,65,2|2,3:2|0:2,0:0:0:0:
397,213,71374,1,4,3:2:0:0:
460,346,73249,6,0,L|395:337,1,65,6|2,3:2|1:2,0:0:0:0:
324,281,73717,1,10,0:2:0:0:
259,345,73952,1,2,1:2:0:0:
186,289,74186,2,0,P|128:269|128:208,1,130,2|10,3:2|0:2,0:0:0:0:
309,192,75124,5,0,3:0:0:0:
392,157,75358,1,2,1:2:0:0:
440,80,75592,2,0,L|448:3,1,65,10|2,0:2|1:2,0:0:0:0:
356,3,76061,2,0,B|326:-14|293:6|301:18|260:54|218:27,1,130,2|10,3:2|0:2,0:0:0:0:
127,180,76999,6,0,L|134:249,2,43.3333333333333,2|2|2,3:2|0:2|0:2,0:0:0:0:
116,120,77467,1,10,0:2:0:0:
283,48,77936,2,0,L|290:-21,2,43.3333333333333,2|2|2,3:2|0:2|0:2,0:0:0:0:
277,108,78404,1,10,0:2:0:0:
428,209,78874,6,0,P|458:220|489:215,1,65,2|2,3:2|1:2,0:0:0:0:
497,124,79342,2,0,P|466:112|435:117,1,65,10|2,0:2|1:2,0:0:0:0:
349,148,79811,2,0,L|206:138,1,130,2|10,3:2|0:2,0:0:0:0:
147,195,80514,1,2,1:2:0:0:
181,279,80749,6,0,B|214:294|214:294|241:286,1,65,2|2,3:2|1:2,0:0:0:0:
318,333,81217,1,10,0:2:0:0:
392,280,81452,1,2,1:2:0:0:
472,322,81686,2,0,P|504:270|475:201,1,130,2|10,3:2|0:2,0:0:0:0:
386,53,82624,5,0,3:0:0:0:
299,80,82858,1,2,1:2:0:0:
271,166,83092,2,0,L|194:163,1,65,10|2,0:2|1:2,0:0:0:0:
142,98,83561,2,0,P|81:90|52:144,1,130,2|10,3:2|0:2,0:0:0:0:
84,323,84499,6,0,L|76:387,2,43.3333333333333,2|2|2,3:2|0:2|0:2,0:0:0:0:
125,278,84967,1,10,0:2:0:0:
280,183,85436,2,0,L|272:119,2,43.3333333333333,2|2|2,3:2|0:2|0:2,0:0:0:0:
321,228,85904,1,10,0:2:0:0:
256,192,86374,12,0,88249,3:2:0:0:
463,46,88717,6,0,L|456:110,1,65,6|2,3:2|0:2,0:0:0:0:
395,169,89186,2,0,L|330:162,1,65,2|0,3:2|0:0,0:0:0:0:
258,117,89655,2,0,L|248:64,2,32.5,2|2|2,3:2|0:2|0:2,0:0:0:0:
201,180,90124,2,0,P|170:188|154:216,1,65,2|0,3:2|0:0,0:0:0:0:
206,282,90592,6,0,L|221:345,1,65,2|2,3:2|0:2,0:0:0:0:
298,379,91061,2,0,L|313:315,1,65,2|0,3:2|0:0,0:0:0:0:
385,270,91530,1,2,3:2:0:0:
348,104,91999,6,0,B|309:76|309:76|261:89,2,97.5,2|2|2,3:2|0:2|0:2,0:0:0:0:
432,84,92936,1,2,3:2:0:0:
432,84,93170,1,2,0:2:0:0:
481,152,93405,2,0,L|466:237,1,65,2|2,3:2|0:2,0:0:0:0:
419,284,93874,6,0,P|388:290|358:303,1,65,2|2,3:2|0:2,0:0:0:0:
295,247,94342,2,0,P|265:234|233:227,1,65,0|8,3:2|0:1,0:0:0:0:
171,284,94811,2,0,P|139:291|109:303,2,65,2|10|10,3:2|0:1|3:2,0:0:0:0:
150,115,95749,6,0,L|277:89,1,130,6|0,3:2|3:2,0:0:0:0:
432,168,96686,1,2,3:2:0:0:
432,168,96920,2,0,B|455:149|455:149|468:55,2,97.5,0|2|2,0:0|0:2|3:2,0:0:0:0:
127,328,98561,1,2,3:2:0:0:
127,328,98795,2,0,P|88:302|88:255,1,97.5,0|2,0:0|0:2,0:0:0:0:
178,165,99499,6,0,L|168:100,1,65,2|2,3:2|0:2,0:0:0:0:
249,76,99967,2,0,L|258:140,1,65,2|2,3:2|0:2,0:0:0:0:
329,185,100436,2,0,P|389:190|411:134,1,130,2|2,3:2|3:2,0:0:0:0:
261,54,101374,6,0,L|123:47,1,130,2|2,3:2|3:2,0:0:0:0:
76,112,102077,1,8,0:1:0:0:
76,112,102311,2,0,L|81:194,1,65,2|2,3:2|0:2,0:0:0:0:
161,200,102780,2,0,L|164:135,1,65,10|8,0:3|0:3,0:0:0:0:
190,124,105124,6,0,P|233:103|260:63,2,97.5,2|2|10,3:2|1:2|0:2,0:0:0:0:
121,173,106061,2,0,P|116:220|138:264,2,97.5,2|2|2,3:2|0:2|0:2,0:0:0:0:
109,89,106999,2,0,P|69:61|21:58,2,97.5,2|2|10,3:2|0:2|0:2,0:0:0:0:
190,124,107936,2,0,L|333:113,1,130,2|2,3:2|3:2,0:0:0:0:
477,176,108874,6,0,B|497:164|500:143|500:143|491:116|500:88,2,97.5,2|2|10,3:2|0:2|0:2,0:0:0:0:
432,247,109811,2,0,B|432:270|449:283|449:283|476:289|496:311,2,97.5,2|2|2,3:2|0:2|0:2,0:0:0:0:
387,174,110749,2,0,B|366:162|346:170|346:170|328:191|299:197,2,97.5,2|2|2,3:2|0:2|0:2,0:0:0:0:
477,176,111686,2,0,L|487:46,1,130,2|2,3:2|3:2,0:0:0:0:
318,58,112624,6,0,L|242:54,1,65,6|2,3:2|1:2,0:0:0:0:
245,138,113092,2,0,L|309:141,1,65,10|2,0:2|1:2,0:0:0:0:
382,185,113561,2,0,P|395:247|365:303,1,130,2|8,3:2|0:2,0:0:0:0:
204,357,114499,6,0,L|137:354,1,65,2|2,3:2|1:2,0:0:0:0:
77,296,114967,2,0,L|80:229,1,65,10|2,0:2|1:2,0:0:0:0:
143,174,115436,2,0,B|200:175|200:175|220:192|220:192|280:193,1,130,2|10,3:2|0:2,0:0:0:0:
434,166,116374,6,0,P|449:138|446:106,1,65,2|2,3:2|1:2,0:0:0:0:
363,92,116842,2,0,P|347:120|350:152,1,65,10|2,0:2|1:2,0:0:0:0:
374,238,117311,1,2,3:2:0:0:
374,238,117545,1,2,1:2:0:0:
306,289,117780,2,0,L|219:283,1,65,10|2,0:2|1:2,0:0:0:0:
176,339,118249,6,0,P|122:363|77:316,1,130,2|10,3:2|0:2,0:0:0:0:
28,249,118952,1,2,0:2:0:0:
28,249,119186,2,0,L|17:168,1,65,2|2,0:2|3:2,0:0:0:0:
103,173,119655,2,0,L|111:237,1,65,8|2,0:2|1:2,0:0:0:0:
77,318,120124,1,4,3:2:0:0:
315,79,121061,6,0,L|309:143,1,65,2|2,0:2|0:2,0:0:0:0:
373,199,121530,2,0,P|434:207|469:156,2,130,2|2|10,0:2|0:2|3:2,0:0:0:0:
255,320,122936,2,0,L|170:310,1,65,2|2,0:2|0:2,0:0:0:0:
113,348,123405,2,0,B|75:331|75:331|55:224,2,130,2|0|10,0:2|3:0|0:2,0:0:0:0:
225,222,124811,6,0,L|289:229,1,65,2|2,0:2|0:2,0:0:0:0:
357,179,125280,2,0,L|421:171,1,65,2|0,0:2|0:0,0:0:0:0:
494,225,125749,1,2,0:2:0:0:
494,225,125983,2,0,P|513:285|490:345,1,130,2|2,0:2|3:0,0:0:0:0:
410,374,126686,2,0,L|268:355,1,130,2|2,3:0|3:0,0:0:0:0:
450,246,127624,6,0,B|472:224|472:224|484:115,2,130,2|2|2,3:2|0:2|0:2,0:0:0:0:
386,190,128795,1,2,0:2:0:0:
386,190,129030,2,0,L|283:183,1,65,2|2,0:2|0:2,0:0:0:0:
277,112,129499,2,0,B|222:85|222:85|147:118,1,130,2|2,0:2|3:2,0:0:0:0:
161,281,130436,2,0,B|216:308|216:308|291:275,1,130,2|2,0:2|0:2,0:0:0:0:
436,216,131374,6,0,L|446:76,1,130,2|0,3:2|0:0,0:0:0:0:
390,29,132077,1,2,0:2:0:0:
390,29,132311,2,0,L|315:24,1,65,2|2,0:2|0:2,0:0:0:0:
246,55,132780,2,0,P|203:102|213:164,1,130,2|2,0:2|0:2,0:0:0:0:
299,308,133717,5,0,3:0:0:0:
370,260,133952,1,2,0:2:0:0:
370,260,134186,2,0,B|384:228|384:228|369:182,1,65,2|0,0:2|3:0,0:0:0:0:
301,156,134655,2,0,B|291:127|291:127|305:95,1,65,2|0,0:2|0:0,0:0:0:0:
357,29,135124,6,0,L|510:18,1,130,0|0,3:0|3:0,0:0:0:0:
504,190,136061,2,0,L|374:199,1,130,0|0,3:0|3:0,0:0:0:0:
205,217,136999,2,0,P|158:173|153:110,1,130,0|0,3:0|3:0,0:0:0:0:
308,43,137936,2,0,P|354:86|359:149,1,130,0|0,3:0|3:0,0:0:0:0:
249,285,138874,6,0,L|178:280,1,65,0|0,3:0|3:0,0:0:0:0:
124,219,139342,1,0,3:0:0:0:
124,219,139577,1,0,3:0:0:0:
190,162,139811,2,0,L|261:167,1,65,0|0,3:0|3:0,0:0:0:0:
320,229,140280,1,0,3:0:0:0:
320,229,140515,1,0,3:0:0:0:
256,192,140749,12,8,142155,0:2:0:0:
488,123,142624,6,0,P|458:112|426:110,1,65,2|2,3:0|0:2,0:0:0:0:
384,37,143092,2,0,P|353:48|321:50,1,65,8|2,3:2|0:2,0:0:0:0:
269,117,143561,2,0,P|211:98|169:143,1,130,2|10,3:2|3:2,0:0:0:0:
102,195,144264,1,2,0:2:0:0:
163,253,144499,6,0,L|181:341,1,65,2|2,3:2|0:2,0:0:0:0:
252,351,144967,2,0,L|265:287,1,65,8|2,3:2|0:2,0:0:0:0:
327,229,145436,2,0,L|477:211,1,130,2|10,3:2|3:2,0:0:0:0:
507,146,146139,1,2,0:2:0:0:
444,88,146374,6,0,B|418:72|418:72|379:79,1,65,2|2,3:2|0:2,0:0:0:0:
304,107,146842,2,0,B|270:113|270:113|244:97,1,65,10|2,3:2|0:2,0:0:0:0:
173,51,147311,1,2,3:2:0:0:
109,106,147545,1,2,0:2:0:0:
66,179,147780,2,0,P|66:213|77:243,1,65,10|2,3:2|0:2,0:0:0:0:
204,352,148483,6,0,L|202:287,1,65,2|0,0:1|3:0,0:0:0:0:
284,267,148952,2,0,L|285:331,1,65,2|0,0:1|3:2,0:0:0:0:
354,379,149420,1,10,0:1:0:0:
417,323,149655,1,2,3:2:0:0:
362,162,150124,6,0,B|304:119|304:119|256:151,1,130,2|8,3:2|0:2,0:0:0:0:
198,213,150827,1,2,0:2:0:0:
249,279,151061,1,2,3:2:0:0:
177,323,151295,2,0,L|80:311,1,97.5,2|2,0:0|0:2,0:0:0:0:
1,210,151999,5,2,3:2:0:0:
26,129,152233,1,2,0:2:0:0:
109,140,152467,2,0,L|245:132,1,130,8|2,0:2|3:2,0:0:0:0:
305,81,153170,2,0,P|353:82|391:111,1,97.5,2|2,0:0|0:2,0:0:0:0:
457,221,153874,6,0,L|443:284,1,65,2|2,3:2|0:2,0:0:0:0:
375,334,154342,2,0,L|311:320,1,65,10|2,0:2|0:2,0:0:0:0:
270,246,154811,1,2,3:2:0:0:
202,296,155045,1,2,0:2:0:0:
146,232,155280,2,0,L|60:248,1,65,10|2,0:2|0:2,0:0:0:0:
256,192,155749,12,10,157624,0:2:0:0:
256,192,168874,12,8,172155,3:2:0:0:
512,276,172624,5,6,3:2:0:0:
96,349,173795,1,2,0:2:0:0:
334,263,174499,1,2,0:2:0:0:
216,141,174967,6,0,P|213:108|202:69,1,65,2|2,0:2|0:2,0:0:0:0:
271,25,175436,2,0,P|332:32|353:90,1,130,2|8,0:2|0:2,0:0:0:0:
237,231,176374,6,0,L|159:222,2,43.3333333333333,2|2|2,3:2|0:2|0:2,0:0:0:0:
297,234,176842,1,10,0:2:0:0:
456,145,177311,2,0,L|534:136,2,43.3333333333333,2|2|2,3:2|0:2|0:2,0:0:0:0:
396,148,177779,1,10,0:2:0:0:
237,57,178249,6,0,L|155:51,1,65,2|2,3:2|1:2,0:0:0:0:
162,142,178717,2,0,L|226:146,1,65,10|2,0:2|1:2,0:0:0:0:
313,117,179186,1,2,3:2:0:0:
380,177,179420,1,2,1:2:0:0:
345,261,179655,2,0,P|336:292|337:324,1,65,10|2,0:2|1:2,0:0:0:0:
260,373,180124,6,0,P|215:331|152:340,1,130,2|10,3:2|0:2,0:0:0:0:
73,295,180827,1,2,1:2:0:0:
128,222,181061,2,0,L|137:76,1,130,2|10,3:2|0:2,0:0:0:0:
305,94,181999,5,0,3:0:0:0:
346,179,182233,1,2,1:2:0:0:
346,179,182467,2,0,P|356:209|347:240,1,65,10|2,0:2|1:2,0:0:0:0:
427,269,182936,2,0,P|412:297|314:314,1,130,2|10,3:2|0:2,0:0:0:0:
131,357,183874,6,0,L|53:348,2,43.3333333333333,2|2|2,3:2|0:2|0:2,0:0:0:0:
191,360,184342,1,10,0:2:0:0:
283,203,184811,2,0,L|361:194,2,43.3333333333333,0|2|2,3:2|0:2|0:2,0:0:0:0:
223,206,185279,1,10,0:2:0:0:
95,74,185749,6,0,P|118:52|149:43,1,65,2|2,3:2|1:2,0:0:0:0:
233,75,186217,2,0,P|256:97|287:106,1,65,8|2,0:2|1:2,0:0:0:0:
356,47,186686,1,2,3:2:0:0:
433,94,186920,2,0,P|470:145|465:209,1,130,2|2,1:2|3:2,0:0:0:0:
409,281,187624,6,0,L|325:268,1,65,6|2,3:2|1:2,0:0:0:0:
278,209,188092,1,10,0:2:0:0:
219,278,188327,1,2,1:2:0:0:
142,229,188561,2,0,P|79:229|46:177,1,130,2|10,3:2|0:2,0:0:0:0:
142,21,189499,5,0,3:0:0:0:
226,67,189733,1,2,1:2:0:0:
226,67,189967,2,0,L|324:53,1,65,10|2,0:2|1:2,0:0:0:0:
374,93,190436,2,0,P|427:124|426:186,1,130,2|10,3:2|0:2,0:0:0:0:
346,350,191374,6,0,L|281:342,1,65,2|2,3:2|1:2,0:0:0:0:
230,267,191842,2,0,L|165:274,1,65,10|2,0:0|1:2,0:0:0:0:
93,330,192311,2,0,P|39:297|31:235,1,130,2|8,3:2|0:2,0:0:0:0:
97,171,193014,1,2,1:2:0:0:
27,111,193249,1,2,3:2:0:0:
181,14,193717,6,0,L|244:29,1,65,10|2,0:2|1:2,0:0:0:0:
288,109,194186,2,0,L|272:172,1,65,2|2,3:2|1:2,0:0:0:0:
314,252,194655,2,0,L|377:267,1,65,10|0,0:2|1:2,0:0:0:0:
462,232,195124,6,0,P|495:180|468:125,1,130,2|10,3:2|0:2,0:0:0:0:
436,39,195827,1,2,1:2:0:0:
355,81,196061,2,0,L|276:76,1,65,0|0,3:2|1:2,0:0:0:0:
239,152,196530,2,0,L|174:156,1,65,10|0,0:2|1:2,0:0:0:0:
68,23,197233,5,2,1:2:0:0:
12,86,197467,2,0,B|5:119|5:119|23:150,1,65,10|2,0:2|1:2,0:0:0:0:
76,209,197936,2,0,P|80:273|80:338,1,130,2|10,3:2|0:2,0:0:0:0:
248,317,198874,6,0,L|257:239,2,43.3333333333333,2|2|2,3:2|0:2|0:2,0:0:0:0:
280,362,199342,1,10,0:2:0:0:
399,242,199811,2,0,L|390:164,2,43.3333333333333,2|2|2,3:2|0:2|0:2,0:0:0:0:
440,280,200279,1,10,0:2:0:0:
471,113,200749,6,0,L|407:117,1,65,0|2,3:2|0:2,0:0:0:0:
321,122,201217,2,0,L|256:126,1,65,2|2,0:2|0:2,0:0:0:0:
196,66,201686,2,0,P|135:55|196:157,1,260,2|2,0:2|3:1,0:0:0:0:
