osu file format v14

[General]
AudioFilename: audio.mp3
AudioLeadIn: 0
PreviewTime: 73131
Countdown: 0
SampleSet: Soft
StackLeniency: 0.3
Mode: 0
LetterboxInBreaks: 0
WidescreenStoryboard: 1

[Editor]
Bookmarks: 88249,105124,157624,172624
DistanceSpacing: 0.7
BeatDivisor: 4
GridSize: 8
TimelineZoom: 3.799998

[Metadata]
Title:Odo
TitleUnicode:踊
Artist:Araki x nqrse x Meychan
ArtistUnicode:あらき × nqrse × めいちゃん
Creator:Chizu-Kun
Version:Hard
Source:
Tags:deco*27 giga teddyloid かゆか 藍瀬 まなみ orihara dance japanese pop jpop j-pop jrap rap j-rap hip hop alevi axaptice
BeatmapID:3161515
BeatmapSetID:1545055

[Difficulty]
HPDrainRate:4
CircleSize:3.5
OverallDifficulty:6.5
ApproachRate:7
SliderMultiplier:1.5
SliderTickRate:1

[Events]
//Background and Video events
0,0,"nomthismaptqvm.jpg",0,0
//Break Periods
2,157624,163999
//Storyboard Layer 0 (Background)
//Storyboard Layer 1 (Fail)
//Storyboard Layer 2 (Pass)
//Storyboard Layer 3 (Foreground)
//Storyboard Layer 4 (Overlay)
//Storyboard Sound Samples

[TimingPoints]
1999,468.75,4,2,10,100,1,0
1999,-100,4,2,10,100,0,0
9499,-100,4,2,1,100,0,0
20749,-111.111111111111,4,2,1,100,0,0
28249,-111.111111111111,4,2,2,100,0,0
35749,-99.9999999999999,4,2,1,100,0,0
65749,-142.857142857143,4,2,2,100,0,0
66686,-142.857142857143,4,2,1,100,0,0
69499,-100,4,2,1,100,0,0
73249,-83.3333333333333,4,2,2,100,0,0
76999,-66.6666666666667,4,2,2,100,0,0
77467,-83.3333333333333,4,2,2,100,0,0
77936,-66.6666666666667,4,2,2,100,0,0
78405,-83.3333333333333,4,2,2,100,0,0
84499,-66.6666666666667,4,2,2,100,0,0
84967,-83.3333333333333,4,2,2,100,0,0
85436,-66.6666666666667,4,2,2,100,0,0
85905,-83.3333333333333,4,2,2,100,0,0
88249,-83.3333333333333,4,2,5,100,0,0
88717,-100,4,2,5,100,0,0
95749,-90.9090909090909,4,2,5,100,0,0
103952,-76.9230769230769,4,2,5,100,0,0
105124,-100,4,2,1,100,0,0
112624,-100,4,2,2,100,0,0
120124,-100,4,2,1,100,0,0
142624,-83.3333333333333,4,2,6,100,0,0
150124,-76.9230769230769,4,2,6,100,0,0
157624,-76.9230769230769,4,2,1,100,0,0
165124,-100,4,2,2,100,0,0
172624,-100,4,2,1,100,0,0
176374,-62.5,4,2,2,100,0,0
176842,-71.4285714285714,4,2,2,100,0,0
177311,-62.5,4,2,2,100,0,0
177779,-71.4285714285714,4,2,2,100,0,0
183874,-62.5,4,2,2,100,0,0
184342,-71.4285714285714,4,2,2,100,0,0
184811,-62.5,4,2,2,100,0,0
185279,-71.4285714285714,4,2,2,100,0,0
198874,-62.5,4,2,2,100,0,0
199342,-71.4285714285714,4,2,2,100,0,0
199811,-62.5,4,2,2,100,0,0
200279,-71.4285714285714,4,2,2,100,0,0
202624,-71.4285714285714,4,2,1,100,0,0

[Colours]
Combo1 : 141,141,141
Combo2 : 228,166,160
Combo3 : 236,216,208
Combo4 : 159,63,173
Combo5 : 172,139,209
Combo6 : 206,206,206

[HitObjects]
81,380,1999,6,0,P|102:349|137:340,1,75,6|0,3:2|0:0,0:0:0:0:
229,381,2467,2,0,B|271:317|271:317|246:247,1,150,10|0,0:2|0:0,0:0:0:0:
157,217,3170,2,0,B|115:153|115:153|139:83,1,150,0|2,0:0|0:2,0:0:0:0:
214,23,3874,6,0,P|250:14|287:9,1,75,2|2,0:2|0:2,0:0:0:0:
339,118,4342,2,0,P|302:109|265:104,1,75,10|2,0:2|3:2,0:0:0:0:
185,171,4811,2,0,L|200:244,1,75,2|2,0:2|3:2,0:0:0:0:
148,323,5280,1,10,0:2:0:0:
227,382,5514,1,2,3:2:0:0:
316,338,5749,6,0,P|348:321|389:327,1,75,2|0,3:2|0:0,0:0:0:0:
465,257,6217,2,0,P|469:182|478:107,1,150,10|0,0:2|0:0,0:0:0:0:
386,52,6920,2,0,P|377:126|372:201,1,150
290,256,7624,6,0,P|256:270|221:258,1,75,2|2,0:2|0:2,0:0:0:0:
222,160,8092,2,0,P|255:145|290:157,1,75,10|2,0:2|0:2,0:0:0:0:
372,201,8561,1,2,3:2:0:0:
372,201,8795,2,0,B|467:192|400:145|513:134,1,150,2|2,3:2|3:2,0:0:0:0:
453,56,9499,6,0,P|376:42|339:103,1,150,6|10,3:1|0:2,0:0:0:0:
251,158,10202,1,2,3:2:0:0:
251,158,10436,6,0,P|181:174|137:118,1,150,6|10,3:1|0:2,0:0:0:0:
37,56,11139,1,2,3:2:0:0:
37,56,11256,1,0,3:0:0:0:
37,56,11374,6,0,L|47:223,1,150,6|10,3:1|0:2,0:0:0:0:
0,330,12077,1,2,3:2:0:0:
0,330,12311,6,0,B|17:306|48:297|48:297|73:316|112:323|112:323|124:319|134:320,1,150,6|10,3:1|0:2,0:0:0:0:
197,257,13014,1,2,3:2:0:0:
280,311,13249,6,0,P|350:308|377:242,1,150,6|10,3:2|0:2,0:0:0:0:
290,171,13952,1,0,3:0:0:0:
290,171,14186,2,0,P|219:168|192:102,1,150,0|10,3:0|3:2,0:0:0:0:
268,29,14889,5,0,3:0:0:0:
268,29,15124,2,0,B|351:5|336:87|429:63,2,150,2|10|2,3:2|0:2|3:2,0:0:0:0:
195,94,16295,1,2,3:2:0:0:
119,36,16530,2,0,B|86:19|86:19|44:29,1,75,10|2,0:2|3:2,0:0:0:0:
4,125,16999,6,0,L|0:223,1,75,2|0,0:2|0:0,0:0:0:0:
67,276,17467,2,0,L|141:279,1,75,2|0,0:2|0:0,0:0:0:0:
218,213,17936,2,0,L|221:138,1,75,2|0,0:2|0:0,0:0:0:0:
155,62,18405,2,0,L|57:58,1,75,2|0,0:2|0:0,0:0:0:0:
256,192,18874,12,8,20514,0:3:0:0:
452,345,20749,6,0,L|458:242,1,101.249996910095,2|2,3:2|0:2,0:0:0:0:
376,212,21217,2,0,L|370:313,1,101.249996910095,2|0,3:2|0:0,0:0:0:0:
297,361,21686,2,0,P|264:351|231:348,1,67.4999979400635,2|2,3:2|0:2,0:0:0:0:
212,328,22038,1,0,0:0:0:0:
212,328,22155,1,2,3:2:0:0:
127,378,22389,1,2,0:2:0:0:
45,326,22624,6,0,P|25:263|61:209,2,134.999995880127,2|2|2,3:2|3:2|3:2,0:0:0:0:
127,378,23795,1,2,0:2:0:0:
127,378,23913,1,0,0:0:0:0:
127,378,24030,2,0,L|225:361,1,67.4999979400635,0|0,3:0|0:0,0:0:0:0:
288,318,24499,6,0,B|299:314|309:306|309:306|391:334|391:334|407:324|422:318,2,134.999995880127,2|2|2,3:2|3:2|3:2,0:0:0:0:
203,259,25670,1,2,0:2:0:0:
203,259,25788,1,0,0:0:0:0:
203,259,25905,2,0,L|196:177,1,67.4999979400635,0|2,3:0|0:2,0:0:0:0:
253,100,26374,6,0,P|264:68|256:36,1,67.4999979400635,2|2,3:2|0:2,0:0:0:0:
158,36,26842,2,0,P|145:66|153:98,1,67.4999979400635,2|2,3:2|0:2,0:0:0:0:
197,191,27311,1,2,3:2:0:0:
197,191,27545,2,0,L|347:178,1,134.999995880127,2|0,0:2|0:2,0:0:0:0:
446,236,28249,6,0,B|466:265|466:265|436:348,1,101.249996910095,2|2,3:2|0:2,0:0:0:0:
375,371,28717,2,0,L|278:364,1,67.4999979400635,10|2,0:2|0:2,0:0:0:0:
283,343,29069,1,0,0:0:0:0:
283,343,29186,1,2,3:2:0:0:
185,278,29420,2,0,L|134:272,2,33.7499989700318,2|0|8,0:2|0:0|0:2,0:0:0:0:
278,204,29889,1,2,0:2:0:0:
184,134,30124,6,0,B|114:133|171:92|100:92,1,101.249996910095,2|0,3:2|0:0,0:0:0:0:
41,147,30592,2,0,P|32:178|46:208,1,67.4999979400635,10|2,0:2|0:2,0:0:0:0:
81,221,30944,1,0,0:0:0:0:
81,221,31061,1,2,3:2:0:0:
116,318,31295,2,0,L|95:369,2,33.7499989700318,2|0|8,0:2|0:0|0:2,0:0:0:0:
213,294,31764,2,0,L|279:281,1,67.4999979400635,2|0,0:2|3:2,0:0:0:0:
377,320,32233,5,2,0:2:0:0:
452,277,32467,1,10,0:2:0:0:
414,202,32702,2,0,L|412:134,1,67.4999979400635,2|0,0:2|3:2,0:0:0:0:
314,95,33170,5,2,0:2:0:0:
239,138,33404,1,8,0:2:0:0:
277,213,33639,2,0,L|279:281,1,67.4999979400635,2|2,0:2|3:2,0:0:0:0:
261,312,33991,1,2,0:2:0:0:
261,312,34108,1,2,0:2:0:0:
171,352,34342,1,2,3:2:0:0:
81,312,34577,1,2,0:2:0:0:
53,217,34811,6,0,L|42:173,1,33.7499989700318,2|2,0:2|0:2,0:0:0:0:
95,118,35045,2,0,L|86:85,1,33.7499989700318,2|2,0:2|0:2,0:0:0:0:
137,19,35280,2,0,P|184:11|214:46,1,67.4999979400635,2|2,0:2|0:2,0:0:0:0:
296,106,35749,6,0,L|374:92,1,75,2|2,3:2|1:2,0:0:0:0:
430,158,36100,1,2,1:2:0:0:
419,173,36217,2,0,L|345:186,1,75,0|2,3:2|1:2,0:0:0:0:
260,261,36686,2,0,P|224:254|205:223,1,75,2|0,3:2|1:0,0:0:0:0:
142,168,37038,1,2,1:2:0:0:
129,165,37155,2,0,L|117:116,1,37.5,2|2,3:2|0:2,0:0:0:0:
33,122,37389,2,0,L|41:158,1,37.5,2|2,1:2|0:2,0:0:0:0:
0,232,37624,6,0,P|34:253|49:287,1,75,2|2,3:2|1:2,0:0:0:0:
117,330,37975,1,2,1:2:0:0:
133,339,38092,2,0,P|149:305|181:287,1,75,0|2,3:2|1:2,0:0:0:0:
286,336,38561,2,0,L|375:327,1,75,2|0,3:2|1:0,0:0:0:0:
469,276,39030,2,0,L|520:285,2,37.5,2|2|2,3:2|0:2|1:2,0:0:0:0:
381,196,39499,6,0,B|360:165|360:165|372:127,1,75,2|2,3:2|1:2,0:0:0:0:
301,83,39850,1,2,1:2:0:0:
283,75,39967,2,0,B|252:96|252:96|214:83,1,75,0|2,3:2|1:2,0:0:0:0:
136,164,40436,6,0,L|56:160,1,75,2|2,3:2|1:2,0:0:0:0:
23,238,40788,1,2,1:2:0:0:
38,255,40905,2,0,L|112:258,1,75,0|2,3:0|1:2,0:0:0:0:
227,316,41374,6,0,B|253:286|253:286|243:240,1,75,2|2,3:2|1:2,0:0:0:0:
317,206,41725,1,2,1:2:0:0:
339,218,41842,2,0,B|351:255|351:255|396:269,1,75,0|2,3:2|1:2,0:0:0:0:
476,338,42311,5,2,3:2:0:0:
512,239,42545,2,0,P|510:221|501:196,1,37.5,2|2,1:2|1:2,0:0:0:0:
442,152,42780,2,0,P|438:114|442:77,1,75,2|2,3:2|1:2,0:0:0:0:
324,0,43249,6,0,L|336:94,1,75,2|2,3:2|1:2,0:0:0:0:
270,166,43717,2,0,L|231:157,1,37.5,2|2,3:2|0:2,0:0:0:0:
157,181,43952,2,0,L|118:172,1,37.5,2|2,1:2|0:2,0:0:0:0:
44,196,44186,2,0,P|18:169|16:133,1,75,2|2,3:2|1:2,0:0:0:0:
95,32,44655,2,0,L|134:23,1,37.5,2|2,3:2|0:2,0:0:0:0:
208,47,44890,2,0,L|247:38,1,37.5,2|2,1:2|0:2,0:0:0:0:
321,62,45124,2,0,P|347:89|349:125,1,75,2|2,3:2|1:2,0:0:0:0:
453,194,45592,6,0,L|443:280,1,75,2|2,3:2|1:2,0:0:0:0:
382,329,45944,1,2,0:2:0:0:
364,340,46061,2,0,L|278:330,1,75,2|2,3:2|1:2,0:0:0:0:
205,240,46530,2,0,L|130:248,1,75,2|0,3:2|1:2,0:0:0:0:
75,363,46999,1,8,3:1:0:0:
75,363,47702,5,2,0:2:0:0:
13,276,47936,2,0,L|0:141,1,112.5,2|2,0:2|0:2,0:0:0:0:
64,111,48405,2,0,B|100:93|100:93|132:104,1,75,2|2,0:2|0:2,0:0:0:0:
265,146,48874,2,0,L|321:135,2,37.5,2|0|2,3:2|0:0|0:2,0:0:0:0:
179,235,49342,2,0,P|141:230|104:228,1,75,2|2,3:2|0:2,0:0:0:0:
149,341,49811,6,0,P|184:350|219:338,1,75,0|2,3:2|1:2,0:0:0:0:
285,285,50163,1,2,1:2:0:0:
310,269,50280,2,0,P|344:256|380:266,1,75,2|2,3:2|0:2,0:0:0:0:
472,343,50749,6,0,L|482:268,1,75,6|0,3:2|0:0,0:0:0:0:
439,189,51217,2,0,B|406:169|406:169|403:46,1,150,10|0,0:2|0:0,0:0:0:0:
289,22,51920,2,0,B|322:42|322:42|325:165,1,150,0|2,0:0|0:2,0:0:0:0:
250,228,52624,6,0,P|214:236|179:224,1,75,2|2,0:2|0:2,0:0:0:0:
116,151,53092,2,0,P|80:141|45:154,1,75,10|2,0:2|3:2,0:0:0:0:
0,240,53561,2,0,L|16:322,1,75,2|2,0:2|3:2,0:0:0:0:
87,379,54030,1,10,0:2:0:0:
87,379,54264,1,2,3:2:0:0:
167,322,54499,6,0,B|211:307|211:307|222:315|237:318,1,75,2|0,3:2|0:0,0:0:0:0:
334,325,54967,2,0,P|325:250|254:248,1,150,10|0,0:2|0:0,0:0:0:0:
199,154,55670,2,0,P|207:79|279:77,1,150
360,150,56374,6,0,L|452:137,1,75,2|2,0:2|0:2,0:0:0:0:
481,50,56842,2,0,L|389:37,1,75,10|2,0:2|0:2,0:0:0:0:
321,0,57311,1,2,3:2:0:0:
321,0,57545,1,2,3:2:0:0:
253,73,57780,2,0,P|259:109|259:147,1,75,8|2,0:2|3:2,0:0:0:0:
204,242,58249,6,0,B|104:251|171:298|76:307,1,150,6|10,3:1|0:2,0:0:0:0:
0,222,58952,1,2,3:2:0:0:
0,222,59186,6,0,B|41:130|-32:165|7:78,1,150,6|10,3:1|0:2,0:0:0:0:
119,55,59890,1,2,3:2:0:0:
119,55,60006,1,0,3:0:0:0:
119,55,60124,6,0,B|177:136|184:55|239:133,1,150,6|10,3:1|0:2,0:0:0:0:
333,198,60827,1,2,3:2:0:0:
333,198,61061,6,0,L|426:181,1,75,6|0,3:1|0:0,0:0:0:0:
478,296,61530,2,0,L|404:282,1,75,10|2,0:2|3:2,0:0:0:0:
292,326,61999,6,0,P|219:326|177:384,1,150,6|10,3:2|0:2,0:0:0:0:
58,350,62702,1,0,3:0:0:0:
58,350,62936,2,0,P|57:277|-3:228,1,150,0|8,3:0|0:2,0:0:0:0:
34,116,63640,1,0,3:0:0:0:
34,116,63874,6,0,P|107:115|149:57,2,150,2|10|2,3:2|0:2|3:2,0:0:0:0:
0,204,65045,1,2,3:2:0:0:
77,263,65280,2,0,L|151:251,1,75,10|2,0:2|3:2,0:0:0:0:
266,296,65749,6,0,B|246:373|246:373|219:386,3,104.999996795654,2|2|2|2,3:2|0:2|3:2|0:2,0:0:0:0:
383,277,67389,1,0,3:0:0:0:
383,277,67624,2,0,B|363:200|363:200|336:187,3,104.999996795654,2|2|2|2,3:2|0:2|3:2|0:2,0:0:0:0:
235,79,69264,1,0,3:0:0:0:
235,79,69499,6,0,L|136:68,1,75,2|2,3:2|0:2,0:0:0:0:
141,190,69967,2,0,L|215:198,1,75,2|2,3:2|0:2,0:0:0:0:
325,138,70436,6,0,B|364:122|364:122|418:137,1,75,2|2,3:2|0:2,0:0:0:0:
420,283,70905,2,0,B|381:299|381:299|327:284,1,75,2|2,3:2|0:2,0:0:0:0:
261,227,71374,5,4,3:2:0:0:
256,192,71491,12,10,73014,0:2:0:0:
493,100,73249,6,0,B|453:94|453:94|446:96|446:96|397:90,1,89.9999972534181,6|2,3:2|1:2,0:0:0:0:
294,149,73717,1,10,0:2:0:0:
396,238,73952,1,2,1:2:0:0:
425,227,74069,1,0,0:0:0:0:
451,220,74186,2,0,L|438:315,1,89.9999972534181,2|0,3:2|1:0,0:0:0:0:
369,364,74538,1,0,1:0:0:0:
348,380,74655,2,0,L|252:366,1,89.9999972534181,10|0,0:2|1:0,0:0:0:0:
203,249,75124,5,0,3:0:0:0:
82,214,75358,2,0,L|31:230,1,44.999998626709,2|0,1:2|0:0,0:0:0:0:
14,249,75592,2,0,L|0:132,1,89.9999972534181,10|2,0:2|1:2,0:0:0:0:
36,50,76061,2,0,P|80:38|116:64,1,89.9999972534181,2|0,3:2|1:0,0:0:0:0:
183,117,76413,1,0,0:0:0:0:
203,128,76530,2,0,L|259:116,1,44.999998626709,10|0,0:2|0:0,0:0:0:0:
308,59,76764,2,0,L|352:68,1,44.999998626709,0|0,1:0|0:0,0:0:0:0:
443,129,76999,6,0,B|483:119|483:119|512:135,2,75.000002861023,2|2|2,3:2|0:2|0:2,0:0:0:0:
364,195,77467,2,0,B|307:199|341:236|258:238,1,89.9999972534181,10|0,0:2|1:0,0:0:0:0:
208,204,77819,1,0,1:0:0:0:
187,218,77936,6,0,B|155:200|155:200|103:212,2,75.000002861023,2|2|2,3:2|0:2|0:2,0:0:0:0:
209,317,78405,2,0,B|266:321|232:358|315:360,1,89.9999972534181,10|0,0:2|1:0,0:0:0:0:
446,305,78874,6,0,L|441:247,1,44.999998626709,2|2,3:2|0:2,0:0:0:0:
512,219,79108,2,0,L|507:161,1,44.999998626709,2|2,1:2|0:2,0:0:0:0:
446,109,79342,2,0,L|356:104,1,89.9999972534181,10|2,0:2|1:2,0:0:0:0:
259,22,79811,2,0,L|169:26,1,89.9999972534181,2|2,3:2|1:2,0:0:0:0:
96,76,80163,1,0,1:0:0:0:
80,92,80280,2,0,P|73:136|90:177,1,89.9999972534181,10|2,0:2|1:2,0:0:0:0:
208,210,80749,6,0,P|252:201|296:194,1,89.9999972534181,2|2,3:2|1:2,0:0:0:0:
382,117,81217,1,10,0:2:0:0:
483,217,81452,1,2,1:2:0:0:
472,238,81569,1,0,0:0:0:0:
463,257,81686,2,0,P|422:275|406:315,1,89.9999972534181,2|0,3:2|1:0,0:0:0:0:
336,360,82038,1,0,1:0:0:0:
320,375,82155,2,0,L|230:384,1,89.9999972534181,10|0,0:2|1:0,0:0:0:0:
105,332,82624,5,0,3:0:0:0:
196,230,82858,2,0,L|243:245,1,44.999998626709,2|0,1:2|0:0,0:0:0:0:
270,260,83092,2,0,L|274:166,1,89.9999972534181,10|2,0:2|1:2,0:0:0:0:
147,86,83561,2,0,P|103:94|76:129,1,89.9999972534181,2|0,3:2|1:0,0:0:0:0:
18,195,83913,1,0,0:0:0:0:
0,214,84030,2,0,P|6:235|10:257,1,44.999998626709,10|0,0:2|0:0,0:0:0:0:
76,317,84264,2,0,P|97:310|119:306,1,44.999998626709,0|0,1:0|0:0,0:0:0:0:
197,263,84499,6,0,B|228:266|228:266|233:263|233:263|284:270,2,75.000002861023,2|2|2,3:2|0:2|0:2,0:0:0:0:
129,213,84967,2,0,L|115:124,1,89.9999972534181,10|0,0:2|1:0,0:0:0:0:
88,47,85319,1,0,1:0:0:0:
81,33,85436,6,0,B|44:28|44:28|39:31|39:31|-2:25,2,75.000002861023,2|2|2,3:2|0:2|0:2,0:0:0:0:
168,50,85905,2,0,L|256:36,1,89.9999972534181,10|0,0:2|1:0,0:0:0:0:
384,87,86374,6,0,B|437:112|437:112|400:363|400:363|458:387,1,359.999989013672,2|2,3:2|0:2,0:0:0:0:
325,308,87545,2,0,L|332:271,3,29.9999990844727,10|8|8|8,0:3|0:3|0:3|0:3,0:0:0:0:
244,343,88014,1,8,0:3:0:0:
163,378,88249,1,0,3:2:0:0:
15,217,88717,6,0,P|-3:184|-1:148,1,75,6|2,3:2|0:2,0:0:0:0:
72,71,89186,1,2,3:2:0:0:
88,81,89303,2,0,L|215:65,1,112.5,2|2,0:2|3:2,0:0:0:0:
275,91,89772,1,2,0:2:0:0:
291,102,89889,2,0,P|303:138|299:175,1,75,2|2,0:2|3:2,0:0:0:0:
240,230,90241,1,2,0:2:0:0:
332,350,90592,6,0,P|368:342|405:338,1,75,2|2,3:2|0:2,0:0:0:0:
486,279,91061,1,2,3:2:0:0:
499,270,91178,2,0,P|502:214|475:166,1,112.5,2|2,0:2|3:2,0:0:0:0:
336,23,91999,6,0,L|326:97,1,75,2|2,3:2|0:2,0:0:0:0:
242,157,92350,1,2,0:2:0:0:
229,149,92467,2,0,L|219:74,1,75,2|2,3:2|0:2,0:0:0:0:
128,32,92819,1,2,0:2:0:0:
115,42,92936,2,0,P|78:34|40:34,2,75,2|2|2,3:2|0:2|3:2,0:0:0:0:
219,74,93639,1,2,0:2:0:0:
139,159,93874,6,0,L|149:234,1,75,2|2,3:2|0:2,0:0:0:0:
215,301,94225,1,8,0:1:0:0:
227,316,94342,2,0,L|223:367,2,37.5,0|2|8,3:2|0:2|0:1,0:0:0:0:
297,243,94694,1,2,0:2:0:0:
307,233,94811,2,0,L|381:224,1,75,2|10,3:2|0:1,0:0:0:0:
480,144,95280,1,10,3:2:0:0:
386,52,95514,2,0,L|329:56,1,37.5,8|8,0:2|0:2,0:0:0:0:
325,67,95749,6,0,L|218:51,1,82.5000025177003,6|0,3:2|0:0,0:0:0:0:
137,159,96217,2,0,P|93:144|81:91,1,82.5000025177003,2|2,3:2|0:2,0:0:0:0:
135,49,96569,1,2,0:2:0:0:
155,40,96686,2,0,P|199:55|211:108,1,82.5000025177003,2|0,3:2|0:0,0:0:0:0:
276,184,97155,2,0,L|260:244,1,41.2500012588501,2|2,3:2|0:2,0:0:0:0:
194,261,97389,1,2,0:2:0:0:
240,369,97624,6,0,L|356:354,1,82.5000025177003,2|0,3:2|0:0,0:0:0:0:
433,297,98092,2,0,B|459:266|459:266|449:224,1,82.5000025177003,2|2,3:2|0:2,0:0:0:0:
374,179,98444,1,2,0:2:0:0:
357,172,98561,2,0,L|268:185,1,82.5000025177003,2|0,3:2|0:0,0:0:0:0:
217,92,99030,2,0,L|162:85,2,41.2500012588501,2|0|0,3:2|0:2|0:0,0:0:0:0:
342,16,99499,6,0,P|393:19|421:58,1,82.5000025177003,2|2,3:2|0:2,0:0:0:0:
498,91,99850,1,2,0:2:0:0:
511,108,99967,2,0,P|494:156|449:173,1,82.5000025177003,2|2,3:2|0:2,0:0:0:0:
403,233,100319,1,2,0:2:0:0:
386,243,100436,2,0,L|344:239,1,41.2500012588501,2|0,3:2|0:0,0:0:0:0:
284,176,100670,2,0,L|242:179,1,41.2500012588501,2|0,0:2|0:0,0:0:0:0:
184,240,100905,2,0,L|96:231,1,82.5000025177003,2|2,3:2|0:2,0:0:0:0:
25,143,101374,6,0,B|5:105|5:105|19:65,1,82.5000025177003,2|2,3:2|0:2,0:0:0:0:
97,20,101725,1,8,0:1:0:0:
114,34,101842,2,0,L|218:27,1,82.5000025177003,2|8,3:2|0:1,0:0:0:0:
268,72,102194,1,0,0:0:0:0:
286,79,102311,2,0,P|324:66|360:83,1,82.5000025177003,2|2,3:2|0:2,0:0:0:0:
430,171,102780,1,10,0:3:0:0:
431,148,103952,6,0,B|457:78|457:78|526:116|526:116|469:272,1,292.499986610413,2|10,0:2|3:2,0:0:0:0:
407,315,104889,1,10,3:2:0:0:
332,253,105124,6,0,L|220:241,1,112.5,2|2,3:2|1:2,0:0:0:0:
190,238,105592,1,0,3:0:0:0:
99,154,105827,2,0,L|65:130,1,37.5,10|8,0:2|0:2,0:0:0:0:
47,121,106061,2,0,P|17:167|26:221,1,112.5,2|2,3:2|0:2,0:0:0:0:
48,236,106530,1,0,3:2:0:0:
113,332,106764,1,2,0:2:0:0:
190,238,106999,6,0,L|301:226,1,112.5,2|2,3:2|0:2,0:0:0:0:
322,235,107467,1,0,3:0:0:0:
421,144,107702,2,0,P|427:126|427:107,1,37.5,10|8,0:2|0:2,0:0:0:0:
439,89,107936,2,0,L|367:66,1,75,2|10,3:2|0:2,0:0:0:0:
296,94,108288,1,8,0:2:0:0:
283,102,108405,2,0,L|207:98,1,75,2|2,3:2|0:2,0:0:0:0:
90,55,108874,6,0,P|42:77|40:131,1,112.5,2|2,3:2|0:2,0:0:0:0:
62,142,109342,1,0,3:0:0:0:
106,254,109577,2,0,P|109:272|108:291,1,37.5,10|8,0:2|0:2,0:0:0:0:
92,303,109811,2,0,L|230:290,1,112.5,2|2,3:2|0:2,0:0:0:0:
226,305,110280,1,0,3:0:0:0:
317,246,110514,1,2,0:2:0:0:
425,299,110749,6,0,P|473:276|476:222,1,112.5,2|2,3:2|0:2,0:0:0:0:
460,210,111217,2,0,L|451:120,1,75,0|2,3:0|0:2,0:0:0:0:
395,36,111686,1,2,3:2:0:0:
346,148,111920,1,2,0:2:0:0:
296,40,112155,2,0,P|258:38|225:56,1,75,2|2,3:2|0:2,0:0:0:0:
167,168,112624,6,0,L|92:159,1,75,6|2,3:2|1:2,0:0:0:0:
20,200,112975,1,0,0:0:0:0:
8,211,113092,2,0,L|0:285,1,75,10|2,0:2|1:2,0:0:0:0:
40,358,113444,1,0,0:0:0:0:
51,370,113561,2,0,L|125:378,1,75,2|0,3:2|1:0,0:0:0:0:
198,338,113913,1,2,0:2:0:0:
210,327,114030,2,0,L|218:252,1,75,8|2,0:2|1:2,0:0:0:0:
307,180,114499,6,0,P|342:169|377:181,1,75,2|2,3:2|1:2,0:0:0:0:
433,117,114850,1,0,0:0:0:0:
431,101,114967,2,0,P|403:75|397:39,1,75,10|2,0:2|1:2,0:0:0:0:
313,23,115319,1,0,0:0:0:0:
300,33,115436,2,0,P|291:69|263:92,1,75,2|0,3:2|1:0,0:0:0:0:
291,173,115788,1,2,0:2:0:0:
306,179,115905,2,0,P|341:168|376:180,1,75,10|2,0:2|1:2,0:0:0:0:
438,267,116374,6,0,L|425:340,1,75,2|2,3:2|1:2,0:0:0:0:
352,378,116725,1,0,0:0:0:0:
338,367,116842,2,0,L|325:293,1,75,10|2,0:2|1:2,0:0:0:0:
252,256,117194,1,0,0:0:0:0:
238,267,117311,2,0,L|225:340,1,75,2|2,3:2|1:2,0:0:0:0:
152,378,117663,1,0,0:0:0:0:
138,367,117780,2,0,L|125:293,1,75,10|2,0:2|1:2,0:0:0:0:
48,200,118249,6,0,P|84:191|121:183,1,75,2|2,3:2|1:2,0:0:0:0:
180,93,118717,2,0,P|144:84|107:76,1,75,10|2,0:2|0:2,0:0:0:0:
36,0,119186,1,2,0:2:0:0:
4,97,119420,2,0,P|6:144|30:181,1,75,2|8,3:2|0:2,0:0:0:0:
52,184,119772,1,0,1:0:0:0:
52,184,119889,1,2,1:2:0:0:
0,290,120124,5,4,3:2:0:0:
353,374,121061,6,0,P|363:338|356:302,1,75,2|2,0:2|0:2,0:0:0:0:
495,272,121530,2,0,P|457:270|426:250,1,75,2|2,0:2|0:2,0:0:0:0:
347,219,121999,1,2,0:2:0:0:
347,219,122233,2,0,L|329:127,1,75,8|10,0:2|3:2,0:0:0:0:
81,30,122936,6,0,L|182:43,1,75,2|2,0:2|0:2,0:0:0:0:
221,118,123405,2,0,L|120:131,1,75,2|2,0:2|0:2,0:0:0:0:
49,148,123874,1,0,3:0:0:0:
49,148,124108,2,0,P|34:181|41:217,1,75,10|10,0:2|0:2,0:0:0:0:
181,382,124811,6,0,L|196:308,1,75,2|2,0:2|0:2,0:0:0:0:
295,233,125280,2,0,L|310:306,1,75,2|2,0:2|0:2,0:0:0:0:
417,370,125749,1,2,0:2:0:0:
417,370,125983,2,0,P|478:332|478:261,1,150,2|2,0:2|3:0,0:0:0:0:
416,163,126686,2,0,L|341:172,1,75,2|2,3:0|3:0,0:0:0:0:
321,58,127155,2,0,L|395:48,1,75,2|2,3:0|3:0,0:0:0:0:
484,110,127624,6,0,B|519:121|519:121|512:250,2,150,2|2|2,3:2|0:2|0:2,0:0:0:0:
413,50,128795,1,2,0:2:0:0:
335,86,129030,2,0,P|298:78|261:74,1,75,2|2,0:2|0:2,0:0:0:0:
171,127,129499,6,0,P|101:111|81:42,2,150,2|2|2,0:2|3:2|0:2,0:0:0:0:
281,234,130788,1,0,0:0:0:0:
289,242,130905,2,0,L|273:348,1,75,2|0,0:2|0:0,0:0:0:0:
185,368,131374,6,0,P|115:370|98:303,1,150,2|0,3:2|0:0,0:0:0:0:
168,219,132077,1,2,0:2:0:0:
179,206,132194,1,2,0:2:0:0:
191,194,132311,2,0,L|202:119,2,75,2|2|2,0:2|0:2|0:2,0:0:0:0:
281,234,133014,1,0,0:0:0:0:
337,147,133249,6,0,B|401:143|401:143|425:158|425:158|482:155,1,150,2|0,0:2|3:0,0:0:0:0:
512,242,133952,1,2,0:2:0:0:
466,323,134186,2,0,L|378:339,1,75,2|0,0:2|3:0,0:0:0:0:
292,319,134655,2,0,L|218:332,1,75,2|0,0:2|0:0,0:0:0:0:
114,384,135124,6,0,P|82:363|65:330,1,75,0|0,3:0|1:0,0:0:0:0:
95,223,135592,2,0,P|87:186|98:151,1,75,0|0,3:0|1:0,0:0:0:0:
196,96,136061,2,0,P|216:64|249:47,1,75,0|0,3:0|1:0,0:0:0:0:
355,77,136530,2,0,P|391:69|426:80,1,75,0|0,3:0|1:0,0:0:0:0:
498,165,136999,6,0,L|488:239,1,75,0|0,3:0|1:0,0:0:0:0:
391,284,137467,2,0,L|400:209,1,75,0|0,3:0|1:0,0:0:0:0:
316,147,137936,2,0,L|306:221,1,75,0|0,3:0|1:0,0:0:0:0:
209,266,138404,2,0,L|218:191,1,75,0|0,3:0|1:0,0:0:0:0:
169,123,138874,5,0,3:0:0:0:
78,137,139108,1,0,3:0:0:0:
16,211,139342,1,0,3:0:0:0:
30,302,139576,1,0,3:0:0:0:
104,364,139811,1,0,3:0:0:0:
195,350,140045,1,0,3:0:0:0:
257,276,140280,1,0,3:0:0:0:
243,185,140514,1,0,3:0:0:0:
256,192,140749,12,8,142389,0:3:0:0:
487,191,142624,6,0,L|494:146,3,44.999998626709,2|2|2|2,3:0|0:2|0:2|0:2,0:0:0:0:
439,89,143092,1,8,3:2:0:0:
284,123,143327,2,0,L|312:159,1,44.999998626709,2|2,0:2|0:2,0:0:0:0:
292,235,143561,2,0,L|319:270,1,44.999998626709,2|2,3:2|0:2,0:0:0:0:
472,315,144030,6,0,P|490:302|512:297,3,44.999998626709,10|2|2|2,3:2|0:2|0:2|0:2,0:0:0:0:
413,371,144499,2,0,L|360:366,1,44.999998626709,2|2,3:2|0:2,0:0:0:0:
289,343,144733,2,0,L|244:347,1,44.999998626709,2|2,0:2|0:2,0:0:0:0:
171,384,144967,1,8,3:2:0:0:
39,338,145202,2,0,L|22:296,3,44.999998626709,2|2|2|2,0:2|0:2|3:2|0:2,0:0:0:0:
129,184,145905,6,0,L|139:125,1,44.999998626709,10|2,3:2|0:2,0:0:0:0:
215,165,146139,2,0,L|222:120,1,44.999998626709,2|2,0:2|0:2,0:0:0:0:
187,41,146374,2,0,L|97:32,1,89.9999972534181,2|2,3:2|0:2,0:0:0:0:
27,75,146725,1,2,0:2:0:0:
13,85,146842,2,0,L|4:174,1,89.9999972534181,10|2,3:2|0:2,0:0:0:0:
47,245,147194,1,2,0:2:0:0:
57,259,147311,2,0,L|146:267,2,89.9999972534181,2|2|10,3:2|0:2|3:2,0:0:0:0:
0,340,148014,1,2,0:2:0:0:
141,384,148249,6,0,B|169:348|169:348|213:344,1,89.9999972534181,2|2,3:2|0:1,0:0:0:0:
253,259,148600,1,8,0:1:0:0:
246,245,148717,2,0,B|210:216|210:216|206:172,1,89.9999972534181,0|10,3:0|0:1,0:0:0:0:
121,133,149069,1,0,0:0:0:0:
107,140,149186,2,0,B|78:175|78:175|34:179,2,89.9999972534181,10|10|2,3:2|0:1|3:2,0:0:0:0:
326,59,150124,6,2,L|452:48,1,97.4999955368044,2|0,3:2|3:0,0:0:0:0:
512,101,150592,1,8,0:2:0:0:
450,185,150827,2,0,L|389:176,1,48.7499977684022,2|2,0:2|0:2,0:0:0:0:
433,261,151061,2,0,L|372:252,1,48.7499977684022,2|2,3:2|0:2,0:0:0:0:
244,317,151530,2,0,L|253:256,1,48.7499977684022,10|2,0:2|0:2,0:0:0:0:
198,200,151764,2,0,L|149:192,1,48.7499977684022,2|2,0:0|0:2,0:0:0:0:
81,246,151999,6,0,P|74:268|73:294,1,48.7499977684022,2|2,3:2|0:2,0:0:0:0:
128,356,152233,2,0,P|150:363|176:363,1,48.7499977684022,2|2,0:2|0:2,0:0:0:0:
250,323,152467,1,8,0:2:0:0:
316,181,152702,6,0,L|308:132,1,48.7499977684022,2|2,0:2|0:2,0:0:0:0:
393,170,152936,2,0,L|385:121,1,48.7499977684022,2|2,3:2|0:2,0:0:0:0:
252,22,153405,6,0,L|191:12,3,48.7499977684022,10|2|2|2,0:2|0:2|0:0|0:2,0:0:0:0:
329,67,153874,2,0,L|425:52,1,97.4999955368044,2|2,3:2|0:2,0:0:0:0:
493,99,154225,1,2,0:2:0:0:
504,110,154342,2,0,L|468:200,1,97.4999955368044,10|2,0:2|0:2,0:0:0:0:
429,275,154694,1,2,0:2:0:0:
423,287,154811,2,0,L|326:301,2,97.4999955368044,2|2|10,3:2|0:2|0:2,0:0:0:0:
328,200,155514,1,2,0:2:0:0:
216,265,155749,6,0,P|185:227|135:223,1,97.4999955368044,2|2,0:2|0:2,0:0:0:0:
56,305,156217,1,2,3:2:0:0:
45,301,156334,2,0,L|29:204,1,97.4999955368044,2|2,0:2|3:2,0:0:0:0:
7,186,156686,1,2,0:2:0:0:
122,98,156920,1,2,0:2:0:0:
0,41,157155,1,6,0:2:0:0:
512,91,165124,6,0,L|502:176,1,75,10|8,3:2|0:2,0:0:0:0:
382,133,165592,2,0,L|428:191,1,75,10|8,3:2|0:2,0:0:0:0:
319,254,166061,2,0,L|393:262,1,75,8|8,3:2|0:2,0:0:0:0:
361,383,166530,2,0,L|419:336,1,75,8|8,3:2|0:2,0:0:0:0:
505,275,166999,5,8,3:2:0:0:
505,275,167233,1,8,0:2:0:0:
503,165,167467,1,8,3:2:0:0:
503,165,167701,1,8,0:2:0:0:
393,168,167936,5,8,3:2:0:0:
393,168,168170,1,8,0:2:0:0:
395,278,168405,1,8,3:2:0:0:
395,278,168639,1,8,0:2:0:0:
296,342,168874,6,0,L|291:392,3,37.5,8|8|8|8,3:2|0:2|3:2|0:2,0:0:0:0:
245,278,169342,2,0,L|240:228,3,37.5,8|8|8|8,3:2|0:2|3:2|0:2,0:0:0:0:
202,347,169811,2,0,L|197:397,3,37.5,8|8|8|8,3:2|0:2|3:2|0:2,0:0:0:0:
151,283,170279,2,0,L|146:233,3,37.5,8|8|8|8,3:2|0:2|3:2|0:2,0:0:0:0:
97,344,170749,5,8,3:2:0:0:
84,361,170866,1,8,3:2:0:0:
0,299,171100,5,8,3:2:0:0:
13,282,171217,1,8,3:2:0:0:
82,171,171452,1,8,3:2:0:0:
189,255,171686,2,0,L|177:291,2,37.5,8|8|8,3:2|3:2|3:2,0:0:0:0:
328,235,172155,6,0,P|391:211|400:131,1,150,8|6,3:2|3:2,0:0:0:0:
499,374,173795,1,2,0:2:0:0:
176,328,174499,5,2,0:2:0:0:
314,212,174967,1,2,0:2:0:0:
290,133,175202,1,2,0:2:0:0:
208,137,175436,2,0,L|81:134,1,112.5,2|2,0:2|0:2,0:0:0:0:
77,146,175905,2,0,P|64:181|71:217,1,75,8|0,0:2|0:0,0:0:0:0:
161,297,176374,6,0,B|152:322|152:322|165:373,2,80,2|2|2,3:2|0:2|0:2,0:0:0:0:
215,234,176842,2,0,B|287:229|231:199|322:194,1,104.999996795654,10|0,0:2|1:0,0:0:0:0:
388,160,177194,1,0,1:0:0:0:
403,167,177311,2,0,B|412:192|412:192|398:243,2,80,2|2|2,3:2|0:2|0:2,0:0:0:0:
319,105,177779,2,0,B|246:100|302:70|211:65,1,104.999996795654,10|0,0:2|1:0,0:0:0:0:
116,135,178249,6,0,L|63:128,1,52.4999983978272,2|2,3:2|0:2,0:0:0:0:
56,207,178483,2,0,L|108:213,1,52.4999983978272,2|2,1:2|0:2,0:0:0:0:
175,260,178717,2,0,P|206:301|215:352,1,104.999996795654,10|2,0:2|1:2,0:0:0:0:
309,262,179186,2,0,L|412:246,1,104.999996795654,2|2,3:2|1:2,0:0:0:0:
460,166,179538,1,0,1:0:0:0:
466,151,179655,2,0,L|362:135,1,104.999996795654,10|2,0:2|1:2,0:0:0:0:
272,35,180124,6,0,P|222:23|181:54,1,104.999996795654,2|2,3:2|1:2,0:0:0:0:
81,110,180592,1,10,0:2:0:0:
164,189,180827,1,2,1:2:0:0:
168,207,180944,1,0,0:0:0:0:
173,226,181061,2,0,L|164:330,1,104.999996795654,2|0,3:2|1:0,0:0:0:0:
73,364,181413,1,0,1:0:0:0:
55,356,181530,2,0,P|35:308|43:257,1,104.999996795654,10|0,0:2|1:0,0:0:0:0:
164,189,181999,5,0,3:0:0:0:
81,110,182233,2,0,L|74:41,1,52.4999983978272,2|0,1:2|0:0,0:0:0:0:
66,38,182467,2,0,B|114:13|114:13|162:27,1,104.999996795654,10|2,0:2|1:2,0:0:0:0:
238,140,182936,2,0,B|286:154|286:154|334:129,1,104.999996795654,2|0,3:2|1:0,0:0:0:0:
350,52,183288,1,0,0:0:0:0:
340,40,183405,2,0,L|266:36,1,52.4999983978272,10|0,0:2|0:0,0:0:0:0:
421,104,183639,2,0,L|473:106,1,52.4999983978272,0|0,1:0|0:0,0:0:0:0:
379,196,183874,6,0,B|395:258|395:258|390:273,2,80,2|2|2,3:2|0:2|0:2,0:0:0:0:
305,157,184342,2,0,B|227:160|283:190|211:195,1,104.999996795654,10|0,0:2|1:0,0:0:0:0:
139,158,184694,1,0,1:0:0:0:
126,153,184811,6,0,B|110:91|110:91|114:75,2,80,0|2|2,3:2|0:2|0:2,0:0:0:0:
85,233,185279,2,0,B|155:237|99:267|176:271,1,104.999996795654,10|0,0:2|1:0,0:0:0:0:
351,312,185749,6,0,L|335:362,1,52.4999983978272,2|2,3:2|0:2,0:0:0:0:
437,295,185983,2,0,L|452:244,1,52.4999983978272,2|2,1:2|0:2,0:0:0:0:
383,192,186217,2,0,P|355:150|362:99,1,104.999996795654,8|2,0:2|1:2,0:0:0:0:
512,50,186686,6,0,L|460:38,1,52.4999983978272,2|0,3:2|0:0,0:0:0:0:
490,123,186920,2,0,L|438:111,1,52.4999983978272,2|0,1:2|0:0,0:0:0:0:
377,54,187155,1,10,3:2:0:0:
262,108,187389,2,0,L|210:96,1,52.4999983978272,2|0,3:2|0:0,0:0:0:0:
193,82,187624,6,0,P|147:104|135:154,1,104.999996795654,6|2,3:2|1:2,0:0:0:0:
66,230,188092,1,10,0:2:0:0:
145,297,188327,1,2,1:2:0:0:
162,293,188444,1,0,0:0:0:0:
179,290,188561,2,0,P|190:238|207:189,1,104.999996795654,2|0,3:2|1:0,0:0:0:0:
271,132,188913,1,0,1:0:0:0:
285,120,189030,2,0,P|273:68|256:19,1,104.999996795654,10|0,0:2|1:0,0:0:0:0:
125,89,189499,5,0,3:0:0:0:
207,189,189733,2,0,L|229:246,1,52.4999983978272,2|0,1:2|0:0,0:0:0:0:
241,255,189967,2,0,P|214:300|209:351,1,104.999996795654,10|2,0:2|1:2,0:0:0:0:
119,267,190436,2,0,L|14:258,1,104.999996795654,2|0,3:2|1:0,0:0:0:0:
0,154,190788,1,0,0:0:0:0:
19,141,190905,2,0,L|123:149,1,104.999996795654,10|0,0:2|1:0,0:0:0:0:
236,250,191374,6,0,P|283:230|302:184,1,104.999996795654,2|2,3:2|1:2,0:0:0:0:
221,112,191725,1,2,0:2:0:0:
205,104,191842,2,0,L|192:-19,1,104.999996795654,10|2,0:0|1:2,0:0:0:0:
333,57,192311,6,0,L|327:119,1,52.4999983978272,2|0,3:2|0:0,0:0:0:0:
413,77,192545,2,0,L|407:139,1,52.4999983978272,2|0,1:2|0:0,0:0:0:0:
456,196,192780,1,8,0:2:0:0:
346,259,193014,2,0,P|344:284|355:308,1,52.4999983978272,2|0,1:2|0:0,0:0:0:0:
372,328,193249,2,0,P|322:345|278:373,1,104.999996795654,2|0,3:2|1:2,0:0:0:0:
123,285,193717,6,0,P|80:244|20:257,2,104.999996795654,10|2|2,0:2|1:2|3:2,0:0:0:0:
257,192,194420,2,0,L|268:125,1,52.4999983978272,2|0,1:2|1:2,0:0:0:0:
217,75,194655,1,10,0:2:0:0:
345,14,194889,1,0,1:2:0:0:
455,94,195124,6,0,L|462:198,1,104.999996795654,2|2,3:2|1:2,0:0:0:0:
374,273,195592,1,10,0:2:0:0:
292,198,195827,1,2,1:2:0:0:
274,195,195944,1,0,0:0:0:0:
257,192,196061,2,0,B|231:246|231:246|266:303,1,104.999996795654,0|0,3:2|1:2,0:0:0:0:
205,354,196413,1,0,1:2:0:0:
193,365,196530,2,0,P|140:358|88:353,1,104.999996795654,10|0,0:2|1:2,0:0:0:0:
0,262,196999,5,0,3:2:0:0:
127,142,197233,2,0,L|137:75,1,52.4999983978272,2|0,1:2|0:0,0:0:0:0:
154,69,197467,2,0,P|198:42|248:52,1,104.999996795654,10|2,0:2|1:2,0:0:0:0:
317,150,197936,2,0,L|298:253,1,104.999996795654,2|0,3:2|1:2,0:0:0:0:
370,317,198288,1,0,0:0:0:0:
384,327,198405,2,0,L|442:314,1,52.4999983978272,10|0,0:2|0:0,0:0:0:0:
482,239,198639,2,0,L|430:227,1,52.4999983978272,0|0,1:2|0:0,0:0:0:0:
410,149,198874,6,0,B|393:136|393:136|388:105|399:78,2,80,2|2|2,3:2|0:2|0:2,0:0:0:0:
317,150,199342,2,0,P|265:157|215:173,1,104.999996795654,10|0,0:2|1:2,0:0:0:0:
158,233,199694,1,0,0:0:0:0:
147,241,199811,2,0,B|164:254|164:254|169:285|157:311,2,80,2|2|2,3:2|0:2|0:2,0:0:0:0:
90,170,200280,2,0,P|82:118|66:68,1,104.999996795654,10|0,0:2|1:2,0:0:0:0:
207,0,200749,6,0,L|195:67,1,52.4999983978272,0|2,3:2|0:2,0:0:0:0:
270,87,200983,2,0,L|282:154,1,52.4999983978272,2|2,0:2|0:2,0:0:0:0:
213,190,201217,2,0,P|197:238|150:255,2,104.999996795654,2|2|2,0:2|0:2|0:2,0:0:0:0:
90,170,201920,1,2,0:2:0:0:
60,282,202155,2,0,L|81:384,1,104.999996795654
148,254,202624,5,2,3:1:0:0:
