osu file format v14

[General]
AudioFilename: audio.mp3
AudioLeadIn: 0
PreviewTime: 58815
Countdown: 1
SampleSet: Normal
StackLeniency: 0.7
Mode: 1
LetterboxInBreaks: 0
WidescreenStoryboard: 1

[Editor]
Bookmarks: 1715,14515,20915,27315,40115,59315,72115,84915,91315,97715,110515,116915,142515,155315,168115,182515,188915
DistanceSpacing: 0.1
BeatDivisor: 4
GridSize: 32
TimelineZoom: 2.1

[Metadata]
Title:Taiyoukei Disco
TitleUnicode:太陽系デスコ
Artist:ARAKI x nqrse
ArtistUnicode:あらき×nqrse
Creator:gaston_2199
Version:Oni
Source:
Tags:Solar System Disco ナユタン星人 NayutalieN Nayutan Seijin 歌い手 utaite 歌ってみた utattemita ボーカロイド vocaloid カバー cover omu rock jrock j-rock japanese rap arrange
BeatmapID:2163434
BeatmapSetID:1023913

[Difficulty]
HPDrainRate:5
CircleSize:2
OverallDifficulty:6
ApproachRate:10
SliderMultiplier:1.4
SliderTickRate:1

[Events]
//Background and Video events
0,0,"BG.jpg",0,60
Video,-20,"TaikoVideo.mp4"
//Break Periods
2,1915,7265
2,129915,135265
//Storyboard Layer 0 (Background)
//Storyboard Layer 1 (Fail)
//Storyboard Layer 2 (Pass)
//Storyboard Layer 3 (Foreground)
//Storyboard Layer 4 (Overlay)
//Storyboard Sound Samples

[TimingPoints]
1715,400,4,1,0,80,1,0
1715,-111.111111111111,4,1,0,80,0,0
2115,-111.111111111111,4,1,0,60,0,0
7715,-100,4,1,0,80,0,0
14515,-90.9090909090909,4,1,0,90,0,1
25915,-91.5492957746479,4,1,0,90,0,1
26115,-92.1985815602837,4,1,0,90,0,1
26315,-92.8571428571428,4,1,0,90,0,1
26415,-93.5251798561151,4,1,0,90,0,1
26515,-94.2028985507246,4,1,0,90,0,1
26715,-94.8905109489051,4,1,0,90,0,1
26915,-96.2962962962963,4,1,0,90,0,1
27015,-97.0149253731343,4,1,0,90,0,1
27115,-97.7443609022557,4,1,0,90,0,1
27215,-98.4848484848485,4,1,0,90,0,1
27315,-100,4,1,0,80,0,0
40115,-90.9090909090909,4,1,0,80,0,0
53915,-100,4,1,0,80,0,0
54515,-90.9090909090909,4,1,0,80,0,0
55512,-100,4,1,0,80,0,0
55712,-99.009900990099,4,1,0,80,0,0
55812,-98.5221674876847,4,1,0,80,0,0
55912,-98.0392156862745,4,1,0,80,0,0
56012,-97.5609756097561,4,1,0,80,0,0
56112,-97.0873786407767,4,1,0,80,0,0
56312,-96.1538461538461,4,1,0,80,0,0
56412,-95.6937799043062,4,1,0,80,0,0
56512,-95.2380952380952,4,1,0,80,0,0
56712,-94.3396226415094,4,1,0,80,0,0
56912,-93.4579439252336,4,1,0,80,0,0
57012,-93.0232558139535,4,1,0,80,0,0
57112,-92.5925925925926,4,1,0,80,0,0
57312,-91.743119266055,4,1,0,80,0,0
57512,-90.9090909090909,4,1,0,80,0,0
59315,-90.9090909090909,4,1,0,90,0,1
70715,-91.9485272144654,4,1,0,90,0,1
70815,-92.477252907716,4,1,0,90,0,1
70915,-93.0120078502135,4,1,0,90,0,1
71115,-94.100465420902,4,1,0,90,0,1
71215,-94.6542139582783,4,1,0,90,0,1
71315,-95.2146089678832,4,1,0,90,0,1
71515,-96.3554514060187,4,1,0,90,0,1
71715,-97.5239640760726,4,1,0,90,0,1
71815,-98.1189613911699,4,1,0,90,0,1
71915,-98.7212634742184,4,1,0,90,0,1
72015,-99.3309070103781,4,1,0,90,0,1
72115,-100,4,1,0,90,0,1
78515,-91.0224552397076,4,1,0,90,0,1
83515,-91.9485272144654,4,1,0,90,0,1
83615,-92.477252907716,4,1,0,90,0,1
83715,-93.0120078502135,4,1,0,90,0,1
83915,-94.100465420902,4,1,0,90,0,1
84015,-94.6542139582783,4,1,0,90,0,1
84115,-95.2146089678832,4,1,0,90,0,1
84315,-96.3554514060187,4,1,0,90,0,1
84415,-96.9362334069402,4,1,0,90,0,1
84515,-97.5239640760726,4,1,0,90,0,1
84615,-98.1189613911699,4,1,0,90,0,1
84715,-98.7212634742184,4,1,0,90,0,1
84815,-99.3309070103781,4,1,0,90,0,1
84915,-100,4,1,0,90,0,1
91315,-91.0224552397076,4,1,0,90,0,1
96315,-91.9485272144654,4,1,0,90,0,1
96515,-93.0120078502135,4,1,0,90,0,1
96615,-93.5530707859955,4,1,0,90,0,1
96715,-94.100465420902,4,1,0,90,0,1
96915,-95.2146089678832,4,1,0,90,0,1
97115,-96.3554514060187,4,1,0,90,0,1
97215,-96.9362334069402,4,1,0,90,0,1
97315,-97.5239640760726,4,1,0,90,0,1
97415,-98.1189613911699,4,1,0,90,0,1
97515,-98.7212634742184,4,1,0,90,0,1
97615,-99.3309070103781,4,1,0,90,0,1
97715,-100,4,1,0,80,0,0
110515,-90.9090909090909,4,1,0,80,0,0
123715,-100,4,1,0,80,0,0
124915,-90.9090909090909,4,1,0,80,0,0
125315,-100,4,1,0,80,0,0
126115,-99.009900990099,4,1,0,80,0,0
126215,-98.5221674876847,4,1,0,80,0,0
126315,-98.0392156862745,4,1,0,80,0,0
126415,-97.5609756097561,4,1,0,80,0,0
126515,-97.0873786407767,4,1,0,80,0,0
126715,-96.1538461538461,4,1,0,80,0,0
126815,-95.6937799043062,4,1,0,80,0,0
126915,-95.2380952380952,4,1,0,80,0,0
127115,-94.3396226415094,4,1,0,80,0,0
127315,-93.4579439252336,4,1,0,80,0,0
127415,-93.0232558139535,4,1,0,80,0,0
127515,-92.5925925925926,4,1,0,80,0,0
127715,-91.743119266055,4,1,0,80,0,0
127915,-90.9090909090909,4,1,0,80,0,0
129715,-83.3333333333333,4,1,0,70,0,0
131315,-111.111111111111,4,1,0,60,0,0
140715,-66.6666666666667,4,1,0,80,0,0
142515,-90.9090909090909,4,1,0,90,0,1
153915,-92.0245116489228,4,1,0,90,0,1
154015,-92.5925925925926,4,1,0,90,0,1
154115,-93.1677307974319,4,1,0,90,0,1
154315,-94.3396226415094,4,1,0,90,0,1
154415,-94.9367389040313,4,1,0,90,0,1
154515,-95.5413708466972,4,1,0,90,0,0
154615,-96.1538461538461,4,1,0,90,0,0
154715,-96.774224765879,4,1,0,90,0,0
154815,-97.4025657783877,4,1,0,90,0,0
154915,-98.0392156862745,4,1,0,90,0,0
155015,-98.6842429882378,4,1,0,90,0,0
155115,-99.3377154510876,4,1,0,90,0,0
155215,-100,4,1,0,90,0,0
155315,-90.9090909090909,4,1,0,90,0,1
161715,-83.3333333333333,4,1,0,90,0,1
164915,-83.3333333333333,4,1,0,80,0,0
165115,-84.5070422535211,4,1,0,80,0,0
165215,-85.7142857142857,4,1,0,80,0,0
165315,-86.9565217391304,4,1,0,80,0,0
165515,-88.2352941176471,4,1,0,80,0,0
165615,-89.5522388059701,4,1,0,80,0,0
165715,-90.9090909090909,4,1,0,80,0,0
165915,-92.3076923076923,4,1,0,80,0,0
166015,-93.75,4,1,0,80,0,0
166115,-95.2380952380952,4,1,0,80,0,0
166215,-96.7741935483871,4,1,0,80,0,0
166315,-98.3606557377049,4,1,0,80,0,0
166415,-100,4,1,0,80,0,0
168115,-90.9090909090909,4,1,0,100,0,1
174515,-83.3333333333333,4,1,0,100,0,1
180915,-83.3333333333333,4,1,0,80,0,0
182115,-100,4,1,0,70,0,0
182515,-90.9090909090909,4,1,0,90,0,1
188915,-83.3333333333333,4,1,0,90,0,1
195315,-66.6666666666667,4,1,0,80,0,0

[HitObjects]
256,192,1715,5,12,0:0:0:0:
256,160,7715,5,0,0:0:0:0:
256,160,7815,1,8,0:0:0:0:
256,160,7915,1,0,0:0:0:0:
256,160,8115,1,12,0:0:0:0:
256,160,8515,1,8,0:0:0:0:
256,160,8915,1,8,0:0:0:0:
256,160,9115,1,0,0:0:0:0:
256,160,9215,1,0,0:0:0:0:
256,160,9315,1,8,0:0:0:0:
256,160,9515,1,0,0:0:0:0:
256,160,9715,1,8,0:0:0:0:
256,160,10115,1,8,0:0:0:0:
256,160,10515,1,8,0:0:0:0:
256,160,10715,1,0,0:0:0:0:
256,160,10815,1,0,0:0:0:0:
256,160,10915,1,8,0:0:0:0:
256,160,11115,1,0,0:0:0:0:
256,160,11315,1,8,0:0:0:0:
256,160,11715,1,8,0:0:0:0:
256,160,12115,1,8,0:0:0:0:
256,160,12315,1,0,0:0:0:0:
256,160,12415,1,0,0:0:0:0:
256,160,12515,1,8,0:0:0:0:
256,160,12715,1,0,0:0:0:0:
256,160,12915,1,12,0:0:0:0:
256,160,13215,1,0,0:0:0:0:
256,160,13315,1,8,0:0:0:0:
256,160,13515,1,8,0:0:0:0:
256,160,13715,1,0,0:0:0:0:
256,160,14515,1,12,0:0:0:0:
256,160,14915,1,8,0:0:0:0:
256,160,15115,1,0,0:0:0:0:
256,160,15315,1,8,0:0:0:0:
256,160,15415,1,8,0:0:0:0:
256,160,15515,1,0,0:0:0:0:
256,160,15715,1,8,0:0:0:0:
256,160,16115,1,8,0:0:0:0:
253,157,16315,1,0,0:0:0:0:
248,156,16415,1,0,0:0:0:0:
256,160,16515,1,8,0:0:0:0:
256,160,16715,1,8,0:0:0:0:
256,160,16915,1,0,0:0:0:0:
251,153,17115,1,8,0:0:0:0:
256,160,17215,1,0,0:0:0:0:
256,160,17315,1,8,0:0:0:0:
256,160,17515,1,0,0:0:0:0:
256,160,17715,1,8,0:0:0:0:
256,160,18115,1,8,0:0:0:0:
256,160,18315,1,0,0:0:0:0:
256,160,18515,1,8,0:0:0:0:
256,160,18615,1,8,0:0:0:0:
256,160,18715,1,0,0:0:0:0:
256,160,18915,1,8,0:0:0:0:
256,160,19315,1,8,0:0:0:0:
253,158,19515,1,0,0:0:0:0:
253,152,19615,1,0,0:0:0:0:
256,160,19715,1,8,0:0:0:0:
254,154,19915,1,8,0:0:0:0:
256,160,20115,1,0,0:0:0:0:
256,160,20315,1,8,0:0:0:0:
256,160,20515,1,8,0:0:0:0:
256,160,20615,1,8,0:0:0:0:
256,160,20715,1,8,0:0:0:0:
256,160,20915,1,4,0:0:0:0:
256,160,21315,1,8,0:0:0:0:
256,160,21515,1,0,0:0:0:0:
256,160,21715,1,8,0:0:0:0:
256,160,21815,1,8,0:0:0:0:
256,160,21915,1,0,0:0:0:0:
256,160,22115,1,8,0:0:0:0:
256,160,22515,1,8,0:0:0:0:
253,153,22715,1,8,0:0:0:0:
256,160,22915,1,0,0:0:0:0:
256,160,23115,1,8,0:0:0:0:
256,160,23315,1,0,0:0:0:0:
255,157,23415,1,0,0:0:0:0:
256,160,23515,1,0,0:0:0:0:
256,160,23715,1,8,0:0:0:0:
256,160,23915,1,0,0:0:0:0:
256,160,24115,1,8,0:0:0:0:
256,160,24515,1,8,0:0:0:0:
256,160,24715,1,0,0:0:0:0:
256,160,24915,1,8,0:0:0:0:
256,160,25015,1,8,0:0:0:0:
256,160,25115,1,0,0:0:0:0:
256,160,25315,1,8,0:0:0:0:
256,160,25715,1,0,0:0:0:0:
256,160,25915,1,8,0:0:0:0:
256,160,26115,1,8,0:0:0:0:
256,160,26315,1,0,0:0:0:0:
256,160,26415,1,0,0:0:0:0:
256,160,26515,1,8,0:0:0:0:
256,160,26715,1,0,0:0:0:0:
256,160,26915,1,8,0:0:0:0:
256,160,27015,1,8,0:0:0:0:
256,160,27115,1,8,0:0:0:0:
256,160,27315,1,4,0:0:0:0:
256,160,27515,1,0,0:0:0:0:
256,160,27715,1,8,0:0:0:0:
256,160,27915,1,0,0:0:0:0:
256,160,28315,1,0,0:0:0:0:
256,160,28515,1,8,0:0:0:0:
256,160,28715,1,0,0:0:0:0:
256,160,29115,1,0,0:0:0:0:
256,160,29315,1,8,0:0:0:0:
256,160,29515,1,0,0:0:0:0:
256,160,29715,1,0,0:0:0:0:
256,160,29915,1,8,0:0:0:0:
256,128,30115,1,8,0:0:0:0:
253,127,30215,1,0,0:0:0:0:
250,125,30315,1,8,0:0:0:0:
256,160,30515,1,0,0:0:0:0:
256,160,30715,1,0,0:0:0:0:
256,160,30915,1,8,0:0:0:0:
256,160,31115,1,0,0:0:0:0:
256,128,31515,1,0,0:0:0:0:
256,128,31715,1,8,0:0:0:0:
256,128,31915,1,0,0:0:0:0:
256,128,32315,1,8,0:0:0:0:
256,128,32515,1,8,0:0:0:0:
256,128,32715,1,0,0:0:0:0:
254,128,32815,1,0,0:0:0:0:
256,128,32915,1,0,0:0:0:0:
256,128,33115,1,8,0:0:0:0:
256,128,33315,1,8,0:0:0:0:
256,160,33715,1,4,0:0:0:0:
256,160,33915,1,0,0:0:0:0:
256,160,34115,1,8,0:0:0:0:
256,160,34315,1,0,0:0:0:0:
256,160,34715,1,0,0:0:0:0:
256,160,34915,1,8,0:0:0:0:
256,160,35115,1,0,0:0:0:0:
256,160,35515,1,8,0:0:0:0:
256,160,35715,1,0,0:0:0:0:
256,160,35915,1,8,0:0:0:0:
256,160,36115,1,0,0:0:0:0:
256,160,36315,1,0,0:0:0:0:
256,128,36515,1,8,0:0:0:0:
252,128,36615,1,0,0:0:0:0:
211,126,36715,1,8,0:0:0:0:
256,160,36915,1,0,0:0:0:0:
256,160,37115,1,0,0:0:0:0:
256,160,37315,1,8,0:0:0:0:
256,160,37515,1,0,0:0:0:0:
256,128,37915,1,8,0:0:0:0:
256,128,38115,1,8,0:0:0:0:
256,128,38315,1,0,0:0:0:0:
256,160,38515,1,8,0:0:0:0:
256,128,38915,1,8,0:0:0:0:
256,128,39115,1,0,0:0:0:0:
253,126,39215,1,0,0:0:0:0:
256,128,39315,1,0,0:0:0:0:
256,128,39515,1,8,0:0:0:0:
256,128,39715,1,8,0:0:0:0:
243,126,39815,1,8,0:0:0:0:
227,125,39915,1,8,0:0:0:0:
256,128,40115,1,4,0:0:0:0:
256,128,40515,1,8,0:0:0:0:
256,128,40715,1,0,0:0:0:0:
256,96,40915,1,8,0:0:0:0:
256,96,41015,1,8,0:0:0:0:
256,96,41115,1,0,0:0:0:0:
252,96,41215,1,0,0:0:0:0:
256,96,41315,1,8,0:0:0:0:
256,128,41515,1,0,0:0:0:0:
256,96,41615,1,8,0:0:0:0:
256,96,41715,1,0,0:0:0:0:
224,96,41915,1,0,0:0:0:0:
256,96,42115,1,8,0:0:0:0:
256,96,42315,1,0,0:0:0:0:
251,95,42415,1,0,0:0:0:0:
256,96,42515,1,8,0:0:0:0:
256,96,42715,1,8,0:0:0:0:
256,96,43115,1,8,0:0:0:0:
256,96,43215,1,8,0:0:0:0:
256,96,43315,1,0,0:0:0:0:
217,53,43515,1,8,0:0:0:0:
256,96,43715,1,8,0:0:0:0:
256,96,43815,1,0,0:0:0:0:
256,96,44015,1,8,0:0:0:0:
244,81,44215,1,0,0:0:0:0:
256,96,44315,1,8,0:0:0:0:
256,64,44515,1,8,0:0:0:0:
256,64,44715,1,0,0:0:0:0:
256,64,44915,1,8,0:0:0:0:
249,62,45115,1,8,0:0:0:0:
256,64,45215,1,8,0:0:0:0:
243,52,45315,1,0,0:0:0:0:
241,53,45415,1,0,0:0:0:0:
256,64,45515,1,8,0:0:0:0:
288,64,45715,1,0,0:0:0:0:
288,64,45915,1,8,0:0:0:0:
288,64,46115,1,8,0:0:0:0:
288,64,46315,1,8,0:0:0:0:
288,64,46515,1,4,0:0:0:0:
288,128,46915,1,8,0:0:0:0:
288,128,47015,1,0,0:0:0:0:
288,128,47115,1,8,0:0:0:0:
288,128,47315,1,0,0:0:0:0:
288,128,47515,1,8,0:0:0:0:
288,128,47715,1,0,0:0:0:0:
288,96,47815,1,0,0:0:0:0:
256,96,47915,1,0,0:0:0:0:
256,128,48115,1,8,0:0:0:0:
250,124,48315,1,0,0:0:0:0:
284,126,48415,1,0,0:0:0:0:
288,128,48515,1,8,0:0:0:0:
288,128,48715,1,8,0:0:0:0:
288,128,48915,1,0,0:0:0:0:
255,72,49115,1,0,0:0:0:0:
256,128,49215,1,8,0:0:0:0:
256,128,49315,1,0,0:0:0:0:
253,127,49415,1,0,0:0:0:0:
256,128,49515,1,8,0:0:0:0:
256,128,49715,1,0,0:0:0:0:
256,128,50115,1,8,0:0:0:0:
256,128,50315,1,8,0:0:0:0:
256,128,50415,1,8,0:0:0:0:
256,128,50515,1,0,0:0:0:0:
256,128,50715,1,0,0:0:0:0:
256,128,50915,1,8,0:0:0:0:
256,128,51115,1,0,0:0:0:0:
256,128,51215,1,0,0:0:0:0:
256,128,51315,1,8,0:0:0:0:
256,128,51515,1,0,0:0:0:0:
256,128,51615,1,0,0:0:0:0:
256,128,51715,1,8,0:0:0:0:
256,128,51915,1,0,0:0:0:0:
256,128,52115,1,8,0:0:0:0:
240,126,52215,1,0,0:0:0:0:
256,128,52315,1,8,0:0:0:0:
256,128,52415,1,8,0:0:0:0:
256,128,52515,1,0,0:0:0:0:
256,128,52715,1,8,0:0:0:0:
256,128,52915,1,4,0:0:0:0:
256,192,53915,1,8,0:0:0:0:
256,192,54115,1,8,0:0:0:0:
256,192,54515,1,4,0:0:0:0:
256,192,55515,1,8,0:0:0:0:
256,192,55715,1,8,0:0:0:0:
256,192,55815,1,8,0:0:0:0:
256,192,55915,1,8,0:0:0:0:
256,192,56115,1,4,0:0:0:0:
256,192,56515,1,8,0:0:0:0:
256,192,56715,1,4,0:0:0:0:
256,192,57115,1,0,0:0:0:0:
256,192,57315,1,0,0:0:0:0:
256,192,57515,1,12,0:0:0:0:
256,192,57915,1,0,0:0:0:0:
256,192,58115,1,0,0:0:0:0:
256,192,58315,1,8,0:0:0:0:
256,192,58515,1,0,0:0:0:0:
256,192,59315,5,12,0:0:0:0:
256,192,59715,1,8,0:0:0:0:
256,192,59915,1,0,0:0:0:0:
256,192,60015,1,8,0:0:0:0:
256,192,60115,1,0,0:0:0:0:
256,192,60315,1,0,0:0:0:0:
256,192,60515,1,8,0:0:0:0:
256,192,60715,1,8,0:0:0:0:
250,186,60915,1,0,0:0:0:0:
256,192,61115,1,0,0:0:0:0:
256,192,61315,1,8,0:0:0:0:
256,192,61515,1,0,0:0:0:0:
256,192,61615,1,0,0:0:0:0:
256,192,61715,1,8,0:0:0:0:
256,192,61915,1,0,0:0:0:0:
256,192,62115,1,8,0:0:0:0:
256,192,62315,1,8,0:0:0:0:
256,192,62715,1,8,0:0:0:0:
256,192,62815,1,8,0:0:0:0:
256,192,62915,1,8,0:0:0:0:
256,192,63115,1,0,0:0:0:0:
256,192,63315,1,8,0:0:0:0:
256,192,63415,1,8,0:0:0:0:
256,192,63515,1,0,0:0:0:0:
256,192,63715,1,8,0:0:0:0:
256,160,63915,1,0,0:0:0:0:
256,192,64115,1,8,0:0:0:0:
256,160,64215,1,0,0:0:0:0:
256,192,64315,1,8,0:0:0:0:
256,160,64515,1,8,0:0:0:0:
221,196,64715,1,0,0:0:0:0:
256,160,64915,1,8,0:0:0:0:
288,160,65115,1,8,0:0:0:0:
256,160,65315,1,8,0:0:0:0:
256,160,65415,1,8,0:0:0:0:
256,160,65515,1,8,0:0:0:0:
256,192,65715,1,4,0:0:0:0:
256,192,66115,1,8,0:0:0:0:
256,128,66315,1,0,0:0:0:0:
256,192,66415,1,0,0:0:0:0:
256,160,66515,1,8,0:0:0:0:
256,192,66715,1,0,0:0:0:0:
256,192,66915,1,8,0:0:0:0:
256,160,67115,1,8,0:0:0:0:
252,154,67315,1,0,0:0:0:0:
256,192,67515,1,0,0:0:0:0:
256,192,67715,1,8,0:0:0:0:
256,160,67915,1,8,0:0:0:0:
256,192,68015,1,0,0:0:0:0:
256,192,68115,1,8,0:0:0:0:
256,192,68315,1,0,0:0:0:0:
256,192,68515,1,8,0:0:0:0:
256,192,68715,1,0,0:0:0:0:
256,192,69115,1,0,0:0:0:0:
256,192,69215,1,0,0:0:0:0:
256,192,69315,1,8,0:0:0:0:
256,192,69515,1,0,0:0:0:0:
256,192,69715,1,8,0:0:0:0:
242,200,69815,1,8,0:0:0:0:
256,192,69915,1,0,0:0:0:0:
256,192,70115,1,8,0:0:0:0:
256,160,70315,1,8,0:0:0:0:
256,192,70515,1,0,0:0:0:0:
256,192,70715,1,8,0:0:0:0:
256,160,70915,1,8,0:0:0:0:
256,160,71115,1,0,0:0:0:0:
236,124,71215,1,0,0:0:0:0:
256,160,71315,1,8,0:0:0:0:
288,160,71515,1,0,0:0:0:0:
256,160,71715,1,8,0:0:0:0:
256,160,71815,1,8,0:0:0:0:
256,160,71915,1,8,0:0:0:0:
256,160,72115,1,4,0:0:0:0:
256,192,72515,1,8,0:0:0:0:
256,192,72715,1,8,0:0:0:0:
256,192,72815,1,0,0:0:0:0:
256,192,72915,1,8,0:0:0:0:
256,192,73115,1,0,0:0:0:0:
256,192,73315,1,8,0:0:0:0:
256,192,73715,1,8,0:0:0:0:
256,192,73915,1,0,0:0:0:0:
256,192,74115,1,8,0:0:0:0:
254,186,74315,1,0,0:0:0:0:
252,183,74415,1,0,0:0:0:0:
250,181,74515,1,0,0:0:0:0:
256,192,74715,1,8,0:0:0:0:
256,192,74915,1,8,0:0:0:0:
256,192,75115,1,0,0:0:0:0:
256,192,75315,1,8,0:0:0:0:
256,160,75715,1,8,0:0:0:0:
256,128,75915,1,8,0:0:0:0:
256,160,76015,1,0,0:0:0:0:
256,128,76115,1,8,0:0:0:0:
256,192,76315,1,0,0:0:0:0:
256,192,76515,1,8,0:0:0:0:
256,128,76915,1,0,0:0:0:0:
256,128,77015,1,8,0:0:0:0:
256,128,77115,1,0,0:0:0:0:
256,128,77315,1,8,0:0:0:0:
251,121,77515,1,8,0:0:0:0:
256,128,77715,1,0,0:0:0:0:
256,128,77915,1,8,0:0:0:0:
256,128,78115,1,8,0:0:0:0:
256,128,78215,1,8,0:0:0:0:
256,128,78315,1,8,0:0:0:0:
256,160,78515,1,4,0:0:0:0:
256,192,78915,1,8,0:0:0:0:
256,192,79115,1,8,0:0:0:0:
256,192,79215,1,0,0:0:0:0:
256,192,79315,1,8,0:0:0:0:
256,192,79515,1,0,0:0:0:0:
256,192,79715,1,8,0:0:0:0:
256,160,79915,1,0,0:0:0:0:
256,192,80115,1,8,0:0:0:0:
256,192,80315,1,0,0:0:0:0:
256,192,80515,1,8,0:0:0:0:
288,192,80715,1,0,0:0:0:0:
285,188,80815,1,8,0:0:0:0:
288,192,80915,1,0,0:0:0:0:
256,192,81115,1,8,0:0:0:0:
256,192,81315,1,8,0:0:0:0:
256,192,81515,1,0,0:0:0:0:
256,192,81715,1,8,0:0:0:0:
256,160,82115,1,8,0:0:0:0:
256,128,82315,1,8,0:0:0:0:
288,192,82415,1,0,0:0:0:0:
256,128,82515,1,8,0:0:0:0:
256,192,82715,1,0,0:0:0:0:
256,192,82915,1,8,0:0:0:0:
288,192,83115,1,8,0:0:0:0:
256,128,83315,1,0,0:0:0:0:
256,128,83515,1,8,0:0:0:0:
256,128,83615,1,8,0:0:0:0:
256,128,83715,1,0,0:0:0:0:
256,128,83915,1,8,0:0:0:0:
288,192,84015,1,8,0:0:0:0:
256,128,84115,1,0,0:0:0:0:
256,128,84315,1,8,0:0:0:0:
256,128,84515,1,8,0:0:0:0:
256,128,84615,1,8,0:0:0:0:
256,128,84715,1,8,0:0:0:0:
282,197,84915,1,4,0:0:0:0:
256,192,85315,1,8,0:0:0:0:
256,192,85515,1,0,0:0:0:0:
256,192,85715,1,8,0:0:0:0:
253,190,85815,1,0,0:0:0:0:
256,186,85915,1,0,0:0:0:0:
256,192,86115,1,8,0:0:0:0:
256,192,86315,1,8,0:0:0:0:
256,192,86515,1,0,0:0:0:0:
256,192,86915,1,8,0:0:0:0:
256,192,87115,1,0,0:0:0:0:
254,189,87215,1,8,0:0:0:0:
253,187,87315,1,0,0:0:0:0:
256,192,87515,1,8,0:0:0:0:
256,192,87715,1,8,0:0:0:0:
256,192,87915,1,0,0:0:0:0:
256,192,88115,1,0,0:0:0:0:
256,224,88515,1,8,0:0:0:0:
256,224,88715,1,0,0:0:0:0:
256,224,88915,1,8,0:0:0:0:
253,222,89015,1,8,0:0:0:0:
257,217,89115,1,0,0:0:0:0:
256,224,89315,1,8,0:0:0:0:
256,224,89515,1,8,0:0:0:0:
256,224,89715,1,0,0:0:0:0:
256,224,90115,1,8,0:0:0:0:
251,211,90215,1,0,0:0:0:0:
256,224,90315,1,8,0:0:0:0:
256,224,90515,1,0,0:0:0:0:
256,224,90715,1,8,0:0:0:0:
256,224,90915,1,8,0:0:0:0:
256,224,91015,1,8,0:0:0:0:
256,224,91115,1,8,0:0:0:0:
256,128,91315,1,4,0:0:0:0:
256,192,91715,1,8,0:0:0:0:
256,192,91915,1,0,0:0:0:0:
256,192,92115,1,8,0:0:0:0:
256,188,92215,1,0,0:0:0:0:
256,186,92315,1,0,0:0:0:0:
256,192,92515,1,8,0:0:0:0:
256,192,92715,1,8,0:0:0:0:
256,192,92915,1,0,0:0:0:0:
249,189,93115,1,0,0:0:0:0:
256,192,93315,1,8,0:0:0:0:
256,192,93515,1,0,0:0:0:0:
254,189,93615,1,8,0:0:0:0:
253,187,93715,1,0,0:0:0:0:
256,192,93915,1,8,0:0:0:0:
256,192,94115,1,8,0:0:0:0:
256,192,94315,1,0,0:0:0:0:
256,192,94515,1,0,0:0:0:0:
256,224,94915,1,8,0:0:0:0:
256,224,95115,1,0,0:0:0:0:
256,224,95315,1,8,0:0:0:0:
256,192,95415,1,8,0:0:0:0:
253,188,95515,1,0,0:0:0:0:
256,224,95715,1,8,0:0:0:0:
256,224,95915,1,8,0:0:0:0:
256,224,96115,1,0,0:0:0:0:
256,224,96315,1,8,0:0:0:0:
256,224,96515,1,0,0:0:0:0:
256,224,96715,1,8,0:0:0:0:
256,224,96915,1,0,0:0:0:0:
248,170,97115,1,8,0:0:0:0:
256,224,97315,1,8,0:0:0:0:
248,170,97415,1,8,0:0:0:0:
248,170,97515,1,8,0:0:0:0:
256,160,97715,5,4,0:0:0:0:
288,192,98115,1,8,0:0:0:0:
256,192,98315,1,0,0:0:0:0:
288,192,98515,1,8,0:0:0:0:
288,192,98715,1,0,0:0:0:0:
288,192,98815,1,0,0:0:0:0:
288,192,98915,1,8,0:0:0:0:
288,128,99315,1,8,0:0:0:0:
288,128,99515,1,0,0:0:0:0:
288,128,99715,1,8,0:0:0:0:
288,128,99815,1,8,0:0:0:0:
288,128,99915,1,0,0:0:0:0:
286,128,100015,1,0,0:0:0:0:
288,128,100115,1,8,0:0:0:0:
288,128,100315,1,0,0:0:0:0:
288,128,100515,1,8,0:0:0:0:
288,128,100915,1,8,0:0:0:0:
288,128,101215,1,0,0:0:0:0:
288,128,101315,1,8,0:0:0:0:
288,128,101515,1,0,0:0:0:0:
288,128,101715,1,8,0:0:0:0:
288,160,102015,1,0,0:0:0:0:
288,128,102115,1,8,0:0:0:0:
288,128,102315,1,8,0:0:0:0:
288,128,102515,1,0,0:0:0:0:
288,128,102915,1,8,0:0:0:0:
282,127,103115,1,8,0:0:0:0:
288,128,103315,1,0,0:0:0:0:
288,128,103515,1,8,0:0:0:0:
285,127,103615,1,0,0:0:0:0:
288,128,103715,1,8,0:0:0:0:
288,128,103915,1,0,0:0:0:0:
288,128,104115,1,12,0:0:0:0:
288,160,104515,1,8,0:0:0:0:
288,160,104715,1,0,0:0:0:0:
288,160,104915,1,8,0:0:0:0:
288,128,105015,1,8,0:0:0:0:
288,160,105115,1,0,0:0:0:0:
288,160,105315,1,8,0:0:0:0:
288,160,105715,1,0,0:0:0:0:
283,154,105915,1,8,0:0:0:0:
288,160,106015,1,0,0:0:0:0:
288,160,106115,1,8,0:0:0:0:
288,160,106315,1,0,0:0:0:0:
288,160,106515,1,8,0:0:0:0:
286,157,106615,1,8,0:0:0:0:
288,128,106715,1,0,0:0:0:0:
288,128,106915,1,8,0:0:0:0:
288,128,107315,1,8,0:0:0:0:
288,160,107615,1,0,0:0:0:0:
288,160,107715,1,8,0:0:0:0:
288,160,107915,1,0,0:0:0:0:
288,160,108115,1,8,0:0:0:0:
288,160,108415,1,0,0:0:0:0:
288,160,108515,1,8,0:0:0:0:
288,160,108715,1,8,0:0:0:0:
288,160,108915,1,0,0:0:0:0:
288,160,109315,1,8,0:0:0:0:
288,160,109515,1,8,0:0:0:0:
288,160,109615,1,8,0:0:0:0:
288,160,109715,1,0,0:0:0:0:
288,160,109915,1,8,0:0:0:0:
288,160,110115,1,8,0:0:0:0:
288,160,110215,1,8,0:0:0:0:
288,160,110315,1,8,0:0:0:0:
288,160,110515,1,4,0:0:0:0:
288,128,110715,1,0,0:0:0:0:
288,128,110915,1,8,0:0:0:0:
288,128,111115,1,0,0:0:0:0:
288,128,111515,1,0,0:0:0:0:
288,128,111715,1,8,0:0:0:0:
288,128,111915,1,8,0:0:0:0:
288,128,112015,1,8,0:0:0:0:
288,128,112315,1,0,0:0:0:0:
288,128,112515,1,8,0:0:0:0:
288,128,112715,1,0,0:0:0:0:
288,128,113115,1,8,0:0:0:0:
288,128,113315,1,8,0:0:0:0:
288,128,113415,1,0,0:0:0:0:
288,128,113515,1,8,0:0:0:0:
288,128,113715,1,0,0:0:0:0:
288,128,113915,1,8,0:0:0:0:
288,128,114015,1,0,0:0:0:0:
288,128,114315,1,0,0:0:0:0:
288,128,114515,1,8,0:0:0:0:
288,128,114715,1,0,0:0:0:0:
288,128,114815,1,8,0:0:0:0:
288,128,115115,1,0,0:0:0:0:
288,128,115315,1,8,0:0:0:0:
259,126,115415,1,8,0:0:0:0:
288,128,115515,1,0,0:0:0:0:
288,128,115715,1,8,0:0:0:0:
288,128,115915,1,0,0:0:0:0:
285,126,116015,1,8,0:0:0:0:
281,124,116115,1,0,0:0:0:0:
288,128,116315,1,8,0:0:0:0:
288,128,116515,1,8,0:0:0:0:
288,128,116715,1,8,0:0:0:0:
288,128,116915,1,4,0:0:0:0:
224,224,117315,1,8,0:0:0:0:
224,224,117515,1,0,0:0:0:0:
224,224,117715,1,8,0:0:0:0:
224,224,117815,1,8,0:0:0:0:
224,224,117915,1,0,0:0:0:0:
223,222,118015,1,0,0:0:0:0:
224,224,118115,1,8,0:0:0:0:
224,224,118315,1,0,0:0:0:0:
224,224,118515,1,8,0:0:0:0:
224,224,118715,1,0,0:0:0:0:
224,224,118915,1,8,0:0:0:0:
224,224,119215,1,0,0:0:0:0:
224,224,119315,1,8,0:0:0:0:
224,224,119515,1,0,0:0:0:0:
224,224,119715,1,8,0:0:0:0:
224,224,120115,1,0,0:0:0:0:
224,160,120315,1,0,0:0:0:0:
256,160,120415,1,0,0:0:0:0:
224,224,120515,1,8,0:0:0:0:
224,224,120715,1,0,0:0:0:0:
224,224,120915,1,8,0:0:0:0:
224,224,121115,1,0,0:0:0:0:
256,128,121315,1,8,0:0:0:0:
256,160,121415,1,8,0:0:0:0:
256,128,121515,1,8,0:0:0:0:
253,126,121615,1,8,0:0:0:0:
256,128,121715,1,0,0:0:0:0:
256,96,121915,1,0,0:0:0:0:
256,128,122115,1,8,0:0:0:0:
256,96,122315,1,0,0:0:0:0:
238,81,122415,1,0,0:0:0:0:
256,128,122515,1,8,0:0:0:0:
256,128,122715,1,0,0:0:0:0:
256,128,122915,1,8,0:0:0:0:
256,128,123015,1,8,0:0:0:0:
256,128,123115,1,8,0:0:0:0:
256,128,123315,1,4,0:0:0:0:
256,96,123715,1,0,0:0:0:0:
174,24,124115,1,0,0:0:0:0:
256,96,124315,1,8,0:0:0:0:
256,96,124515,1,8,0:0:0:0:
256,96,124915,1,4,0:0:0:0:
256,96,125315,1,0,0:0:0:0:
169,19,125715,1,0,0:0:0:0:
256,96,125915,1,8,0:0:0:0:
256,96,126115,1,8,0:0:0:0:
256,96,126215,1,8,0:0:0:0:
256,96,126315,1,8,0:0:0:0:
256,96,126515,1,4,0:0:0:0:
256,96,126915,1,8,0:0:0:0:
256,96,127115,1,4,0:0:0:0:
256,96,127515,1,0,0:0:0:0:
256,96,127715,1,0,0:0:0:0:
256,96,127915,1,12,0:0:0:0:
256,64,128315,1,8,0:0:0:0:
256,64,128515,1,0,0:0:0:0:
256,64,128715,1,8,0:0:0:0:
256,64,128915,1,4,0:0:0:0:
256,64,129715,1,12,0:0:0:0:
256,128,135715,5,0,0:0:0:0:
256,128,135915,1,8,0:0:0:0:
256,128,136115,1,0,0:0:0:0:
229,62,136415,1,8,0:0:0:0:
256,128,136515,1,0,0:0:0:0:
256,128,136715,1,8,0:0:0:0:
256,128,136915,1,0,0:0:0:0:
256,128,137315,1,0,0:0:0:0:
256,128,137515,1,8,0:0:0:0:
256,128,137715,1,0,0:0:0:0:
233,60,138015,1,8,0:0:0:0:
256,128,138115,1,0,0:0:0:0:
256,64,138315,1,8,0:0:0:0:
256,128,138515,1,0,0:0:0:0:
256,128,138915,1,0,0:0:0:0:
256,128,139115,1,8,0:0:0:0:
256,128,139315,1,0,0:0:0:0:
237,48,139615,1,8,0:0:0:0:
256,128,139715,1,0,0:0:0:0:
288,96,139915,1,8,0:0:0:0:
256,128,140115,1,0,0:0:0:0:
256,128,140715,1,12,0:0:0:0:
256,128,141115,1,4,0:0:0:0:
256,128,141315,1,4,0:0:0:0:
256,128,141515,1,4,0:0:0:0:
256,128,141715,1,4,0:0:0:0:
256,192,142515,5,12,0:0:0:0:
256,192,142915,1,8,0:0:0:0:
256,192,143115,1,0,0:0:0:0:
256,192,143215,1,8,0:0:0:0:
256,192,143315,1,0,0:0:0:0:
256,192,143515,1,0,0:0:0:0:
256,192,143715,1,8,0:0:0:0:
256,192,143915,1,8,0:0:0:0:
256,192,144015,1,8,0:0:0:0:
256,192,144115,1,0,0:0:0:0:
256,192,144315,1,0,0:0:0:0:
256,192,144515,1,8,0:0:0:0:
256,192,144715,1,0,0:0:0:0:
256,192,144815,1,0,0:0:0:0:
256,192,144915,1,8,0:0:0:0:
256,192,145115,1,0,0:0:0:0:
256,192,145315,1,8,0:0:0:0:
256,192,145515,1,8,0:0:0:0:
256,192,145915,1,8,0:0:0:0:
256,192,146015,1,8,0:0:0:0:
256,192,146115,1,8,0:0:0:0:
256,192,146315,1,0,0:0:0:0:
256,192,146515,1,8,0:0:0:0:
256,192,146715,1,0,0:0:0:0:
256,192,146815,1,0,0:0:0:0:
256,192,146915,1,8,0:0:0:0:
256,160,147115,1,0,0:0:0:0:
256,192,147315,1,8,0:0:0:0:
256,160,147415,1,0,0:0:0:0:
256,192,147515,1,8,0:0:0:0:
256,160,147715,1,8,0:0:0:0:
256,192,147915,1,0,0:0:0:0:
256,160,148115,1,8,0:0:0:0:
288,160,148315,1,8,0:0:0:0:
256,160,148515,1,8,0:0:0:0:
256,160,148615,1,8,0:0:0:0:
256,160,148715,1,8,0:0:0:0:
256,192,148915,1,4,0:0:0:0:
256,192,149315,1,8,0:0:0:0:
256,128,149515,1,0,0:0:0:0:
256,192,149615,1,0,0:0:0:0:
256,160,149715,1,8,0:0:0:0:
256,192,149915,1,0,0:0:0:0:
256,192,150115,1,8,0:0:0:0:
256,160,150315,1,8,0:0:0:0:
256,192,150415,1,0,0:0:0:0:
256,192,150515,1,0,0:0:0:0:
256,192,150715,1,0,0:0:0:0:
256,192,150915,1,8,0:0:0:0:
256,160,151115,1,8,0:0:0:0:
256,192,151215,1,0,0:0:0:0:
256,192,151315,1,8,0:0:0:0:
256,192,151515,1,0,0:0:0:0:
256,192,151715,1,8,0:0:0:0:
256,192,151915,1,0,0:0:0:0:
256,192,152315,1,0,0:0:0:0:
256,192,152415,1,0,0:0:0:0:
256,192,152515,1,8,0:0:0:0:
256,192,152715,1,0,0:0:0:0:
256,192,152915,1,8,0:0:0:0:
248,166,153015,1,8,0:0:0:0:
256,192,153115,1,0,0:0:0:0:
256,192,153315,1,8,0:0:0:0:
256,160,153515,1,0,0:0:0:0:
256,192,153715,1,8,0:0:0:0:
256,192,153915,1,0,0:0:0:0:
257,172,154015,1,0,0:0:0:0:
256,160,154115,1,8,0:0:0:0:
256,160,154315,1,8,0:0:0:0:
256,160,154515,1,0,0:0:0:0:
288,160,154715,1,8,0:0:0:0:
256,160,154915,1,8,0:0:0:0:
256,160,155015,1,8,0:0:0:0:
256,160,155115,1,8,0:0:0:0:
256,192,155315,5,4,0:0:0:0:
256,192,155715,1,8,0:0:0:0:
256,192,155915,1,0,0:0:0:0:
256,192,156015,1,8,0:0:0:0:
256,192,156115,1,0,0:0:0:0:
256,192,156315,1,0,0:0:0:0:
256,192,156515,1,8,0:0:0:0:
256,192,156715,1,8,0:0:0:0:
256,192,156815,1,8,0:0:0:0:
256,192,156915,1,8,0:0:0:0:
256,192,157115,1,0,0:0:0:0:
256,192,157315,1,8,0:0:0:0:
256,192,157515,1,0,0:0:0:0:
256,192,157715,1,8,0:0:0:0:
256,160,157815,1,0,0:0:0:0:
256,192,157915,1,8,0:0:0:0:
245,156,158015,1,8,0:0:0:0:
256,192,158115,1,0,0:0:0:0:
256,192,158315,1,12,0:0:0:0:
256,192,158715,1,8,0:0:0:0:
256,192,158815,1,8,0:0:0:0:
256,192,158915,1,8,0:0:0:0:
256,192,159115,1,0,0:0:0:0:
256,192,159315,1,8,0:0:0:0:
256,192,159415,1,8,0:0:0:0:
256,192,159515,1,0,0:0:0:0:
256,160,159615,1,0,0:0:0:0:
256,192,159715,1,8,0:0:0:0:
256,160,159915,1,0,0:0:0:0:
256,192,160115,1,8,0:0:0:0:
256,160,160215,1,0,0:0:0:0:
256,192,160315,1,8,0:0:0:0:
256,160,160515,1,8,0:0:0:0:
256,192,160715,1,0,0:0:0:0:
256,160,160915,1,8,0:0:0:0:
288,160,161115,1,8,0:0:0:0:
256,160,161315,1,8,0:0:0:0:
256,160,161415,1,8,0:0:0:0:
256,160,161515,1,8,0:0:0:0:
256,192,161715,1,4,0:0:0:0:
256,192,162115,1,8,0:0:0:0:
256,128,162315,1,0,0:0:0:0:
256,192,162415,1,0,0:0:0:0:
256,160,162515,1,8,0:0:0:0:
256,192,162715,1,0,0:0:0:0:
256,192,162915,1,8,0:0:0:0:
256,160,163115,1,8,0:0:0:0:
256,192,163215,1,8,0:0:0:0:
256,192,163315,1,0,0:0:0:0:
256,192,163515,1,0,0:0:0:0:
256,192,163715,1,8,0:0:0:0:
256,160,163915,1,0,0:0:0:0:
256,192,164015,1,0,0:0:0:0:
256,192,164115,1,8,0:0:0:0:
256,160,164215,1,8,0:0:0:0:
256,160,164315,1,0,0:0:0:0:
256,192,164515,1,8,0:0:0:0:
256,160,164715,1,8,0:0:0:0:
256,160,164915,1,4,0:0:0:0:
256,192,165115,1,0,0:0:0:0:
256,192,165215,1,0,0:0:0:0:
256,192,165315,1,8,0:0:0:0:
256,192,165515,1,0,0:0:0:0:
256,192,165715,1,8,0:0:0:0:
256,192,165915,1,0,0:0:0:0:
256,192,166015,1,0,0:0:0:0:
256,192,166115,1,8,0:0:0:0:
256,160,166315,1,0,0:0:0:0:
256,160,168115,1,12,0:0:0:0:
256,192,168515,1,8,0:0:0:0:
256,192,168715,1,8,0:0:0:0:
256,192,168815,1,0,0:0:0:0:
256,192,168915,1,8,0:0:0:0:
256,192,169115,1,0,0:0:0:0:
256,192,169315,1,8,0:0:0:0:
256,160,169515,1,0,0:0:0:0:
256,160,169615,1,0,0:0:0:0:
256,192,169715,1,8,0:0:0:0:
256,192,169915,1,0,0:0:0:0:
256,192,170115,1,8,0:0:0:0:
256,160,170315,1,0,0:0:0:0:
256,192,170415,1,0,0:0:0:0:
256,192,170515,1,0,0:0:0:0:
256,192,170715,1,8,0:0:0:0:
256,192,170915,1,8,0:0:0:0:
256,192,171115,1,0,0:0:0:0:
256,192,171315,1,8,0:0:0:0:
256,160,171715,1,8,0:0:0:0:
256,128,171915,1,8,0:0:0:0:
256,160,172015,1,0,0:0:0:0:
256,128,172115,1,8,0:0:0:0:
256,192,172315,1,0,0:0:0:0:
256,192,172515,1,8,0:0:0:0:
256,160,172715,1,8,0:0:0:0:
256,128,172915,1,0,0:0:0:0:
256,128,173015,1,8,0:0:0:0:
256,128,173115,1,0,0:0:0:0:
256,128,173315,1,8,0:0:0:0:
256,128,173515,1,0,0:0:0:0:
256,128,173715,1,0,0:0:0:0:
256,128,173915,1,8,0:0:0:0:
256,128,174115,1,8,0:0:0:0:
256,128,174215,1,8,0:0:0:0:
256,128,174315,1,8,0:0:0:0:
256,160,174515,1,4,0:0:0:0:
256,192,174915,1,8,0:0:0:0:
256,192,175115,1,8,0:0:0:0:
256,192,175215,1,0,0:0:0:0:
256,192,175315,1,8,0:0:0:0:
256,192,175515,1,0,0:0:0:0:
256,192,175715,1,8,0:0:0:0:
256,160,175915,1,0,0:0:0:0:
250,132,176015,1,0,0:0:0:0:
256,192,176115,1,8,0:0:0:0:
250,132,176215,1,8,0:0:0:0:
256,192,176315,1,0,0:0:0:0:
256,192,176515,1,8,0:0:0:0:
288,192,176715,1,0,0:0:0:0:
256,160,176815,1,8,0:0:0:0:
288,192,176915,1,0,0:0:0:0:
256,192,177115,1,8,0:0:0:0:
256,183,177315,1,8,0:0:0:0:
256,192,177515,1,0,0:0:0:0:
253,177,177615,1,0,0:0:0:0:
256,192,177715,1,8,0:0:0:0:
256,160,178115,1,8,0:0:0:0:
256,128,178315,1,8,0:0:0:0:
288,192,178415,1,0,0:0:0:0:
256,128,178515,1,8,0:0:0:0:
256,192,178715,1,0,0:0:0:0:
256,192,178915,1,8,0:0:0:0:
288,192,179115,1,8,0:0:0:0:
256,128,179315,1,0,0:0:0:0:
256,128,179515,1,8,0:0:0:0:
256,128,179615,1,8,0:0:0:0:
256,128,179715,1,0,0:0:0:0:
256,128,179915,1,8,0:0:0:0:
288,192,180015,1,8,0:0:0:0:
256,128,180115,1,0,0:0:0:0:
256,128,180315,1,8,0:0:0:0:
288,192,180415,1,0,0:0:0:0:
256,128,180515,1,8,0:0:0:0:
256,128,180615,1,8,0:0:0:0:
256,128,180715,1,8,0:0:0:0:
256,128,180915,1,4,0:0:0:0:
256,192,182115,1,8,0:0:0:0:
256,192,182315,1,0,0:0:0:0:
256,128,182515,1,12,0:0:0:0:
256,192,182915,1,8,0:0:0:0:
256,192,183115,1,0,0:0:0:0:
256,192,183315,1,8,0:0:0:0:
256,128,183415,1,0,0:0:0:0:
256,186,183515,1,0,0:0:0:0:
256,192,183715,1,8,0:0:0:0:
256,192,183915,1,8,0:0:0:0:
256,192,184115,1,0,0:0:0:0:
256,128,184315,1,0,0:0:0:0:
256,192,184515,1,8,0:0:0:0:
256,192,184715,1,8,0:0:0:0:
254,189,184815,1,8,0:0:0:0:
253,187,184915,1,0,0:0:0:0:
256,192,185115,1,8,0:0:0:0:
253,188,185215,1,0,0:0:0:0:
256,192,185315,1,8,0:0:0:0:
256,192,185515,1,0,0:0:0:0:
256,192,185715,1,8,0:0:0:0:
256,224,186115,1,8,0:0:0:0:
256,224,186315,1,0,0:0:0:0:
256,224,186515,1,8,0:0:0:0:
256,221,186615,1,8,0:0:0:0:
256,216,186715,1,0,0:0:0:0:
256,224,186915,1,8,0:0:0:0:
256,224,187115,1,8,0:0:0:0:
256,224,187315,1,0,0:0:0:0:
256,216,187515,1,0,0:0:0:0:
256,224,187715,1,8,0:0:0:0:
251,211,187815,1,0,0:0:0:0:
256,224,187915,1,8,0:0:0:0:
256,224,188115,1,0,0:0:0:0:
256,224,188315,1,8,0:0:0:0:
256,224,188515,1,8,0:0:0:0:
256,224,188615,1,8,0:0:0:0:
256,224,188715,1,8,0:0:0:0:
256,128,188915,1,4,0:0:0:0:
256,192,189315,1,8,0:0:0:0:
256,192,189515,1,0,0:0:0:0:
256,192,189715,1,8,0:0:0:0:
256,188,189815,1,0,0:0:0:0:
256,186,189915,1,0,0:0:0:0:
256,192,190115,1,8,0:0:0:0:
256,192,190315,1,8,0:0:0:0:
256,192,190515,1,0,0:0:0:0:
255,200,190715,1,0,0:0:0:0:
254,202,190815,1,0,0:0:0:0:
256,192,190915,1,8,0:0:0:0:
256,192,191115,1,0,0:0:0:0:
254,189,191215,1,8,0:0:0:0:
253,187,191315,1,0,0:0:0:0:
256,192,191515,1,8,0:0:0:0:
256,192,191715,1,8,0:0:0:0:
256,192,191915,1,0,0:0:0:0:
256,192,192115,1,8,0:0:0:0:
256,224,192515,1,8,0:0:0:0:
256,224,192715,1,0,0:0:0:0:
256,224,192915,1,8,0:0:0:0:
256,192,193015,1,8,0:0:0:0:
253,188,193115,1,0,0:0:0:0:
256,224,193315,5,8,0:0:0:0:
256,224,193515,1,8,0:0:0:0:
256,224,193715,1,4,0:0:0:0:
256,224,193915,5,8,0:0:0:0:
256,192,194015,1,8,0:0:0:0:
256,224,194115,1,0,0:0:0:0:
256,224,194315,5,8,0:0:0:0:
256,224,194515,1,4,0:0:0:0:
256,224,194915,1,4,0:0:0:0:
256,224,195315,1,12,0:0:0:0:
256,192,195515,12,0,198915,0:0:0:0:
