osu file format v14

[General]
AudioFilename: audio.mp3
AudioLeadIn: 0
PreviewTime: 58815
Countdown: 1
SampleSet: Normal
StackLeniency: 0.7
Mode: 1
LetterboxInBreaks: 0
WidescreenStoryboard: 1

[Editor]
Bookmarks: 1715,14515,20915,27315,40115,59315,72115,84915,91315,97715,110515,116915,142515,155315,168115,182515,188915
DistanceSpacing: 0.8
BeatDivisor: 4
GridSize: 32
TimelineZoom: 2.1

[Metadata]
Title:Taiyoukei Disco
TitleUnicode:太陽系デスコ
Artist:ARAKI x nqrse
ArtistUnicode:あらき×nqrse
Creator:gaston_2199
Version:Muzukashii
Source:
Tags:Solar System Disco ナユタン星人 NayutalieN Nayutan Seijin 歌い手 utaite 歌ってみた utattemita ボーカロイド vocaloid カバー cover omu rock jrock j-rock japanese rap arrange
BeatmapID:2740315
BeatmapSetID:1023913

[Difficulty]
HPDrainRate:6
CircleSize:2
OverallDifficulty:5
ApproachRate:10
SliderMultiplier:1.4
SliderTickRate:1

[Events]
//Background and Video events
0,0,"BG.jpg",0,60
Video,-20,"TaikoVideo.mp4"
//Break Periods
2,1915,7265
2,129915,135265
//Storyboard Layer 0 (Background)
//Storyboard Layer 1 (Fail)
//Storyboard Layer 2 (Pass)
//Storyboard Layer 3 (Foreground)
//Storyboard Layer 4 (Overlay)
//Storyboard Sound Samples

[TimingPoints]
1715,400,4,1,0,80,1,0
1715,-111.111111111111,4,1,0,80,0,0
2115,-111.111111111111,4,1,0,60,0,0
7715,-100,4,1,0,80,0,0
14515,-90.9090909090909,4,1,0,90,0,1
27315,-90.9090909090909,4,1,0,80,0,0
27515,-100,4,1,0,80,0,0
40115,-90.9090909090909,4,1,0,80,0,0
53915,-100,4,1,0,80,0,0
54515,-90.9090909090909,4,1,0,80,0,0
55512,-100,4,1,0,80,0,0
56115,-90.9090909090909,4,1,0,80,0,0
59315,-90.9090909090909,4,1,0,90,0,1
72115,-100,4,1,0,90,0,1
78515,-90.9090909090909,4,1,0,90,0,1
85315,-100,4,1,0,90,0,1
91315,-90.9090909090909,4,1,0,90,0,1
97715,-90.9090909090909,4,1,0,80,0,0
97915,-100,4,1,0,80,0,0
110515,-90.9090909090909,4,1,0,80,0,0
123715,-100,4,1,0,80,0,0
124915,-90.9090909090909,4,1,0,80,0,0
125315,-100,4,1,0,80,0,0
126515,-90.9090909090909,4,1,0,80,0,0
129715,-90.9090909090909,4,1,0,70,0,0
131315,-111.111111111111,4,1,0,60,0,0
140715,-90.9090909090909,4,1,0,80,0,0
142515,-90.9090909090909,4,1,0,90,0,1
154515,-90.9090909090909,4,1,0,90,0,0
155315,-90.9090909090909,4,1,0,90,0,1
161715,-83.3333333333333,4,1,0,90,0,1
164915,-83.3333333333333,4,1,0,80,0,0
165115,-84.5070422535214,4,1,0,80,0,0
165215,-85.7142857142855,4,1,0,80,0,0
165315,-86.9565217391304,4,1,0,80,0,0
165515,-88.2352941176473,4,1,0,80,0,0
165615,-89.5522388059699,4,1,0,80,0,0
165715,-90.9090909090909,4,1,0,80,0,0
165915,-92.3076923076929,4,1,0,80,0,0
166015,-93.7500000000001,4,1,0,80,0,0
166115,-95.2380952380954,4,1,0,80,0,0
166215,-96.7741935483874,4,1,0,80,0,0
166315,-98.3606557377049,4,1,0,80,0,0
166415,-100,4,1,0,80,0,0
168115,-90.9090909090909,4,1,0,100,0,1
174515,-83.3333333333333,4,1,0,100,0,1
180915,-83.3333333333333,4,1,0,80,0,0
182115,-100,4,1,0,70,0,0
182515,-90.9090909090909,4,1,0,90,0,1
188915,-83.3333333333333,4,1,0,90,0,1
195315,-83.3333333333333,4,1,0,80,0,0

[HitObjects]
256,192,1715,5,4,0:0:0:0:
256,160,7715,5,0,0:0:0:0:
256,160,7815,1,0,0:0:0:0:
256,160,7915,1,0,0:0:0:0:
256,160,8115,1,12,0:0:0:0:
256,160,8515,1,8,0:0:0:0:
256,160,8915,1,8,0:0:0:0:
256,160,9115,1,0,0:0:0:0:
256,160,9315,1,8,0:0:0:0:
256,160,9515,1,0,0:0:0:0:
256,160,9715,1,8,0:0:0:0:
256,160,10115,1,8,0:0:0:0:
256,160,10515,1,8,0:0:0:0:
256,160,10715,1,0,0:0:0:0:
256,160,10915,1,8,0:0:0:0:
256,160,11115,1,0,0:0:0:0:
256,160,11315,1,8,0:0:0:0:
256,160,11715,1,8,0:0:0:0:
256,160,12115,1,8,0:0:0:0:
256,160,12315,1,0,0:0:0:0:
254,159,12515,1,8,0:0:0:0:
256,160,12715,1,0,0:0:0:0:
256,160,12915,1,12,0:0:0:0:
256,160,13315,1,0,0:0:0:0:
256,160,13515,1,8,0:0:0:0:
256,160,13715,1,0,0:0:0:0:
256,160,14515,1,12,0:0:0:0:
256,160,14915,1,8,0:0:0:0:
256,160,15115,1,8,0:0:0:0:
256,160,15315,1,0,0:0:0:0:
217,145,15515,1,0,0:0:0:0:
256,160,15715,1,8,0:0:0:0:
256,160,16115,1,0,0:0:0:0:
195,142,16315,1,0,0:0:0:0:
256,160,16515,1,8,0:0:0:0:
146,141,16915,1,8,0:0:0:0:
225,12,17115,1,0,0:0:0:0:
256,160,17315,1,8,0:0:0:0:
256,160,17715,1,0,0:0:0:0:
256,160,18115,1,8,0:0:0:0:
256,160,18315,1,8,0:0:0:0:
256,160,18515,1,0,0:0:0:0:
229,109,18715,1,0,0:0:0:0:
256,160,18915,1,8,0:0:0:0:
256,160,19315,1,8,0:0:0:0:
210,130,19515,1,0,0:0:0:0:
256,160,19715,1,8,0:0:0:0:
161,21,20315,5,8,0:0:0:0:
256,160,20515,1,8,0:0:0:0:
237,134,20615,1,8,0:0:0:0:
256,160,20715,1,8,0:0:0:0:
256,160,20915,1,4,0:0:0:0:
256,160,21315,1,8,0:0:0:0:
256,160,21515,1,8,0:0:0:0:
256,160,21715,1,0,0:0:0:0:
220,116,21915,1,0,0:0:0:0:
256,160,22115,1,8,0:0:0:0:
256,160,22515,1,8,0:0:0:0:
212,136,22715,1,0,0:0:0:0:
256,160,22915,1,0,0:0:0:0:
218,139,23115,1,8,0:0:0:0:
256,160,23515,1,0,0:0:0:0:
256,160,23715,1,8,0:0:0:0:
256,160,24115,1,0,0:0:0:0:
256,160,24515,1,8,0:0:0:0:
256,160,24715,1,8,0:0:0:0:
256,160,24915,1,0,0:0:0:0:
203,126,25115,1,0,0:0:0:0:
256,160,25315,1,8,0:0:0:0:
256,160,25715,1,0,0:0:0:0:
256,160,25915,1,8,0:0:0:0:
256,160,26115,1,8,0:0:0:0:
256,160,26515,1,0,0:0:0:0:
256,160,26715,1,0,0:0:0:0:
256,160,26915,1,8,0:0:0:0:
244,134,27015,1,8,0:0:0:0:
237,119,27115,1,8,0:0:0:0:
256,160,27315,1,4,0:0:0:0:
256,160,27715,1,8,0:0:0:0:
256,160,27915,1,0,0:0:0:0:
256,160,28315,1,0,0:0:0:0:
256,160,28515,1,8,0:0:0:0:
256,160,29115,1,0,0:0:0:0:
256,160,29315,1,8,0:0:0:0:
256,160,29715,1,0,0:0:0:0:
256,160,29915,1,0,0:0:0:0:
256,128,30115,1,8,0:0:0:0:
198,124,30315,1,8,0:0:0:0:
256,160,30515,1,0,0:0:0:0:
256,160,30915,1,8,0:0:0:0:
256,160,31115,1,0,0:0:0:0:
256,128,31515,1,0,0:0:0:0:
256,128,31715,1,8,0:0:0:0:
256,128,32315,1,8,0:0:0:0:
256,128,32515,1,8,0:0:0:0:
256,128,32715,1,0,0:0:0:0:
256,128,32915,1,0,0:0:0:0:
256,128,33115,1,8,0:0:0:0:
256,128,33315,1,8,0:0:0:0:
256,160,33715,1,4,0:0:0:0:
256,160,34115,1,8,0:0:0:0:
256,160,34315,1,0,0:0:0:0:
256,160,34715,1,0,0:0:0:0:
256,160,34915,1,8,0:0:0:0:
256,160,35515,1,8,0:0:0:0:
256,160,35915,1,0,0:0:0:0:
256,160,36315,1,8,0:0:0:0:
206,129,36515,1,8,0:0:0:0:
157,84,36715,1,8,0:0:0:0:
256,160,36915,1,0,0:0:0:0:
256,160,37315,1,8,0:0:0:0:
256,160,37515,1,0,0:0:0:0:
256,128,37915,1,0,0:0:0:0:
256,128,38115,1,8,0:0:0:0:
210,128,38315,1,8,0:0:0:0:
256,160,38515,1,0,0:0:0:0:
256,128,38915,1,8,0:0:0:0:
256,128,39315,1,0,0:0:0:0:
256,128,39515,1,8,0:0:0:0:
256,128,39715,1,8,0:0:0:0:
256,128,40115,1,4,0:0:0:0:
256,128,40515,1,8,0:0:0:0:
256,128,40715,1,8,0:0:0:0:
227,112,40915,1,0,0:0:0:0:
204,99,41015,1,0,0:0:0:0:
256,96,41115,1,0,0:0:0:0:
256,96,41315,1,8,0:0:0:0:
203,83,41515,1,0,0:0:0:0:
256,96,41915,1,0,0:0:0:0:
256,96,42115,1,8,0:0:0:0:
256,96,42315,1,0,0:0:0:0:
256,96,42515,1,8,0:0:0:0:
216,57,42715,1,8,0:0:0:0:
256,96,43315,1,0,0:0:0:0:
256,96,43715,1,8,0:0:0:0:
248,94,43915,1,8,0:0:0:0:
256,96,44115,1,0,0:0:0:0:
192,32,44315,1,0,0:0:0:0:
256,64,44515,1,8,0:0:0:0:
256,64,44915,1,0,0:0:0:0:
196,79,45115,1,8,0:0:0:0:
161,88,45215,1,8,0:0:0:0:
243,52,45415,1,8,0:0:0:0:
186,58,45515,1,8,0:0:0:0:
288,64,45715,1,0,0:0:0:0:
288,64,45915,1,8,0:0:0:0:
288,64,46115,1,8,0:0:0:0:
288,64,46515,1,4,0:0:0:0:
288,128,46915,1,8,0:0:0:0:
288,128,47115,1,0,0:0:0:0:
288,128,47315,1,8,0:0:0:0:
288,128,47515,1,0,0:0:0:0:
288,128,47715,1,8,0:0:0:0:
263,91,47915,1,8,0:0:0:0:
256,128,48115,1,0,0:0:0:0:
288,128,48515,1,8,0:0:0:0:
280,126,48715,1,8,0:0:0:0:
288,128,48915,1,0,0:0:0:0:
255,72,49115,1,0,0:0:0:0:
256,128,49215,1,0,0:0:0:0:
256,128,49315,1,0,0:0:0:0:
256,128,49515,1,8,0:0:0:0:
256,128,49715,1,0,0:0:0:0:
256,128,50115,1,8,0:0:0:0:
256,128,50715,1,0,0:0:0:0:
256,128,50915,1,8,0:0:0:0:
256,128,51115,1,8,0:0:0:0:
256,128,51315,1,0,0:0:0:0:
256,128,51715,1,8,0:0:0:0:
256,128,51915,1,0,0:0:0:0:
256,128,52115,1,8,0:0:0:0:
256,128,52315,1,8,0:0:0:0:
256,128,52415,1,8,0:0:0:0:
256,128,52515,1,8,0:0:0:0:
256,128,52715,1,8,0:0:0:0:
256,128,52915,1,4,0:0:0:0:
256,192,53915,1,8,0:0:0:0:
256,192,54115,1,8,0:0:0:0:
256,192,54515,1,4,0:0:0:0:
256,192,55515,1,8,0:0:0:0:
256,192,55715,1,8,0:0:0:0:
256,192,56115,1,4,0:0:0:0:
256,192,56715,1,4,0:0:0:0:
256,192,57315,1,0,0:0:0:0:
256,192,57515,1,12,0:0:0:0:
256,192,57915,1,0,0:0:0:0:
256,192,58115,1,0,0:0:0:0:
256,192,58315,1,8,0:0:0:0:
256,192,58515,1,0,0:0:0:0:
256,192,59315,5,12,0:0:0:0:
256,192,59715,1,8,0:0:0:0:
256,192,59915,1,0,0:0:0:0:
256,192,60115,1,8,0:0:0:0:
251,187,60715,1,8,0:0:0:0:
166,132,61115,1,0,0:0:0:0:
256,192,61315,1,8,0:0:0:0:
233,136,61515,1,8,0:0:0:0:
256,192,61715,1,0,0:0:0:0:
210,163,61915,1,0,0:0:0:0:
256,192,62115,1,8,0:0:0:0:
233,143,62315,1,0,0:0:0:0:
333,218,62715,1,8,0:0:0:0:
256,192,62815,1,8,0:0:0:0:
296,193,62915,1,8,0:0:0:0:
250,162,63115,1,0,0:0:0:0:
250,162,63315,1,8,0:0:0:0:
256,192,63715,1,0,0:0:0:0:
256,192,64115,1,8,0:0:0:0:
256,192,64315,1,0,0:0:0:0:
256,160,64515,1,8,0:0:0:0:
256,160,64915,1,0,0:0:0:0:
256,160,65315,1,8,0:0:0:0:
256,160,65415,1,8,0:0:0:0:
256,160,65515,1,8,0:0:0:0:
256,192,65715,1,4,0:0:0:0:
256,192,66115,1,8,0:0:0:0:
256,128,66315,1,0,0:0:0:0:
256,160,66515,1,0,0:0:0:0:
256,160,67115,1,8,0:0:0:0:
256,192,67515,1,0,0:0:0:0:
256,192,67715,1,8,0:0:0:0:
237,154,67915,1,0,0:0:0:0:
256,192,68115,1,8,0:0:0:0:
240,134,68315,1,8,0:0:0:0:
256,192,68515,1,8,0:0:0:0:
237,151,68715,5,0,0:0:0:0:
240,134,69115,1,0,0:0:0:0:
240,134,69215,1,0,0:0:0:0:
256,192,69315,1,0,0:0:0:0:
226,143,69515,1,8,0:0:0:0:
256,192,69715,1,0,0:0:0:0:
256,192,70115,1,8,0:0:0:0:
256,192,70515,1,0,0:0:0:0:
256,192,70715,1,8,0:0:0:0:
256,160,70915,1,8,0:0:0:0:
256,160,71315,1,0,0:0:0:0:
139,124,71715,1,8,0:0:0:0:
154,98,71815,1,8,0:0:0:0:
154,98,71915,1,8,0:0:0:0:
256,160,72115,5,4,0:0:0:0:
256,192,72715,1,0,0:0:0:0:
256,192,72915,1,8,0:0:0:0:
250,187,73115,1,0,0:0:0:0:
256,192,73315,1,8,0:0:0:0:
256,192,73715,1,0,0:0:0:0:
256,192,73915,1,0,0:0:0:0:
256,192,74115,1,8,0:0:0:0:
249,189,74315,1,0,0:0:0:0:
244,187,74515,1,0,0:0:0:0:
256,192,74715,1,8,0:0:0:0:
256,192,74915,1,8,0:0:0:0:
256,192,75315,1,0,0:0:0:0:
256,128,75915,1,0,0:0:0:0:
256,128,76115,1,8,0:0:0:0:
251,124,76315,1,0,0:0:0:0:
256,192,76515,1,8,0:0:0:0:
256,128,76915,1,0,0:0:0:0:
256,128,77115,1,0,0:0:0:0:
256,128,77315,1,8,0:0:0:0:
250,123,77515,1,8,0:0:0:0:
208,54,77715,1,0,0:0:0:0:
202,56,77915,1,0,0:0:0:0:
256,128,78115,1,8,0:0:0:0:
256,128,78215,1,8,0:0:0:0:
256,128,78315,1,8,0:0:0:0:
256,160,78515,1,4,0:0:0:0:
256,192,78915,1,8,0:0:0:0:
256,192,79115,1,0,0:0:0:0:
256,192,79315,1,8,0:0:0:0:
256,160,79515,1,0,0:0:0:0:
256,192,79715,1,8,0:0:0:0:
256,192,80115,1,0,0:0:0:0:
256,192,80315,1,0,0:0:0:0:
256,192,80515,1,8,0:0:0:0:
237,149,80715,1,0,0:0:0:0:
288,192,80915,1,0,0:0:0:0:
256,192,81115,1,8,0:0:0:0:
256,192,81315,1,8,0:0:0:0:
256,192,81715,1,0,0:0:0:0:
256,160,82115,1,8,0:0:0:0:
256,128,82315,1,0,0:0:0:0:
256,128,82515,1,8,0:0:0:0:
256,160,82715,1,0,0:0:0:0:
256,192,82915,1,8,0:0:0:0:
256,128,83315,1,0,0:0:0:0:
256,128,83515,1,8,0:0:0:0:
256,128,83715,1,0,0:0:0:0:
256,128,83915,1,8,0:0:0:0:
256,128,84115,1,0,0:0:0:0:
238,80,84315,1,8,0:0:0:0:
256,128,84515,1,8,0:0:0:0:
256,128,84615,1,8,0:0:0:0:
256,128,84715,1,8,0:0:0:0:
282,197,84915,1,4,0:0:0:0:
256,192,85515,1,0,0:0:0:0:
256,192,85715,1,8,0:0:0:0:
256,192,86115,1,8,0:0:0:0:
251,188,86315,1,8,0:0:0:0:
256,192,86515,1,0,0:0:0:0:
256,75,86915,1,8,0:0:0:0:
256,192,87115,1,0,0:0:0:0:
256,192,87315,1,0,0:0:0:0:
240,140,87515,1,8,0:0:0:0:
256,192,87715,1,8,0:0:0:0:
256,192,88115,1,0,0:0:0:0:
256,224,88715,1,0,0:0:0:0:
256,224,88915,1,8,0:0:0:0:
256,224,89315,1,8,0:0:0:0:
252,220,89515,1,8,0:0:0:0:
256,224,89715,1,0,0:0:0:0:
225,121,90115,1,8,0:0:0:0:
256,224,90315,1,8,0:0:0:0:
256,224,90515,1,0,0:0:0:0:
279,112,90915,1,8,0:0:0:0:
271,149,91015,1,8,0:0:0:0:
271,149,91115,1,8,0:0:0:0:
256,128,91315,1,4,0:0:0:0:
256,192,91715,1,8,0:0:0:0:
256,192,91915,1,0,0:0:0:0:
256,192,92115,1,8,0:0:0:0:
256,192,92515,1,8,0:0:0:0:
256,192,92715,1,8,0:0:0:0:
256,160,92915,1,0,0:0:0:0:
256,192,93315,1,8,0:0:0:0:
256,192,93515,1,0,0:0:0:0:
256,192,93715,1,0,0:0:0:0:
256,192,93915,1,8,0:0:0:0:
256,192,94115,1,8,0:0:0:0:
256,192,94515,1,0,0:0:0:0:
256,224,94915,1,8,0:0:0:0:
256,224,95115,1,0,0:0:0:0:
256,224,95315,1,8,0:0:0:0:
256,224,95715,1,8,0:0:0:0:
256,224,95915,1,8,0:0:0:0:
256,224,96115,1,0,0:0:0:0:
196,135,96515,1,0,0:0:0:0:
171,99,96715,1,8,0:0:0:0:
256,224,96915,1,0,0:0:0:0:
248,170,97115,1,8,0:0:0:0:
256,224,97315,1,8,0:0:0:0:
248,170,97415,1,8,0:0:0:0:
248,170,97515,1,8,0:0:0:0:
256,160,97715,5,4,0:0:0:0:
288,192,98115,1,8,0:0:0:0:
288,192,98515,1,8,0:0:0:0:
288,192,98715,1,0,0:0:0:0:
249,165,98915,1,8,0:0:0:0:
288,128,99315,1,8,0:0:0:0:
288,128,99515,1,8,0:0:0:0:
288,128,99715,1,0,0:0:0:0:
284,126,99815,1,0,0:0:0:0:
245,96,99915,1,0,0:0:0:0:
288,128,100115,1,8,0:0:0:0:
152,21,100715,1,8,0:0:0:0:
288,128,100915,1,0,0:0:0:0:
288,128,101315,1,8,0:0:0:0:
210,78,101515,1,0,0:0:0:0:
288,128,101715,1,8,0:0:0:0:
288,128,102115,1,8,0:0:0:0:
243,89,102315,1,8,0:0:0:0:
288,128,102515,1,0,0:0:0:0:
288,128,102915,1,8,0:0:0:0:
288,128,103315,1,0,0:0:0:0:
288,128,103515,1,8,0:0:0:0:
288,128,103715,1,8,0:0:0:0:
288,128,104115,1,4,0:0:0:0:
288,160,104515,1,8,0:0:0:0:
288,160,104915,1,8,0:0:0:0:
288,160,105115,1,0,0:0:0:0:
253,120,105315,1,8,0:0:0:0:
288,160,105715,1,0,0:0:0:0:
262,112,105915,1,0,0:0:0:0:
288,160,106115,1,8,0:0:0:0:
285,158,106215,1,8,0:0:0:0:
248,118,106315,1,8,0:0:0:0:
288,160,106515,1,0,0:0:0:0:
148,71,107115,1,8,0:0:0:0:
288,128,107315,1,0,0:0:0:0:
288,160,107715,1,8,0:0:0:0:
247,108,107915,1,8,0:0:0:0:
288,160,108115,1,0,0:0:0:0:
288,160,108515,1,8,0:0:0:0:
258,100,108715,1,0,0:0:0:0:
288,160,108915,1,8,0:0:0:0:
288,160,109315,1,8,0:0:0:0:
288,160,109715,1,0,0:0:0:0:
288,160,109915,1,8,0:0:0:0:
288,160,110115,1,8,0:0:0:0:
288,160,110215,1,8,0:0:0:0:
288,160,110315,1,8,0:0:0:0:
288,160,110515,1,4,0:0:0:0:
276,152,110915,1,0,0:0:0:0:
288,128,111115,1,8,0:0:0:0:
288,128,111515,1,0,0:0:0:0:
288,128,111715,1,8,0:0:0:0:
288,128,111915,1,0,0:0:0:0:
385,89,112315,1,8,0:0:0:0:
288,128,112515,1,8,0:0:0:0:
288,128,112715,1,0,0:0:0:0:
288,128,113315,1,8,0:0:0:0:
260,109,113415,1,8,0:0:0:0:
288,128,113515,1,8,0:0:0:0:
288,128,113715,1,8,0:0:0:0:
249,91,113915,1,0,0:0:0:0:
237,33,114115,1,8,0:0:0:0:
288,128,114515,1,0,0:0:0:0:
268,73,114715,1,0,0:0:0:0:
288,128,114915,1,8,0:0:0:0:
288,128,115315,1,8,0:0:0:0:
288,128,115515,1,0,0:0:0:0:
288,128,115715,1,8,0:0:0:0:
288,128,116315,1,8,0:0:0:0:
288,128,116515,1,8,0:0:0:0:
288,128,116915,1,4,0:0:0:0:
224,224,117315,1,8,0:0:0:0:
224,224,117715,1,0,0:0:0:0:
224,224,117815,1,0,0:0:0:0:
224,224,117915,1,0,0:0:0:0:
224,224,118115,1,8,0:0:0:0:
224,224,118315,1,8,0:0:0:0:
224,224,118515,1,0,0:0:0:0:
224,224,118915,1,8,0:0:0:0:
217,117,119315,1,8,0:0:0:0:
224,224,119515,1,0,0:0:0:0:
224,224,119715,1,8,0:0:0:0:
224,224,120115,1,0,0:0:0:0:
225,173,120315,1,0,0:0:0:0:
224,224,120515,1,8,0:0:0:0:
224,224,120715,1,8,0:0:0:0:
224,224,120915,1,0,0:0:0:0:
256,128,121315,1,8,0:0:0:0:
235,128,121415,1,8,0:0:0:0:
256,128,121515,1,8,0:0:0:0:
256,128,121715,1,0,0:0:0:0:
202,128,121915,1,0,0:0:0:0:
256,128,122115,1,8,0:0:0:0:
215,124,122315,1,0,0:0:0:0:
256,128,122715,1,8,0:0:0:0:
256,128,122915,1,8,0:0:0:0:
256,128,123015,1,8,0:0:0:0:
256,128,123115,1,8,0:0:0:0:
256,128,123315,1,4,0:0:0:0:
256,96,124315,1,8,0:0:0:0:
256,96,124515,1,8,0:0:0:0:
256,96,124915,1,4,0:0:0:0:
256,96,125915,1,8,0:0:0:0:
256,96,126115,1,8,0:0:0:0:
256,96,126515,1,4,0:0:0:0:
256,96,127115,1,4,0:0:0:0:
256,96,127715,1,0,0:0:0:0:
256,96,127915,1,12,0:0:0:0:
256,64,128315,1,0,0:0:0:0:
256,64,128515,1,0,0:0:0:0:
256,64,128715,1,8,0:0:0:0:
256,64,128915,1,4,0:0:0:0:
256,64,129715,1,12,0:0:0:0:
256,128,135715,5,0,0:0:0:0:
256,128,135915,1,8,0:0:0:0:
256,128,136115,1,0,0:0:0:0:
256,128,136515,1,0,0:0:0:0:
256,128,136715,1,0,0:0:0:0:
256,128,136915,1,8,0:0:0:0:
256,128,137315,1,0,0:0:0:0:
256,128,137515,1,8,0:0:0:0:
256,128,137715,1,0,0:0:0:0:
256,128,138115,1,0,0:0:0:0:
256,64,138315,1,0,0:0:0:0:
256,128,138515,1,8,0:0:0:0:
256,128,138915,1,0,0:0:0:0:
256,128,139115,1,8,0:0:0:0:
256,128,139315,1,0,0:0:0:0:
256,128,139715,1,0,0:0:0:0:
288,96,139915,1,0,0:0:0:0:
256,128,140115,1,8,0:0:0:0:
256,128,140715,1,12,0:0:0:0:
141,134,141115,1,4,0:0:0:0:
256,128,141315,1,4,0:0:0:0:
256,128,141715,1,4,0:0:0:0:
256,192,142515,5,12,0:0:0:0:
256,192,142915,1,8,0:0:0:0:
256,192,143115,1,0,0:0:0:0:
256,192,143315,1,8,0:0:0:0:
251,187,143915,1,8,0:0:0:0:
166,132,144315,1,0,0:0:0:0:
256,192,144515,1,8,0:0:0:0:
233,136,144715,1,8,0:0:0:0:
256,192,144915,1,0,0:0:0:0:
235,143,145115,1,0,0:0:0:0:
256,192,145315,1,8,0:0:0:0:
233,143,145515,1,0,0:0:0:0:
256,192,145915,1,8,0:0:0:0:
256,192,146015,1,8,0:0:0:0:
256,192,146115,1,8,0:0:0:0:
256,192,146315,1,0,0:0:0:0:
256,192,146515,1,8,0:0:0:0:
233,138,146715,1,8,0:0:0:0:
256,192,146915,1,0,0:0:0:0:
256,192,147315,1,8,0:0:0:0:
256,192,147515,1,0,0:0:0:0:
256,160,147715,1,8,0:0:0:0:
231,114,147915,1,8,0:0:0:0:
256,160,148115,1,0,0:0:0:0:
256,160,148515,1,8,0:0:0:0:
256,160,148615,1,8,0:0:0:0:
256,160,148715,1,8,0:0:0:0:
256,192,148915,1,4,0:0:0:0:
256,192,149315,1,8,0:0:0:0:
256,128,149515,1,0,0:0:0:0:
256,160,149715,1,0,0:0:0:0:
256,160,150315,1,8,0:0:0:0:
256,192,150715,1,0,0:0:0:0:
256,192,150915,1,8,0:0:0:0:
237,154,151115,1,0,0:0:0:0:
256,192,151315,1,8,0:0:0:0:
235,134,151515,1,8,0:0:0:0:
256,192,151715,1,8,0:0:0:0:
237,151,151915,5,0,0:0:0:0:
235,134,152315,1,0,0:0:0:0:
235,134,152415,1,0,0:0:0:0:
256,192,152515,1,0,0:0:0:0:
226,143,152715,1,8,0:0:0:0:
256,192,152915,1,0,0:0:0:0:
235,134,153115,1,0,0:0:0:0:
256,192,153315,1,8,0:0:0:0:
256,192,153715,1,0,0:0:0:0:
256,192,153915,1,0,0:0:0:0:
256,160,154115,1,8,0:0:0:0:
252,154,154315,1,8,0:0:0:0:
256,160,154515,1,0,0:0:0:0:
158,97,154915,1,8,0:0:0:0:
158,97,155015,1,8,0:0:0:0:
158,97,155115,1,8,0:0:0:0:
256,192,155315,5,4,0:0:0:0:
256,192,155715,1,8,0:0:0:0:
256,192,155915,1,0,0:0:0:0:
256,192,156115,1,8,0:0:0:0:
256,192,156715,1,8,0:0:0:0:
256,192,157115,1,0,0:0:0:0:
256,192,157315,1,8,0:0:0:0:
256,192,157515,1,8,0:0:0:0:
244,173,157615,1,8,0:0:0:0:
256,192,157715,1,8,0:0:0:0:
256,192,157915,1,8,0:0:0:0:
256,192,158115,1,0,0:0:0:0:
256,192,158315,1,12,0:0:0:0:
236,63,158715,1,8,0:0:0:0:
240,91,158815,1,8,0:0:0:0:
256,192,158915,1,8,0:0:0:0:
229,153,159115,1,8,0:0:0:0:
256,192,159315,1,0,0:0:0:0:
253,189,159415,1,0,0:0:0:0:
240,148,159515,1,0,0:0:0:0:
256,192,159715,1,8,0:0:0:0:
256,192,160115,1,8,0:0:0:0:
256,192,160315,1,0,0:0:0:0:
256,160,160515,1,8,0:0:0:0:
235,102,160715,1,8,0:0:0:0:
256,160,160915,1,0,0:0:0:0:
256,160,161315,1,8,0:0:0:0:
256,160,161415,1,8,0:0:0:0:
256,160,161515,1,8,0:0:0:0:
256,192,161715,1,4,0:0:0:0:
256,192,162115,1,8,0:0:0:0:
256,128,162315,1,8,0:0:0:0:
256,160,162515,1,0,0:0:0:0:
256,160,163115,1,8,0:0:0:0:
256,192,163515,1,0,0:0:0:0:
256,192,163715,1,8,0:0:0:0:
256,160,163915,1,0,0:0:0:0:
256,192,164015,1,0,0:0:0:0:
256,192,164115,1,0,0:0:0:0:
256,160,164315,1,0,0:0:0:0:
256,192,164515,1,8,0:0:0:0:
256,160,164715,1,0,0:0:0:0:
256,160,164915,1,12,0:0:0:0:
256,192,165315,1,8,0:0:0:0:
248,188,165515,1,0,0:0:0:0:
256,192,165715,1,8,0:0:0:0:
256,192,165915,1,0,0:0:0:0:
256,192,166115,1,8,0:0:0:0:
255,159,168115,5,12,0:0:0:0:
255,191,168715,1,0,0:0:0:0:
255,191,168915,1,8,0:0:0:0:
207,145,169115,1,0,0:0:0:0:
255,191,169315,1,8,0:0:0:0:
255,191,169715,1,0,0:0:0:0:
255,191,169915,1,0,0:0:0:0:
255,191,170115,1,8,0:0:0:0:
207,167,170315,1,0,0:0:0:0:
185,156,170415,1,0,0:0:0:0:
197,96,170515,1,0,0:0:0:0:
255,191,170715,1,8,0:0:0:0:
255,191,170915,1,8,0:0:0:0:
255,191,171315,1,0,0:0:0:0:
255,127,171915,1,0,0:0:0:0:
255,127,172115,1,8,0:0:0:0:
191,132,172315,1,0,0:0:0:0:
255,191,172515,1,8,0:0:0:0:
255,127,172915,1,0,0:0:0:0:
255,127,173115,1,0,0:0:0:0:
255,127,173315,1,8,0:0:0:0:
189,129,173515,1,8,0:0:0:0:
207,53,173715,1,0,0:0:0:0:
157,81,173915,1,0,0:0:0:0:
255,127,174115,1,8,0:0:0:0:
255,127,174215,1,8,0:0:0:0:
255,127,174315,1,8,0:0:0:0:
255,159,174515,1,4,0:0:0:0:
255,191,174915,1,8,0:0:0:0:
255,191,175115,1,0,0:0:0:0:
255,191,175315,1,8,0:0:0:0:
258,139,175515,1,0,0:0:0:0:
255,191,175715,1,8,0:0:0:0:
255,191,176115,1,0,0:0:0:0:
255,191,176315,1,0,0:0:0:0:
255,191,176515,1,8,0:0:0:0:
236,148,176715,1,0,0:0:0:0:
213,131,176815,1,0,0:0:0:0:
287,191,176915,1,0,0:0:0:0:
255,191,177115,1,8,0:0:0:0:
255,191,177315,1,8,0:0:0:0:
255,191,177715,1,0,0:0:0:0:
255,159,178115,1,8,0:0:0:0:
255,127,178315,1,0,0:0:0:0:
255,127,178515,1,8,0:0:0:0:
255,127,178715,1,0,0:0:0:0:
255,191,178915,1,8,0:0:0:0:
255,127,179315,1,0,0:0:0:0:
255,127,179515,1,8,0:0:0:0:
238,106,179615,1,8,0:0:0:0:
255,127,179715,1,8,0:0:0:0:
255,127,179915,1,8,0:0:0:0:
255,127,180115,1,0,0:0:0:0:
237,79,180315,1,8,0:0:0:0:
255,127,180415,1,8,0:0:0:0:
255,127,180515,1,8,0:0:0:0:
255,127,180715,1,8,0:0:0:0:
281,196,180915,1,4,0:0:0:0:
256,192,182115,5,8,0:0:0:0:
256,192,182315,1,0,0:0:0:0:
256,128,182515,1,12,0:0:0:0:
256,192,183115,1,0,0:0:0:0:
256,192,183315,1,8,0:0:0:0:
256,192,183715,1,8,0:0:0:0:
256,192,183915,1,8,0:0:0:0:
256,192,184115,1,0,0:0:0:0:
256,75,184515,1,8,0:0:0:0:
256,192,184715,1,8,0:0:0:0:
256,192,184915,1,0,0:0:0:0:
240,140,185115,1,8,0:0:0:0:
223,131,185215,1,8,0:0:0:0:
256,192,185315,1,8,0:0:0:0:
216,156,185515,1,8,0:0:0:0:
256,192,185715,1,0,0:0:0:0:
256,224,186315,1,0,0:0:0:0:
256,224,186515,1,8,0:0:0:0:
256,224,186915,1,8,0:0:0:0:
254,163,187115,1,8,0:0:0:0:
256,224,187315,1,0,0:0:0:0:
225,121,187715,1,8,0:0:0:0:
256,224,187915,1,8,0:0:0:0:
256,224,188115,1,0,0:0:0:0:
252,171,188315,1,8,0:0:0:0:
279,112,188515,1,8,0:0:0:0:
271,149,188615,1,8,0:0:0:0:
271,149,188715,1,8,0:0:0:0:
256,128,188915,1,4,0:0:0:0:
256,192,189315,1,8,0:0:0:0:
256,192,189515,1,0,0:0:0:0:
256,192,189715,1,8,0:0:0:0:
256,192,190115,1,8,0:0:0:0:
256,192,190315,1,8,0:0:0:0:
256,160,190515,1,0,0:0:0:0:
237,148,190615,1,0,0:0:0:0:
206,129,190715,1,0,0:0:0:0:
256,192,190915,1,8,0:0:0:0:
256,192,191115,1,0,0:0:0:0:
256,192,191315,1,0,0:0:0:0:
256,192,191515,1,8,0:0:0:0:
256,192,191715,1,8,0:0:0:0:
256,192,192115,1,0,0:0:0:0:
256,224,192515,1,8,0:0:0:0:
256,224,192715,1,0,0:0:0:0:
256,224,192915,1,8,0:0:0:0:
256,224,193315,1,8,0:0:0:0:
256,224,193515,1,8,0:0:0:0:
256,224,193715,1,4,0:0:0:0:
196,135,194115,1,0,0:0:0:0:
171,99,194315,1,8,0:0:0:0:
256,224,194515,1,4,0:0:0:0:
256,224,194915,5,4,0:0:0:0:
256,160,195315,5,12,0:0:0:0:
256,192,195515,12,0,198915,0:0:0:0:
