osu file format v14

[General]
AudioFilename: audio.mp3
AudioLeadIn: 0
PreviewTime: 58815
Countdown: 1
SampleSet: Normal
StackLeniency: 0.7
Mode: 1
LetterboxInBreaks: 0
WidescreenStoryboard: 1

[Editor]
Bookmarks: 1715,14515,20915,27315,40115,59315,72115,84915,91315,97715,110515,116915,142515,155315,168115,182515,188915
DistanceSpacing: 0.8
BeatDivisor: 2
GridSize: 32
TimelineZoom: 0.8999996

[Metadata]
Title:Taiyoukei Disco
TitleUnicode:太陽系デスコ
Artist:ARAKI x nqrse
ArtistUnicode:あらき×nqrse
Creator:gaston_2199
Version:Kantan
Source:
Tags:Solar System Disco ナユタン星人 NayutalieN Nayutan Seijin 歌い手 utaite 歌ってみた utattemita ボーカロイド vocaloid カバー cover omu rock jrock j-rock japanese rap arrange
BeatmapID:2741724
BeatmapSetID:1023913

[Difficulty]
HPDrainRate:8
CircleSize:2
OverallDifficulty:3
ApproachRate:10
SliderMultiplier:1.4
SliderTickRate:1

[Events]
//Background and Video events
0,0,"BG.jpg",0,60
Video,-20,"TaikoVideo.mp4"
//Break Periods
2,1915,7265
2,129915,135265
//Storyboard Layer 0 (Background)
//Storyboard Layer 1 (Fail)
//Storyboard Layer 2 (Pass)
//Storyboard Layer 3 (Foreground)
//Storyboard Layer 4 (Overlay)
//Storyboard Sound Samples

[TimingPoints]
1715,400,4,1,0,80,1,0
2115,-100,4,1,0,60,0,0
14515,-100,4,1,0,90,0,1
27315,-100,4,1,0,80,0,0
59315,-100,4,1,0,90,0,1
97715,-100,4,1,0,80,0,0
129715,-100,4,1,0,70,0,0
135715,-100,4,1,0,60,0,0
140715,-100,4,1,0,80,0,0
142515,-100,4,1,0,90,0,1
154515,-100,4,1,0,90,0,0
155315,-100,4,1,0,90,0,1
164915,-100,4,1,0,80,0,0
168115,-100,4,1,0,100,0,1
180915,-100,4,1,0,80,0,0
182115,-100,4,1,0,70,0,0
182515,-100,4,1,0,90,0,1
195315,-100,4,1,0,80,0,0

[HitObjects]
256,192,1715,5,4,0:0:0:0:
256,160,7715,5,0,0:0:0:0:
256,160,8115,1,12,0:0:0:0:
256,160,8915,1,8,0:0:0:0:
256,160,9315,1,8,0:0:0:0:
256,160,9715,1,0,0:0:0:0:
256,160,10515,1,0,0:0:0:0:
256,160,10915,1,0,0:0:0:0:
256,160,11315,1,8,0:0:0:0:
256,160,12115,1,8,0:0:0:0:
254,159,12515,1,0,0:0:0:0:
256,160,12915,1,12,0:0:0:0:
256,160,14515,1,12,0:0:0:0:
256,160,15315,1,8,0:0:0:0:
242,155,15715,1,8,0:0:0:0:
256,160,16115,1,0,0:0:0:0:
256,160,17715,1,0,0:0:0:0:
256,160,18515,1,8,0:0:0:0:
243,155,18915,1,8,0:0:0:0:
256,160,19315,1,0,0:0:0:0:
256,160,20515,1,8,0:0:0:0:
256,160,20915,1,4,0:0:0:0:
256,160,21715,1,8,0:0:0:0:
243,157,22115,1,8,0:0:0:0:
256,160,22515,1,0,0:0:0:0:
256,160,24115,1,0,0:0:0:0:
256,160,24915,1,8,0:0:0:0:
242,157,25315,1,8,0:0:0:0:
256,160,25715,1,0,0:0:0:0:
256,160,26115,1,8,0:0:0:0:
256,160,26515,1,0,0:0:0:0:
256,160,27315,1,4,0:0:0:0:
256,160,28515,1,8,0:0:0:0:
256,160,29315,1,8,0:0:0:0:
278,52,30115,1,8,0:0:0:0:
256,160,30515,1,0,0:0:0:0:
278,52,30915,1,8,0:0:0:0:
256,128,31715,1,8,0:0:0:0:
256,128,32915,1,0,0:0:0:0:
253,24,33315,1,8,0:0:0:0:
256,160,33715,1,4,0:0:0:0:
256,160,34915,1,8,0:0:0:0:
255,108,35715,1,8,0:0:0:0:
256,128,36515,1,8,0:0:0:0:
256,160,36915,1,0,0:0:0:0:
235,51,37315,1,8,0:0:0:0:
256,160,38515,1,8,0:0:0:0:
256,128,39315,1,0,0:0:0:0:
256,128,39715,1,8,0:0:0:0:
256,128,40115,1,4,0:0:0:0:
256,96,40915,1,0,0:0:0:0:
256,96,41315,1,8,0:0:0:0:
256,96,41715,1,0,0:0:0:0:
256,96,42515,1,8,0:0:0:0:
256,96,43315,1,0,0:0:0:0:
256,96,43715,1,8,0:0:0:0:
256,64,44515,1,8,0:0:0:0:
242,69,44915,1,0,0:0:0:0:
191,40,45315,1,8,0:0:0:0:
288,64,46515,1,4,0:0:0:0:
288,128,47315,1,8,0:0:0:0:
288,128,47715,1,8,0:0:0:0:
256,128,48115,1,0,0:0:0:0:
288,128,48915,1,0,0:0:0:0:
256,128,49315,1,8,0:0:0:0:
256,128,49715,1,0,0:0:0:0:
256,128,50915,1,8,0:0:0:0:
256,128,51315,1,0,0:0:0:0:
256,128,52115,1,0,0:0:0:0:
256,128,52515,1,8,0:0:0:0:
256,128,52915,1,4,0:0:0:0:
256,192,54515,1,4,0:0:0:0:
256,192,56115,1,4,0:0:0:0:
256,192,57515,1,12,0:0:0:0:
256,192,59315,5,12,0:0:0:0:
256,192,60115,1,0,0:0:0:0:
256,192,60915,1,8,0:0:0:0:
197,102,61315,1,8,0:0:0:0:
256,192,61715,1,0,0:0:0:0:
175,95,62915,1,8,0:0:0:0:
256,192,63715,1,8,0:0:0:0:
256,192,64115,1,0,0:0:0:0:
256,160,64915,1,8,0:0:0:0:
256,192,65715,1,4,0:0:0:0:
256,160,66515,1,0,0:0:0:0:
298,3,67315,1,8,0:0:0:0:
215,83,67715,1,0,0:0:0:0:
256,192,68115,1,8,0:0:0:0:
207,92,69315,1,8,0:0:0:0:
256,192,70115,1,8,0:0:0:0:
256,192,70515,1,0,0:0:0:0:
256,160,71315,1,8,0:0:0:0:
256,160,72115,1,4,0:0:0:0:
256,192,72915,1,8,0:0:0:0:
256,192,73715,1,0,0:0:0:0:
247,182,74915,1,8,0:0:0:0:
256,192,75315,1,0,0:0:0:0:
240,167,76115,1,8,0:0:0:0:
256,128,76915,1,0,0:0:0:0:
256,128,78115,1,8,0:0:0:0:
256,160,78515,1,4,0:0:0:0:
256,192,79315,1,8,0:0:0:0:
256,192,80115,1,0,0:0:0:0:
244,183,80515,1,8,0:0:0:0:
250,180,81315,1,8,0:0:0:0:
256,192,81715,1,0,0:0:0:0:
256,128,82515,1,8,0:0:0:0:
256,128,83315,1,0,0:0:0:0:
245,119,83715,1,8,0:0:0:0:
256,128,84115,1,0,0:0:0:0:
236,33,84515,1,8,0:0:0:0:
282,197,84915,1,4,0:0:0:0:
256,192,85715,1,8,0:0:0:0:
256,192,86515,1,0,0:0:0:0:
170,49,87315,1,0,3:0:0:0:
219,27,87715,1,8,0:0:0:0:
256,192,88115,1,0,0:0:0:0:
256,224,88915,1,8,0:0:0:0:
256,224,89715,1,0,0:0:0:0:
256,224,90915,1,8,0:0:0:0:
256,128,91315,1,4,0:0:0:0:
256,192,92115,1,8,0:0:0:0:
256,160,92915,1,0,0:0:0:0:
248,95,93715,1,0,0:0:0:0:
256,192,94115,1,8,0:0:0:0:
256,192,94515,1,0,0:0:0:0:
256,224,95315,1,8,0:0:0:0:
256,224,96115,1,0,0:0:0:0:
234,120,96515,1,8,0:0:0:0:
256,224,96915,1,0,0:0:0:0:
256,160,97715,5,4,0:0:0:0:
288,192,98515,1,8,0:0:0:0:
288,128,99315,1,0,0:0:0:0:
288,128,100915,1,0,0:0:0:0:
288,128,101715,1,8,0:0:0:0:
288,128,102515,1,0,0:0:0:0:
288,128,102915,1,0,0:0:0:0:
288,128,103315,1,0,0:0:0:0:
288,128,104115,1,4,0:0:0:0:
288,160,104915,1,8,0:0:0:0:
288,160,105715,1,0,0:0:0:0:
288,128,107315,1,0,0:0:0:0:
288,160,108115,1,8,0:0:0:0:
288,160,108915,1,8,0:0:0:0:
288,160,109315,1,8,0:0:0:0:
288,160,109715,1,8,0:0:0:0:
288,160,110515,1,4,0:0:0:0:
288,128,111715,1,8,0:0:0:0:
288,128,112515,1,0,0:0:0:0:
288,128,113315,1,8,0:0:0:0:
288,128,113715,1,0,0:0:0:0:
237,33,114115,1,8,0:0:0:0:
288,128,114915,1,8,0:0:0:0:
288,128,115715,1,8,0:0:0:0:
288,128,116915,1,4,0:0:0:0:
224,224,117715,1,0,0:0:0:0:
224,224,118115,1,8,0:0:0:0:
224,224,118515,1,0,0:0:0:0:
265,12,119315,1,8,0:0:0:0:
224,224,120115,1,0,0:0:0:0:
212,198,120915,1,0,0:0:0:0:
256,128,121715,1,8,0:0:0:0:
256,128,122515,1,0,0:0:0:0:
256,128,122915,1,8,0:0:0:0:
256,128,123315,1,4,0:0:0:0:
256,96,124915,1,4,0:0:0:0:
256,96,126515,1,4,0:0:0:0:
256,96,127915,1,12,0:0:0:0:
256,64,128915,1,4,0:0:0:0:
256,64,129715,1,12,0:0:0:0:
256,128,135715,5,8,0:0:0:0:
256,128,136115,1,0,0:0:0:0:
256,128,136915,1,8,0:0:0:0:
256,128,137715,1,0,0:0:0:0:
256,128,138515,1,8,0:0:0:0:
256,128,139315,1,0,0:0:0:0:
256,128,140115,1,8,0:0:0:0:
256,128,140715,1,12,0:0:0:0:
256,192,142515,5,12,0:0:0:0:
256,192,143315,1,0,0:0:0:0:
256,192,144115,1,8,0:0:0:0:
256,192,144515,1,8,0:0:0:0:
256,192,144915,1,0,0:0:0:0:
238,154,146115,1,8,0:0:0:0:
187,17,146915,1,8,0:0:0:0:
245,183,147315,1,0,0:0:0:0:
256,160,148115,1,8,0:0:0:0:
256,192,148915,1,4,0:0:0:0:
256,160,149715,1,8,0:0:0:0:
261,42,150515,1,0,0:0:0:0:
256,192,150915,1,0,0:0:0:0:
256,192,151315,1,8,0:0:0:0:
256,192,152515,1,8,0:0:0:0:
188,24,153315,1,8,0:0:0:0:
256,192,153715,1,0,0:0:0:0:
256,160,154115,1,8,0:0:0:0:
256,160,154515,1,0,0:0:0:0:
256,192,155315,5,4,0:0:0:0:
256,192,156115,1,8,0:0:0:0:
256,192,156915,1,8,0:0:0:0:
256,192,157315,1,0,0:0:0:0:
256,192,157715,1,8,0:0:0:0:
246,182,158115,1,8,0:0:0:0:
180,118,158915,1,8,0:0:0:0:
256,192,159315,1,0,0:0:0:0:
256,192,160115,1,8,0:0:0:0:
256,160,160515,1,0,0:0:0:0:
256,160,160915,1,8,0:0:0:0:
256,192,161715,1,4,0:0:0:0:
256,160,162515,1,0,0:0:0:0:
230,15,163315,1,8,0:0:0:0:
256,192,163715,1,8,0:0:0:0:
256,192,164115,1,0,0:0:0:0:
195,100,164515,1,8,0:0:0:0:
256,160,164915,1,4,0:0:0:0:
256,192,165715,1,8,0:0:0:0:
245,183,166115,1,8,0:0:0:0:
256,160,168115,1,12,0:0:0:0:
233,103,168915,1,8,0:0:0:0:
256,192,169715,1,0,0:0:0:0:
246,182,170115,1,8,0:0:0:0:
247,182,170915,1,8,0:0:0:0:
256,192,171315,1,0,0:0:0:0:
232,175,172115,1,8,0:0:0:0:
256,128,172915,1,0,0:0:0:0:
256,128,174115,1,8,0:0:0:0:
256,160,174515,1,4,0:0:0:0:
256,192,175315,1,8,0:0:0:0:
246,183,175715,1,8,0:0:0:0:
256,192,176115,1,0,0:0:0:0:
247,181,176515,1,8,0:0:0:0:
256,192,177315,1,8,0:0:0:0:
256,192,177715,1,0,0:0:0:0:
256,128,178515,1,8,0:0:0:0:
256,128,179315,1,0,0:0:0:0:
256,128,179715,1,8,0:0:0:0:
256,128,180115,1,0,0:0:0:0:
256,128,180515,1,8,0:0:0:0:
256,128,180915,1,4,0:0:0:0:
256,128,182515,1,12,0:0:0:0:
256,192,183315,1,8,0:0:0:0:
256,192,184115,1,0,0:0:0:0:
256,192,184915,1,8,0:0:0:0:
256,192,185315,1,8,0:0:0:0:
256,192,185715,1,0,0:0:0:0:
256,224,186515,1,8,0:0:0:0:
256,224,187315,1,0,0:0:0:0:
256,224,188515,1,8,0:0:0:0:
256,128,188915,1,4,0:0:0:0:
256,192,189715,1,8,0:0:0:0:
256,192,190115,1,8,0:0:0:0:
256,160,190515,1,0,0:0:0:0:
256,192,191315,1,0,0:0:0:0:
168,137,191715,1,8,0:0:0:0:
256,192,192115,1,0,0:0:0:0:
256,224,192915,1,8,0:0:0:0:
256,224,193315,1,8,0:0:0:0:
256,224,193715,1,4,0:0:0:0:
256,224,194515,1,12,0:0:0:0:
256,192,195315,12,0,198915,0:0:0:0:
