osu file format v14

[General]
AudioFilename: audio.mp3
AudioLeadIn: 0
PreviewTime: 58815
Countdown: 1
SampleSet: Normal
StackLeniency: 0.7
Mode: 1
LetterboxInBreaks: 0
WidescreenStoryboard: 1

[Editor]
Bookmarks: 1715,14515,20915,27315,40115,59315,72115,84915,91315,97715,110515,116915,142515,155315,168115,182515,188915
DistanceSpacing: 0.8
BeatDivisor: 4
GridSize: 32
TimelineZoom: 2.1

[Metadata]
Title:Taiyoukei Disco
TitleUnicode:太陽系デスコ
Artist:ARAKI x nqrse
ArtistUnicode:あらき×nqrse
Creator:gaston_2199
Version:Futsuu
Source:
Tags:Solar System Disco ナユタン星人 NayutalieN Nayutan Seijin 歌い手 utaite 歌ってみた utattemita ボーカロイド vocaloid カバー cover omu rock jrock j-rock japanese rap arrange
BeatmapID:2741723
BeatmapSetID:1023913

[Difficulty]
HPDrainRate:7
CircleSize:2
OverallDifficulty:4
ApproachRate:10
SliderMultiplier:1.4
SliderTickRate:1

[Events]
//Background and Video events
0,0,"BG.jpg",0,60
Video,-20,"TaikoVideo.mp4"
//Break Periods
2,1915,7265
2,129915,135265
//Storyboard Layer 0 (Background)
//Storyboard Layer 1 (Fail)
//Storyboard Layer 2 (Pass)
//Storyboard Layer 3 (Foreground)
//Storyboard Layer 4 (Overlay)
//Storyboard Sound Samples

[TimingPoints]
1715,400,4,1,0,80,1,0
1715,-111.111111111111,4,1,0,80,0,0
2115,-111.111111111111,4,1,0,60,0,0
14515,-100,4,1,0,90,0,1
27315,-100,4,1,0,80,0,0
59315,-100,4,1,0,90,0,1
97715,-100,4,1,0,80,0,0
129715,-100,4,1,0,70,0,0
135715,-100,4,1,0,60,0,0
140715,-100,4,1,0,80,0,0
142515,-100,4,1,0,90,0,1
154515,-100,4,1,0,90,0,0
155315,-100,4,1,0,90,0,1
164915,-100,4,1,0,80,0,0
168115,-100,4,1,0,100,0,1
180915,-100,4,1,0,80,0,0
182115,-100,4,1,0,70,0,0
182515,-100,4,1,0,90,0,1
195315,-100,4,1,0,80,0,0

[HitObjects]
256,192,1715,5,4,0:0:0:0:
256,160,7715,5,0,0:0:0:0:
256,160,7915,1,0,0:0:0:0:
256,160,8115,1,12,0:0:0:0:
256,160,8515,1,8,0:0:0:0:
256,160,8915,1,8,0:0:0:0:
256,160,9115,1,0,0:0:0:0:
256,160,9315,1,8,0:0:0:0:
256,160,9715,1,8,0:0:0:0:
256,160,10115,1,8,0:0:0:0:
256,160,10515,1,8,0:0:0:0:
256,160,10715,1,0,0:0:0:0:
256,160,10915,1,8,0:0:0:0:
256,160,11315,1,8,0:0:0:0:
256,160,11715,1,8,0:0:0:0:
256,160,12115,1,8,0:0:0:0:
256,160,12315,1,0,0:0:0:0:
254,159,12515,1,8,0:0:0:0:
256,160,12915,1,12,0:0:0:0:
256,160,13315,1,0,0:0:0:0:
241,107,13515,1,8,0:0:0:0:
256,160,13715,1,0,0:0:0:0:
256,160,14515,1,12,0:0:0:0:
256,160,15115,1,0,0:0:0:0:
256,160,15315,1,8,0:0:0:0:
256,160,15715,1,8,0:0:0:0:
256,160,16115,1,0,0:0:0:0:
253,5,16515,1,8,0:0:0:0:
267,220,17315,1,8,0:0:0:0:
256,160,17715,1,0,0:0:0:0:
256,160,18315,1,0,0:0:0:0:
256,160,18515,1,8,0:0:0:0:
211,67,18915,1,0,0:0:0:0:
256,160,19315,1,8,0:0:0:0:
256,160,19715,1,8,0:0:0:0:
231,47,20115,1,0,0:0:0:0:
256,160,20515,1,8,0:0:0:0:
256,160,20715,1,8,0:0:0:0:
256,160,20915,1,4,0:0:0:0:
256,160,21515,1,0,0:0:0:0:
256,160,21715,1,8,0:0:0:0:
256,160,22115,1,8,0:0:0:0:
256,160,22515,1,0,0:0:0:0:
228,52,22915,1,8,0:0:0:0:
256,160,23715,1,8,0:0:0:0:
256,160,24115,1,0,0:0:0:0:
256,160,24715,1,0,0:0:0:0:
256,160,24915,1,8,0:0:0:0:
256,160,25315,1,8,0:0:0:0:
256,160,25715,1,0,0:0:0:0:
256,160,26115,1,8,0:0:0:0:
256,160,26515,1,0,0:0:0:0:
256,160,26715,1,0,0:0:0:0:
256,160,26915,1,8,0:0:0:0:
256,160,27315,1,4,0:0:0:0:
256,160,27715,1,8,0:0:0:0:
256,160,28515,1,8,0:0:0:0:
256,160,29315,1,8,0:0:0:0:
256,160,29715,1,0,0:0:0:0:
256,128,30115,1,8,0:0:0:0:
205,108,30315,1,8,0:0:0:0:
256,160,30515,1,0,0:0:0:0:
256,160,30915,1,8,0:0:0:0:
256,128,31715,1,8,0:0:0:0:
256,128,32515,1,8,0:0:0:0:
256,128,32915,1,0,0:0:0:0:
256,128,33115,1,8,0:0:0:0:
256,128,33315,1,8,0:0:0:0:
256,160,33715,1,4,0:0:0:0:
256,160,34115,1,8,0:0:0:0:
256,160,34915,1,8,0:0:0:0:
255,108,35715,1,8,0:0:0:0:
256,160,36115,1,0,0:0:0:0:
256,128,36515,1,8,0:0:0:0:
207,104,36715,1,8,0:0:0:0:
256,160,36915,1,0,0:0:0:0:
256,160,37315,1,8,0:0:0:0:
256,128,38115,1,8,0:0:0:0:
256,160,38515,1,0,0:0:0:0:
256,128,38915,1,8,0:0:0:0:
256,128,39315,1,0,0:0:0:0:
256,128,39515,1,8,0:0:0:0:
256,128,39715,1,8,0:0:0:0:
256,128,40115,1,4,0:0:0:0:
256,128,40515,1,8,0:0:0:0:
256,96,40915,1,0,0:0:0:0:
256,96,41115,1,0,0:0:0:0:
256,96,41315,1,8,0:0:0:0:
256,96,41715,1,0,0:0:0:0:
256,96,42115,1,8,0:0:0:0:
256,96,42515,1,0,0:0:0:0:
256,96,43315,1,0,0:0:0:0:
256,96,43715,1,8,0:0:0:0:
256,96,44115,1,0,0:0:0:0:
208,79,44315,1,0,0:0:0:0:
256,64,44515,1,8,0:0:0:0:
256,64,44915,1,0,0:0:0:0:
147,74,45315,1,8,0:0:0:0:
288,64,45715,1,0,0:0:0:0:
288,64,45915,1,8,0:0:0:0:
288,64,46115,1,8,0:0:0:0:
288,64,46515,1,4,0:0:0:0:
288,128,46915,1,8,0:0:0:0:
288,128,47115,1,0,0:0:0:0:
288,128,47315,1,8,0:0:0:0:
288,128,47715,1,8,0:0:0:0:
256,128,48115,1,0,0:0:0:0:
288,128,48915,1,0,0:0:0:0:
255,72,49115,1,0,0:0:0:0:
256,128,49315,1,8,0:0:0:0:
256,128,49715,1,0,0:0:0:0:
256,128,50115,1,8,0:0:0:0:
195,35,50515,1,0,0:0:0:0:
256,128,50915,1,8,0:0:0:0:
211,99,51115,1,8,0:0:0:0:
256,128,51315,1,0,0:0:0:0:
256,128,51715,1,8,0:0:0:0:
256,128,52115,1,0,0:0:0:0:
256,128,52315,1,0,0:0:0:0:
256,128,52515,1,8,0:0:0:0:
256,128,52915,1,4,0:0:0:0:
256,192,53915,1,8,0:0:0:0:
256,192,54115,1,8,0:0:0:0:
256,192,54515,1,4,0:0:0:0:
256,192,55515,1,8,0:0:0:0:
256,192,55715,1,8,0:0:0:0:
256,192,56115,1,4,0:0:0:0:
256,192,56715,1,4,0:0:0:0:
256,192,57515,1,12,0:0:0:0:
256,192,58115,1,0,0:0:0:0:
256,192,58515,1,0,0:0:0:0:
256,192,59315,5,12,0:0:0:0:
256,192,59715,1,8,0:0:0:0:
256,192,60115,1,0,0:0:0:0:
256,192,60715,1,8,0:0:0:0:
192,105,61115,1,0,0:0:0:0:
152,1,61315,1,8,0:0:0:0:
256,192,61715,1,0,0:0:0:0:
222,151,61915,1,0,0:0:0:0:
256,192,62115,1,8,0:0:0:0:
157,55,62715,1,0,0:0:0:0:
256,192,62915,1,8,0:0:0:0:
256,192,63315,1,0,0:0:0:0:
256,192,63715,1,8,0:0:0:0:
256,192,64115,1,8,0:0:0:0:
228,148,64315,1,0,0:0:0:0:
256,160,64515,1,8,0:0:0:0:
256,160,64915,1,0,0:0:0:0:
256,192,65715,1,4,0:0:0:0:
256,192,66115,1,8,0:0:0:0:
256,160,66515,1,0,0:0:0:0:
298,3,67115,1,8,0:0:0:0:
256,160,67715,1,8,0:0:0:0:
256,192,68115,1,0,0:0:0:0:
228,146,68315,1,0,0:0:0:0:
256,192,68515,1,8,0:0:0:0:
114,89,69115,1,8,0:0:0:0:
256,192,69315,1,0,0:0:0:0:
256,192,69715,1,8,0:0:0:0:
256,192,70115,1,8,0:0:0:0:
256,192,70515,1,0,0:0:0:0:
216,162,70715,1,8,0:0:0:0:
256,160,70915,1,8,0:0:0:0:
256,160,71315,1,0,0:0:0:0:
256,160,72115,1,12,0:0:0:0:
256,192,72915,1,0,0:0:0:0:
256,192,73315,1,8,0:0:0:0:
256,192,73715,1,0,0:0:0:0:
256,192,73915,1,0,0:0:0:0:
256,192,74115,1,8,0:0:0:0:
183,122,74515,1,0,0:0:0:0:
256,192,74915,1,8,0:0:0:0:
256,192,75315,1,0,0:0:0:0:
256,128,76115,1,0,0:0:0:0:
256,192,76515,1,8,0:0:0:0:
256,128,76915,1,0,0:0:0:0:
256,128,77115,1,0,0:0:0:0:
256,128,77315,1,8,0:0:0:0:
170,64,77715,1,8,0:0:0:0:
170,64,77915,1,8,0:0:0:0:
256,128,78115,1,8,0:0:0:0:
256,160,78515,1,4,0:0:0:0:
256,192,79115,1,0,0:0:0:0:
256,192,79315,1,8,0:0:0:0:
256,192,79715,1,8,0:0:0:0:
256,192,80115,1,0,0:0:0:0:
256,192,80315,1,0,0:0:0:0:
256,192,80515,1,8,0:0:0:0:
256,192,80915,1,0,0:0:0:0:
256,183,81315,1,8,0:0:0:0:
256,192,81715,1,0,0:0:0:0:
256,128,82315,1,0,0:0:0:0:
256,128,82515,1,8,0:0:0:0:
256,192,82915,1,8,0:0:0:0:
256,128,83315,1,0,0:0:0:0:
256,128,83515,1,8,0:0:0:0:
256,128,83715,1,0,0:0:0:0:
256,128,84115,1,0,0:0:0:0:
256,128,84515,1,8,0:0:0:0:
256,128,84715,1,8,0:0:0:0:
256,128,84915,1,4,0:0:0:0:
256,192,85715,1,8,0:0:0:0:
256,192,86115,1,8,0:0:0:0:
256,192,86515,1,0,0:0:0:0:
187,105,86915,1,8,0:0:0:0:
228,148,87115,1,0,0:0:0:0:
256,192,87315,1,0,0:0:0:0:
256,192,87715,1,8,0:0:0:0:
256,192,88115,1,0,0:0:0:0:
256,224,88915,1,8,0:0:0:0:
256,224,89315,1,0,0:0:0:0:
256,224,89715,1,8,0:0:0:0:
187,143,90115,1,8,0:0:0:0:
162,99,90315,1,8,0:0:0:0:
256,224,90515,1,0,0:0:0:0:
256,224,90915,1,8,0:0:0:0:
256,128,91315,1,4,0:0:0:0:
256,192,91915,1,0,0:0:0:0:
256,192,92115,1,8,0:0:0:0:
256,192,92515,1,8,0:0:0:0:
256,160,92915,1,0,0:0:0:0:
256,192,93315,1,8,0:0:0:0:
220,144,93515,1,0,0:0:0:0:
248,95,93715,1,8,0:0:0:0:
256,192,94115,1,8,0:0:0:0:
256,192,94515,1,0,0:0:0:0:
256,224,95115,1,0,0:0:0:0:
256,224,95315,1,8,0:0:0:0:
256,224,95715,1,8,0:0:0:0:
256,224,96115,1,0,0:0:0:0:
234,120,96515,1,0,0:0:0:0:
256,224,96715,1,8,0:0:0:0:
256,224,96915,1,0,0:0:0:0:
256,224,97315,1,8,0:0:0:0:
248,170,97515,1,8,0:0:0:0:
256,160,97715,5,4,0:0:0:0:
288,192,98115,1,8,0:0:0:0:
288,192,98515,1,0,0:0:0:0:
288,128,99315,1,8,0:0:0:0:
244,109,99515,1,8,0:0:0:0:
288,128,99715,1,0,0:0:0:0:
288,128,100115,1,8,0:0:0:0:
208,69,100515,1,8,0:0:0:0:
288,128,100915,1,0,0:0:0:0:
268,129,101515,1,0,0:0:0:0:
150,34,101715,1,8,0:0:0:0:
143,52,102315,1,8,0:0:0:0:
288,128,102515,1,0,0:0:0:0:
288,128,102915,1,8,0:0:0:0:
288,128,103315,1,0,0:0:0:0:
233,123,103515,1,8,0:0:0:0:
288,128,103715,1,8,0:0:0:0:
288,128,104115,1,4,0:0:0:0:
288,160,104515,1,8,0:0:0:0:
288,160,104915,1,0,0:0:0:0:
288,160,105715,1,8,0:0:0:0:
288,160,106115,1,8,0:0:0:0:
245,129,106315,1,8,0:0:0:0:
288,160,106515,1,0,0:0:0:0:
204,86,106915,1,8,0:0:0:0:
288,128,107315,1,0,0:0:0:0:
268,121,107915,1,0,0:0:0:0:
288,160,108115,1,8,0:0:0:0:
270,150,108715,1,8,0:0:0:0:
288,160,108915,1,0,0:0:0:0:
288,160,109315,1,8,0:0:0:0:
288,160,109715,1,0,0:0:0:0:
288,160,109915,1,8,0:0:0:0:
288,160,110115,1,8,0:0:0:0:
288,160,110515,1,4,0:0:0:0:
288,128,110915,1,8,0:0:0:0:
120,124,111515,1,0,0:0:0:0:
288,128,111715,1,8,0:0:0:0:
288,128,112115,1,0,0:0:0:0:
288,128,112515,1,8,0:0:0:0:
288,128,113315,1,8,0:0:0:0:
288,128,113515,1,8,0:0:0:0:
288,128,113715,1,0,0:0:0:0:
237,33,114115,1,8,0:0:0:0:
153,98,114515,1,0,0:0:0:0:
268,73,114715,1,0,0:0:0:0:
288,128,114915,1,8,0:0:0:0:
288,128,115315,1,0,0:0:0:0:
288,128,115715,1,8,0:0:0:0:
288,128,116315,1,8,0:0:0:0:
288,128,116515,1,8,0:0:0:0:
288,128,116915,1,4,0:0:0:0:
224,224,117315,1,8,0:0:0:0:
224,224,117715,1,0,0:0:0:0:
224,224,117915,1,0,0:0:0:0:
224,224,118115,1,8,0:0:0:0:
224,224,118515,1,0,0:0:0:0:
224,224,118915,1,8,0:0:0:0:
224,224,119715,1,8,0:0:0:0:
224,224,120115,1,0,0:0:0:0:
224,224,120515,1,8,0:0:0:0:
204,180,120715,1,0,0:0:0:0:
183,132,120915,1,0,0:0:0:0:
256,128,121315,1,8,0:0:0:0:
256,128,121515,1,8,0:0:0:0:
256,128,121715,1,0,0:0:0:0:
256,128,122115,1,8,0:0:0:0:
256,128,122515,1,0,0:0:0:0:
256,128,122715,1,8,0:0:0:0:
256,128,122915,1,8,0:0:0:0:
256,128,123315,1,4,0:0:0:0:
256,96,124315,1,8,0:0:0:0:
256,96,124515,1,8,0:0:0:0:
256,96,124915,1,4,0:0:0:0:
256,96,125915,1,8,0:0:0:0:
256,96,126115,1,8,0:0:0:0:
256,96,126515,1,4,0:0:0:0:
256,96,127115,1,4,0:0:0:0:
256,96,127915,1,12,0:0:0:0:
256,64,128515,1,0,0:0:0:0:
256,64,128915,1,4,0:0:0:0:
256,64,129715,1,12,0:0:0:0:
256,128,135715,5,8,0:0:0:0:
208,114,135915,1,8,0:0:0:0:
256,128,136115,1,0,0:0:0:0:
256,128,136515,1,0,0:0:0:0:
256,128,136915,1,8,0:0:0:0:
256,128,137515,1,8,0:0:0:0:
256,128,137715,1,0,0:0:0:0:
256,128,138115,1,0,0:0:0:0:
256,128,138515,1,8,0:0:0:0:
256,128,139115,1,8,0:0:0:0:
256,128,139315,1,0,0:0:0:0:
256,128,139715,1,0,0:0:0:0:
256,128,140115,1,8,0:0:0:0:
256,128,140715,1,12,0:0:0:0:
256,128,141315,1,4,0:0:0:0:
256,128,141715,1,4,0:0:0:0:
256,192,142515,5,12,0:0:0:0:
256,192,142915,1,8,0:0:0:0:
256,192,143315,1,0,0:0:0:0:
169,58,143915,1,8,0:0:0:0:
256,192,144515,1,8,0:0:0:0:
256,192,144915,1,0,0:0:0:0:
239,141,145115,1,0,0:0:0:0:
256,192,145315,1,8,0:0:0:0:
153,56,145915,1,0,0:0:0:0:
256,192,146115,1,8,0:0:0:0:
256,192,146515,1,0,0:0:0:0:
230,136,146715,1,0,0:0:0:0:
256,192,146915,1,8,0:0:0:0:
256,192,147315,1,8,0:0:0:0:
256,192,147515,1,0,0:0:0:0:
256,160,147715,1,8,0:0:0:0:
256,160,148115,1,0,0:0:0:0:
256,192,148915,1,4,0:0:0:0:
256,192,149315,1,8,0:0:0:0:
256,160,149715,1,0,0:0:0:0:
261,42,150315,1,8,0:0:0:0:
176,89,150715,1,0,0:0:0:0:
256,192,150915,1,8,0:0:0:0:
256,192,151315,1,0,0:0:0:0:
238,144,151515,1,0,0:0:0:0:
256,192,151715,1,8,0:0:0:0:
187,38,152315,1,8,0:0:0:0:
256,192,152515,1,0,0:0:0:0:
256,192,152915,1,8,0:0:0:0:
233,158,153115,1,0,0:0:0:0:
256,192,153315,1,8,0:0:0:0:
256,192,153715,1,0,0:0:0:0:
256,192,153915,1,0,0:0:0:0:
256,160,154115,1,8,0:0:0:0:
256,160,154515,1,0,0:0:0:0:
256,192,155315,5,4,0:0:0:0:
256,192,155715,1,8,0:0:0:0:
256,192,156115,1,0,0:0:0:0:
164,78,156715,1,8,0:0:0:0:
256,192,157115,1,0,0:0:0:0:
256,192,157315,1,8,0:0:0:0:
223,168,157715,1,8,0:0:0:0:
256,192,157915,1,8,0:0:0:0:
256,192,158115,1,0,0:0:0:0:
252,187,158315,1,12,0:0:0:0:
177,97,158715,1,8,0:0:0:0:
256,192,158915,1,8,0:0:0:0:
256,192,159315,1,8,0:0:0:0:
218,146,159515,1,0,0:0:0:0:
256,192,159715,1,8,0:0:0:0:
256,192,160115,1,0,0:0:0:0:
256,192,160315,1,0,0:0:0:0:
256,160,160515,1,8,0:0:0:0:
256,160,160915,1,0,0:0:0:0:
256,192,161715,1,4,0:0:0:0:
256,192,162115,1,8,0:0:0:0:
256,160,162515,1,0,0:0:0:0:
150,41,163115,1,8,0:0:0:0:
230,15,163515,1,0,0:0:0:0:
256,192,163715,1,8,0:0:0:0:
256,192,164115,1,0,0:0:0:0:
243,146,164315,1,0,0:0:0:0:
256,192,164515,1,8,0:0:0:0:
256,160,164915,1,4,0:0:0:0:
256,192,165315,1,8,0:0:0:0:
256,192,165715,1,8,0:0:0:0:
250,188,165915,1,0,0:0:0:0:
256,192,166115,1,8,0:0:0:0:
256,160,168115,1,12,0:0:0:0:
256,192,168915,1,0,0:0:0:0:
256,192,169315,1,8,0:0:0:0:
256,192,169715,1,0,0:0:0:0:
256,192,169915,1,0,0:0:0:0:
256,192,170115,1,8,0:0:0:0:
243,144,170515,1,0,0:0:0:0:
209,96,170715,1,8,0:0:0:0:
256,192,170915,1,8,0:0:0:0:
256,192,171315,1,0,0:0:0:0:
256,128,172115,1,0,0:0:0:0:
256,192,172515,1,8,0:0:0:0:
256,128,172915,1,0,0:0:0:0:
256,128,173115,1,0,0:0:0:0:
256,128,173315,1,8,0:0:0:0:
170,64,173715,1,8,0:0:0:0:
170,64,173915,1,8,0:0:0:0:
256,128,174115,1,8,0:0:0:0:
256,160,174515,1,4,0:0:0:0:
256,192,175115,1,0,0:0:0:0:
256,192,175315,1,8,0:0:0:0:
256,192,175715,1,8,0:0:0:0:
256,192,176115,1,0,0:0:0:0:
256,192,176315,1,0,0:0:0:0:
256,192,176515,1,8,0:0:0:0:
243,137,176915,1,0,0:0:0:0:
256,192,177115,1,8,0:0:0:0:
256,183,177315,1,8,0:0:0:0:
256,192,177715,1,0,0:0:0:0:
256,128,178315,1,0,0:0:0:0:
256,128,178515,1,8,0:0:0:0:
256,192,178915,1,8,0:0:0:0:
256,128,179315,1,0,0:0:0:0:
256,128,179515,1,8,0:0:0:0:
256,128,179715,1,0,0:0:0:0:
231,92,179915,1,8,0:0:0:0:
256,128,180115,1,0,0:0:0:0:
256,128,180515,1,8,0:0:0:0:
256,128,180715,1,8,0:0:0:0:
256,128,180915,1,4,0:0:0:0:
256,192,182115,1,0,0:0:0:0:
235,157,182315,1,0,0:0:0:0:
256,128,182515,1,12,0:0:0:0:
256,192,183315,1,8,0:0:0:0:
256,192,183715,1,8,0:0:0:0:
256,192,184115,1,0,0:0:0:0:
204,99,184515,1,8,0:0:0:0:
256,192,184915,1,8,0:0:0:0:
246,152,185115,1,0,0:0:0:0:
256,192,185315,1,8,0:0:0:0:
256,192,185715,1,0,0:0:0:0:
256,224,186515,1,8,0:0:0:0:
256,224,186915,1,0,0:0:0:0:
256,224,187315,1,8,0:0:0:0:
208,122,187715,5,8,0:0:0:0:
174,81,187915,1,8,0:0:0:0:
256,224,188115,1,0,0:0:0:0:
256,224,188515,1,8,0:0:0:0:
240,176,188715,1,8,0:0:0:0:
256,128,188915,1,4,0:0:0:0:
256,192,189515,1,0,0:0:0:0:
256,192,189715,1,8,0:0:0:0:
256,192,190115,1,8,0:0:0:0:
256,160,190515,1,0,0:0:0:0:
187,75,190915,1,8,0:0:0:0:
256,192,191115,1,0,0:0:0:0:
256,192,191315,1,8,0:0:0:0:
256,192,191715,1,8,0:0:0:0:
256,192,192115,1,0,0:0:0:0:
256,224,192715,1,0,0:0:0:0:
256,224,192915,1,8,0:0:0:0:
256,224,193315,1,8,0:0:0:0:
256,224,193715,1,4,0:0:0:0:
212,127,194115,1,0,0:0:0:0:
155,126,194315,1,8,0:0:0:0:
256,224,194515,1,4,0:0:0:0:
256,224,194915,1,4,0:0:0:0:
205,92,195315,1,12,0:0:0:0:
256,192,195515,12,0,198915,0:0:0:0:
