osu file format v14

[General]
AudioFilename: audio.mp3
AudioLeadIn: 0
PreviewTime: 69874
Countdown: 1
SampleSet: Soft
StackLeniency: 0.2
Mode: 0
LetterboxInBreaks: 0
WidescreenStoryboard: 0

[Editor]
Bookmarks: 2739,3063,3387,3712,4036,4360,4685,5009,5333,5658,5982,6306,6631,6955,7279,7928,8252,8577,8901,9225,9550,9874,10198,10523,10847,11171,11496,11820,12063,12306,12631,12793,12955,13117,13441,13766,14090,14414,14739,15063,15225,15387,15712,16036,16360,16685,17009,17333,17658,17820,17982,18306,18631,18955,19279,19604,19928,20252,20414,20577,20901,21550,21712,21874,22198,22523,22847,23009,23171,23333,23496,24793,25279,25766,26090,26577,27063,27387,27874,28198,28685,30793,31117,31279,31604,32090,32577,33225,35171,35658,36144,36469,36955,37441,37766,38252,38577,39063,40685,41009,41333,41658,41982,42306,42631,42955,43117,43604,43928,44090,44252,44577,44901,45225,45550,45874,46198,46360,46523,46847,47171,47496,47820,48144,48469,48631,48793,49117,49279,49441,50739,51225,51712,52036,52360,52685,53009,53333,53820,54631,56739,57063,57550,58036,58523,59171,59820,61117,61604,62090,62414,62739,63063,63387,63712,64198,64523,64847,65009,67441,67604,67928,68090,68252,68577,68739,68901,69225,69550,69712,69874,70036,70198,78306,88685,99063,109441,111063,134739,150955,161333,171712,182090,183712,184360,194252,204631,205117
DistanceSpacing: 1
BeatDivisor: 4
GridSize: 4
TimelineZoom: 1

[Metadata]
Title:Teo
TitleUnicode:テオ
Artist:Araki
ArtistUnicode:あらき
Creator:Otaku_Gamer_45
Version:Begging My god To Make The Wheels Go Round
Source:
Tags:
BeatmapID:2023766
BeatmapSetID:922065

[Difficulty]
HPDrainRate:0
CircleSize:4
OverallDifficulty:8
ApproachRate:9
SliderMultiplier:2
SliderTickRate:1

[Events]
//Background and Video events
0,0,"lucky_to_meet_you__m_reader_x_hatsune_miku__by_mrgalco-da4q4wo.jpg",0,0
//Break Periods
//Storyboard Layer 0 (Background)
//Storyboard Layer 1 (Fail)
//Storyboard Layer 2 (Pass)
//Storyboard Layer 3 (Foreground)
//Storyboard Sound Samples

[TimingPoints]
1442,324.324324324324,4,2,0,100,1,0
2739,-200,4,2,0,100,0,0
3063,-66.6666666666667,4,2,0,100,0,0
3387,-200,4,2,0,100,0,0
3712,-66.6666666666667,4,2,0,100,0,0
4036,-200,4,2,0,100,0,0
4360,-66.6666666666667,4,2,0,100,0,0
4685,-200,4,2,0,100,0,0
5009,-66.6666666666667,4,2,0,100,0,0
5333,-200,4,2,0,100,0,0
5658,-66.6666666666667,4,2,0,100,0,0
5982,-200,4,2,0,100,0,0
6306,-66.6666666666667,4,2,0,100,0,0
6631,-200,4,2,0,100,0,0
6955,-66.6666666666667,4,2,0,100,0,0
7928,-100,4,2,0,100,0,0
8252,-66.6666666666667,4,2,0,100,0,0
8577,-100,4,2,0,100,0,0
8901,-66.6666666666667,4,2,0,100,0,0
9225,-100,4,2,0,100,0,0
9550,-66.6666666666667,4,2,0,100,0,0
9874,-100,4,2,0,100,0,0
10198,-66.6666666666667,4,2,0,100,0,0
10523,-100,4,2,0,100,0,0
10847,-66.6666666666667,4,2,0,100,0,0
11171,-100,4,2,0,100,0,0
11496,-66.6666666666667,4,2,0,100,0,0
11820,-200,4,2,0,100,0,0
12063,-166.666666666667,4,2,0,100,0,0
12306,-142.857142857143,4,2,0,100,0,0
12631,-66.6666666666667,4,2,0,100,0,0
12793,-62.5,4,2,0,100,0,0
12955,-58.8235294117647,4,2,0,100,0,0
13117,-90.9090909090909,4,2,0,100,0,0
13441,-83.3333333333333,4,2,0,100,0,0
13766,-58.8235294117647,4,2,0,100,0,0
14090,-62.5,4,2,0,100,0,0
14414,-66.6666666666667,4,2,0,100,0,0
14739,-71.4285714285714,4,2,0,100,0,0
15063,-66.6666666666667,4,2,0,100,0,0
15712,-90.9090909090909,4,2,0,100,0,0
16036,-83.3333333333333,4,2,0,100,0,0
16360,-58.8235294117647,4,2,0,100,0,0
16685,-62.5,4,2,0,100,0,0
17009,-66.6666666666667,4,2,0,100,0,0
17333,-71.4285714285714,4,2,0,100,0,0
17658,-66.6666666666667,4,2,0,100,0,0
17820,-62.5,4,2,0,100,0,0
18306,-100,4,2,0,100,0,0
18631,-83.3333333333333,4,2,0,100,0,0
18955,-58.8235294117647,4,2,0,100,0,0
19279,-62.5,4,2,0,100,0,0
19604,-66.6666666666667,4,2,0,100,0,0
19928,-71.4285714285714,4,2,0,100,0,0
20252,-66.6666666666667,4,2,0,100,0,0
20901,-64.5161290322581,4,2,0,100,0,0
21874,-58.8235294117647,4,2,0,100,0,0
22198,-66.6666666666667,4,2,0,100,0,0
22523,-76.9230769230769,4,2,0,100,0,0
22847,-66.6666666666667,4,2,0,100,0,0
23009,-76.9230769230769,4,2,0,100,0,0
23171,-66.6666666666667,4,2,0,100,0,0
23333,-76.9230769230769,4,2,0,100,0,0
23496,-125,4,2,0,100,0,0
24793,-100,4,2,0,100,0,0
25279,-83.3333333333333,4,2,0,100,0,0
25766,-125,4,2,0,100,0,0
26090,-100,4,2,0,100,0,0
26577,-83.3333333333333,4,2,0,100,0,0
27063,-125,4,2,0,100,0,0
27387,-100,4,2,0,100,0,0
27874,-83.3333333333333,4,2,0,100,0,0
28685,-125,4,2,0,100,0,0
30793,-111.111111111111,4,2,0,100,0,0
31604,-125,4,2,0,100,0,0
32090,-100,4,2,0,100,0,0
32577,-83.3333333333333,4,2,0,100,0,0
33225,-125,4,2,0,100,0,0
35171,-100,4,2,0,100,0,0
35658,-83.3333333333333,4,2,0,100,0,0
36144,-125,4,2,0,100,0,0
36469,-100,4,2,0,100,0,0
36955,-83.3333333333333,4,2,0,100,0,0
37441,-125,4,2,0,100,0,0
37766,-100,4,2,0,100,0,0
38252,-83.3333333333333,4,2,0,100,0,0
39063,-111.111111111111,4,2,0,100,0,0
40685,-166.666666666667,4,2,0,100,0,0
41009,-142.857142857143,4,2,0,100,0,0
41333,-125,4,2,0,100,0,0
41658,-90.9090909090909,4,2,0,100,0,0
41982,-83.3333333333333,4,2,0,100,0,0
42306,-90.9090909090909,4,2,0,100,0,0
42631,-100,4,2,0,100,0,0
42955,-66.6666666666667,4,2,0,100,0,0
44252,-90.9090909090909,4,2,0,100,0,0
44577,-83.3333333333333,4,2,0,100,0,0
44901,-58.8235294117647,4,2,0,100,0,0
45225,-62.5,4,2,0,100,0,0
45550,-66.6666666666667,4,2,0,100,0,0
45874,-71.4285714285714,4,2,0,100,0,0
46198,-66.6666666666667,4,2,0,100,0,0
46847,-90.9090909090909,4,2,0,100,0,0
47171,-83.3333333333333,4,2,0,100,0,0
47496,-58.8235294117647,4,2,0,100,0,0
47820,-62.5,4,2,0,100,0,0
48144,-66.6666666666667,4,2,0,100,0,0
49441,-125,4,2,0,100,0,0
50739,-100,4,2,0,100,0,0
51225,-83.3333333333333,4,2,0,100,0,0
51712,-125,4,2,0,100,0,0
52036,-111.111111111111,4,2,0,100,0,0
53333,-100,4,2,0,100,0,0
53820,-83.3333333333333,4,2,0,100,0,0
54631,-125,4,2,0,100,0,0
56739,-111.111111111111,4,2,0,100,0,0
57550,-111.111111111111,4,2,0,100,0,0
58036,-83.3333333333333,4,2,0,100,0,0
58523,-71.4285714285714,4,2,0,100,0,0
59171,-111.111111111111,4,2,0,100,0,0
59820,-100,4,2,0,100,0,0
61117,-83.3333333333333,4,2,0,100,0,0
61604,-71.4285714285714,4,2,0,100,0,0
62090,-100,4,2,0,100,0,0
62414,-90.9090909090909,4,2,0,100,0,0
63063,-100,4,2,0,100,0,0
64198,-111.111111111111,4,2,0,100,0,0
64523,-83.3333333333333,4,2,0,100,0,0
65009,-100,4,2,0,100,0,0
67441,-90.9090909090909,4,2,0,100,0,0
67604,-83.3333333333333,4,2,0,100,0,0
67928,-76.9230769230769,4,2,0,100,0,0
68090,-71.4285714285714,4,2,0,100,0,0
68252,-66.6666666666667,4,2,0,100,0,0
68577,-58.8235294117647,4,2,0,100,0,0
69225,-133.333333333333,4,2,0,100,0,0
70198,-100,4,2,0,100,0,1
78306,-25,4,2,0,100,0,1
79604,-66.6666666666667,4,2,0,100,0,1
80901,-100,4,2,0,100,0,1
88685,-22.2222222222222,4,2,0,100,0,0
89982,-66.6666666666667,4,2,0,100,0,0
90955,-83.3333333333333,4,2,0,100,0,0
99063,-10,4,2,0,100,0,0
109441,-10,4,2,0,100,0,0
150955,-10,4,2,0,100,0,0
161333,-10,4,2,0,100,0,0
171712,-10,4,2,0,100,0,0
182090,-10,4,2,0,100,0,0

[Colours]
Combo1 : 58,89,237
Combo2 : 0,170,170

[HitObjects]
38,270,2577,6,0,L|38:320,1,50
38,345,2739,2,0,P|74:335|111:337,1,75
256,344,3063,2,0,B|201:362|201:362|112:338,1,150.000005722046
38,270,3387,2,0,P|74:261|111:263,1,75
256,270,3712,2,0,B|201:288|201:288|112:264,1,150.000005722046
38,194,4036,2,0,P|74:185|111:187,1,75
256,194,4360,2,0,B|201:212|201:212|112:188,1,150.000005722046
38,120,4685,2,0,P|74:111|111:113,1,75
256,120,5009,2,0,B|201:138|201:138|112:114,1,150.000005722046
256,45,5333,6,0,P|292:36|329:38,1,75
474,44,5658,2,0,B|419:62|419:62|330:38,1,150.000005722046
256,120,5983,2,0,P|292:110|329:112,1,75
474,119,6307,2,0,B|419:137|419:137|330:113,1,150.000005722046
256,195,6631,2,0,P|292:185|329:187,1,75
474,194,6955,2,0,B|419:212|419:212|330:188,1,150.000005722046
256,276,7279,2,0,B|311:258|311:258|400:282,2,150.000005722046
0,294,7766,2,0,L|72:274,1,75.0000028610231
89,288,7928,6,0,L|63:384,1,100
66,192,8252,2,0,B|42:102|42:102|0:64,1,150.000005722046
175,271,8577,2,0,L|149:367,1,100
152,175,8901,2,0,B|128:85|128:85|85:47,1,150.000005722046
261,254,9225,2,0,L|235:350,1,100
238,158,9550,2,0,B|214:68|214:68|171:30,1,150.000005722046
347,237,9874,2,0,L|443:262,1,100
324,141,10198,2,0,B|300:51|300:51|257:13,1,150.000005722046
261,254,10523,2,0,L|235:350,1,100
238,158,10848,2,0,B|214:68|214:68|171:30,1,150.000005722046
175,271,11171,2,0,L|149:367,1,100
152,175,11496,2,0,B|128:85|128:85|85:47,1,150.000005722046
76,336,11820,6,0,L|63:384,1,50
108,345,12063,2,0,L|63:384,1,59.9999981689454
39,318,12306,2,0,L|63:384,1,69.9999978637696
222,158,12631,6,0,B|199:181|199:181|197:208|197:208|176:228,1,75.0000028610231
111,219,12793,2,0,B|144:226|144:226|170:214|170:214|186:218,1,80
225,286,12955,2,0,B|214:248|214:248|188:232|188:232|184:215,1,85.0000016212464
127,118,13117,6,0,L|19:94,1,110.000003356934
167,12,13441,2,0,P|193:64|245:92,1,119.999996337891
469,70,13766,2,0,P|407:123|329:103,1,170.000003242493
333,127,14090,2,0,P|410:138|477:96,1,160
483,113,14414,2,0,P|418:148|343:147,1,150.000005722046
353,159,14739,2,0,P|422:156|483:123,1,139.999995727539
293,246,15063,6,0,B|252:222|252:222|242:197,1,75.0000028610231
260,127,15225,2,0,B|259:175|259:175|242:195,1,75.0000028610231
109,254,15387,2,0,B|216:191|216:191|242:196,1,150.000005722046
369,265,15712,6,0,L|336:370,1,110.000003356934
211,305,16036,2,0,P|242:256|241:197,1,119.999996337891
57,84,16360,2,0,P|137:69|194:125,1,170.000003242493
202,101,16685,2,0,P|140:52|61:55,1,160
65,39,17009,2,0,P|138:41|203:79,1,150.000005722046
201,65,17333,2,0,P|139:33|70:31,1,139.999995727539
260,127,17658,6,0,B|259:174|259:174|243:195,1,75.0000028610231
171,217,17820,2,0,B|217:191|217:191|243:196,1,80
369,288,17982,2,0,B|251:220|251:220|243:196,1,160
363,196,18306,6,0,L|463:222,1,100
322,350,18631,2,0,P|286:304|230:284,1,119.999996337891
31,384,18956,2,0,P|71:312|152:305,1,170.000003242493
138,284,19279,2,0,P|61:300|13:362,1,160
2,350,19604,2,0,P|51:294|121:270,1,150.000005722046
110,262,19929,2,0,P|45:288|0:340,1,139.999995727539
173,215,20252,6,0,B|214:191|214:191|240:195,1,75.0000028610231
292,246,20414,2,0,B|250:221|250:221|242:196,1,75.0000028610231
258,52,20576,2,0,B|259:176|259:176|241:196,1,150.000005722046
297,336,20901,6,0,P|364:300|400:232,1,155.000001182556
414,246,21225,2,0,P|378:313|310:349,1,155.000001182556
324,361,21550,2,0,P|391:326|428:259,1,155.000001182556
447,274,21874,2,0,P|398:342|325:384,1,170.000003242493
347,168,22198,6,0,L|400:114,3,75.0000028610231
288,226,22523,6,0,L|333:271,3,64.9999970245363
281,114,22847,6,0,L|228:168,1,75.0000028610231
214,271,23009,2,0,L|169:226,1,64.9999970245363
162,113,23171,6,0,L|108:166,1,75.0000028610231
95,270,23333,2,0,L|49:224,1,64.9999970245363
94,66,23496,6,0,P|122:39|160:30,1,80
310,73,23820,2,0,P|272:82|235:71,1,80
364,138,24144,2,0,L|356:221,1,80
448,127,24469,2,0,L|441:47,1,80
450,247,24793,2,0,P|382:313|289:289,1,200
356,216,25279,2,0,P|246:197|191:296,1,239.999992675781
112,341,25766,2,0,P|73:350|36:338,1,80
35,105,26090,2,0,P|11:198|78:267,1,200
28,6,26577,2,0,P|127:61|108:172,1,239.999992675781
162,237,27063,2,0,L|241:230,1,80
374,102,27387,2,0,P|281:77|212:144,1,200
473,95,27874,2,0,P|461:152|418:193,1,119.999996337891
364,270,28198,2,0,P|320:231|307:174,2,119.999996337891
464,304,28685,6,0,L|471:387,1,80
358,350,29009,2,0,L|365:266,1,80
248,304,29333,2,0,L|255:387,1,80
142,350,29657,2,0,L|149:266,1,80
4,196,29982,2,0,L|163:182,1,160
264,96,30469,2,0,L|156:86,1,80
352,62,30793,2,0,B|391:6|391:6|401:25,1,89.9999972534181
370,140,31117,2,0,B|380:159|380:159|419:103,1,89.9999972534181
34,103,31604,2,0,L|25:7,2,80
113,288,32090,2,0,P|168:209|130:121,1,200
83,381,32577,2,0,P|10:294|67:197,1,239.999992675781
485,360,33225,2,0,L|478:281,1,80
385,233,33550,2,0,L|346:243,1,40
369,176,33712,2,0,L|330:186,1,40
462,90,33874,6,0,P|455:51|429:22,1,80
345,15,34198,2,0,P|352:54|379:84,1,80
290,114,34522,2,0,L|207:106,1,80
95,38,34847,2,0,L|175:31,1,80
28,99,35171,2,0,P|4:190|72:259,1,200
113,346,35658,2,0,P|172:250|101:164,1,239.999992675781
251,243,36144,2,0,L|342:234,1,80
432,80,36469,2,0,P|363:14|271:37,1,200
174,31,36956,2,0,P|227:129|338:111,1,239.999992675781
413,233,37441,2,0,L|407:154,1,80
350,295,37766,2,0,P|281:360|189:337,1,200
200,166,38252,2,0,P|244:205|257:262,1,119.999996337891
91,343,38577,2,0,P|103:286|146:246,2,119.999996337891
24,246,39063,6,0,L|34:126,1,89.9999972534181
195,132,39387,2,0,L|114:171,1,89.9999972534181
12,41,39712,2,0,L|110:109,1,89.9999972534181
256,30,40036,2,0,L|167:22,2,89.9999972534181
364,333,40685,2,0,L|443:339,1,59.9999981689454
400,257,41009,2,0,L|478:243,1,69.9999978637696
415,174,41333,2,0,L|487:140,1,80
491,17,41658,2,0,L|408:89,1,110.000003356934
294,0,41982,2,0,L|316:118,1,119.999996337891
148,154,42306,2,0,L|252:191,1,110.000003356934
238,327,42631,2,0,L|315:263,1,100
418,243,42955,6,0,L|364:190,1,75.0000028610231
250,79,43117,2,0,L|196:26,5,75.0000028610231
142,87,43604,6,0,L|89:141,3,75.0000028610231
207,145,43928,6,0,L|154:199,1,75.0000028610231
33,204,44090,2,0,L|87:257,1,75.0000028610231
159,321,44252,6,0,L|51:345,1,110.000003356934
220,375,44577,2,0,P|278:378|328:347,1,119.999996337891
420,142,44901,2,0,P|434:222|378:279,1,170.000003242493
402,288,45225,2,0,P|450:226|447:147,1,160
465,151,45550,2,0,P|462:224|424:289,1,150.000005722046
439,287,45874,2,0,P|470:225|472:156,1,139.999995727539
376,138,46198,6,0,B|334:161|334:161|325:186,1,75.0000028610231
343,257,46360,2,0,B|342:208|342:208|324:188,1,75.0000028610231
192,131,46523,2,0,B|298:193|298:193|325:188,1,150.000005722046
313,63,46847,6,0,L|421:39,1,110.000003356934
252,9,47172,2,0,P|193:5|143:36,1,119.999996337891
52,242,47496,2,0,P|37:161|93:104,1,170.000003242493
70,96,47820,2,0,P|21:157|24:236,1,160
7,233,48144,2,0,P|9:159|47:94,1,150.000005722046
113,185,48469,6,0,L|166:239,1,75.0000028610231
172,349,48631,2,0,L|225:296,1,75.0000028610231
286,237,48793,6,0,L|232:184,3,75.0000028610231
292,347,49117,6,0,L|345:295,1,75.0000028610231
352,182,49279,2,0,L|406:235,1,75.0000028610231
496,252,49441,6,0,L|512:60,1,160
428,159,49928,2,0,L|414:0,1,160
328,76,50414,2,0,L|334:155,1,80
69,35,50739,2,0,L|268:17,1,200
21,107,51225,2,0,L|262:128,1,239.999992675781
167,212,51712,2,0,L|87:205,1,80
47,324,52036,2,0,P|90:313|131:330,1,89.9999972534181
250,219,52360,2,0,P|238:262|203:289,1,89.9999972534181
289,347,52685,2,0,P|301:304|336:277,1,89.9999972534181
504,282,53009,2,0,P|460:293|420:276,1,89.9999972534181
394,5,53333,2,0,L|377:205,1,200
496,24,53820,2,0,L|464:139,1,119.999996337891
289,7,54144,2,0,L|300:127,2,119.999996337891
125,32,54631,6,0,L|207:25,1,80
171,138,54955,2,0,L|87:131,1,80
125,248,55279,2,0,L|208:241,1,80
171,354,55603,2,0,L|87:347,1,80
245,315,55928,2,0,L|404:301,1,160
332,175,56415,2,0,L|253:168,1,80
397,119,56739,2,0,B|436:63|436:63|446:82,1,89.9999972534181
415,197,57063,2,0,B|425:216|425:216|464:160,1,89.9999972534181
34,103,57550,2,0,L|25:7,2,89.9999972534181
96,364,58036,2,0,L|116:124,1,239.999992675781
220,346,58523,2,0,L|196:68,1,279.999991455078
316,309,59171,2,0,L|324:220,1,89.9999972534181
417,173,59496,2,0,L|460:184,1,44.999998626709
476,127,59658,2,0,L|433:116,1,44.999998626709
342,22,59820,6,0,P|319:65|275:86,1,100
195,67,60144,2,0,P|217:24|262:3,1,100
227,247,60469,2,0,L|218:147,1,100
126,230,60793,2,0,L|135:131,1,100
161,324,61117,2,0,L|423:347,1,239.999992675781
505,222,61604,2,0,L|214:247,1,279.999991455078
471,390,62090,2,0,P|487:343|470:297,1,100
420,41,62414,2,0,L|411:151,1,110.000003356934
325,71,62739,2,0,L|315:180,1,110.000003356934
183,83,63063,2,0,P|218:117|234:164,1,100
98,93,63387,2,0,P|64:129|53:178,1,100
153,271,63712,2,0,L|145:172,2,100
119,350,64198,2,0,P|163:353|206:339,1,89.9999972534181
355,248,64523,2,0,L|235:259,1,119.999996337891
425,311,64847,2,0,L|442:245,1,59.9999981689454
431,153,65009,6,0,L|440:256,1,100
511,11,65333,2,0,L|503:111,1,100
323,75,65658,2,0,L|423:67,1,100
164,9,65982,2,0,L|264:18,1,100
5,75,66306,2,0,P|104:78|191:126,2,200
40,346,67441,2,0,L|78:307,1,55.0000016784668
138,249,67604,6,0,L|85:195,3,59.9999981689454
151,352,67928,6,0,L|198:305,1,64.9999970245363
207,197,68090,2,0,L|257:247,1,69.9999978637696
317,305,68252,6,0,L|262:358,3,75.0000028610231
376,244,68577,6,0,L|316:183,1,85.0000016212464
256,122,68739,2,0,L|316:183,1,85.0000016212464
435,304,68901,6,0,L|375:243,1,85.0000016212464
140,0,69225,6,0,L|130:37,1,37.5000014305115
167,323,69550,6,0,L|176:359,1,37.5000014305115
79,273,69712,2,0,L|42:282,1,37.5000014305115
130,185,69874,2,0,L|120:148,1,37.5000014305115
217,236,70036,2,0,L|253:226,1,37.5000014305115
148,254,70198,5,0,0:0:0:0:
148,254,70523,5,0,0:0:0:0:
256,67,70685,1,0,0:0:0:0:
143,244,70847,5,0,0:0:0:0:
266,67,71009,1,0,0:0:0:0:
138,234,71171,5,0,0:0:0:0:
277,68,71333,1,0,0:0:0:0:
135,223,71496,5,0,0:0:0:0:
288,71,71658,1,0,0:0:0:0:
133,213,71820,5,0,0:0:0:0:
298,74,71982,1,0,0:0:0:0:
256,192,72144,1,0,0:0:0:0:
256,192,72469,5,0,0:0:0:0:
133,213,72631,1,0,0:0:0:0:
298,74,72793,1,0,0:0:0:0:
298,75,73117,5,0,0:0:0:0:
336,287,73279,1,0,0:0:0:0:
308,79,73441,5,0,0:0:0:0:
327,294,73603,1,0,0:0:0:0:
318,84,73765,5,0,0:0:0:0:
318,300,73927,1,0,0:0:0:0:
327,90,74090,5,0,0:0:0:0:
308,305,74252,1,0,0:0:0:0:
336,96,74414,5,0,0:0:0:0:
298,309,74576,1,0,0:0:0:0:
256,192,74738,1,0,0:0:0:0:
256,192,75063,5,0,0:0:0:0:
336,96,75225,1,0,0:0:0:0:
298,309,75387,1,0,0:0:0:0:
298,309,75712,5,0,0:0:0:0:
132,170,75874,1,0,0:0:0:0:
287,312,76036,5,0,0:0:0:0:
135,159,76198,1,0,0:0:0:0:
277,314,76360,5,0,0:0:0:0:
138,149,76522,1,0,0:0:0:0:
266,316,76685,5,0,0:0:0:0:
142,139,76847,1,0,0:0:0:0:
255,316,77009,5,0,0:0:0:0:
147,129,77171,1,0,0:0:0:0:
256,192,77333,1,0,0:0:0:0:
256,192,77658,5,0,0:0:0:0:
256,316,77820,1,0,0:0:0:0:
99,75,77982,1,0,0:0:0:0:
99,75,78306,6,0,B|206:141|206:141|308:246|308:246|419:310,1,400
419,310,78631,6,0,B|325:225|325:225|194:161|194:161|99:75,1,400
413,75,78955,6,0,B|305:141|305:141|203:246|203:246|93:310,1,400
93,310,79280,6,0,B|186:225|186:225|317:161|317:161|412:75,1,400
396,192,79604,6,0,L|471:192,3,75.0000028610231
352,128,79928,6,0,L|295:184,1,75.0000028610231
220,300,80090,2,0,L|276:243,1,75.0000028610231
292,88,80252,6,0,L|235:144,1,75.0000028610231
160,260,80414,2,0,L|216:203,1,75.0000028610231
360,56,80577,5,0,0:0:0:0:
360,56,80901,5,0,0:0:0:0:
332,286,81063,1,0,0:0:0:0:
346,43,81225,5,0,0:0:0:0:
272,246,81387,1,0,0:0:0:0:
336,27,81550,5,0,0:0:0:0:
212,206,81712,1,0,0:0:0:0:
331,11,81874,5,0,0:0:0:0:
151,165,82036,1,0,0:0:0:0:
330,0,82198,5,0,0:0:0:0:
90,124,82360,1,0,0:0:0:0:
332,286,82523,1,0,0:0:0:0:
332,286,82847,5,0,0:0:0:0:
208,46,83009,1,0,0:0:0:0:
46,288,83172,1,0,0:0:0:0:
46,288,83496,5,0,0:0:0:0:
119,102,83658,1,0,0:0:0:0:
208,283,83820,5,0,0:0:0:0:
135,97,83982,1,0,0:0:0:0:
220,291,84144,5,0,0:0:0:0:
293,105,84306,1,0,0:0:0:0:
382,286,84468,5,0,0:0:0:0:
309,100,84630,1,0,0:0:0:0:
394,294,84793,5,0,0:0:0:0:
467,108,84955,1,0,0:0:0:0:
495,365,85117,1,0,0:0:0:0:
495,365,85441,5,0,0:0:0:0:
386,134,85604,1,0,0:0:0:0:
273,354,85766,1,0,0:0:0:0:
273,354,86090,5,0,0:0:0:0:
219,193,86252,1,0,0:0:0:0:
326,247,86414,5,0,0:0:0:0:
166,300,86577,1,0,0:0:0:0:
353,60,86739,5,0,0:0:0:0:
247,274,86901,1,0,0:0:0:0:
193,114,87063,5,0,0:0:0:0:
407,220,87225,1,0,0:0:0:0:
140,221,87387,5,0,0:0:0:0:
86,61,87550,1,0,0:0:0:0:
246,7,87712,1,0,0:0:0:0:
300,167,87874,1,0,0:0:0:0:
193,114,88036,1,0,0:0:0:0:
511,1,88360,5,0,0:0:0:0:
511,1,88685,6,0,B|511:149|511:149|405:256|405:256|254:256,1,450.000017166138
253,256,89009,6,0,B|253:106|253:106|359:0|359:0|509:0,1,450.000017166138
382,129,89333,6,0,B|276:234|276:234|126:235|126:235|19:128,1,450.000017166138
19,128,89657,6,0,B|124:22|124:22|274:21|274:21|381:128,1,450.000017166138
201,128,89982,6,0,L|144:184,1,75.0000028610231
69,300,90144,2,0,L|125:243,1,75.0000028610231
261,168,90306,6,0,L|204:224,1,75.0000028610231
129,340,90469,2,0,L|185:283,1,75.0000028610231
321,208,90630,6,0,L|264:264,1,75.0000028610231
189,380,90793,2,0,L|245:323,1,75.0000028610231
381,247,90955,6,0,P|426:210|484:209,1,119.999996337891
