osu file format v14

[General]
AudioFilename: audio.mp3
AudioLeadIn: 0
PreviewTime:69793
Countdown: 0
SampleSet: Soft
StackLeniency: 0.6
Mode: 0
LetterboxInBreaks: 0
WidescreenStoryboard: 1

[Editor]
Bookmarks: 7928,194739,204955
DistanceSpacing: 0.8
BeatDivisor: 4
GridSize: 4
TimelineZoom: 2

[Metadata]
Title:Teo
TitleUnicode:テオ
Artist:Araki
ArtistUnicode:あらき
Creator:Nevo
Version:lapp's Extra.
Source:
Tags:foxy grandpa Akitoshi -Laura- lapp milkayy snownino_ shunao shogunmoon utaite cover vocaloid hatsune miku synth rock killian tachibana_ [_TNTlealu_] omoi Ascent japanese jrock j-rock foxygrandpa
BeatmapID:3654581
BeatmapSetID:1704681

[Difficulty]
HPDrainRate:5.8
CircleSize:3.8
OverallDifficulty:9
ApproachRate:9.2
SliderMultiplier:1.86
SliderTickRate:1

[Events]
//Background and Video events
0,0,"anime-girl-falling-up-clouds-sky-school-uniform.jpg",0,0
//Break Periods
//Storyboard Layer 0 (Background)
//Storyboard Layer 1 (Fail)
//Storyboard Layer 2 (Pass)
//Storyboard Layer 3 (Foreground)
//Storyboard Layer 4 (Overlay)
//Storyboard Sound Samples

[TimingPoints]
1547,324.324324324324,4,2,1,60,1,0
2844,-178.571428571429,4,2,1,60,0,0
3087,-178.571428571429,4,2,1,5,0,0
3168,-116.279069767442,4,2,1,60,0,0
3492,-178.571428571429,4,2,1,60,0,0
3736,-178.571428571429,4,2,1,5,0,0
3817,-104.166666666667,4,2,1,60,0,0
4141,-178.571428571429,4,2,1,60,0,0
4384,-178.571428571429,4,2,1,5,0,0
4465,-104.166666666667,4,2,1,60,0,0
4790,-178.571428571429,4,2,1,60,0,0
5033,-178.571428571429,4,2,1,5,0,0
5114,-104.166666666667,4,2,1,60,0,0
5438,-178.571428571429,4,2,1,60,0,0
5682,-178.571428571429,4,2,1,5,0,0
5763,-104.166666666667,4,2,1,60,0,0
6087,-178.571428571429,4,2,1,60,0,0
6330,-178.571428571429,4,2,1,5,0,0
6411,-104.166666666667,4,2,1,60,0,0
6736,-178.571428571429,4,2,1,60,0,0
6979,-178.571428571429,4,2,1,5,0,0
7060,-104.166666666667,4,2,1,60,0,0
7384,-178.571428571429,4,2,1,60,0,0
8033,-116.279069767442,4,2,1,60,0,0
12736,-116.279069767442,4,2,1,80,0,0
13222,-94.3396226415094,4,2,1,80,0,0
13546,-104.166666666667,4,2,1,80,0,0
16060,-104.166666666667,4,2,1,5,0,0
16141,-104.166666666667,4,2,1,80,0,0
17925,-94.3396226415097,4,2,1,80,0,0
18411,-104.166666666667,4,2,1,80,0,0
18655,-104.166666666667,4,2,1,5,0,0
18736,-104.166666666667,4,2,1,80,0,0
21249,-104.166666666667,4,2,1,5,0,0
21330,-104.166666666667,4,2,1,80,0,0
23601,-116.279069767442,4,2,1,80,0,0
34222,-116.279069767442,4,2,1,5,0,0
34303,-116.279069767442,4,2,1,80,0,0
40060,-116.279069767442,4,2,1,5,0,0
40141,-116.279069767442,4,2,1,80,0,0
41357,-116.279069767442,4,2,1,5,0,0
41438,-116.279069767442,4,2,1,80,0,0
44357,-94.3396226415097,4,2,1,80,0,0
44682,-104.166666666667,4,2,1,80,0,0
47519,-104.166666666667,4,2,1,5,0,0
47601,-104.166666666667,4,2,1,80,0,0
49546,-116.279069767442,4,2,1,80,0,0
67790,-116.279069767442,4,2,1,60,0,0
68033,-116.279069767442,4,2,1,80,0,0
69736,-116.279069767442,4,2,1,5,0,0
69817,-116.279069767442,4,2,1,80,0,0
70222,-116.279069767442,4,2,1,5,0,0
70303,-104.166666666667,4,2,1,80,0,1
88709,-104.166666666667,4,2,1,5,0,1
88790,-104.166666666667,4,2,1,80,0,1
100871,-104.166666666667,4,2,1,5,0,1
100952,-104.166666666667,4,2,1,80,0,1
101033,-104.166666666667,4,2,1,5,0,1
101114,-104.166666666667,4,2,1,80,0,1
111817,-94.3396226415094,4,2,1,80,0,0
116438,-94.3396226415094,4,2,1,5,0,0
116519,-94.3396226415094,4,2,1,80,0,0
117006,-104.166666666667,4,2,1,80,0,0
131519,-104.166666666667,4,2,1,5,0,0
131601,-104.166666666667,4,2,1,80,0,0
131682,-104.166666666667,4,2,1,5,0,0
131763,-104.166666666667,4,2,1,80,0,0
137925,-104.166666666667,4,2,1,50,0,0
138087,-104.166666666667,4,2,1,80,0,0
138168,-104.166666666667,4,2,1,50,0,0
138411,-104.166666666667,4,2,1,80,0,0
138492,-104.166666666667,4,2,1,50,0,0
138736,-104.166666666667,4,2,1,80,0,0
142952,-208.333333333333,4,2,1,80,0,0
148141,-104.166666666667,4,2,1,80,0,0
151303,-104.166666666667,4,2,1,5,0,0
151384,-104.166666666667,4,2,1,80,0,0
151546,-104.166666666667,4,2,1,60,0,0
152033,-116.279069767442,4,2,1,80,0,0
152925,-116.279069767442,4,2,1,5,0,0
153006,-116.279069767442,4,2,0,100,0,0
153249,-116.279069767442,4,2,1,5,0,0
153330,-94.3396226415094,4,2,1,80,0,1
153574,-94.3396226415094,4,2,1,5,0,1
153655,-94.3396226415094,4,2,1,80,0,1
156168,-94.3396226415094,4,2,1,5,0,1
156249,-94.3396226415094,4,2,1,80,0,1
158763,-94.3396226415094,4,2,1,5,0,1
158844,-94.3396226415094,4,2,1,80,0,1
160709,-94.3396226415094,4,2,1,5,0,1
160790,-94.3396226415094,4,2,1,80,0,1
161357,-94.3396226415094,4,2,1,5,0,1
161438,-94.3396226415094,4,2,1,80,0,1
184465,-86.2068965517241,4,2,1,80,0,0
184709,-86.2068965517241,4,2,1,5,0,0
184790,-104.166666666667,4,2,1,80,0,0
194844,-86.2068965517244,4,2,1,80,0,0
195168,-104.166666666667,4,2,1,80,0,0

[Colours]
Combo1 : 128,0,255
Combo2 : 255,128,0
Combo3 : 0,255,255
Combo4 : 255,128,255

[HitObjects]
103,88,2682,5,8,0:3:0:0:
103,88,2763,1,4,0:3:0:0:
103,88,2844,6,0,P|119:146|128:172,1,78.1200009536133,4|0,0:0|0:0,0:0:0:0:
202,199,3168,2,0,P|145:200|96:257,1,119.970001830597,8|0,0:1|0:0,0:0:0:0:
96,288,3492,6,0,P|132:295|179:308,1,78.1200009536133,0|0,3:0|0:0,0:0:0:0:
224,359,3817,2,0,B|250:353|272:344|272:344|306:360|306:360|334:348|366:342,1,133.920003269531,8|0,0:1|0:0,0:0:0:0:
390,324,4141,6,0,P|377:291|367:242,1,78.1200009536133,0|0,3:0|0:0,0:0:0:0:
425,186,4465,2,0,B|401:156|352:154|352:154|334:178|306:188,1,133.920003269531,8|0,0:1|0:0,0:0:0:0:
270,202,4790,6,0,P|232:191|194:182,1,78.1200009536133,0|0,3:0|0:0,0:0:0:0:
155,100,5114,2,0,P|159:166|101:225,1,133.920003269531,8|0,0:1|0:0,0:0:0:0:
79,238,5438,6,0,P|41:227|3:218,1,78.1200009536133,0|0,3:0|0:0,0:0:0:0:
52,323,5763,2,0,P|98:315|192:283,1,133.920003269531,8|0,0:1|0:0,0:0:0:0:
215,271,6087,6,0,P|207:310|197:358,1,78.1200009536133,0|0,3:0|0:0,0:0:0:0:
289,310,6411,2,0,B|315:304|337:295|337:295|371:311|371:311|399:299|431:293,1,133.920003269531,8|0,0:1|0:0,0:0:0:0:
452,266,6736,6,0,P|441:228|430:190,1,78.1200009536133,0|0,3:0|0:0,0:0:0:0:
460,106,7060,2,0,P|416:155|351:160,1,133.920003269531,8|0,0:1|0:0,0:0:0:0:
326,143,7384,1,0,3:0:0:0:
152,16,7546,1,8,0:1:0:0:
303,233,7709,1,8,0:1:0:0:
95,105,7871,1,8,0:1:0:0:
120,99,7952,1,8,0:1:0:0:
143,94,8033,6,0,P|191:83|243:66,1,79.980001220398,4|2,3:2|0:1,0:0:0:0:
142,241,8357,2,0,P|103:229|64:221,1,79.980001220398,8|2,0:1|0:1,0:0:0:0:
255,186,8682,2,0,P|265:231|276:272,1,79.980001220398,0|2,3:2|0:1,0:0:0:0:
399,354,9006,2,0,P|409:309|420:268,1,79.980001220398,8|2,0:1|0:1,0:0:0:0:
512,140,9330,2,0,P|473:149|434:158,1,79.980001220398,0|2,3:2|0:1,0:0:0:0:
340,28,9655,2,0,P|378:37|417:46,1,79.980001220398,8|2,0:1|0:1,0:0:0:0:
299,159,9979,5,0,3:2:0:0:
221,58,10141,1,2,0:1:0:0:
64,147,10303,1,8,0:1:0:0:
180,237,10465,1,2,0:1:0:0:
108,50,10628,6,0,P|99:93|88:131,1,79.980001220398,0|2,3:2|0:1,0:0:0:0:
40,246,10952,2,0,P|49:289|60:327,1,79.980001220398,8|2,0:1|0:1,0:0:0:0:
257,257,11276,2,0,P|219:247|176:236,1,79.980001220398,0|2,3:2|0:1,0:0:0:0:
314,369,11601,1,8,0:1:0:0:
314,369,11682,1,0,3:0:0:0:
314,369,11763,1,0,3:0:0:0:
314,369,11844,1,0,3:0:0:0:
314,369,11925,5,10,0:1:0:0:
463,168,12168,1,10,0:1:0:0:
235,29,12411,1,10,0:1:0:0:
235,29,12736,5,8,3:1:0:0:
258,72,12817,1,8,3:1:0:0:
261,121,12898,1,8,3:1:0:0:
243,167,12979,1,8,3:1:0:0:
224,212,13060,1,8,3:1:0:0:
227,261,13141,1,8,3:1:0:0:
251,305,13222,6,0,B|276:298|305:286|305:286|338:301|338:301|366:290|407:281,1,147.870000225632,4|0,3:2|0:0,0:0:0:0:
420,261,13546,2,0,P|431:213|443:165,1,89.2800021796876,8|2,0:1|0:1,0:0:0:0:
212,82,13871,2,0,P|222:125|232:168,1,89.2800021796876,0|2,3:0|0:1,0:0:0:0:
84,329,14195,2,0,P|126:343|169:356,1,89.2800021796876,8|2,0:1|0:1,0:0:0:0:
420,261,14519,6,0,B|380:216|321:215|321:215|302:251|267:266,1,178.560004359375,0|8,3:0|0:1,0:0:0:0:
109,174,15006,1,2,0:1:0:0:
326,51,15168,1,0,3:0:0:0:
322,72,15249,1,0,3:0:0:0:
318,94,15330,1,2,3:1:0:0:
197,0,15492,1,8,0:1:0:0:
423,87,15655,1,2,0:1:0:0:
246,276,15817,6,0,P|209:233|222:126,1,133.920003269531,0|0,3:0|0:0,0:0:0:0:
235,122,16141,2,0,P|280:132|330:146,1,89.2800021796876,8|2,0:1|0:1,0:0:0:0:
493,266,16465,2,0,P|448:276|398:290,1,89.2800021796876,0|2,3:0|0:1,0:0:0:0:
225,362,16790,2,0,P|237:309|249:260,1,89.2800021796876,8|2,0:1|0:1,0:0:0:0:
68,134,17114,6,0,B|110:117|110:117|146:137|146:137|194:108|262:128,1,178.560004359375,0|8,3:0|0:1,0:0:0:0:
468,146,17601,1,2,0:1:0:0:
300,29,17763,1,0,3:0:0:0:
306,50,17844,1,0,3:0:0:0:
311,71,17925,1,10,3:1:0:0:
387,308,18087,1,8,0:1:0:0:
104,230,18249,1,0,0:0:0:0:
104,230,18330,1,0,0:0:0:0:
104,230,18411,6,0,P|138:196|244:213,1,133.920003269531,4|0,3:2|0:0,0:0:0:0:
246,221,18736,2,0,P|235:263|219:323,1,89.2800021796876,8|2,0:1|0:1,0:0:0:0:
402,136,19060,2,0,P|358:147|315:159,1,89.2800021796876,0|2,3:0|0:1,0:0:0:0:
157,38,19384,2,0,P|200:49|243:61,1,89.2800021796876,8|2,0:1|0:1,0:0:0:0:
55,222,19709,6,0,B|51:190|39:159|39:159|59:116|59:116|44:81|35:34,1,178.560004359375,0|8,3:0|0:1,0:0:0:0:
234,228,20195,2,0,P|222:271|210:317,1,89.2800021796876,2|0,0:1|3:0,0:0:0:0:
207,348,20438,1,0,3:0:0:0:
207,348,20519,1,2,3:1:0:0:
452,216,20682,2,0,P|423:170|337:154,1,133.920003269531,8|0,3:1|0:0,0:0:0:0:
321,173,21006,6,0,P|333:216|345:262,1,89.2800021796876,4|0,3:2|0:0,0:0:0:0:
170,145,21330,2,0,P|181:101|193:58,1,89.2800021796876,8|2,0:1|0:1,0:0:0:0:
250,280,21655,1,0,3:0:0:0:
59,141,21817,1,10,0:1:0:0:
287,0,21979,2,0,P|298:42|310:86,1,89.2800021796876,10|0,0:1|3:0,0:0:0:0:
481,221,22303,5,8,1:0:0:0:
439,205,22384,1,8,1:0:0:0:
395,210,22465,1,8,1:0:0:0:
357,233,22546,1,8,1:0:0:0:
334,271,22628,1,2,0:3:0:0:
311,309,22709,1,2,0:3:0:0:
273,332,22790,1,2,0:3:0:0:
229,337,22871,1,2,0:3:0:0:
185,320,22952,6,0,L|202:253,3,44.6400010898438,8|8|8|8,0:3|0:3|0:3|0:3,0:0:0:0:
120,208,23276,2,0,L|76:219,1,44.6400010898438,8|4,0:1|0:3,0:0:0:0:
282,146,23438,2,0,L|325:157,1,44.6400010898438,4|4,0:3|0:3,0:0:0:0:
190,39,23601,6,0,B|195:69|205:94|205:94|188:133|188:133|198:164|204:205,1,159.960002440796,4|8,0:0|0:1,0:0:0:0:
288,317,24087,1,2,0:2:0:0:
120,302,24249,2,0,P|160:290|204:273,1,79.980001220398,2|2,3:2|0:0,0:0:0:0:
319,214,24574,2,0,P|359:226|403:243,1,79.980001220398,8|2,0:1|0:2,0:0:0:0:
461,330,24898,6,0,P|433:286|478:189,1,159.960002440796,2|8,3:2|0:1,0:0:0:0:
502,89,25384,2,0,P|464:103|426:114,1,79.980001220398,2|2,0:0|3:2,0:0:0:0:
350,67,25709,1,2,0:0:0:0:
249,168,25871,1,8,0:1:0:0:
146,99,26033,1,2,0:2:0:0:
259,6,26195,6,0,P|251:45|231:97,1,79.980001220398,2|2,3:2|0:0,0:0:0:0:
153,208,26519,1,8,0:1:0:0:
55,92,26682,2,0,P|63:131|83:183,1,79.980001220398,2|2,0:2|3:2,0:0:0:0:
0,272,27006,1,2,0:0:0:0:
0,272,27168,2,0,P|62:274|108:319,1,119.970001830597,8|0,0:1|0:0,0:0:0:0:
136,335,27492,6,0,P|174:323|213:314,1,79.980001220398,2|0,3:2|0:0,0:0:0:0:
348,232,27817,1,8,0:1:0:0:
218,176,27979,1,2,0:2:0:0:
325,321,28141,1,2,3:2:0:0:
463,196,28303,1,8,0:1:0:0:
299,104,28465,1,2,3:0:0:0:
417,43,28628,1,4,3:0:0:0:
417,43,28709,1,0,0:0:0:0:
417,43,28790,6,0,P|409:86|396:138,1,79.980001220398,4|2,0:0|0:2,0:0:0:0:
223,27,29114,2,0,P|268:13|313:-2,1,79.980001220398,8|2,0:1|0:0,0:0:0:0:
212,167,29438,2,0,P|176:130|96:134,1,119.970001830597,2|0,3:2|0:0,0:0:0:0:
83,145,29763,2,0,P|94:189|109:239,1,79.980001220398,8|2,0:1|0:2,0:0:0:0:
166,342,30087,6,0,P|123:331|84:322,1,79.980001220398,2|2,3:2|0:0,0:0:0:0:
200,242,30411,1,8,0:1:0:0:
282,334,30574,1,2,0:2:0:0:
389,198,30736,1,0,3:0:0:0:
260,146,30898,1,2,0:1:0:0:
406,298,31060,1,8,0:1:0:0:
504,113,31222,1,2,0:1:0:0:
504,113,31303,1,0,0:0:0:0:
504,113,31384,6,0,P|493:160|484:198,1,79.980001220398,2|2,3:2|0:0,0:0:0:0:
366,52,31709,1,8,0:1:0:0:
310,176,31871,2,0,P|358:165|393:157,1,79.980001220398,2|2,0:2|3:2,0:0:0:0:
180,77,32195,1,2,0:0:0:0:
180,77,32276,1,0,0:0:0:0:
180,77,32357,1,8,0:1:0:0:
271,7,32519,1,2,0:2:0:0:
141,160,32682,6,0,P|93:149|58:141,1,79.980001220398,0|0,3:0|0:0,0:0:0:0:
202,261,33006,2,0,P|250:250|285:242,1,79.980001220398,8|2,0:1|0:0,0:0:0:0:
302,222,33249,1,0,0:0:0:0:
302,222,33330,1,2,3:2:0:0:
471,156,33492,1,2,0:0:0:0:
290,69,33655,2,0,L|306:124,1,39.990000610199,8|8,0:1|0:1,0:0:0:0:
431,27,33817,2,0,L|419:65,1,39.990000610199,8|8,0:1|0:1,0:0:0:0:
393,305,33979,6,0,B|380:265|380:265|400:233|400:233|375:197|380:132,1,159.960002440796,4|8,0:1|0:1,0:0:0:0:
270,51,34465,1,2,0:0:0:0:
203,212,34628,2,0,P|241:201|280:192,1,79.980001220398,2|0,3:2|0:0,0:0:0:0:
135,79,34952,2,0,P|123:130|112:178,1,79.980001220398,8|0,0:1|0:0,0:0:0:0:
34,285,35276,6,0,B|62:247|123:243|123:243|138:279|183:296,1,159.960002440796,2|8,3:2|0:1,0:0:0:0:
293,357,35763,2,0,P|254:365|215:376,1,79.980001220398,2|0,3:2|3:0,0:0:0:0:
294,253,36087,1,0,3:0:0:0:
420,330,36249,1,8,0:1:0:0:
512,224,36411,1,0,0:0:0:0:
365,135,36574,6,0,P|377:184|393:239,1,79.980001220398,2|0,3:2|0:0,0:0:0:0:
442,76,36898,1,8,0:1:0:0:
276,181,37060,2,0,B|243:167|204:151|204:151|149:173|176:231,1,159.960002440796
300,297,37546,2,0,P|358:282|416:268,1,119.970001830597,8|0,0:1|0:0,0:0:0:0:
451,276,37871,6,0,P|440:326|428:376,1,79.980001220398,2|0,3:2|0:0,0:0:0:0:
307,181,38195,1,8,0:1:0:0:
212,293,38357,1,2,0:0:0:0:
72,154,38519,1,0,3:0:0:0:
244,102,38682,1,8,0:1:0:0:
88,262,38844,1,0,3:0:0:0:
240,381,39006,1,2,0:2:0:0:
240,381,39087,1,2,0:2:0:0:
240,381,39168,6,0,P|304:369|343:363,1,79.980001220398,4|2,0:1|0:2,0:0:0:0:
454,245,39492,2,0,P|390:233|351:227,1,79.980001220398,8|2,0:1|0:2,0:0:0:0:
190,124,39817,2,0,P|230:81|290:72,1,119.970001830597,2|0,3:2|0:0,0:0:0:0:
319,99,40141,2,0,P|316:142|296:189,1,79.980001220398,8|2,0:1|0:0,0:0:0:0:
138,278,40465,6,0,P|170:249|217:230,1,79.980001220398,0|2,3:0|0:0,0:0:0:0:
406,330,40790,2,0,P|350:343|277:364,1,119.970001830597,8|0,0:1|0:0,0:0:0:0:
256,379,41114,2,0,P|213:369|168:358,1,79.980001220398,0|0,3:0|0:0,0:0:0:0:
0,255,41438,2,0,P|43:245|88:234,1,79.980001220398,8|2,0:1|0:1,0:0:0:0:
251,163,41763,6,0,P|238:207|226:245,1,79.980001220398,0|2,3:0|0:2,0:0:0:0:
362,106,42087,2,0,P|375:150|387:188,1,79.980001220398,8|2,0:1|0:2,0:0:0:0:
505,94,42411,1,0,3:0:0:0:
370,5,42574,1,2,0:2:0:0:
251,163,42736,2,0,P|195:157|147:114,1,119.970001830597,8|0,0:1|0:0,0:0:0:0:
138,75,43060,1,4,0:1:0:0:
341,73,43222,5,8,0:1:0:0:
362,106,43303,1,8,0:1:0:0:
370,145,43384,1,2,3:1:0:0:
365,184,43465,1,8,0:1:0:0:
346,220,43546,1,8,0:1:0:0:
317,247,43627,1,8,0:1:0:0:
280,262,43708,1,2,3:0:0:0:
241,263,43789,1,8,0:1:0:0:
203,252,43871,6,0,L|187:210,1,39.990000610199,8|8,0:1|0:1,0:0:0:0:
138,75,44033,2,0,L|154:117,1,39.990000610199,4|8,3:0|0:1,0:0:0:0:
270,145,44195,1,8,0:1:0:0:
270,145,44276,1,8,0:1:0:0:
270,145,44357,6,0,B|299:139|326:128|326:128|358:143|358:143|389:132|417:128,1,147.870000225632,4|0,3:2|0:0,0:0:0:0:
455,124,44682,2,0,P|445:172|431:221,1,89.2800021796876,8|2,0:1|0:1,0:0:0:0:
300,376,45006,2,0,P|347:366|402:354,1,89.2800021796876,0|2,3:0|0:1,0:0:0:0:
201,225,45330,2,0,P|157:215|113:206,1,89.2800021796876,8|2,0:1|0:1,0:0:0:0:
297,30,45655,6,0,B|314:72|314:72|294:108|294:108|323:156|303:224,1,178.560004359375,0|8,3:0|0:1,0:0:0:0:
180,93,46141,1,2,0:1:0:0:
404,201,46303,1,0,3:0:0:0:
425,196,46384,1,0,3:0:0:0:
447,192,46465,1,2,3:1:0:0:
236,313,46628,1,8,0:1:0:0:
392,114,46790,1,2,0:1:0:0:
175,250,46952,6,0,P|110:230|46:212,1,133.920003269531,0|0,3:0|0:0,0:0:0:0:
13,210,47276,2,0,P|27:262|40:309,1,89.2800021796876,8|0,0:1|0:0,0:0:0:0:
175,146,47601,2,0,P|186:102|198:59,1,89.2800021796876,0|2,3:0|0:1,0:0:0:0:
314,323,47925,1,8,0:1:0:0:
131,258,48087,2,0,L|174:250,1,44.6400010898438,0|0,3:0|3:0,0:0:0:0:
449,226,48249,5,12,0:1:0:0:
316,54,48411,1,8,0:1:0:0:
285,86,48492,1,0,0:0:0:0:
271,128,48573,1,2,0:3:0:0:
275,172,48654,1,2,0:3:0:0:
297,210,48736,2,0,L|349:197,1,44.6400010898438,4|4,0:3|0:3,0:0:0:0:
393,330,48898,5,8,0:1:0:0:
349,322,48979,1,0,0:0:0:0:
305,314,49060,1,0,3:0:0:0:
261,307,49141,1,0,0:0:0:0:
217,299,49222,2,0,L|140:282,1,44.6400010898438,8|0,0:1|3:0,0:0:0:0:
17,241,49384,2,0,L|60:231,1,44.6400010898438,8|0,0:1|3:0,0:0:0:0:
146,37,49546,6,0,B|128:65|95:71|95:71|102:130|148:170,1,159.960002440796,4|8,0:0|0:1,0:0:0:0:
257,24,50033,1,2,0:2:0:0:
328,163,50195,2,0,P|276:148|238:140,1,79.980001220398,2|2,3:2|0:2,0:0:0:0:
413,96,50519,1,8,0:1:0:0:
484,211,50682,1,2,0:2:0:0:
327,269,50844,6,0,B|282:251|282:251|226:285|175:271,1,159.960002440796,2|8,3:2|0:1,0:0:0:0:
46,172,51330,2,0,P|60:219|76:256,1,79.980001220398,2|2,0:2|3:2,0:0:0:0:
172,152,51655,1,2,0:2:0:0:
32,81,51817,1,8,0:1:0:0:
135,6,51979,1,2,0:2:0:0:
252,113,52141,6,0,P|311:114|360:81,1,119.970001830597,2|0,3:2|0:0,0:0:0:0:
385,49,52465,2,0,P|424:29|467:28,1,79.980001220398,8|2,0:1|0:2,0:0:0:0:
512,146,52790,2,0,B|506:167|503:190|503:190|475:210|475:210|469:239|460:270,1,119.970001830597,2|0,3:2|0:0,0:0:0:0:
449,290,53114,2,0,P|401:278|362:268,1,79.980001220398,8|2,0:1|0:2,0:0:0:0:
238,203,53438,5,2,3:2:0:0:
321,349,53601,1,2,0:2:0:0:
151,237,53763,1,8,0:1:0:0:
345,129,53925,2,0,P|331:179|320:214,1,79.980001220398,2|2,0:2|3:2,0:0:0:0:
130,115,54249,1,8,0:1:0:0:
263,51,54411,1,2,3:2:0:0:
151,237,54574,1,2,0:2:0:0:
151,237,54655,1,0,0:0:0:0:
151,237,54736,6,0,P|91:224|61:218,1,79.980001220398,6|2,3:2|0:2,0:0:0:0:
258,333,55060,2,0,P|318:320|348:314,1,79.980001220398,8|2,0:1|0:2,0:0:0:0:
469,196,55384,2,0,P|458:241|449:280,1,79.980001220398,2|2,3:2|0:2,0:0:0:0:
346,153,55709,1,8,0:1:0:0:
475,89,55871,1,2,0:2:0:0:
346,8,56033,6,0,P|306:14|265:31,1,79.980001220398,2|2,3:2|0:2,0:0:0:0:
246,51,56276,1,0,0:0:0:0:
246,51,56357,1,8,0:1:0:0:
156,213,56519,1,2,0:2:0:0:
51,81,56682,1,2,3:2:0:0:
254,173,56844,1,2,0:1:0:0:
95,309,57006,1,8,0:1:0:0:
5,168,57168,1,2,0:1:0:0:
5,168,57249,1,0,0:0:0:0:
5,168,57330,6,0,P|48:175|95:184,1,79.980001220398,2|2,3:2|0:2,0:0:0:0:
260,260,57655,1,8,0:1:0:0:
164,112,57817,2,0,P|173:157|186:213,1,79.980001220398,2|2,0:2|3:2,0:0:0:0:
387,133,58141,1,2,0:2:0:0:
387,133,58222,1,0,0:0:0:0:
387,133,58303,1,8,0:1:0:0:
260,260,58465,1,2,0:2:0:0:
359,37,58628,6,0,P|423:41|476:82,1,119.970001830597,2|0,3:2|0:0,0:0:0:0:
493,106,58952,2,0,P|482:148|470:194,1,79.980001220398,8|2,0:1|0:2,0:0:0:0:
464,226,59195,1,0,0:0:0:0:
464,226,59276,1,2,3:2:0:0:
349,251,59438,1,2,0:2:0:0:
242,160,59601,2,0,L|258:215,1,39.990000610199,8|8,0:1|0:1,0:0:0:0:
303,357,59763,2,0,L|287:302,1,39.990000610199,2|4,0:3|0:3,0:0:0:0:
79,270,59925,6,0,B|115:232|168:232|168:232|186:268|231:281,1,159.960002440796,4|8,0:1|0:1,0:0:0:0:
86,136,60411,1,0,0:0:0:0:
247,56,60574,2,0,P|234:107|225:143,1,79.980001220398,2|0,3:2|3:0,0:0:0:0:
404,199,60898,2,0,P|394:160|384:121,1,79.980001220398,8|0,0:1|0:0,0:0:0:0:
210,273,61222,6,0,P|284:266|350:346,1,159.960002440796,2|8,3:2|0:1,0:0:0:0:
154,375,61709,2,0,P|114:367|71:358,1,79.980001220398,0|2,0:0|3:2,0:0:0:0:
15,193,62033,1,0,3:0:0:0:
210,273,62195,1,8,0:1:0:0:
93,115,62357,1,0,0:0:0:0:
93,115,62438,1,0,0:0:0:0:
93,115,62519,6,0,P|102:167|113:206,1,79.980001220398,2|0,3:2|3:0,0:0:0:0:
268,68,62844,2,0,P|259:120|248:159,1,79.980001220398,8|0,0:1|0:0,0:0:0:0:
378,217,63168,1,2,3:2:0:0:
496,115,63330,1,0,3:0:0:0:
385,27,63492,2,0,P|394:79|405:118,1,79.980001220398,8|0,0:1|0:0,0:0:0:0:
512,266,63817,6,0,B|464:249|432:279|446:287|396:328|334:289,1,159.960002440796,2|8,3:2|0:1,0:0:0:0:
253,197,64303,1,0,0:0:0:0:
145,328,64465,1,2,3:1:0:0:
0,195,64628,1,8,0:1:0:0:
179,115,64790,1,8,0:1:0:0:
62,35,64952,1,8,0:1:0:0:
62,35,65033,1,8,0:1:0:0:
62,35,65114,6,0,P|74:81|89:134,1,79.980001220398,4|2,3:2|0:1,0:0:0:0:
243,225,65438,2,0,P|231:271|216:324,1,79.980001220398,8|2,0:1|0:1,0:0:0:0:
355,125,65763,1,0,3:0:0:0:
139,204,65925,1,2,0:1:0:0:
362,130,66087,1,8,0:1:0:0:
130,198,66249,1,2,0:1:0:0:
330,40,66411,6,0,P|386:40|447:101,1,119.970001830597,0|0,3:0|0:0,0:0:0:0:
456,114,66736,2,0,P|444:159|435:196,1,79.980001220398,8|2,0:1|0:1,0:0:0:0:
300,314,67060,2,0,P|288:269|279:232,1,79.980001220398,0|0,3:0|0:0,0:0:0:0:
96,104,67384,1,8,0:1:0:0:
92,133,67465,1,0,3:0:0:0:
88,163,67546,1,0,3:0:0:0:
84,193,67627,1,0,3:0:0:0:
80,222,67709,5,4,0:1:0:0:
112,184,67790,1,8,0:1:0:0:
159,166,67871,1,8,0:1:0:0:
208,170,67952,1,8,0:1:0:0:
251,196,68033,1,8,0:1:0:0:
294,222,68114,1,8,0:1:0:0:
343,226,68195,1,8,0:1:0:0:
390,208,68276,1,8,0:1:0:0:
422,170,68357,6,0,L|414:118,3,39.990000610199,8|8|8|8,0:1|0:1|0:1|0:1,0:0:0:0:
318,86,68682,2,0,L|279:76,1,39.990000610199,2|8,0:3|0:3,0:0:0:0:
451,9,68844,2,0,L|489:0,1,39.990000610199,4|4,0:3|0:3,0:0:0:0:
343,226,69006,5,10,0:1:0:0:
91,54,69330,5,10,0:1:0:0:
187,342,69655,6,0,L|198:289,1,39.990000610199,8|0,3:1|0:0,0:0:0:0:
233,132,69817,2,0,L|222:185,1,39.990000610199,0|0,3:0|3:0,0:0:0:0:
362,266,69979,2,0,P|420:260|476:209,1,119.970001830597,4|0,3:2|0:0,0:0:0:0:
486,185,70303,6,0,P|452:148|388:139,1,89.2800021796876,4|2,3:1|0:1,0:0:0:0:
273,248,70628,5,8,0:1:0:0:
331,55,70790,1,2,0:1:0:0:
194,202,70952,5,0,3:0:0:0:
136,9,71114,1,2,0:1:0:0:
0,240,71276,5,8,0:1:0:0:
58,47,71438,1,2,0:1:0:0:
189,289,71601,5,0,3:0:0:0:
133,95,71763,1,2,0:1:0:0:
97,349,71925,5,8,0:1:0:0:
267,178,72087,1,2,0:1:0:0:
0,240,72249,2,0,P|43:249|87:259,1,89.2800021796876,0|2,3:0|0:1,0:0:0:0:
304,345,72574,1,8,0:1:0:0:
174,175,72736,1,10,0:1:0:0:
376,71,72898,2,0,P|367:116|355:167,1,89.2800021796876,0|2,3:0|0:1,0:0:0:0:
78,178,73222,5,8,0:1:0:0:
274,105,73384,1,2,0:1:0:0:
133,272,73546,5,0,3:0:0:0:
65,58,73709,1,2,0:1:0:0:
240,202,73871,5,8,0:1:0:0:
36,264,74033,1,2,0:1:0:0:
172,98,74195,5,0,3:0:0:0:
225,306,74357,1,2,0:1:0:0:
358,159,74519,5,8,0:1:0:0:
308,351,74682,1,2,0:1:0:0:
471,180,74844,2,0,P|480:225|489:269,1,89.2800021796876,0|10,3:0|0:1,0:0:0:0:
264,139,75168,1,8,0:1:0:0:
450,38,75330,1,10,0:1:0:0:
291,238,75492,2,0,P|246:227|195:215,1,89.2800021796876,4|2,3:1|0:1,0:0:0:0:
382,119,75817,5,8,0:1:0:0:
329,319,75979,1,2,0:1:0:0:
287,93,76141,5,0,3:0:0:0:
235,302,76303,1,2,0:1:0:0:
195,72,76465,5,8,0:1:0:0:
143,281,76627,1,2,0:1:0:0:
106,51,76790,5,0,3:0:0:0:
54,260,76952,1,2,0:1:0:0:
267,195,77114,5,8,0:1:0:0:
21,136,77276,1,2,0:1:0:0:
267,195,77438,2,0,P|317:207|375:226,1,89.2800021796876,0|2,3:0|0:1,0:0:0:0:
197,77,77763,1,8,0:1:0:0:
303,296,77925,1,2,0:1:0:0:
435,88,78087,2,0,P|385:100|327:119,1,89.2800021796876,0|2,3:0|0:1,0:0:0:0:
205,303,78411,6,0,P|217:252|225:211,1,89.2800021796876,8|2,0:1|0:1,0:0:0:0:
41,81,78736,2,0,P|49:124|60:168,1,89.2800021796876,0|8,3:0|0:1,0:0:0:0:
46,198,78979,5,8,0:1:0:0:
37,184,79060,1,2,0:3:0:0:
75,162,79141,1,8,0:3:0:0:
120,160,79222,1,4,0:3:0:0:
161,176,79303,1,4,0:3:0:0:
191,208,79384,1,8,0:1:0:0:
222,239,79465,1,2,0:3:0:0:
263,255,79546,1,2,0:3:0:0:
307,251,79627,1,2,0:3:0:0:
346,230,79708,1,8,0:3:0:0:
372,194,79789,1,8,0:3:0:0:
381,151,79870,1,4,0:3:0:0:
371,108,79951,1,4,0:3:0:0:
343,73,80033,6,0,L|275:90,3,44.6400010898438,8|0|0|0,0:1|3:0|3:0|3:0,0:0:0:0:
240,150,80357,1,8,0:1:0:0:
196,141,80438,1,8,0:1:0:0:
152,132,80519,1,8,0:1:0:0:
108,124,80600,1,8,0:1:0:0:
64,115,80682,6,0,P|82:175|96:219,1,89.2800021796876,4|2,3:2|0:1,0:0:0:0:
299,83,81006,1,8,0:1:0:0:
171,282,81168,1,2,0:1:0:0:
375,185,81330,2,0,P|311:171|258:158,1,89.2800021796876,0|2,3:0|0:1,0:0:0:0:
386,369,81655,2,0,P|429:358|473:349,1,89.2800021796876,8|2,0:1|0:1,0:0:0:0:
287,165,81979,5,0,3:0:0:0:
467,249,82141,1,2,0:1:0:0:
280,353,82303,1,8,0:1:0:0:
412,156,82465,1,2,0:1:0:0:
205,285,82628,2,0,B|179:282|155:272|155:272|123:287|123:287|95:278|65:272,1,133.920003269531,0|0,3:0|0:0,0:0:0:0:
51,262,82952,1,8,0:1:0:0:
288,157,83114,1,10,0:1:0:0:
137,31,83276,6,0,P|119:91|105:135,1,89.2800021796876,0|2,3:0|0:1,0:0:0:0:
33,343,83601,1,8,0:1:0:0:
216,191,83763,1,2,0:1:0:0:
6,106,83925,2,0,P|24:166|38:210,1,89.2800021796876,0|2,3:0|0:1,0:0:0:0:
181,361,84249,2,0,P|199:301|213:257,1,89.2800021796876,8|2,0:1|0:1,0:0:0:0:
319,83,84574,5,0,3:0:0:0:
140,182,84736,1,2,0:1:0:0:
372,296,84898,1,8,0:1:0:0:
231,125,85060,1,2,0:1:0:0:
426,41,85222,2,0,P|417:92|408:139,1,89.2800021796876,0|10,3:0|0:1,0:0:0:0:
284,292,85546,1,8,0:1:0:0:
488,200,85709,1,10,0:1:0:0:
277,79,85871,6,0,P|206:83|168:137,1,133.920003269531,4|0,3:2|0:0,0:0:0:0:
172,172,86195,1,8,0:1:0:0:
15,92,86357,1,2,0:1:0:0:
216,259,86519,2,0,P|269:247|330:234,1,89.2800021796876,0|2,3:0|0:1,0:0:0:0:
113,380,86844,2,0,P|60:368|-1:355,1,89.2800021796876,8|2,0:1|0:1,0:0:0:0:
172,172,87168,5,0,3:0:0:0:
250,371,87330,1,2,0:1:0:0:
56,234,87492,1,8,0:1:0:0:
260,125,87655,1,2,0:1:0:0:
124,301,87817,1,0,3:0:0:0:
14,76,87979,1,2,0:1:0:0:
209,254,88141,2,0,P|286:247|333:193,1,133.920003269531,8|0,0:1|0:0,0:0:0:0:
334,165,88465,6,0,P|298:132|259:124,1,89.2800021796876,4|0,0:1|0:0,0:0:0:0:
25,39,88790,2,0,B|53:30|53:30|84:46|84:46|122:22|164:26,1,133.920003269531,8|0,0:1|0:0,0:0:0:0:
186,36,89114,2,0,P|175:89|165:135,1,89.2800021796876,0|2,3:0|0:1,0:0:0:0:
338,268,89438,2,0,B|379:229|442:225|442:225|457:264|507:280,1,178.560004359375,0|0,3:0|3:0,0:0:0:0:
296,364,89925,5,8,0:1:0:0:
261,336,90006,1,8,0:1:0:0:
241,296,90087,1,8,0:1:0:0:
239,252,90168,1,8,0:1:0:0:
254,211,90249,1,8,0:1:0:0:
286,179,90330,1,8,0:1:0:0:
327,163,90411,6,0,L|380:178,1,44.6400010898438,8|8,0:1|0:1,0:0:0:0:
215,114,90574,2,0,L|172:126,1,44.6400010898438,8|8,0:1|0:1,0:0:0:0:
366,50,90736,2,0,L|408:62,1,44.6400010898438,8|2,0:1|0:3,0:0:0:0:
171,0,90898,2,0,L|128:12,1,44.6400010898438,8|4,0:3|0:3,0:0:0:0:
240,299,91060,6,0,P|248:247|258:180,1,89.2800021796876,4|0,3:1|0:0,0:0:0:0:
50,78,91384,2,0,B|53:105|66:137|66:137|44:185|44:185|59:218|68:260,1,178.560004359375,10|0,0:1|3:0,0:0:0:0:
246,111,91871,2,0,P|206:99|155:83,1,89.2800021796876,0|10,3:0|0:1,0:0:0:0:
253,210,92195,1,0,0:0:0:0:
350,42,92357,6,0,P|358:94|368:161,1,89.2800021796876,2|0,3:1|0:0,0:0:0:0:
391,321,92682,2,0,P|383:269|373:202,1,89.2800021796876,10|0,0:1|0:0,0:0:0:0:
246,111,93006,1,2,3:1:0:0:
455,156,93168,1,0,3:0:0:0:
283,296,93330,2,0,P|232:283|187:273,1,89.2800021796876,8|0,0:1|0:0,0:0:0:0:
77,103,93655,6,0,P|136:95|207:169,1,133.920003269531,2|0,3:1|0:0,0:0:0:0:
208,173,93979,1,10,0:1:0:0:
50,296,94141,2,0,P|34:237|19:179,1,89.2800021796876,0|0,0:0|3:0,0:0:0:0:
179,342,94465,2,0,B|220:303|283:299|283:299|298:338|348:354,1,178.560004359375,0|0,3:0|0:0,0:0:0:0:
512,234,94952,6,0,P|462:219|406:205,1,89.2800021796876,2|0,3:1|0:0,0:0:0:0:
208,173,95276,1,8,0:1:0:0:
372,69,95438,2,0,B|357:109|357:109|373:141|373:141|337:189|345:262,1,178.560004359375,0|0,0:0|3:0,0:0:0:0:
473,108,95925,1,8,0:1:0:0:
318,0,96087,1,8,0:1:0:0:
185,162,96249,6,0,P|250:146|281:140,1,89.2800021796876,4|0,3:2|0:0,0:0:0:0:
428,245,96574,1,10,0:1:0:0:
209,339,96736,2,0,P|220:293|232:245,1,89.2800021796876,0|2,0:0|3:1,0:0:0:0:
43,143,97060,2,0,P|53:186|64:229,1,89.2800021796876,0|8,3:0|0:1,0:0:0:0:
273,73,97384,2,0,B|241:65|213:53|213:53|163:76|163:76|130:61|94:52,1,178.560004359375
262,253,97871,5,10,0:1:0:0:
395,77,98033,1,0,0:0:0:0:
193,151,98195,1,2,3:1:0:0:
335,318,98357,1,0,3:0:0:0:
104,219,98519,1,8,0:1:0:0:
300,68,98682,1,8,0:1:0:0:
300,68,98763,1,8,0:1:0:0:
300,68,98844,6,0,P|290:116|278:165,1,89.2800021796876,0|0,3:0|0:0,0:0:0:0:
358,337,99168,2,0,P|405:320|453:309,1,89.2800021796876,10|0,0:1|0:0,0:0:0:0:
104,219,99492,2,0,P|57:202|9:191,1,89.2800021796876,2|0,3:1|0:0,0:0:0:0:
369,131,99817,2,0,P|416:114|464:103,1,89.2800021796876,10|0,0:1|0:0,0:0:0:0:
141,50,100141,5,2,3:1:0:0:
308,238,100303,1,0,0:0:0:0:
302,216,100384,1,0,0:0:0:0:
297,194,100465,1,8,0:1:0:0:
186,330,100628,1,4,3:0:0:0:
448,209,100790,2,0,L|396:198,1,44.6400010898438,8|0,0:1|0:0,0:0:0:0:
170,129,100952,2,0,L|222:118,1,44.6400010898438,8|0,0:1|0:0,0:0:0:0:
337,0,101114,5,8,0:1:0:0:
330,44,101195,1,8,0:1:0:0:
324,88,101276,1,8,0:1:0:0:
317,132,101357,1,8,0:1:0:0:
311,176,101438,1,4,3:1:0:0:
160,281,101601,6,0,P|206:265|259:252,1,89.2800021796876,2|8,0:1|0:1,0:0:0:0:
482,184,101925,2,0,P|438:172|396:157,1,89.2800021796876,2|0,0:1|3:0,0:0:0:0:
253,0,102249,2,0,P|264:57|276:93,1,89.2800021796876,2|8,0:1|0:1,0:0:0:0:
356,243,102574,1,2,0:1:0:0:
180,129,102736,6,0,P|118:125|68:216,1,133.920003269531,0|0,3:0|0:0,0:0:0:0:
70,206,103060,1,8,0:1:0:0:
161,340,103222,1,2,0:1:0:0:
250,206,103384,2,0,P|259:255|268:296,1,89.2800021796876,0|2,3:0|0:1,0:0:0:0:
420,149,103709,2,0,P|411:100|402:59,1,89.2800021796876,8|2,0:1|0:1,0:0:0:0:
444,258,104033,5,0,3:0:0:0:
312,113,104195,2,0,P|259:122|206:130,1,89.2800021796876,2|8,0:1|0:1,0:0:0:0:
43,235,104519,2,0,P|87:241|131:249,1,89.2800021796876,2|0,0:1|3:0,0:0:0:0:
271,365,104844,2,0,P|256:299|247:257,1,89.2800021796876,2|8,0:1|0:1,0:0:0:0:
110,140,105168,1,2,0:1:0:0:
342,252,105330,6,0,B|382:241|382:241|412:257|412:257|445:240|505:239,1,133.920003269531,0|0,3:0|0:0,0:0:0:0:
501,241,105655,1,8,0:1:0:0:
297,71,105817,2,0,P|288:128|266:232,1,133.920003269531,2|0,3:1|0:0,0:0:0:0:
261,240,106141,1,10,0:1:0:0:
182,58,106303,1,8,0:1:0:0:
391,148,106465,1,10,0:1:0:0:
150,209,106628,6,0,B|105:171|55:170|55:170|33:213|-12:215,1,178.560004359375,0|8,3:0|0:1,0:0:0:0:
143,327,107114,2,0,P|198:315|249:304,1,89.2800021796876,2|0,0:1|3:0,0:0:0:0:
373,205,107438,2,0,P|329:195|285:186,1,89.2800021796876,2|8,0:1|0:1,0:0:0:0:
137,24,107763,6,0,B|94:47|94:47|64:114|135:174,1,178.560004359375,2|2,0:1|0:1,0:0:0:0:
352,65,108249,1,8,0:1:0:0:
189,256,108411,1,2,0:1:0:0:
429,164,108574,1,0,3:0:0:0:
216,32,108736,1,2,0:1:0:0:
370,256,108898,1,8,0:1:0:0:
347,252,108979,1,0,0:0:0:0:
325,249,109060,1,2,0:1:0:0:
79,129,109222,6,0,P|130:117|181:105,1,89.2800021796876,0|2,3:0|0:1,0:0:0:0:
399,5,109546,2,0,P|385:55|369:120,1,89.2800021796876,8|2,0:1|0:1,0:0:0:0:
499,252,109871,2,0,L|487:190,1,44.6400010898438,0|0,3:0|0:0,0:0:0:0:
346,318,110033,5,8,0:1:0:0:
305,335,110114,1,8,0:1:0:0:
261,332,110195,1,2,3:0:0:0:
223,310,110276,1,8,3:0:0:0:
199,273,110357,1,4,3:0:0:0:
175,236,110438,1,4,3:0:0:0:
137,214,110519,1,0,3:0:0:0:
93,211,110600,1,0,3:0:0:0:
52,228,110682,6,0,L|70:289,1,44.6400010898438,8|8,0:1|0:1,0:0:0:0:
0,133,110844,2,0,L|18:72,1,44.6400010898438,2|8,0:3|0:3,0:0:0:0:
108,35,111006,1,4,0:3:0:0:
111,41,111087,1,4,0:3:0:0:
114,47,111168,5,8,0:1:0:0:
154,28,111249,1,2,0:3:0:0:
198,30,111330,1,8,0:3:0:0:
235,53,111411,1,0,0:0:0:0:
258,91,111493,1,8,0:1:0:0:
281,129,111574,1,2,0:3:0:0:
318,152,111655,1,8,0:3:0:0:
362,154,111736,1,0,0:0:0:0:
402,135,111817,1,4,3:2:0:0:
256,192,111898,12,0,115546,0:0:0:0:
455,77,115709,5,2,0:2:0:0:
312,300,115952,1,2,0:2:0:0:
100,107,116195,2,0,B|128:92|128:92|157:98|157:98|202:71|272:80,1,147.870000225632,2|0,0:1|0:0,0:0:0:0:
269,95,116519,1,0,3:0:0:0:
266,107,116600,1,0,3:0:0:0:
264,121,116682,2,0,P|249:193|231:288,1,147.870000225632,8|0,1:0|0:0,0:0:0:0:
153,247,117006,5,6,3:1:0:0:
153,247,117114,2,0,P|107:260|79:283,1,59.520001453125,2|2,0:1|0:1,0:0:0:0:
316,296,117330,1,10,0:1:0:0:
316,296,117438,2,0,P|345:290|371:276,1,59.520001453125,2|2,0:1|0:1,0:0:0:0:
211,177,117655,1,2,3:0:0:0:
211,177,117763,2,0,P|184:163|155:157,1,59.520001453125,2|2,0:1|0:1,0:0:0:0:
260,365,117979,1,10,0:1:0:0:
260,365,118087,2,0,P|286:378|315:384,1,59.520001453125,2|2,0:1|0:1,0:0:0:0:
235,266,118303,5,0,3:0:0:0:
420,161,118465,2,0,P|405:229|397:264,1,89.2800021796876,2|8,0:1|0:1,0:0:0:0:
252,132,118790,1,2,0:1:0:0:
493,77,118952,2,0,P|502:120|512:164,1,89.2800021796876,0|2,3:0|0:1,0:0:0:0:
284,10,119276,1,8,0:1:0:0:
445,221,119438,1,2,0:1:0:0:
252,132,119601,6,0,P|305:92|385:105,1,133.920003269531,0|0,3:0|0:0,0:0:0:0:
398,131,119925,1,8,0:1:0:0:
257,294,120087,2,0,B|233:290|208:281|208:281|177:294|177:294|148:286|122:283,1,133.920003269531,2|0,0:1|0:0,0:0:0:0:
90,270,120411,1,2,0:1:0:0:
252,132,120574,1,8,0:1:0:0:
131,49,120736,1,2,0:1:0:0:
24,196,120898,6,0,P|80:183|122:173,1,89.2800021796876,0|2,3:0|0:1,0:0:0:0:
338,111,121222,2,0,P|294:121|251:131,1,89.2800021796876,8|0,0:1|0:0,0:0:0:0:
158,255,121546,1,0,3:0:0:0:
259,26,121709,1,8,0:1:0:0:
93,153,121871,1,8,0:1:0:0:
308,277,122033,1,8,0:1:0:0:
308,277,122114,1,8,0:1:0:0:
308,277,122195,6,0,P|324:246|330:203,2,59.520001453125,4|2|0,3:1|0:1|0:1,0:0:0:0:
442,209,122519,6,0,P|431:175|405:141,2,59.520001453125,8|2|0,0:1|0:1|0:1,0:0:0:0:
487,73,122844,5,0,3:0:0:0:
460,58,122952,1,2,0:1:0:0:
432,51,123060,1,2,0:1:0:0:
356,95,123168,5,8,0:1:0:0:
329,110,123276,1,2,0:1:0:0:
301,117,123384,1,0,0:1:0:0:
213,56,123492,6,0,P|206:100|201:129,2,59.520001453125,0|2|0,3:0|0:1|0:1,0:0:0:0:
98,172,123817,6,0,P|93:142|88:113,2,59.520001453125,8|2|2,0:1|0:1|0:1,0:0:0:0:
210,210,124141,5,0,3:0:0:0:
205,239,124249,1,2,0:1:0:0:
200,268,124357,1,2,0:1:0:0:
108,341,124465,5,8,0:1:0:0:
103,312,124573,1,2,0:1:0:0:
98,283,124681,1,2,0:1:0:0:
218,351,124790,6,0,B|262:334|262:334|299:369|368:362,1,133.920003269531,0|0,3:0|0:0,0:0:0:0:
382,359,125114,2,0,P|373:312|364:266,1,89.2800021796876,8|2,0:1|0:1,0:0:0:0:
476,128,125438,2,0,P|485:175|494:221,1,89.2800021796876,0|2,3:0|0:1,0:0:0:0:
281,153,125763,1,8,0:1:0:0:
463,297,125925,1,8,0:1:0:0:
335,72,126087,5,0,3:0:0:0:
292,58,126168,1,8,0:1:0:0:
248,63,126249,1,8,0:1:0:0:
209,84,126330,1,8,0:1:0:0:
183,119,126411,1,8,3:1:0:0:
157,154,126492,1,8,0:1:0:0:
118,175,126573,1,8,0:1:0:0:
74,180,126654,1,8,0:1:0:0:
31,166,126736,6,0,L|19:113,3,44.6400010898438,8|8|8|8,0:3|0:3|0:1|0:1,0:0:0:0:
113,275,127060,2,0,L|103:318,1,44.6400010898438,8|8,3:1|0:1,0:0:0:0:
183,119,127222,2,0,L|173:75,1,44.6400010898438,8|8,0:1|0:1,0:0:0:0:
245,299,127384,5,4,3:1:0:0:
343,127,127546,1,2,0:1:0:0:
414,341,127709,2,0,P|460:330|507:320,1,89.2800021796876,8|2,0:1|0:1,0:0:0:0:
271,199,128033,1,0,3:0:0:0:
464,105,128195,1,2,0:1:0:0:
329,295,128357,1,8,0:1:0:0:
187,144,128519,1,2,0:1:0:0:
363,40,128682,6,0,P|351:92|341:131,1,89.2800021796876,0|2,3:0|0:1,0:0:0:0:
177,19,129006,1,8,0:1:0:0:
127,243,129168,2,0,P|176:187|284:212,1,178.560004359375,2|2,0:1|0:1,0:0:0:0:
61,136,129655,1,8,0:1:0:0:
214,299,129817,1,2,0:1:0:0:
19,216,129979,6,0,P|34:260|49:305,1,89.2800021796876,0|2,3:0|0:1,0:0:0:0:
195,107,130303,1,8,0:1:0:0:
6,44,130465,1,0,0:0:0:0:
174,207,130628,2,0,P|218:193|265:182,1,89.2800021796876,0|2,3:0|0:1,0:0:0:0:
194,384,130952,2,0,P|150:370|103:359,1,89.2800021796876,8|0,0:1|0:0,0:0:0:0:
360,261,131276,6,0,P|369:309|377:356,1,89.2800021796876,0|0,3:0|0:0,0:0:0:0:
437,154,131601,1,8,0:1:0:0:
250,288,131763,2,0,B|206:269|206:269|173:285|173:285|132:255|70:257,1,178.560004359375,4|8,3:2|0:1,0:0:0:0:
45,250,132168,1,8,0:1:0:0:
45,250,132249,2,0,L|57:184,1,44.6400010898438,8|8,0:3|0:3,0:0:0:0:
89,42,132411,2,0,L|76:107,1,44.6400010898438,8|8,0:1|0:1,0:0:0:0:
212,175,132574,6,0,P|261:164|310:154,1,89.2800021796876,4|2,3:1|0:1,0:0:0:0:
396,349,132898,2,0,P|352:339|308:330,1,89.2800021796876,8|0,0:1|0:0,0:0:0:0:
444,123,133222,1,0,3:0:0:0:
512,297,133384,1,2,0:1:0:0:
299,156,133546,1,8,0:1:0:0:
454,40,133709,1,0,0:0:0:0:
409,272,133871,6,0,P|400:223|392:179,1,89.2800021796876,0|2,3:0|0:1,0:0:0:0:
228,40,134195,2,0,P|219:89|211:133,1,89.2800021796876,8|0,0:1|0:0,0:0:0:0:
120,312,134519,1,0,3:0:0:0:
299,156,134682,1,2,0:1:0:0:
79,233,134844,1,8,0:1:0:0:
79,233,134925,1,2,0:3:0:0:
79,233,135006,1,8,0:3:0:0:
79,233,135087,1,4,0:3:0:0:
79,233,135168,5,8,3:1:0:0:
376,321,135330,1,8,3:1:0:0:
470,151,135655,5,8,3:1:0:0:
173,239,135817,1,8,3:1:0:0:
47,75,136141,5,8,3:1:0:0:
344,163,136303,1,8,3:1:0:0:
237,351,136628,5,8,3:1:0:0:
331,58,136790,1,4,3:0:0:0:
147,15,137114,6,0,P|157:62|169:113,1,89.2800021796876,10|0,0:1|3:0,0:0:0:0:
353,357,137438,2,0,P|369:289|386:219,1,133.920003269531,10|0,0:1|0:0,0:0:0:0:
399,183,137763,6,0,L|390:133,3,44.6400010898438,4|8|8|8,3:2|0:1|0:1|0:1,0:0:0:0:
301,83,138087,2,0,L|292:133,3,44.6400010898438,8|8|8|8,3:1|0:1|0:1|0:1,0:0:0:0:
212,202,138411,6,0,L|196:142,1,44.6400010898438,8|8,3:1|0:1,0:0:0:0:
202,216,138574,2,0,L|186:156,1,44.6400010898438,8|8,0:1|0:1,0:0:0:0:
125,80,138736,2,0,L|109:140,1,44.6400010898438,8|2,0:1|0:3,0:0:0:0:
115,66,138899,2,0,L|99:126,1,44.6400010898438,8|4,0:3|0:3,0:0:0:0:
43,197,139060,6,0,L|0:207,3,44.6400010898438,4|8|8|8,3:1|0:1|0:1|0:1,0:0:0:0:
124,274,139384,2,0,L|168:284,3,44.6400010898438,8|2|2|2,3:1|0:3|0:3|0:3,0:0:0:0:
251,368,139709,5,8,3:1:0:0:
282,377,139790,1,8,0:3:0:0:
315,375,139871,1,8,0:3:0:0:
344,359,139952,1,8,0:3:0:0:
365,333,140033,1,8,3:1:0:0:
386,309,140114,1,4,0:3:0:0:
415,292,140195,1,4,0:3:0:0:
448,289,140276,1,4,0:3:0:0:
480,299,140358,5,4,3:2:0:0:
435,316,140439,1,0,3:0:0:0:
387,315,140520,1,0,3:0:0:0:
342,297,140601,1,0,3:0:0:0:
308,263,140682,1,2,3:1:0:0:
289,219,140763,1,0,3:0:0:0:
288,171,140844,1,0,3:0:0:0:
305,126,140925,1,0,3:0:0:0:
338,90,141006,1,2,3:1:0:0:
381,70,141087,1,0,3:0:0:0:
429,67,141168,1,0,3:0:0:0:
475,83,141249,1,0,3:0:0:0:
511,114,141330,6,0,L|499:165,1,44.6400010898438,8|8,3:1|3:1,0:0:0:0:
387,315,141492,2,0,L|374:264,1,44.6400010898438,8|8,3:1|3:1,0:0:0:0:
228,15,141655,5,8,1:0:0:0:
84,255,141817,1,4,3:0:0:0:
93,228,142141,1,0,3:0:0:0:
102,206,142465,1,0,3:0:0:0:
107,219,142546,1,0,3:0:0:0:
113,233,142627,1,8,1:0:0:0:
113,233,142952,6,0,B|195:190|270:253|237:281|317:351|410:292,1,312.480007628906,4|0,3:2|0:0,0:0:0:0:
479,180,144249,6,0,B|450:99|377:66|377:66|334:132|342:226,1,312.480007628906,4|0,3:2|0:0,0:0:0:0:
399,321,145546,6,0,B|452:342|493:306|477:255|426:217|359:228|313:264|273:319,1,312.480007628906,4|0,3:2|0:0,0:0:0:0:
108,249,146844,6,0,P|138:118|246:209,1,312.480007628906,4|8,3:2|0:1,0:0:0:0:
224,307,148141,6,0,B|248:303|271:293|271:293|313:310|313:310|341:301|375:292,1,133.920003269531,6|2,3:1|0:1,0:0:0:0:
387,297,148465,2,0,P|376:339|363:386,1,89.2800021796876,0|2,3:0|0:1,0:0:0:0:
478,234,148790,2,0,P|489:276|502:323,1,89.2800021796876,0|2,3:0|0:1,0:0:0:0:
361,134,149114,2,0,P|350:176|337:223,1,89.2800021796876,0|2,3:0|0:1,0:0:0:0:
173,136,149438,5,0,3:0:0:0:
284,68,149601,1,2,0:1:0:0:
184,233,149763,1,0,3:0:0:0:
47,128,149926,1,2,0:1:0:0:
177,42,150087,1,0,3:0:0:0:
177,42,150249,1,2,0:1:0:0:
66,247,150411,2,0,P|119:214|202:250,1,133.920003269531,0|0,3:0|0:0,0:0:0:0:
185,231,150736,5,4,0:1:0:0:
185,231,151060,2,0,B|220:219|220:219|245:233|245:233|278:210|340:205,1,133.920003269531
344,219,151384,2,0,L|329:275,1,44.6400010898438,0|0,3:0|3:0,0:0:0:0:
462,138,151546,2,0,L|477:194,1,44.6400010898438,8|8,0:1|0:1,0:0:0:0:
318,59,151709,1,8,0:1:0:0:
277,43,151790,1,2,0:3:0:0:
234,50,151871,1,8,0:3:0:0:
199,77,151952,1,4,0:3:0:0:
182,118,152033,6,0,B|149:213|247:287|247:287|290:216|364:217,1,319.920004881592,4|0,3:2|0:0,0:0:0:0:
45,73,153006,5,2,0:0:0:0:
45,73,153330,6,0,P|60:132|76:191,1,98.5800001504211,4|0,3:2|0:0,0:0:0:0:
241,333,153655,5,8,0:1:0:0:
19,244,153817,1,2,0:1:0:0:
271,232,153979,5,0,3:0:0:0:
70,318,154141,1,2,0:1:0:0:
331,305,154303,5,8,0:1:0:0:
117,231,154465,1,2,0:1:0:0:
376,216,154628,5,0,3:0:0:0:
164,303,154790,1,2,0:1:0:0:
304,120,154952,5,8,0:1:0:0:
429,294,155114,1,2,0:1:0:0:
214,122,155276,2,0,P|199:181|183:240,1,98.5800001504211,0|2,3:0|0:1,0:0:0:0:
410,110,155601,1,8,0:1:0:0:
257,299,155763,1,10,0:1:0:0:
494,218,155925,2,0,P|442:207|365:192,1,98.5800001504211,4|0,3:2|0:0,0:0:0:0:
193,70,156249,5,8,0:1:0:0:
133,266,156411,1,2,0:1:0:0:
279,84,156574,5,0,3:0:0:0:
259,288,156736,1,2,0:1:0:0:
367,78,156898,5,8,0:1:0:0:
386,282,157060,1,2,0:1:0:0:
444,46,157222,5,0,3:0:0:0:
502,242,157384,1,2,0:1:0:0:
289,175,157546,5,8,0:1:0:0:
505,103,157709,1,2,0:1:0:0:
262,258,157871,2,0,P|213:245|156:230,1,98.5800001504211,0|10,3:0|0:1,0:0:0:0:
365,135,158196,1,8,0:1:0:0:
247,346,158358,1,10,0:1:0:0:
443,182,158520,2,0,P|452:227|467:288,1,98.5800001504211,4|0,3:1|0:0,0:0:0:0:
210,166,158844,5,8,0:1:0:0:
402,93,159006,1,2,0:1:0:0:
261,260,159168,5,0,3:0:0:0:
187,46,159331,1,2,0:1:0:0:
368,190,159493,5,8,0:1:0:0:
159,266,159655,1,2,0:1:0:0:
300,86,159817,5,4,3:2:0:0:
368,293,159979,1,2,0:1:0:0:
210,166,160141,5,8,0:1:0:0:
141,365,160303,1,2,0:1:0:0:
0,112,160465,2,0,P|50:69|139:72,1,147.870000225632,0|0,3:0|0:0,0:0:0:0:
147,101,160790,2,0,P|136:151|124:205,1,98.5800001504211,8|2,0:1|0:1,0:0:0:0:
262,355,161114,6,0,P|210:369|157:385,1,98.5800001504211,6|0,0:3|0:0,0:0:0:0:
328,129,161438,2,0,B|352:138|376:149|376:149|422:133|422:133|449:146|484:155,1,147.870000225632,8|0,0:1|0:0,0:0:0:0:
499,170,161763,2,0,P|484:221|470:268,1,98.5800001504211,0|2,3:0|0:1,0:0:0:0:
262,355,162087,2,0,P|247:304|233:257,1,98.5800001504211,8|2,0:1|0:3,0:0:0:0:
247,232,162330,5,0,0:0:0:0:
263,244,162411,1,0,3:0:0:0:
221,269,162492,1,0,3:0:0:0:
172,270,162573,1,8,0:1:0:0:
129,247,162654,1,8,0:1:0:0:
103,205,162735,1,8,0:1:0:0:
101,157,162816,1,8,0:1:0:0:
123,113,162897,1,8,0:1:0:0:
163,86,162978,1,8,0:1:0:0:
212,83,163060,6,0,L|231:151,1,49.2900000752106,8|8,0:1|0:1,0:0:0:0:
296,295,163222,2,0,L|315:227,1,49.2900000752106,8|8,0:1|0:1,0:0:0:0:
379,41,163384,2,0,L|398:109,1,49.2900000752106,8|2,0:1|0:3,0:0:0:0:
449,337,163546,2,0,L|468:269,1,49.2900000752106,8|4,0:3|0:3,0:0:0:0:
512,165,163709,6,0,P|453:176|401:186,1,98.5800001504211,4|0,3:1|0:0,0:0:0:0:
190,278,164033,2,0,B|224:290|260:295|260:295|287:340|287:340|326:344|381:362,1,197.160000300842,10|0,0:1|3:0,0:0:0:0:
289,109,164519,2,0,P|272:166|260:203,1,98.5800001504211,0|10,3:0|0:1,0:0:0:0:
143,33,164844,1,0,0:0:0:0:
75,181,165006,6,0,P|129:169|185:157,1,98.5800001504211,2|0,3:1|0:0,0:0:0:0:
297,356,165330,2,0,P|243:344|187:332,1,98.5800001504211,10|0,0:1|0:0,0:0:0:0:
379,152,165655,1,2,3:1:0:0:
179,249,165817,1,0,3:0:0:0:
263,69,165979,2,0,P|280:126|292:163,1,98.5800001504211,8|0,0:1|0:0,0:0:0:0:
383,316,166303,6,0,P|443:316|495:249,1,147.870000225632,2|0,3:1|0:0,0:0:0:0:
492,206,166627,1,10,0:1:0:0:
276,271,166790,2,0,P|226:259|169:247,1,98.5800001504211,0|0,0:0|3:0,0:0:0:0:
359,47,167114,2,0,B|376:94|376:94|360:126|360:126|399:183|388:256,1,197.160000300842,0|0,3:0|0:0,0:0:0:0:
167,111,167601,6,0,P|214:98|261:84,1,98.5800001504211,2|0,3:1|0:0,0:0:0:0:
460,142,167924,1,8,0:1:0:0:
230,239,168087,2,0,P|160:219|36:187,1,197.160000300842,0|0,0:0|3:0,0:0:0:0:
297,164,168573,1,8,0:1:0:0:
151,313,168736,1,8,0:1:0:0:
355,235,168898,6,0,P|340:293|328:337,1,98.5800001504211,4|0,3:2|0:0,0:0:0:0:
467,189,169222,1,10,0:1:0:0:
316,93,169384,2,0,P|363:80|411:68,1,98.5800001504211,0|2,0:0|3:1,0:0:0:0:
237,236,169709,2,0,P|189:223|141:211,1,98.5800001504211,0|8,3:0|0:1,0:0:0:0:
0,103,170033,2,0,P|67:110|147:-5,1,197.160000300842
312,165,170519,5,10,0:1:0:0:
129,282,170681,1,0,0:0:0:0:
235,97,170843,1,2,3:1:0:0:
397,248,171005,1,0,3:0:0:0:
205,361,171167,1,8,0:1:0:0:
115,181,171330,1,8,0:1:0:0:
115,181,171411,1,0,0:0:0:0:
115,181,171492,6,0,P|181:192|231:202,1,98.5800001504211,0|0,3:0|0:0,0:0:0:0:
476,184,171817,2,0,P|458:241|444:290,1,98.5800001504211,10|0,0:1|0:0,0:0:0:0:
183,103,172141,2,0,P|201:160|215:209,1,98.5800001504211,2|0,3:1|0:0,0:0:0:0:
442,27,172465,2,0,P|424:84|410:133,1,98.5800001504211,10|0,0:1|0:0,0:0:0:0:
192,10,172789,5,2,3:1:0:0:
380,228,172952,1,0,0:0:0:0:
404,222,173033,1,0,0:0:0:0:
428,217,173114,1,8,0:1:0:0:
183,103,173276,1,4,3:0:0:0:
325,0,173438,6,0,L|312:59,1,49.2900000752106,8|0,0:1|0:0,0:0:0:0:
247,256,173601,2,0,L|236:207,1,49.2900000752106,8|0,0:1|0:0,0:0:0:0:
51,123,173762,5,8,0:1:0:0:
95,116,173843,1,8,0:1:0:0:
139,110,173924,1,8,0:1:0:0:
183,103,174005,1,8,0:1:0:0:
227,97,174086,1,4,3:1:0:0:
376,248,174249,6,0,P|364:298|352:345,1,98.5800001504211,2|8,0:1|0:1,0:0:0:0:
165,201,174574,2,0,P|177:251|189:298,1,98.5800001504211,2|0,0:1|3:0,0:0:0:0:
406,109,174898,2,0,P|356:91|298:68,1,98.5800001504211,2|8,0:1|0:1,0:0:0:0:
376,248,175222,1,2,0:1:0:0:
204,89,175384,6,0,B|181:95|154:97|154:97|131:128|131:128|104:129|71:138,1,147.870000225632,0|0,3:0|0:0,0:0:0:0:
43,145,175708,1,8,0:1:0:0:
247,209,175870,1,2,0:1:0:0:
84,344,176033,2,0,P|131:329|179:319,1,98.5800001504211,0|2,3:0|0:1,0:0:0:0:
372,208,176357,2,0,P|358:262|346:303,1,98.5800001504211,8|2,0:1|0:1,0:0:0:0:
420,75,176682,5,0,3:0:0:0:
253,225,176843,2,0,P|202:216|138:201,1,98.5800001504211,2|8,0:1|0:1,0:0:0:0:
27,66,177168,2,0,P|78:57|142:42,1,98.5800001504211,2|0,0:1|3:0,0:0:0:0:
29,275,177492,2,0,P|12:220|-10:150,1,98.5800001504211,2|8,0:1|0:1,0:0:0:0:
156,205,177816,1,2,0:1:0:0:
100,351,177979,6,0,P|154:304|225:314,1,147.870000225632,0|0,3:0|0:0,0:0:0:0:
253,339,178303,1,8,0:1:0:0:
455,223,178465,2,0,B|429:213|429:213|399:220|399:220|363:191|313:188,1,147.870000225632,2|0,0:3|0:0,0:0:0:0:
280,199,178789,1,10,0:1:0:0:
444,73,178951,1,8,0:1:0:0:
321,286,179113,1,10,0:1:0:0:
191,84,179276,6,0,B|140:65|92:102|112:116|54:161|-19:118,1,197.160000300842,0|8,3:0|0:1,0:0:0:0:
184,223,179763,2,0,P|236:210|286:197,1,98.5800001504211,2|0,0:1|3:0,0:0:0:0:
95,306,180087,2,0,P|47:293|0:281,1,98.5800001504211,2|8,0:1|0:1,0:0:0:0:
221,382,180411,6,0,P|314:359|419:335,1,197.160000300842,2|2,0:1|0:1,0:0:0:0:
356,96,180897,1,8,0:1:0:0:
486,288,181059,1,2,0:1:0:0:
268,191,181222,1,0,3:0:0:0:
477,70,181384,1,2,0:1:0:0:
284,281,181546,1,8,0:1:0:0:
261,277,181627,1,0,0:0:0:0:
239,274,181708,1,2,0:1:0:0:
336,0,181871,6,0,P|346:53|358:103,1,98.5800001504211,0|2,3:0|0:1,0:0:0:0:
157,216,182195,2,0,P|100:202|42:188,1,98.5800001504211,8|2,0:1|0:1,0:0:0:0:
344,324,182519,2,0,L|406:306,1,49.2900000752106,0|0,3:0|0:0,0:0:0:0:
494,193,182682,5,8,0:1:0:0:
454,163,182763,1,8,0:1:0:0:
406,155,182844,1,8,0:1:0:0:
360,170,182925,1,2,0:3:0:0:
325,204,183006,1,8,0:3:0:0:
290,239,183087,1,4,0:3:0:0:
245,258,183168,1,0,3:0:0:0:
196,253,183249,1,8,0:1:0:0:
157,225,183330,1,8,0:1:0:0:
136,181,183411,1,8,0:1:0:0:
139,133,183492,1,8,0:3:0:0:
166,92,183573,1,8,0:3:0:0:
210,70,183654,1,8,0:3:0:0:
258,72,183735,1,8,0:3:0:0:
300,98,183817,6,0,L|287:156,1,49.2900000752106,8|2,0:1|0:3,0:0:0:0:
354,346,183979,2,0,L|341:288,1,49.2900000752106,8|4,0:3|0:3,0:0:0:0:
438,74,184141,2,0,L|425:132,1,49.2900000752106,8|2,0:1|0:3,0:0:0:0:
477,348,184303,2,0,L|464:290,1,49.2900000752106,8|4,0:3|0:3,0:0:0:0:
173,226,184465,6,0,B|202:223|233:212|233:212|274:233|274:233|310:221|369:210,1,161.820004938355,4|0,3:2|0:0,0:0:0:0:
363,211,184790,2,0,P|352:254|342:297,1,89.2800021796876,8|2,0:1|0:1,0:0:0:0:
212,124,185114,2,0,P|201:80|191:37,1,89.2800021796876,0|2,3:0|0:1,0:0:0:0:
5,202,185439,2,0,P|47:216|90:229,1,89.2800021796876,8|2,0:1|0:1,0:0:0:0:
260,379,185763,6,0,B|243:337|243:337|263:301|263:301|234:253|254:185,1,178.560004359375,0|8,3:0|0:1,0:0:0:0:
430,271,186250,1,2,0:1:0:0:
249,114,186412,1,0,3:0:0:0:
228,118,186493,1,8,0:1:0:0:
206,122,186574,1,2,0:1:0:0:
417,15,186736,1,8,0:1:0:0:
327,230,186899,1,2,0:1:0:0:
140,53,187060,6,0,P|194:15|260:15,1,133.920003269531,0|0,3:0|0:0,0:0:0:0:
294,42,187384,2,0,P|284:86|275:129,1,89.2800021796876,8|2,0:1|0:1,0:0:0:0:
462,254,187709,2,0,P|452:210|442:166,1,89.2800021796876,0|2,3:0|0:1,0:0:0:0:
239,301,188033,2,0,P|289:315|350:333,1,89.2800021796876,8|2,0:1|0:1,0:0:0:0:
152,152,188357,6,0,B|111:115|55:115|55:115|33:151|-11:161,1,178.560004359375,0|8,3:0|0:1,0:0:0:0:
255,77,188845,1,2,0:1:0:0:
105,264,189007,1,0,3:0:0:0:
99,243,189088,1,0,0:0:0:0:
94,222,189169,1,10,0:1:0:0:
36,9,189331,1,8,0:1:0:0:
229,225,189493,1,10,0:1:0:0:
229,225,189574,1,0,0:0:0:0:
229,225,189655,6,0,P|263:191|369:208,1,133.920003269531,4|0,3:1|0:0,0:0:0:0:
372,223,189980,2,0,P|361:265|345:325,1,89.2800021796876,8|2,0:1|0:1,0:0:0:0:
512,108,190304,2,0,P|468:118|425:130,1,89.2800021796876,0|2,3:0|0:1,0:0:0:0:
232,13,190628,2,0,P|275:24|318:36,1,89.2800021796876,8|2,0:1|0:1,0:0:0:0:
152,213,190952,6,0,P|101:169|126:36,1,178.560004359375,0|8,3:0|0:1,0:0:0:0:
288,202,191439,2,0,P|276:245|264:291,1,89.2800021796876,2|0,0:1|3:0,0:0:0:0:
246,323,191682,1,0,0:0:0:0:
246,323,191763,1,2,0:1:0:0:
441,146,191925,2,0,B|414:138|393:127|393:127|356:139|356:139|331:126|299:118,1,133.920003269531,8|0,0:1|0:0,0:0:0:0:
267,115,192249,6,0,P|278:161|290:211,1,89.2800021796876,0|2,3:0|0:1,0:0:0:0:
87,310,192574,2,0,P|98:266|110:223,1,89.2800021796876,8|2,0:1|0:1,0:0:0:0:
34,51,192899,1,0,3:0:0:0:
203,235,193061,1,2,0:1:0:0:
3,146,193222,2,0,P|60:133|112:122,1,89.2800021796876,8|2,0:1|0:1,0:0:0:0:
125,115,193465,1,0,0:0:0:0:
125,115,193546,5,0,3:0:0:0:
23,262,193709,1,2,0:1:0:0:
230,135,193871,2,0,P|274:144|318:154,1,89.2800021796876,8|2,0:1|0:1,0:0:0:0:
139,249,194195,1,0,3:0:0:0:
133,227,194276,1,0,0:0:0:0:
127,205,194357,1,2,0:1:0:0:
318,287,194519,1,8,0:1:0:0:
101,114,194682,1,2,0:1:0:0:
334,1,194844,6,0,B|326:38|326:38|341:68|341:68|312:109|319:171,1,161.820004938355,4|0,3:2|0:0,0:0:0:0:
336,186,195168,2,0,P|393:175|445:164,1,89.2800021796876,8|2,0:1|0:1,0:0:0:0:
264,338,195492,2,0,P|207:327|155:316,1,89.2800021796876,0|2,3:2|0:1,0:0:0:0:
222,46,195817,2,0,P|232:102|242:146,1,89.2800021796876,8|2,0:1|0:1,0:0:0:0:
38,231,196142,6,0,B|78:186|137:185|137:185|156:221|191:236,1,178.560004359375,0|8,3:2|0:1,0:0:0:0:
321,100,196629,1,2,0:1:0:0:
411,249,196791,1,0,3:2:0:0:
407,270,196872,1,0,0:0:0:0:
403,292,196953,1,2,0:1:0:0:
512,127,197115,1,8,0:1:0:0:
293,237,197276,1,2,0:1:0:0:
395,24,197438,6,0,P|420:65|415:154,1,133.920003269531,0|0,3:2|0:0,0:0:0:0:
382,171,197764,2,0,P|338:159|295:149,1,89.2800021796876,8|2,0:1|0:1,0:0:0:0:
117,45,198088,2,0,P|160:33|203:23,1,89.2800021796876,0|2,3:2|0:1,0:0:0:0:
105,245,198411,2,0,P|94:201|84:158,1,89.2800021796876,8|2,0:1|0:1,0:0:0:0:
216,310,198736,6,0,B|281:313|323:268|323:268|385:300,1,178.560004359375,0|8,3:2|0:1,0:0:0:0:
223,177,199222,1,2,0:1:0:0:
433,104,199384,1,0,3:2:0:0:
427,125,199465,1,0,0:0:0:0:
422,146,199546,1,10,0:1:0:0:
230,43,199710,1,8,0:1:0:0:
377,296,199872,1,10,0:1:0:0:
377,296,199953,1,0,0:0:0:0:
377,296,200034,6,0,P|411:262|517:279,1,133.920003269531,4|0,3:2|0:0,0:0:0:0:
512,286,200357,2,0,P|501:328|485:388,1,89.2800021796876,8|2,0:1|0:1,0:0:0:0:
321,175,200683,2,0,P|365:164|408:152,1,89.2800021796876,0|2,3:2|0:1,0:0:0:0:
276,334,201007,2,0,P|233:323|190:311,1,89.2800021796876,8|2,0:1|0:1,0:0:0:0:
58,113,201330,6,0,B|62:145|74:176|74:176|54:219|54:219|69:254|78:301,1,178.560004359375,0|8,3:2|0:1,0:0:0:0:
261,130,201817,2,0,P|196:111|157:99,1,89.2800021796876,2|0,0:1|3:2,0:0:0:0:
147,95,202061,1,8,0:1:0:0:
147,95,202142,1,2,0:1:0:0:
291,254,202303,2,0,B|321:243|321:243|354:255|354:255|386:233|432:231,1,133.920003269531,8|0,0:1|0:0,0:0:0:0:
459,232,202629,6,0,P|447:275|435:321,1,89.2800021796876,0|2,3:2|0:1,0:0:0:0:
321,134,202953,2,0,P|332:90|344:47,1,89.2800021796876,8|2,0:1|0:1,0:0:0:0:
145,205,203276,1,0,3:2:0:0:
252,0,203438,1,2,0:1:0:0:
71,125,203601,2,0,P|114:115|158:106,1,89.2800021796876,8|2,0:1|0:1,0:0:0:0:
412,190,203925,5,4,3:1:0:0:
370,175,204006,1,0,3:0:0:0:
326,178,204087,1,4,3:0:0:0:
287,201,204168,1,4,3:0:0:0:
262,237,204249,1,8,0:1:0:0:
237,273,204330,1,8,0:1:0:0:
198,296,204411,1,8,0:1:0:0:
154,299,204492,1,8,0:1:0:0:
112,284,204573,1,8,0:1:0:0:
88,248,204655,1,8,0:1:0:0:
81,205,204736,6,0,L|93:152,1,44.6400010898438,8|8,3:1|0:1,0:0:0:0:
204,0,204898,2,0,L|216:53,1,44.6400010898438,8|8,3:1|0:1,0:0:0:0:
326,178,205060,1,2,3:1:0:0:
