osu file format v14

[General]
AudioFilename: audio.mp3
AudioLeadIn: 0
PreviewTime:69793
Countdown: 0
SampleSet: Soft
StackLeniency: 0.4
Mode: 0
LetterboxInBreaks: 0
WidescreenStoryboard: 1

[Editor]
Bookmarks: 1442,25279,41658,90955,111712,130523,153225,163604,205117
DistanceSpacing: 0.6
BeatDivisor: 4
GridSize: 32
TimelineZoom: 3.399999

[Metadata]
Title:Teo
TitleUnicode:テオ
Artist:Araki
ArtistUnicode:あらき
Creator:Nevo
Version:Tachi & killian's Extra.
Source:
Tags:foxy grandpa Akitoshi -Laura- lapp milkayy snownino_ shunao shogunmoon utaite cover vocaloid hatsune miku synth rock killian tachibana_ [_TNTlealu_] omoi Ascent japanese jrock j-rock foxygrandpa
BeatmapID:3668320
BeatmapSetID:1704681

[Difficulty]
HPDrainRate:5
CircleSize:3.7
OverallDifficulty:8.6
ApproachRate:9.2
SliderMultiplier:1.62
SliderTickRate:1

[Events]
//Background and Video events
0,0,"anime-girl-falling-up-clouds-sky-school-uniform.jpg",0,0
//Break Periods
//Storyboard Layer 0 (Background)
//Storyboard Layer 1 (Fail)
//Storyboard Layer 2 (Pass)
//Storyboard Layer 3 (Foreground)
//Storyboard Layer 4 (Overlay)
//Storyboard Sound Samples

[TimingPoints]
1547,324.324324324324,4,2,1,60,1,0
2844,-138.888888888889,4,2,1,60,0,0
3087,-138.888888888889,4,2,1,5,0,0
3168,-65.7894736842105,4,2,1,60,0,0
3411,-65.7894736842105,4,2,1,60,0,0
3492,-65.7894736842105,4,2,1,60,0,0
3736,-65.7894736842105,4,2,1,5,0,0
3816,-65.7894736842105,4,2,1,60,0,0
4060,-65.7894736842105,4,2,1,60,0,0
4141,-138.888888888889,4,2,1,60,0,0
4384,-138.888888888889,4,2,1,5,0,0
4465,-65.7894736842105,4,2,1,60,0,0
4709,-65.7894736842105,4,2,1,60,0,0
4790,-65.7894736842105,4,2,1,60,0,0
5033,-65.7894736842105,4,2,1,5,0,0
5114,-65.7894736842105,4,2,1,60,0,0
5357,-65.7894736842105,4,2,1,60,0,0
5438,-138.888888888889,4,2,1,60,0,0
5682,-138.888888888889,4,2,1,5,0,0
5763,-65.7894736842105,4,2,1,60,0,0
6006,-65.7894736842105,4,2,1,60,0,0
6087,-65.7894736842105,4,2,1,60,0,0
6330,-65.7894736842105,4,2,1,5,0,0
6411,-65.7894736842105,4,2,1,60,0,0
6655,-65.7894736842105,4,2,1,60,0,0
6736,-138.888888888889,4,2,1,60,0,0
6979,-138.888888888889,4,2,1,5,0,0
7060,-65.7894736842105,4,2,1,60,0,0
7303,-65.7894736842105,4,2,1,60,0,0
7384,-65.7894736842105,4,2,1,60,0,0
8033,-121.951219512195,4,2,1,60,0,0
11925,-98.0392156862745,4,2,1,60,0,0
12006,-98.0392156862745,4,2,1,60,0,0
12168,-98.0392156862745,4,2,1,60,0,0
12249,-98.0392156862745,4,2,1,60,0,0
12411,-98.0392156862745,4,2,1,60,0,0
12492,-98.0392156862745,4,2,1,60,0,0
12736,-98.0392156862745,4,2,1,80,0,0
13222,-89.2857142857143,4,2,1,80,0,0
16060,-89.2857142857143,4,2,1,5,0,0
16141,-89.2857142857143,4,2,1,80,0,0
17601,-89.2857142857143,4,2,1,80,0,0
17844,-89.2857142857143,4,2,1,80,0,0
17925,-89.2857142857143,4,2,1,80,0,0
18087,-89.2857142857143,4,2,1,80,0,0
18330,-89.2857142857143,4,2,1,80,0,0
18411,-89.2857142857143,4,2,1,80,0,0
18655,-89.2857142857143,4,2,1,5,0,0
18736,-89.2857142857143,4,2,1,80,0,0
20682,-89.2857142857143,4,2,1,80,0,0
20925,-89.2857142857143,4,2,1,80,0,0
21006,-89.2857142857143,4,2,1,80,0,0
21249,-89.2857142857143,4,2,1,5,0,0
21330,-89.2857142857143,4,2,1,80,0,0
23601,-113.636363636364,4,2,1,80,0,0
30330,-113.636363636364,4,2,1,80,0,0
30411,-113.636363636364,4,2,1,80,0,0
32114,-113.636363636364,4,2,1,80,0,0
32195,-113.636363636364,4,2,1,80,0,0
34222,-113.636363636364,4,2,1,5,0,0
34303,-113.636363636364,4,2,1,80,0,0
38114,-113.636363636364,4,2,1,80,0,0
38195,-113.636363636364,4,2,1,80,0,0
40060,-113.636363636364,4,2,1,5,0,0
40141,-113.636363636364,4,2,1,80,0,0
40790,-113.636363636364,4,2,1,80,0,0
41033,-113.636363636364,4,2,1,80,0,0
41114,-113.636363636364,4,2,1,80,0,0
41357,-113.636363636364,4,2,1,5,0,0
41438,-113.636363636364,4,2,1,80,0,0
47519,-113.636363636364,4,2,1,5,0,0
47601,-113.636363636364,4,2,1,80,0,0
56276,-113.636363636364,4,2,1,80,0,0
56357,-113.636363636364,4,2,1,80,0,0
58060,-113.636363636364,4,2,1,80,0,0
58141,-113.636363636364,4,2,1,80,0,0
63736,-113.636363636364,4,2,1,80,0,0
63817,-113.636363636364,4,2,1,80,0,0
67790,-113.636363636364,4,2,1,60,0,0
68033,-113.636363636364,4,2,1,80,0,0
69006,-113.636363636364,4,2,1,80,0,0
69087,-113.636363636364,4,2,1,80,0,0
69330,-113.636363636364,4,2,1,80,0,0
69411,-113.636363636364,4,2,1,80,0,0
69655,-113.636363636364,4,2,1,80,0,0
69736,-113.636363636364,4,2,1,5,0,0
69817,-113.636363636364,4,2,1,80,0,0
69979,-75.7575757575758,4,2,1,80,0,0
70222,-113.636363636364,4,2,1,5,0,0
70303,-57.1428571428571,4,2,1,80,0,1
70546,-57.1428571428571,4,2,1,80,0,1
70628,-57.1428571428571,4,2,1,80,0,1
72249,-75.7575757575758,4,2,1,80,0,1
77682,-75.7575757575758,4,2,1,80,0,1
77763,-75.7575757575758,4,2,1,80,0,1
78655,-75.7575757575758,4,2,1,80,0,1
78736,-75.7575757575758,4,2,1,80,0,1
88465,-75.7575757575758,4,2,1,80,0,1
88709,-75.7575757575758,4,2,1,5,0,1
88790,-75.7575757575758,4,2,1,80,0,1
91060,-81.9672131147541,4,2,1,80,0,1
91384,-81.9672131147541,4,2,1,80,0,1
91628,-81.9672131147541,4,2,1,80,0,1
91709,-81.9672131147541,4,2,1,80,0,1
91871,-81.9672131147541,4,2,1,80,0,1
92114,-81.9672131147541,4,2,1,80,0,1
92195,-81.9672131147541,4,2,1,80,0,1
94141,-81.9672131147541,4,2,1,80,0,1
94384,-81.9672131147541,4,2,1,80,0,1
94465,-81.9672131147541,4,2,1,80,0,1
94709,-81.9672131147541,4,2,1,80,0,1
94790,-81.9672131147541,4,2,1,80,0,1
96249,-81.9672131147541,4,2,1,80,0,1
96492,-81.9672131147541,4,2,1,80,0,1
96574,-81.9672131147541,4,2,1,80,0,1
100871,-81.9672131147541,4,2,1,5,0,1
100952,-81.9672131147541,4,2,1,80,0,1
101033,-81.9672131147541,4,2,1,5,0,1
101114,-81.9672131147541,4,2,1,80,0,1
101925,-81.9672131147541,4,2,1,80,0,1
102168,-81.9672131147541,4,2,1,80,0,1
102249,-81.9672131147541,4,2,1,80,0,1
102736,-81.9672131147541,4,2,1,80,0,1
102979,-81.9672131147541,4,2,1,80,0,1
103060,-81.9672131147541,4,2,1,80,0,1
104195,-81.9672131147541,4,2,1,80,0,1
104438,-81.9672131147541,4,2,1,80,0,1
104519,-81.9672131147541,4,2,1,80,0,1
104763,-81.9672131147541,4,2,1,80,0,1
104844,-81.9672131147541,4,2,1,80,0,1
105330,-81.9672131147541,4,2,1,80,0,1
105574,-81.9672131147541,4,2,1,80,0,1
105655,-81.9672131147541,4,2,1,80,0,1
106628,-81.9672131147541,4,2,1,80,0,1
106871,-81.9672131147541,4,2,1,80,0,1
106952,-81.9672131147541,4,2,1,80,0,1
111817,-89.2857142857143,4,2,1,80,0,0
115709,-89.2857142857143,4,2,1,80,0,0
115790,-89.2857142857143,4,2,1,80,0,0
115952,-89.2857142857143,4,2,1,80,0,0
116033,-89.2857142857143,4,2,1,80,0,0
116195,-89.2857142857143,4,2,1,80,0,0
116276,-89.2857142857143,4,2,1,80,0,0
116438,-89.2857142857143,4,2,1,5,0,0
116519,-89.2857142857143,4,2,1,80,0,0
116925,-89.2857142857143,4,2,1,80,0,0
117006,-89.2857142857143,4,2,1,80,0,0
118303,-81.8330605564648,4,2,1,80,0,0
119601,-81.9672131147541,4,2,1,80,0,0
119844,-81.9672131147541,4,2,1,80,0,0
119925,-89.2857142857143,4,2,1,80,0,0
120087,-81.9672131147541,4,2,1,80,0,0
120330,-89.2857142857143,4,2,1,80,0,0
120411,-89.2857142857143,4,2,1,80,0,0
120898,-81.9672131147541,4,2,1,80,0,0
121141,-89.2857142857143,4,2,1,80,0,0
121222,-81.9672131147541,4,2,1,80,0,0
121465,-89.2857142857143,4,2,1,80,0,0
121546,-89.2857142857143,4,2,1,80,0,0
122033,-89.2857142857143,4,2,1,80,0,0
122195,-81.9672131147541,4,2,1,80,0,0
124790,-81.9672131147541,4,2,1,80,0,0
125114,-81.9672131147541,4,2,1,80,0,0
125438,-81.9672131147541,4,2,1,80,0,0
125682,-81.9672131147541,4,2,1,80,0,0
125763,-81.9672131147541,4,2,1,80,0,0
129979,-81.9672131147541,4,2,1,80,0,0
130222,-81.9672131147541,4,2,1,80,0,0
130303,-81.9672131147541,4,2,1,80,0,0
131519,-81.9672131147541,4,2,1,5,0,0
131601,-81.9672131147541,4,2,1,80,0,0
131682,-81.9672131147541,4,2,1,5,0,0
131763,-81.9672131147541,4,2,1,80,0,0
132006,-81.9672131147541,4,2,1,80,0,0
132087,-81.9672131147541,4,2,1,80,0,0
137114,-65.7030223390276,4,2,1,80,0,0
137925,-65.7030223390276,4,2,1,50,0,0
138087,-81.8330605564648,4,2,1,80,0,0
138168,-81.8330605564648,4,2,1,50,0,0
138330,-81.8330605564648,4,2,1,50,0,0
138411,-81.8330605564648,4,2,1,80,0,0
138492,-81.8330605564648,4,2,1,50,0,0
138736,-81.8330605564648,4,2,1,80,0,0
139628,-81.8330605564648,4,2,1,80,0,0
139709,-70.323488045007,4,2,1,80,0,0
139952,-70.323488045007,4,2,1,80,0,0
140033,-70.323488045007,4,2,1,80,0,0
142871,-70.323488045007,4,2,1,80,0,0
142952,-108.459869848156,4,2,1,80,0,0
148141,-89.1265597147948,4,2,1,80,0,0
148384,-89.1265597147948,4,2,1,80,0,0
148465,-89.1265597147948,4,2,1,80,0,0
151303,-89.1265597147948,4,2,1,5,0,0
151384,-89.1265597147948,4,2,1,80,0,0
151546,-89.1265597147948,4,2,1,60,0,0
152033,-121.654501216545,4,2,1,80,0,0
152925,-121.654501216545,4,2,1,5,0,0
153006,-121.654501216545,4,2,0,100,0,0
153249,-121.654501216545,4,2,1,5,0,0
153330,-57.1428571428571,4,2,1,80,0,1
153574,-57.1428571428571,4,2,1,5,0,1
153655,-57.1428571428571,4,2,1,80,0,1
155276,-75.7575757575758,4,2,1,80,0,1
156168,-75.7575757575758,4,2,1,5,0,1
156249,-75.7575757575758,4,2,1,80,0,1
158763,-75.7575757575758,4,2,1,5,0,1
158844,-75.7575757575758,4,2,1,80,0,1
160709,-75.7575757575758,4,2,1,5,0,1
160790,-75.7575757575758,4,2,1,80,0,1
161357,-75.7575757575758,4,2,1,5,0,1
161438,-75.7575757575758,4,2,1,80,0,1
163709,-81.9672131147541,4,2,1,80,0,1
164033,-81.9672131147541,4,2,1,80,0,1
164276,-81.9672131147541,4,2,1,80,0,1
164357,-81.9672131147541,4,2,1,80,0,1
164519,-81.9672131147541,4,2,1,80,0,1
164763,-81.9672131147541,4,2,1,80,0,1
164844,-81.9672131147541,4,2,1,80,0,1
166790,-81.9672131147541,4,2,1,80,0,1
167033,-81.9672131147541,4,2,1,80,0,1
167114,-81.9672131147541,4,2,1,80,0,1
167357,-81.9672131147541,4,2,1,80,0,1
167438,-81.9672131147541,4,2,1,80,0,1
168898,-81.9672131147541,4,2,1,80,0,1
169141,-81.9672131147541,4,2,1,80,0,1
169222,-81.9672131147541,4,2,1,80,0,1
174574,-81.9672131147541,4,2,1,80,0,1
174817,-81.9672131147541,4,2,1,80,0,1
174898,-81.9672131147541,4,2,1,80,0,1
175384,-81.9672131147541,4,2,1,80,0,1
175628,-81.9672131147541,4,2,1,80,0,1
175709,-81.9672131147541,4,2,1,80,0,1
176844,-81.9672131147541,4,2,1,80,0,1
177087,-81.9672131147541,4,2,1,80,0,1
177168,-81.9672131147541,4,2,1,80,0,1
177411,-81.9672131147541,4,2,1,80,0,1
177492,-81.9672131147541,4,2,1,80,0,1
177979,-81.9672131147541,4,2,1,80,0,1
178222,-81.9672131147541,4,2,1,80,0,1
178303,-81.9672131147541,4,2,1,80,0,1
179276,-81.9672131147541,4,2,1,80,0,1
179519,-81.9672131147541,4,2,1,80,0,1
179601,-81.9672131147541,4,2,1,80,0,1
184465,-89.2857142857143,4,2,1,80,0,0
184709,-89.2857142857143,4,2,1,5,0,0
184790,-89.2857142857143,4,2,1,80,0,0
189087,-89.2857142857143,4,2,1,80,0,0
189168,-89.2857142857143,4,2,1,80,0,0
189574,-89.2857142857143,4,2,1,80,0,0
189655,-89.2857142857143,4,2,1,80,0,0
192168,-89.2857142857143,4,2,1,80,0,0
192249,-89.2857142857143,4,2,1,80,0,0
194519,-108.695652173913,4,2,1,80,0,0
194682,-138.888888888889,4,2,1,80,0,0
194844,-89.2857142857143,4,2,1,80,0,0
199465,-89.2857142857143,4,2,1,80,0,0
199546,-89.2857142857143,4,2,1,80,0,0
199952,-89.2857142857143,4,2,1,80,0,0
200033,-89.2857142857143,4,2,1,80,0,0
202546,-89.2857142857143,4,2,1,80,0,0
202628,-89.2857142857143,4,2,1,80,0,0

[Colours]
Combo1 : 128,0,255
Combo2 : 255,128,0
Combo3 : 0,255,255
Combo4 : 255,128,255

[HitObjects]
400,119,2682,5,8,0:3:0:0:
409,107,2763,1,4,0:3:0:0:
426,105,2844,2,0,P|439:143|451:174,1,58.3200014238282,4|0,0:0|0:0,0:0:0:0:
256,107,3168,6,0,B|319:121|343:67|323:63|360:8|421:26,1,184.679997745605,8|0,0:1|0:0,0:0:0:0:
479,46,3492,1,0,3:0:0:0:
493,43,3655,1,0,0:0:0:0:
397,17,3817,6,0,B|352:2|315:57|335:61|311:114|248:100,1,184.679997745605,8|0,0:1|0:0,0:0:0:0:
187,58,4141,2,0,P|199:86|213:125,1,58.3200014238282,0|0,3:0|0:0,0:0:0:0:
147,241,4465,6,0,P|123:171|75:67,1,184.679997745605,8|0,0:1|0:0,0:0:0:0:
12,31,4790,1,0,3:0:0:0:
15,17,4953,1,0,0:0:0:0:
87,64,5114,6,0,P|126:147|157:234,1,184.679997745605,8|0,0:1|0:0,0:0:0:0:
209,294,5438,2,0,P|178:314|143:309,1,58.3200014238282,0|0,3:0|0:0,0:0:0:0:
231,204,5763,6,0,P|291:188|355:277,1,184.679997745605,8|0,0:1|0:0,0:0:0:0:
338,352,6087,1,0,3:0:0:0:
335,366,6250,1,0,0:0:0:0:
365,269,6411,6,0,P|327:190|232:192,1,184.679997745605,8|0,0:1|0:0,0:0:0:0:
175,141,6736,2,0,P|139:153|100:168,1,58.3200014238282,0|0,3:0|0:0,0:0:0:0:
240,30,7060,6,0,B|329:64|329:64|326:68|326:68|410:102,1,184.679997745605,8|0,0:1|0:0,0:0:0:0:
463,153,7384,1,0,3:0:0:0:
477,150,7547,1,8,0:1:0:0:
381,241,7709,1,8,0:1:0:0:
310,91,7871,1,8,0:1:0:0:
310,91,7952,1,8,0:1:0:0:
310,91,8033,6,0,P|295:126|285:166,1,66.4200010134888,4|2,3:2|0:1,0:0:0:0:
159,34,8357,2,0,P|196:28|236:17,1,66.4200010134888,8|2,0:1|0:1,0:0:0:0:
178,187,8682,2,0,P|154:156|124:127,1,66.4200010134888,0|2,3:2|0:1,0:0:0:0:
217,109,9006,1,8,0:1:0:0:
217,109,9168,1,2,0:1:0:0:
304,210,9330,6,0,P|318:251|326:284,1,66.4200010134888,0|2,3:2|0:1,0:0:0:0:
440,181,9655,2,0,P|448:148|459:117,1,66.4200010134888,8|2,0:1|0:1,0:0:0:0:
318,43,9979,5,0,3:2:0:0:
364,147,10141,1,2,0:1:0:0:
306,28,10303,2,0,P|266:14|234:7,1,66.4200010134888,8|2,0:1|0:1,0:0:0:0:
88,87,10628,6,0,P|64:113|59:143,1,66.4200010134888,0|2,3:2|0:1,0:0:0:0:
211,132,10952,2,0,P|200:98|177:78,1,66.4200010134888,8|2,0:1|0:1,0:0:0:0:
108,216,11276,2,0,P|142:223|170:213,1,66.4200010134888,0|2,3:2|0:1,0:0:0:0:
299,141,11601,6,0,P|292:160|289:174,1,33.2100005067444,8|0,0:1|3:0,0:0:0:0:
268,249,11763,1,0,3:0:0:0:
277,267,11844,1,0,3:0:0:0:
288,287,11925,6,0,L|335:307,1,41.3100002521362,10|0,0:1|0:0,0:0:0:0:
385,193,12168,6,0,L|423:176,1,41.3100002521362,10|0,0:1|0:0,0:0:0:0:
463,355,12411,6,0,L|501:371,1,41.3100002521362,10|0,0:1|0:0,0:0:0:0:
512,87,12736,5,8,3:1:0:0:
476,59,12817,1,8,3:1:0:0:
432,55,12898,1,8,3:1:0:0:
392,77,12979,1,8,3:1:0:0:
356,105,13060,1,8,3:1:0:0:
312,109,13141,1,8,3:1:0:0:
272,87,13222,6,0,P|259:44|247:-10,1,90.7200011074219,4|2,3:2|0:1,0:0:0:0:
125,192,13546,2,0,P|111:235|101:279,1,90.7200011074219,8|2,0:1|0:1,0:0:0:0:
55,74,13871,6,0,P|93:50|136:54,1,90.7200011074219,0|2,3:0|0:1,0:0:0:0:
274,171,14195,1,8,0:1:0:0:
192,0,14357,1,2,0:1:0:0:
289,189,14519,6,0,B|397:211|333:260|453:287,1,181.440002214844,0|8,3:0|0:1,0:0:0:0:
267,72,15006,2,0,P|223:78|178:194,1,181.440002214844,2|2,0:1|3:1,0:0:0:0:
274,371,15492,1,8,0:1:0:0:
366,191,15655,1,2,0:1:0:0:
189,366,15817,2,0,P|177:321|164:278,1,90.7200011074219,0|0,3:0|0:0,0:0:0:0:
379,198,16141,2,0,P|365:241|354:285,1,90.7200011074219,8|2,0:1|0:1,0:0:0:0:
128,167,16465,6,0,P|116:122|103:79,1,90.7200011074219,0|2,3:0|0:1,0:0:0:0:
308,16,16790,1,8,0:1:0:0:
212,199,16952,1,2,0:1:0:0:
320,0,17114,6,0,P|377:-7|426:94,1,181.440002214844,0|8,3:0|0:1,0:0:0:0:
193,115,17601,2,0,B|116:137|157:169|80:193,1,136.080001661133,2|0,0:1|0:0,0:0:0:0:
75,209,17925,1,10,3:1:0:0:
303,241,18087,2,0,B|380:263|339:295|416:319,1,136.080001661133,8|0,0:1|0:0,0:0:0:0:
465,375,18411,6,0,P|490:338|485:294,1,90.7200011074219,4|0,3:2|0:0,0:0:0:0:
384,127,18736,2,0,P|340:138|296:151,1,90.7200011074219,8|2,0:1|0:1,0:0:0:0:
224,336,19060,6,0,P|267:347|311:360,1,90.7200011074219,0|2,3:0|0:1,0:0:0:0:
176,194,19384,1,8,0:1:0:0:
82,376,19546,1,2,0:1:0:0:
188,177,19709,6,0,P|159:90|122:8,1,181.440002214844,0|8,3:0|0:1,0:0:0:0:
24,206,20195,2,0,B|86:190|113:241|98:250|127:294|185:280,1,181.440002214844,2|2,0:1|3:1,0:0:0:0:
365,210,20682,2,0,P|368:144|316:104,1,136.080001661133,8|0,3:1|0:0,0:0:0:0:
303,89,21006,5,4,3:2:0:0:
381,51,21168,1,0,0:0:0:0:
247,190,21330,5,8,0:1:0:0:
169,152,21492,1,2,0:1:0:0:
343,300,21655,5,0,3:0:0:0:
194,381,21817,1,10,0:1:0:0:
333,210,21979,2,0,P|386:220|413:247,1,90.7200011074219,10|0,0:1|3:0,0:0:0:0:
201,62,22303,5,8,1:0:0:0:
156,56,22384,1,8,1:0:0:0:
114,73,22465,1,8,1:0:0:0:
86,107,22546,1,8,1:0:0:0:
77,151,22628,2,0,P|86:185|92:207,1,45.3600005537109,2|2,0:3|0:3,0:0:0:0:
150,244,22790,1,2,0:3:0:0:
143,270,22871,1,2,0:3:0:0:
136,297,22952,6,0,P|111:305|86:313,1,45.3600005537109,8|8,0:3|0:3,0:0:0:0:
210,193,23114,2,0,P|231:198|253:207,1,45.3600005537109,8|8,0:3|0:3,0:0:0:0:
313,345,23276,6,0,P|291:351|270:359,1,45.3600005537109,8|4,0:1|0:3,0:0:0:0:
383,182,23438,2,0,P|404:187|426:196,1,45.3600005537109,4|4,0:3|0:3,0:0:0:0:
512,357,23601,5,4,0:0:0:0:
512,357,23763,1,0,0:0:0:0:
412,278,23925,2,0,P|380:263|345:254,1,71.280002175293,8|2,0:1|0:2,0:0:0:0:
509,206,24249,1,2,3:2:0:0:
509,206,24411,1,2,0:0:0:0:
399,98,24574,1,8,0:1:0:0:
512,49,24736,1,2,0:2:0:0:
421,183,24898,6,0,P|353:164|275:151,1,142.560004350586,2|8,3:2|0:1,0:0:0:0:
151,177,25384,1,2,0:0:0:0:
178,39,25546,2,0,P|195:69|208:103,1,71.280002175293,2|2,3:2|0:0,0:0:0:0:
56,157,25871,2,0,P|69:123|86:92,1,71.280002175293,8|2,0:1|0:2,0:0:0:0:
146,279,26195,6,0,P|115:261|81:248,1,71.280002175293,2|2,3:2|0:0,0:0:0:0:
186,384,26519,1,8,0:1:0:0:
186,384,26682,2,0,P|216:366|250:353,1,71.280002175293,2|2,0:2|3:2,0:0:0:0:
319,261,27006,1,2,0:0:0:0:
319,261,27169,2,0,P|349:278|383:291,1,71.280002175293,8|2,0:1|0:2,0:0:0:0:
497,349,27492,6,0,P|432:290|451:243,1,142.560004350586,2|8,3:2|0:1,0:0:0:0:
512,157,27979,2,0,L|415:139,1,71.280002175293,2|2,0:2|3:2,0:0:0:0:
368,51,28303,1,8,0:1:0:0:
368,51,28465,2,0,L|464:33,1,71.280002175293,2|4,3:0|3:0,0:0:0:0:
250,0,28790,6,0,P|236:32|225:74,1,71.280002175293,4|2,0:0|0:2,0:0:0:0:
203,214,29114,1,8,0:1:0:0:
130,128,29276,1,2,0:0:0:0:
276,148,29438,2,0,P|290:180|301:222,1,71.280002175293,2|2,3:2|0:0,0:0:0:0:
292,357,29763,1,8,0:1:0:0:
378,292,29925,1,2,0:2:0:0:
177,319,30087,6,0,P|127:302|70:294,1,106.92000326294,2|0,3:2|0:0,0:0:0:0:
38,264,30411,1,8,0:1:0:0:
113,201,30574,1,2,0:2:0:0:
39,86,30736,2,0,L|25:160,1,71.280002175293,0|2,3:0|0:1,0:0:0:0:
110,24,31060,2,0,P|168:1|242:35,1,142.560004350586,8|2,0:1|3:2,0:0:0:0:
238,30,31709,5,8,0:1:0:0:
332,91,31871,2,0,L|309:218,1,106.92000326294,2|0,0:2|0:0,0:0:0:0:
325,213,32195,2,0,L|340:298,1,71.280002175293,2|8,0:0|0:1,0:0:0:0:
237,379,32519,1,2,0:2:0:0:
165,320,32682,2,0,B|125:290|63:310|63:310|37:355,1,142.560004350586,0|8,3:0|0:1,0:0:0:0:
46,341,33330,6,0,L|30:264,1,71.280002175293,2|2,3:2|0:0,0:0:0:0:
130,210,33655,1,8,0:1:0:0:
136,191,33736,1,8,0:1:0:0:
142,172,33817,1,8,0:1:0:0:
3,46,33979,6,0,P|3:111|74:122,1,142.560004350586,4|8,0:1|0:1,0:0:0:0:
188,63,34465,1,2,0:0:0:0:
188,63,34628,2,0,P|154:49|96:31,1,71.280002175293,2|0,3:2|0:0,0:0:0:0:
239,148,34952,1,8,0:1:0:0:
315,73,35114,1,0,0:0:0:0:
309,221,35276,6,0,P|244:203|147:205,1,142.560004350586,2|8,3:2|0:1,0:0:0:0:
39,260,35763,1,2,3:2:0:0:
96,155,35925,1,0,3:0:0:0:
96,155,36087,1,0,3:0:0:0:
136,308,36249,2,0,P|167:295|215:286,1,71.280002175293,8|0,0:1|0:0,0:0:0:0:
392,369,36574,6,0,L|408:275,1,71.280002175293,2|0,3:2|0:0,0:0:0:0:
318,175,36898,1,8,0:1:0:0:
407,120,37060,2,0,L|419:198,1,71.280002175293,0|2,0:0|3:2,0:0:0:0:
277,266,37384,1,0,0:0:0:0:
191,211,37546,2,0,L|178:289,1,71.280002175293,8|0,0:1|0:0,0:0:0:0:
86,383,37871,6,0,P|49:331|76:282,1,106.92000326294,2|0,3:2|0:0,0:0:0:0:
98,270,38195,1,8,0:1:0:0:
24,162,38357,2,0,P|10:204|1:249,1,71.280002175293,2|0,0:0|3:0,0:0:0:0:
140,155,38682,1,8,0:1:0:0:
50,80,38844,1,0,3:0:0:0:
212,8,39006,5,2,0:2:0:0:
212,8,39087,1,2,0:2:0:0:
212,8,39168,2,0,L|227:96,1,71.280002175293,4|2,0:1|0:2,0:0:0:0:
318,180,39492,1,8,0:1:0:0:
390,106,39655,1,2,0:2:0:0:
500,187,39817,2,0,L|484:275,1,71.280002175293,2|0,3:2|0:0,0:0:0:0:
391,364,40141,1,8,0:1:0:0:
319,290,40304,1,2,0:0:0:0:
183,353,40465,2,0,L|271:368,1,71.280002175293,0|2,3:0|0:0,0:0:0:0:
198,214,40790,6,0,P|147:226|136:298,1,106.92000326294,8|0,0:1|0:0,0:0:0:0:
113,294,41114,2,0,P|133:342|206:340,1,106.92000326294,0|0,3:0|0:0,0:0:0:0:
206,365,41438,2,0,L|219:291,1,71.280002175293,8|2,0:1|0:1,0:0:0:0:
181,111,41763,6,0,P|143:87|106:92,1,71.280002175293,0|2,3:0|0:2,0:0:0:0:
277,232,42087,2,0,P|312:229|340:208,1,71.280002175293,8|2,0:1|0:2,0:0:0:0:
438,35,42411,2,0,L|425:105,1,71.280002175293,0|2,3:0|0:2,0:0:0:0:
281,150,42736,2,0,L|268:79,1,71.280002175293,8|2,0:1|0:2,0:0:0:0:
431,272,43060,5,4,0:1:0:0:
286,370,43222,2,0,L|250:363,1,35.6400010876465,8|8,0:1|0:1,0:0:0:0:
175,340,43384,1,2,3:1:0:0:
147,326,43465,1,8,0:1:0:0:
127,301,43546,1,8,0:1:0:0:
120,270,43627,1,8,0:1:0:0:
127,239,43709,6,0,L|135:202,1,35.6400010876465,2|8,3:0|0:1,0:0:0:0:
56,143,43871,2,0,L|51:107,1,35.6400010876465,8|8,0:1|0:1,0:0:0:0:
161,4,44033,5,4,3:0:0:0:
213,19,44114,1,8,0:1:0:0:
264,33,44195,1,8,0:1:0:0:
316,45,44276,1,8,0:1:0:0:
369,56,44357,5,4,3:2:0:0:
430,200,44519,1,2,0:1:0:0:
271,130,44682,5,8,0:1:0:0:
259,301,44844,1,2,0:1:0:0:
151,80,45006,5,0,3:0:0:0:
65,280,45168,1,2,0:1:0:0:
163,72,45330,2,0,P|196:59|231:52,1,71.280002175293,8|2,0:1|0:1,0:0:0:0:
79,199,45655,6,0,P|45:186|10:179,1,71.280002175293,0|2,3:0|0:1,0:0:0:0:
174,300,45979,1,8,0:1:0:0:
271,130,46141,2,0,P|282:163|290:198,1,71.280002175293,2|0,0:1|3:0,0:0:0:0:
144,127,46465,1,2,3:1:0:0:
289,32,46628,1,8,0:1:0:0:
207,202,46790,1,2,0:1:0:0:
130,138,46952,2,0,B|41:152|86:191|2:200,1,142.560004350586,0|8,3:0|0:1,0:0:0:0:
64,73,47438,1,0,0:0:0:0:
131,230,47601,6,0,P|176:280|248:275,1,142.560004350586,0|8,3:0|0:1,0:0:0:0:
391,183,48087,1,0,3:0:0:0:
391,183,48168,1,0,3:0:0:0:
391,183,48249,1,12,0:1:0:0:
325,352,48411,1,8,0:1:0:0:
294,145,48574,1,2,0:3:0:0:
315,108,48655,1,2,0:3:0:0:
351,84,48736,1,4,0:3:0:0:
392,78,48817,1,4,0:3:0:0:
433,89,48898,6,0,P|454:95|472:102,1,35.6400010876465,8|0,0:1|0:0,0:0:0:0:
351,0,49060,2,0,P|333:4|317:10,1,35.6400010876465,0|0,3:0|0:0,0:0:0:0:
219,145,49222,6,0,P|236:149|252:155,1,35.6400010876465,8|0,0:1|3:0,0:0:0:0:
95,3,49384,1,8,0:1:0:0:
95,3,49465,1,0,3:0:0:0:
95,3,49546,5,4,0:0:0:0:
144,82,49708,1,0,0:0:0:0:
79,190,49870,2,0,P|50:210|12:213,1,71.280002175293,8|2,0:1|0:2,0:0:0:0:
23,129,50194,1,2,3:2:0:0:
23,129,50356,1,2,0:2:0:0:
156,163,50519,1,8,0:1:0:0:
48,292,50681,1,2,0:2:0:0:
175,157,50844,6,0,B|264:171|219:210|303:219,1,142.560004350586,2|8,3:2|0:1,0:0:0:0:
368,113,51330,2,0,P|347:181|335:251,1,142.560004350586,2|2,0:2|0:2,0:0:0:0:
446,248,51816,2,0,P|451:213|459:177,1,71.280002175293,8|2,0:1|0:2,0:0:0:0:
430,60,52140,6,0,P|405:34|365:29,1,71.280002175293,2|2,3:2|0:2,0:0:0:0:
255,117,52465,2,0,P|230:142|196:149,1,71.280002175293,8|2,0:1|0:2,0:0:0:0:
188,56,52790,1,2,3:2:0:0:
188,56,52951,1,2,0:2:0:0:
97,191,53114,2,0,P|86:155|75:124,1,71.280002175293,8|2,0:1|0:2,0:0:0:0:
174,255,53438,6,0,B|259:265|218:308|302:317,1,142.560004350586,2|8,3:2|0:1,0:0:0:0:
361,191,53924,2,0,P|322:203|304:230,1,71.280002175293,2|2,0:2|3:2,0:0:0:0:
436,356,54248,1,8,0:1:0:0:
436,356,54410,2,0,L|454:260,1,71.280002175293,2|2,3:2|0:2,0:0:0:0:
305,227,54736,6,0,L|318:297,1,71.280002175293,6|2,3:2|0:2,0:0:0:0:
448,168,55059,1,8,0:1:0:0:
320,82,55221,1,2,0:2:0:0:
385,221,55384,2,0,P|409:246|443:253,1,71.280002175293,2|2,3:2|0:2,0:0:0:0:
400,82,55708,1,8,0:1:0:0:
303,209,55870,1,2,0:2:0:0:
239,145,56032,6,0,P|256:195|263:248,1,106.92000326294,2|0,3:2|0:0,0:0:0:0:
263,294,56356,1,8,0:1:0:0:
175,336,56519,1,2,0:2:0:0:
93,286,56681,2,0,P|74:316|77:350,1,71.280002175293,2|2,3:2|0:1,0:0:0:0:
144,217,57006,2,0,P|165:147|127:93,1,142.560004350586,8|2,0:1|3:2,0:0:0:0:
128,93,57655,1,8,0:1:0:0:
209,15,57816,2,0,B|261:29|261:29|263:32|263:32|324:50,1,106.92000326294,2|0,0:2|0:0,0:0:0:0:
321,64,58140,2,0,L|398:88,1,71.280002175293,2|8,0:2|0:1,0:0:0:0:
498,30,58464,1,2,0:2:0:0:
432,164,58628,6,0,B|442:249|485:208|494:292,1,142.560004350586,2|8,3:2|0:1,0:0:0:0:
493,287,59276,2,0,L|476:358,1,71.280002175293,2|2,3:2|0:2,0:0:0:0:
371,311,59600,1,8,0:1:0:0:
377,292,59681,1,8,0:1:0:0:
383,273,59762,1,2,0:3:0:0:
255,362,59925,6,0,P|190:348|189:282,1,142.560004350586,4|8,0:1|0:1,0:0:0:0:
277,177,60410,1,0,0:0:0:0:
277,177,60573,2,0,P|310:188|343:202,1,71.280002175293,2|0,3:2|3:0,0:0:0:0:
224,65,60897,1,8,0:1:0:0:
144,209,61059,1,0,0:0:0:0:
13,63,61222,6,0,B|98:53|57:10|141:1,1,142.560004350586,2|8,3:2|0:1,0:0:0:0:
195,143,61709,2,0,B|280:153|239:196|323:205,1,142.560004350586,0|0,0:0|3:0,0:0:0:0:
141,82,62195,2,0,P|116:108|110:147,1,71.280002175293,8|0,0:1|0:0,0:0:0:0:
129,278,62519,5,2,3:2:0:0:
39,176,62681,1,0,3:0:0:0:
138,292,62844,2,0,P|127:325|117:359,1,71.280002175293,8|0,0:1|0:0,0:0:0:0:
198,223,63168,1,2,3:2:0:0:
280,301,63330,1,0,3:0:0:0:
384,196,63492,2,0,P|370:144|355:92,1,106.92000326294,8|0,0:1|0:0,0:0:0:0:
320,75,63817,6,0,B|235:65|276:22|192:13,1,142.560004350586,2|8,3:2|0:1,0:0:0:0:
127,158,64303,2,0,B|42:168|83:211|-1:220,1,142.560004350586,0|8,0:0|0:1,0:0:0:0:
64,79,64790,1,8,0:1:0:0:
140,246,64952,1,8,0:1:0:0:
140,246,65033,1,8,0:1:0:0:
140,246,65114,5,4,3:2:0:0:
219,215,65276,1,2,0:1:0:0:
91,321,65438,2,0,P|39:304|5:297,1,71.280002175293,8|2,0:1|0:1,0:0:0:0:
174,382,65763,5,0,3:0:0:0:
240,333,65925,1,2,0:1:0:0:
400,289,66087,5,8,0:1:0:0:
334,240,66249,1,2,0:1:0:0:
191,212,66411,5,0,3:0:0:0:
337,111,66574,1,2,0:1:0:0:
175,16,66736,1,8,0:1:0:0:
253,158,66898,1,2,0:1:0:0:
372,2,67060,2,0,P|424:13|460:88,1,142.560004350586,0|8,3:0|0:1,0:0:0:0:
400,220,67546,1,0,3:0:0:0:
394,200,67628,1,0,3:0:0:0:
387,180,67709,6,0,L|373:129,3,35.6400010876465,4|8|8|8,0:1|0:1|0:1|0:1,0:0:0:0:
331,81,68033,6,0,P|307:87|293:108,1,35.6400010876465,8|8,0:1|0:1,0:0:0:0:
222,94,68195,2,0,P|209:115|214:139,1,35.6400010876465,8|8,0:1|0:1,0:0:0:0:
168,192,68357,5,8,0:1:0:0:
150,218,68438,1,8,0:1:0:0:
122,234,68519,1,8,0:1:0:0:
91,235,68600,1,8,0:1:0:0:
62,222,68682,6,0,L|53:177,1,35.6400010876465,2|8,0:3|0:3,0:0:0:0:
238,367,68844,2,0,L|244:332,1,35.6400010876465,4|4,0:3|0:3,0:0:0:0:
387,180,69006,6,0,L|380:214,1,35.6400010876465,10|0,0:1|0:0,0:0:0:0:
222,94,69330,6,0,L|215:127,1,35.6400010876465,10|0,0:1|0:0,0:0:0:0:
63,2,69655,6,0,L|56:36,1,35.6400010876465,8|0,3:1|0:0,0:0:0:0:
29,162,69817,1,0,3:0:0:0:
29,162,69898,1,0,3:0:0:0:
29,162,69979,2,0,B|136:183|49:226|170:255,1,160.379999510559,4|0,3:2|0:0,0:0:0:0:
209,307,70303,6,0,B|303:274|303:274|307:276|307:276|419:238,1,212.62500202775,4|0,3:1|0:0,0:0:0:0:
442,170,70628,5,8,0:1:0:0:
400,325,70790,1,2,0:1:0:0:
302,80,70952,5,0,3:0:0:0:
328,245,71114,1,2,0:1:0:0:
162,167,71276,5,8,0:1:0:0:
137,366,71438,1,2,0:1:0:0:
7,65,71601,5,0,3:0:0:0:
32,264,71763,1,2,0:1:0:0:
112,96,71925,1,8,0:1:0:0:
0,159,72087,1,2,0:1:0:0:
129,293,72249,2,0,P|182:274|257:261,1,106.919999673706,0|2,3:0|0:1,0:0:0:0:
419,265,72574,1,8,0:1:0:0:
344,194,72736,1,10,0:1:0:0:
483,63,72898,2,0,L|461:190,1,106.919999673706,0|2,3:0|0:1,0:0:0:0:
380,363,73222,5,8,0:1:0:0:
344,194,73384,1,2,0:1:0:0:
251,306,73546,5,0,3:0:0:0:
281,120,73709,1,2,0:1:0:0:
160,352,73870,5,8,0:1:0:0:
137,167,74032,1,2,0:1:0:0:
15,295,74195,5,0,3:0:0:0:
67,88,74357,1,2,0:1:0:0:
129,275,74519,1,8,0:1:0:0:
21,198,74681,1,2,0:1:0:0:
158,62,74844,2,0,L|133:186,1,106.919999673706,0|10,3:0|0:1,0:0:0:0:
203,367,75168,1,8,0:1:0:0:
129,275,75330,1,10,0:1:0:0:
308,350,75492,2,0,P|254:355|202:367,1,106.919999673706,4|2,3:1|0:1,0:0:0:0:
29,188,75817,5,8,0:1:0:0:
0,365,75979,1,2,0:1:0:0:
138,167,76141,5,0,3:0:0:0:
195,351,76303,1,2,0:1:0:0:
316,118,76465,5,8,0:1:0:0:
277,289,76627,1,2,0:1:0:0:
399,154,76790,5,0,3:0:0:0:
438,325,76952,1,2,0:1:0:0:
328,203,77114,1,8,0:1:0:0:
469,237,77276,1,2,0:1:0:0:
363,365,77438,2,0,B|262:342|330:305|234:282,1,160.379999510559,0|0,3:0|0:0,0:0:0:0:
162,238,77763,2,0,P|129:259|117:284,1,53.459999836853,8|0,0:1|0:0,0:0:0:0:
44,296,77925,2,0,P|48:334|64:357,1,53.459999836853,2|0,0:1|0:0,0:0:0:0:
125,382,78087,2,0,P|176:372|240:365,1,106.919999673706,0|2,3:0|0:1,0:0:0:0:
372,102,78411,6,0,P|327:45|238:72,1,160.379999510559,8|0,0:1|0:0,0:0:0:0:
203,0,78736,2,0,L|185:108,1,106.919999673706,0|8,3:0|0:1,0:0:0:0:
0,177,79060,5,2,0:3:0:0:
30,155,79141,1,8,0:3:0:0:
66,150,79222,1,4,0:3:0:0:
101,163,79303,1,4,0:3:0:0:
126,190,79384,1,8,0:1:0:0:
160,230,79465,1,2,0:3:0:0:
210,246,79546,1,2,0:3:0:0:
262,234,79628,1,2,0:3:0:0:
299,196,79709,5,8,0:3:0:0:
305,179,79790,1,8,0:3:0:0:
309,163,79871,2,0,L|297:102,1,53.459999836853,4|4,0:3|0:3,0:0:0:0:
390,202,80033,5,8,0:1:0:0:
384,219,80115,1,0,3:0:0:0:
380,235,80196,2,0,L|392:296,1,53.459999836853,0|0,3:0|3:0,0:0:0:0:
303,302,80357,2,0,L|292:354,1,53.459999836853,8|8,0:1|0:1,0:0:0:0:
160,230,80519,2,0,L|170:282,1,53.459999836853,8|8,0:1|0:1,0:0:0:0:
48,352,80682,5,4,3:2:0:0:
48,352,81006,5,8,0:1:0:0:
8,180,81168,1,2,0:1:0:0:
239,206,81330,5,0,3:0:0:0:
80,271,81492,1,2,0:1:0:0:
180,56,81655,5,8,0:1:0:0:
160,230,81817,1,2,0:1:0:0:
77,38,81979,5,0,3:0:0:0:
276,12,82141,1,2,0:1:0:0:
120,151,82303,1,8,0:1:0:0:
180,56,82465,1,2,0:1:0:0:
313,165,82628,2,0,P|262:150|204:138,1,106.919999673706,0|2,3:0|0:1,0:0:0:0:
80,271,82952,1,8,0:1:0:0:
140,366,83114,1,10,0:1:0:0:
268,258,83276,2,0,P|215:268|164:284,1,106.919999673706,0|2,3:0|0:1,0:0:0:0:
380,384,83601,5,8,0:1:0:0:
436,207,83763,1,2,0:1:0:0:
268,258,83925,5,0,3:0:0:0:
454,343,84087,1,2,0:1:0:0:
382,118,84249,5,8,0:1:0:0:
384,306,84411,1,2,0:1:0:0:
477,92,84574,5,0,3:0:0:0:
292,46,84736,1,2,0:1:0:0:
436,207,84898,1,8,0:1:0:0:
382,118,85060,1,2,0:1:0:0:
234,178,85222,2,0,L|351:198,1,106.919999673706,0|10,3:0|0:1,0:0:0:0:
487,295,85546,1,8,0:1:0:0:
433,384,85708,1,10,0:1:0:0:
285,320,85871,2,0,L|402:299,1,106.919999673706,4|2,3:2|0:1,0:0:0:0:
168,129,86195,5,8,0:1:0:0:
102,314,86357,1,2,0:1:0:0:
89,93,86519,5,0,3:0:0:0:
184,278,86681,1,2,0:1:0:0:
182,43,86844,5,8,0:1:0:0:
107,228,87006,1,2,0:1:0:0:
274,79,87168,5,0,3:0:0:0:
51,13,87330,1,2,0:1:0:0:
148,144,87492,1,8,0:1:0:0:
182,43,87655,1,2,0:1:0:0:
231,222,87817,1,0,3:0:0:0:
54,126,87980,1,2,0:1:0:0:
104,327,88141,2,0,P|167:318|229:311,1,106.919999673706,8|2,0:1|0:1,0:0:0:0:
497,165,88465,6,0,B|400:138|462:105|363:80,1,160.379999510559,4|0,0:1|0:0,0:0:0:0:
289,27,88790,2,0,P|239:42|216:89,1,106.919999673706,8|2,0:1|0:1,0:0:0:0:
262,271,89114,1,0,3:0:0:0:
354,162,89276,1,2,0:1:0:0:
466,368,89438,2,0,P|403:359|341:352,1,106.919999673706,0|2,3:0|0:1,0:0:0:0:
262,271,89763,6,0,P|288:264|314:258,1,53.459999836853,0|0,3:0|3:0,0:0:0:0:
257,368,89925,2,0,P|230:361|205:355,1,53.459999836853,8|8,0:1|0:1,0:0:0:0:
149,288,90087,5,8,0:1:0:0:
140,251,90168,1,8,0:1:0:0:
149,215,90249,1,8,0:1:0:0:
173,184,90330,1,8,0:1:0:0:
213,168,90411,6,0,P|238:161|264:155,1,53.459999836853,8|8,0:1|0:1,0:0:0:0:
192,64,90574,2,0,P|165:70|140:76,1,53.459999836853,8|8,0:1|0:1,0:0:0:0:
312,63,90736,5,8,0:1:0:0:
351,89,90817,1,2,0:3:0:0:
371,132,90898,1,8,0:3:0:0:
367,179,90979,1,4,0:3:0:0:
347,223,91060,5,4,3:1:0:0:
464,108,91222,1,0,0:0:0:0:
334,237,91384,2,0,P|256:217|187:198,1,148.229993893112,10|0,0:1|0:0,0:0:0:0:
142,140,91709,1,0,3:0:0:0:
263,6,91871,2,0,P|334:24|352:88,1,148.229993893112,0|0,3:0|0:0,0:0:0:0:
395,154,92195,1,0,0:0:0:0:
248,241,92357,6,0,P|218:283|223:328,1,98.8199959287416,2|0,3:1|0:0,0:0:0:0:
87,202,92682,2,0,P|57:160|62:115,1,98.8199959287416,10|0,0:1|0:0,0:0:0:0:
176,0,93006,1,2,3:1:0:0:
0,79,93168,1,0,3:0:0:0:
160,150,93330,1,8,0:1:0:0:
63,0,93492,1,0,0:0:0:0:
0,210,93655,5,2,3:1:0:0:
80,119,93817,1,0,0:0:0:0:
145,272,93979,1,10,0:1:0:0:
208,211,94141,2,0,B|304:234|236:271|338:299,1,148.229993893112
377,351,94465,2,0,P|440:319|429:242,1,148.229993893112,0|0,3:0|0:0,0:0:0:0:
470,181,94790,1,0,0:0:0:0:
334,69,94952,5,2,3:1:0:0:
438,15,95114,1,0,0:0:0:0:
390,184,95276,1,8,0:1:0:0:
317,75,95438,2,0,B|254:66|236:127|248:128|221:179|160:171,1,197.639991857483,0|0,0:0|3:0,0:0:0:0:
14,82,95925,1,8,0:1:0:0:
112,231,96087,1,8,0:1:0:0:
120,12,96249,6,0,P|102:66|72:164,1,148.229993893112,4|0,3:2|0:0,0:0:0:0:
5,190,96574,1,10,0:1:0:0:
94,332,96736,2,0,P|142:336|180:306,1,98.8199959287416,0|2,0:0|3:1,0:0:0:0:
206,89,97060,2,0,P|178:128|184:176,1,98.8199959287416,0|8,3:0|0:1,0:0:0:0:
343,308,97384,2,0,P|322:264|277:245,1,98.8199959287416,0|0,0:0|3:0,0:0:0:0:
118,260,97709,1,0,0:0:0:0:
270,152,97871,5,10,0:1:0:0:
235,314,98033,1,0,0:0:0:0:
142,55,98195,5,2,3:1:0:0:
189,226,98357,1,0,3:0:0:0:
397,17,98519,5,8,0:1:0:0:
351,214,98681,1,8,0:1:0:0:
351,214,98763,1,8,0:1:0:0:
351,214,98844,2,0,P|392:251|442:249,1,98.8199959287416,0|0,3:0|0:0,0:0:0:0:
303,66,99168,5,10,0:1:0:0:
257,240,99330,1,0,0:0:0:0:
120,107,99492,2,0,P|72:118|26:136,1,98.8199959287416,2|0,3:1|0:0,0:0:0:0:
233,0,99817,5,10,0:1:0:0:
283,162,99979,1,0,0:0:0:0:
419,15,100141,2,0,P|466:26|512:44,1,98.8199959287416,2|0,3:1|0:0,0:0:0:0:
275,173,100465,2,0,P|229:191|181:202,1,98.8199959287416,8|4,0:1|3:0,0:0:0:0:
404,101,100790,1,8,0:1:0:0:
334,258,100952,1,8,0:1:0:0:
208,102,101114,1,8,0:1:0:0:
221,60,101195,1,8,0:1:0:0:
256,34,101276,1,8,0:1:0:0:
300,35,101357,1,8,0:1:0:0:
337,56,101438,5,4,3:1:0:0:
233,187,101601,2,0,P|183:191|140:159,1,98.8199959287416,2|8,0:1|0:1,0:0:0:0:
8,16,101925,2,0,P|32:85|48:158,1,148.229993893112,2|0,0:1|0:0,0:0:0:0:
24,233,102249,1,2,0:1:0:0:
208,102,102411,1,8,0:1:0:0:
95,14,102574,1,2,0:1:0:0:
161,224,102736,6,0,B|255:239|194:293|297:312,1,148.229993893112,0|0,3:0|0:0,0:0:0:0:
346,353,103060,1,8,0:1:0:0:
456,208,103222,1,2,0:1:0:0:
512,368,103384,1,0,3:0:0:0:
367,257,103546,1,2,0:1:0:0:
512,129,103709,1,8,0:1:0:0:
445,221,103871,1,2,0:1:0:0:
372,75,104033,5,0,3:0:0:0:
318,143,104195,2,0,B|232:149|264:196|186:203,1,148.229993893112,2|0,0:1|0:0,0:0:0:0:
112,146,104519,2,0,P|160:196|143:268,1,148.229993893112,2|0,0:1|0:0,0:0:0:0:
70,317,104844,1,2,0:1:0:0:
1,152,105006,1,8,0:1:0:0:
83,217,105168,1,2,0:1:0:0:
187,15,105330,6,0,B|110:21|142:68|56:74,1,148.229993893112,0|0,3:0|0:0,0:0:0:0:
0,24,105655,1,8,0:1:0:0:
160,128,105817,2,0,B|275:146|200:212|325:235,1,197.639991857483,2|10,3:1|0:1,0:0:0:0:
472,156,106303,1,8,0:1:0:0:
369,308,106465,1,10,0:1:0:0:
482,144,106628,6,0,P|477:66|416:46,1,148.229993893112,0|0,3:0|0:0,0:0:0:0:
352,2,106952,1,8,0:1:0:0:
296,144,107114,2,0,P|254:174|201:166,1,98.8199959287416,2|0,0:1|3:0,0:0:0:0:
415,237,107438,2,0,P|457:267|510:259,1,98.8199959287416,2|8,0:1|0:1,0:0:0:0:
336,377,107763,2,0,B|219:355|294:289|180:271,1,197.639991857483,2|2,0:1|0:1,0:0:0:0:
64,334,108249,5,8,0:1:0:0:
111,192,108411,1,2,0:1:0:0:
180,271,108574,5,0,3:0:0:0:
125,105,108736,1,2,0:1:0:0:
255,192,108898,5,8,0:1:0:0:
315,8,109060,1,2,0:1:0:0:
111,110,109222,6,0,P|64:99|18:81,1,98.8199959287416,0|2,3:0|0:1,0:0:0:0:
305,126,109546,2,0,P|334:158|337:211,1,98.8199959287416,8|2,0:1|0:1,0:0:0:0:
111,348,109871,2,0,P|111:299|143:263,1,98.8199959287416,0|8,3:0|0:1,0:0:0:0:
148,240,110114,1,8,0:1:0:0:
148,240,110195,2,0,L|202:255,1,49.4099979643708,2|8,3:0|3:0,0:0:0:0:
264,350,110357,2,0,L|216:363,1,49.4099979643708,4|4,3:0|3:0,0:0:0:0:
322,289,110519,5,0,3:0:0:0:
334,289,110601,1,0,3:0:0:0:
372,258,110682,1,8,0:1:0:0:
388,212,110763,1,8,0:1:0:0:
378,165,110844,2,0,L|332:148,1,49.4099979643708,2|8,0:3|0:3,0:0:0:0:
285,66,111006,2,0,L|331:49,1,49.4099979643708,4|4,0:3|0:3,0:0:0:0:
199,266,111168,5,8,0:1:0:0:
159,238,111249,1,2,0:3:0:0:
144,192,111330,1,8,0:3:0:0:
162,147,111411,1,0,0:0:0:0:
205,124,111493,2,0,L|253:143,1,49.4099979643708,8|2,0:1|0:3,0:0:0:0:
127,0,111655,2,0,L|81:18,1,49.4099979643708,8|0,0:3|0:0,0:0:0:0:
17,147,111817,5,4,3:2:0:0:
256,192,111898,12,0,115546,0:0:0:0:
62,339,115709,6,0,L|71:285,1,45.3600005537109,2|0,0:2|0:0,0:0:0:0:
217,245,115952,6,0,L|229:172,1,45.3600005537109,2|0,0:2|0:0,0:0:0:0:
372,151,116195,6,0,L|381:95,1,45.3600005537109,2|0,0:1|0:0,0:0:0:0:
485,278,116519,5,0,3:0:0:0:
492,293,116601,1,0,3:0:0:0:
498,308,116682,2,0,B|460:275|408:290|408:290|385:326,1,136.080001661133,8|0,1:0|0:0,0:0:0:0:
294,346,117006,5,6,3:1:0:0:
270,320,117114,2,0,P|238:314|202:308,1,60.4800007382813,2|2,0:1|0:1,0:0:0:0:
328,247,117330,1,10,0:1:0:0:
352,221,117438,2,0,P|384:215|420:209,1,60.4800007382813,2|2,0:1|0:1,0:0:0:0:
291,152,117655,1,2,3:0:0:0:
267,126,117763,2,0,P|235:120|199:114,1,60.4800007382813,2|2,0:1|0:1,0:0:0:0:
325,53,117979,1,10,0:1:0:0:
349,27,118087,2,0,P|381:21|417:15,1,60.4800007382813,2|2,0:1|0:1,0:0:0:0:
232,1,118303,5,0,3:0:0:0:
110,132,118465,2,0,L|216:113,1,98.9819991995169,2|8,0:1|0:1,0:0:0:0:
23,94,118790,1,2,0:1:0:0:
145,225,118952,2,0,L|39:206,1,98.9819991995169,0|2,3:0|0:1,0:0:0:0:
239,201,119276,1,8,0:1:0:0:
145,323,119438,1,2,0:1:0:0:
328,384,119601,6,0,P|347:318|374:234,1,148.229993893112,0|0,3:0|0:0,0:0:0:0:
402,221,119925,1,8,0:1:0:0:
259,279,120087,2,0,P|240:213|213:132,1,148.229993893112,2|0,0:1|0:0,0:0:0:0:
188,114,120411,1,2,0:1:0:0:
324,157,120574,1,8,0:1:0:0:
440,76,120736,1,2,0:1:0:0:
512,284,120898,6,0,P|449:264|390:319,1,148.229993893112,0|0,3:0|0:0,0:0:0:0:
307,360,121222,2,0,P|355:315|341:233,1,148.229993893112,8|0,0:1|0:0,0:0:0:0:
375,153,121546,1,0,3:0:0:0:
256,79,121709,1,8,0:1:0:0:
349,152,121871,1,8,0:1:0:0:
250,202,122033,2,0,L|192:212,1,45.3600005537109,8|8,0:1|0:1,0:0:0:0:
83,288,122195,5,4,3:1:0:0:
44,278,122303,2,0,P|12:253|-5:212,1,65.9879994663446,2|2,0:1|0:1,0:0:0:0:
171,342,122519,1,8,0:1:0:0:
142,370,122627,2,0,P|104:385|60:380,1,65.9879994663446,2|2,0:1|0:1,0:0:0:0:
174,239,122844,1,0,3:0:0:0:
202,210,122952,2,0,P|239:194|283:199,1,65.9879994663446,2|2,0:1|0:1,0:0:0:0:
83,288,123168,1,8,0:1:0:0:
73,249,123276,2,0,P|78:209|104:173,1,65.9879994663446,2|2,0:1|0:1,0:0:0:0:
201,93,123492,5,0,3:0:0:0:
168,72,123601,2,0,L|101:83,1,65.9879994663446,2|0,0:1|0:1,0:0:0:0:
297,81,123817,1,8,0:1:0:0:
288,42,123925,2,0,L|234:4,1,65.9879994663446,2|2,0:1|0:1,0:0:0:0:
387,137,124141,1,0,3:0:0:0:
409,105,124249,2,0,L|397:38,1,65.9879994663446,2|2,0:1|0:1,0:0:0:0:
405,250,124466,1,8,0:1:0:0:
444,241,124574,2,0,L|482:186,1,65.9879994663446,2|2,0:1|0:1,0:0:0:0:
335,369,124790,6,0,B|241:367|288:313|203:307,1,148.472998799275,0|0,3:0|0:0,0:0:0:0:
163,333,125114,2,0,L|143:222,1,98.9819991995169,8|2,0:1|0:1,0:0:0:0:
12,109,125438,6,0,P|53:45|130:50,1,148.472998799275,0|0,3:0|0:0,0:0:0:0:
150,82,125763,1,8,0:1:0:0:
223,160,125925,1,8,0:1:0:0:
78,262,126087,5,0,3:0:0:0:
109,240,126168,1,8,0:1:0:0:
146,236,126249,1,8,0:1:0:0:
181,252,126330,1,8,0:1:0:0:
212,280,126411,5,8,3:1:0:0:
237,312,126492,1,8,0:1:0:0:
277,329,126573,1,8,0:1:0:0:
319,325,126654,1,8,0:1:0:0:
328,311,126736,6,0,L|342:258,3,49.4909995997585,8|8|8|8,0:3|0:3|0:1|0:1,0:0:0:0:
261,208,127060,6,0,L|247:155,1,49.4909995997585,8|8,3:1|0:1,0:0:0:0:
341,107,127222,2,0,L|355:54,1,49.4909995997585,8|8,0:1|0:1,0:0:0:0:
200,0,127384,5,4,3:1:0:0:
104,149,127546,1,2,0:1:0:0:
22,0,127709,1,8,0:1:0:0:
85,165,127871,1,2,0:1:0:0:
0,306,128033,2,0,P|44:297|99:288,1,98.9819991995169,0|2,3:0|0:1,0:0:0:0:
287,384,128357,2,0,P|243:375|189:366,1,98.9819991995169,8|2,0:1|0:1,0:0:0:0:
330,205,128682,5,0,3:0:0:0:
402,384,128844,1,2,0:1:0:0:
282,293,129006,1,8,0:1:0:0:
428,187,129168,2,0,L|448:295,1,98.9819991995169,2|0,0:1|3:0,0:0:0:0:
512,136,129492,1,2,0:1:0:0:
360,60,129655,1,8,0:1:0:0:
503,113,129817,1,2,0:1:0:0:
328,208,129979,6,0,B|234:210|281:264|196:270,1,148.472998799275,0|0,3:0|0:0,0:0:0:0:
161,293,130303,1,8,0:1:0:0:
64,206,130465,1,0,0:0:0:0:
217,90,130628,2,0,P|204:137|194:186,1,98.9819991995169,0|2,3:0|0:1,0:0:0:0:
51,221,130952,2,0,P|41:172|28:124,1,98.9819991995169,8|0,0:1|0:0,0:0:0:0:
197,10,131276,6,0,P|245:7|284:38,1,98.9819991995169,0|0,3:0|0:0,0:0:0:0:
382,164,131601,1,8,0:1:0:0:
511,6,131763,6,0,B|430:11|477:65|383:67,1,148.472998799275,4|0,3:2|0:0,0:0:0:0:
319,112,132087,2,0,P|304:136|302:164,1,49.4909995997585,8|8,0:1|0:1,0:0:0:0:
277,342,132249,1,8,0:3:0:0:
324,326,132330,1,8,0:3:0:0:
349,285,132411,1,8,0:1:0:0:
342,237,132492,1,8,0:1:0:0:
331,225,132574,6,0,P|286:206|237:196,1,98.9819991995169,4|2,3:1|0:1,0:0:0:0:
383,67,132898,2,0,P|428:47|476:38,1,98.9819991995169,8|0,0:1|0:0,0:0:0:0:
239,0,133222,6,0,P|219:45|210:93,1,98.9819991995169,0|2,3:0|0:1,0:0:0:0:
439,243,133546,2,0,P|429:194|410:149,1,98.9819991995169,8|0,0:1|0:0,0:0:0:0:
257,271,133871,6,0,P|218:301|163:300,1,98.9819991995169,0|2,3:0|0:1,0:0:0:0:
339,89,134195,2,0,P|384:107|411:155,1,98.9819991995169,8|0,0:1|0:0,0:0:0:0:
123,107,134519,2,0,P|116:58|144:11,1,98.9819991995169,0|2,3:0|0:1,0:0:0:0:
207,82,134763,1,0,0:0:0:0:
207,82,134844,2,0,L|199:130,1,49.4909995997585,8|2,0:1|0:3,0:0:0:0:
310,209,135006,2,0,L|302:161,1,49.4909995997585,8|4,0:3|0:3,0:0:0:0:
173,265,135168,5,8,3:1:0:0:
47,13,135330,1,8,3:1:0:0:
47,13,135655,5,8,3:1:0:0:
304,80,135817,1,8,3:1:0:0:
304,80,136141,5,8,3:1:0:0:
16,244,136303,1,8,3:1:0:0:
16,244,136628,5,8,3:1:0:0:
237,0,136790,1,4,3:0:0:0:
237,0,137114,2,0,B|249:62|249:62|251:62|251:62|263:129,1,123.281993472465,10|0,0:1|3:0,0:0:0:0:
191,147,137357,1,0,3:0:0:0:
181,135,137438,2,0,B|170:77|170:77|168:77|168:77|156:15,1,123.281993472465,10|0,0:1|3:0,0:0:0:0:
338,156,137763,5,4,3:2:0:0:
224,251,137925,1,8,0:1:0:0:
296,81,138087,2,0,P|364:76|418:141,1,148.472998799275,8|8,3:1|0:1,0:0:0:0:
494,160,138411,5,8,3:1:0:0:
476,245,138574,1,8,0:1:0:0:
334,236,138736,5,8,0:1:0:0:
352,321,138899,1,8,0:3:0:0:
501,148,139060,6,0,P|488:100|476:52,1,98.9819991995169,4|8,3:1|0:1,0:0:0:0:
407,13,139303,1,8,0:1:0:0:
395,5,139384,2,0,B|305:23|360:63|271:80,1,148.472998799275,8|2,3:1|0:3,0:0:0:0:
206,0,139709,2,0,P|228:84|249:168,1,172.773004218091,8|8,3:1|0:3,0:0:0:0:
309,221,140033,1,8,3:1:0:0:
133,116,140195,1,4,0:3:0:0:
133,116,140276,1,4,0:3:0:0:
133,116,140357,5,4,3:2:0:0:
90,131,140438,1,0,3:0:0:0:
66,169,140519,1,0,3:0:0:0:
70,214,140600,1,0,3:0:0:0:
91,252,140682,2,0,P|105:284|110:305,1,57.5910014060303,2|0,3:1|3:0,0:0:0:0:
246,384,140844,2,0,P|253:356|265:330,1,57.5910014060303,0|0,3:0|3:0,0:0:0:0:
345,139,141006,5,2,3:1:0:0:
389,105,141087,1,0,3:0:0:0:
446,105,141168,1,0,3:0:0:0:
490,140,141249,1,0,3:0:0:0:
503,195,141330,2,0,L|487:260,1,57.5910014060303,8|8,3:1|3:1,0:0:0:0:
304,3,141492,2,0,L|317:58,1,57.5910014060303,8|8,3:1|3:1,0:0:0:0:
207,208,141655,5,8,1:0:0:0:
302,79,141817,1,4,3:0:0:0:
224,15,142141,5,0,3:0:0:0:
133,138,142465,5,0,3:0:0:0:
133,138,142546,1,0,3:0:0:0:
133,138,142628,2,0,P|196:152|309:186,1,172.773004218091,8|0,1:0|0:0,0:0:0:0:
455,194,142952,6,0,B|503:237|477:312|402:375|238:357|259:97|377:130|366:163|480:149|459:33|416:-6,1,522.774002233532,4|0,3:2|0:0,0:0:0:0:
229,97,144249,2,0,B|267:27|357:54|357:54|294:0|206:15|146:56|178:66|126:134|72:135|8:108,1,522.774002233532,4|0,3:2|0:0,0:0:0:0:
181,168,145546,2,0,B|263:195|339:398|206:429|68:369|102:234|210:202|339:247,1,522.774002233532,4|0,3:2|0:0,0:0:0:0:
445,284,146844,2,0,B|469:298|485:358|447:376|368:393|321:322|338:247|385:209,1,298.728001276304,4|0,3:2|0:0,0:0:0:0:
382,210,147817,5,0,0:0:0:0:
456,135,147979,1,8,0:1:0:0:
368,16,148141,2,0,P|308:30|229:64,1,136.323005075502,6|2,3:1|0:1,0:0:0:0:
213,134,148465,5,0,3:0:0:0:
197,127,148628,1,2,0:1:0:0:
99,15,148790,5,0,3:0:0:0:
100,32,148953,1,2,0:1:0:0:
54,164,149114,5,0,3:0:0:0:
68,154,149277,1,2,0:1:0:0:
102,286,149438,5,0,3:0:0:0:
16,253,149600,1,2,0:1:0:0:
159,384,149763,5,0,3:0:0:0:
245,351,149925,1,2,0:1:0:0:
143,198,150086,5,0,3:0:0:0:
61,368,150249,1,2,0:1:0:0:
216,265,150411,1,0,3:0:0:0:
68,154,150573,1,2,0:1:0:0:
286,32,150736,5,4,0:1:0:0:
286,32,151060,2,0,P|300:74|319:163,1,136.323005075502
369,236,151384,1,0,3:0:0:0:
369,236,151465,1,0,3:0:0:0:
369,236,151546,2,0,P|398:249|414:252,1,45.4410016918342,8|8,0:1|0:1,0:0:0:0:
298,310,151709,1,8,0:1:0:0:
271,268,151790,1,2,0:3:0:0:
225,250,151871,1,8,0:3:0:0:
177,261,151952,1,4,0:3:0:0:
145,298,152033,6,0,P|275:327|405:364,1,266.32799638318,4|0,3:2|0:0,0:0:0:0:
403,363,153006,2,0,P|441:351|455:290,1,99.8729986436925,2|0,0:0|0:0,0:0:0:0:
509,233,153330,6,0,P|468:134|373:131,1,212.62500202775,4|0,3:2|0:0,0:0:0:0:
327,206,153655,5,8,0:1:0:0:
282,17,153817,1,2,0:1:0:0:
140,271,153979,5,0,3:0:0:0:
185,82,154141,1,2,0:1:0:0:
326,318,154303,5,8,0:1:0:0:
281,129,154465,1,2,0:1:0:0:
216,367,154628,5,0,3:0:0:0:
424,251,154790,1,2,0:1:0:0:
246,276,154952,1,8,0:1:0:0:
351,327,155114,1,2,0:1:0:0:
242,188,155276,2,0,L|136:168,1,106.919999673706,0|2,3:0|0:1,0:0:0:0:
68,19,155601,1,8,0:1:0:0:
176,85,155763,1,10,0:1:0:0:
56,277,155925,2,0,L|174:255,1,106.919999673706,4|0,3:2|0:0,0:0:0:0:
377,159,156249,5,8,0:1:0:0:
334,379,156411,1,2,0:1:0:0:
192,96,156574,5,0,3:0:0:0:
235,316,156736,1,2,0:1:0:0:
395,58,156898,5,8,0:1:0:0:
352,278,157060,1,2,0:1:0:0:
277,28,157222,5,0,3:0:0:0:
478,141,157384,1,2,0:1:0:0:
276,130,157546,1,8,0:1:0:0:
395,58,157709,1,2,0:1:0:0:
268,230,157871,2,0,P|211:211|145:200,1,106.919999673706,0|10,3:0|0:1,0:0:0:0:
83,349,158195,1,8,0:1:0:0:
194,303,158357,1,10,0:1:0:0:
44,149,158519,2,0,P|101:130|167:119,1,106.919999673706,4|0,3:1|0:0,0:0:0:0:
337,254,158844,5,8,0:1:0:0:
290,53,159006,1,2,0:1:0:0:
419,307,159168,5,0,3:0:0:0:
466,106,159330,1,2,0:1:0:0:
325,344,159492,5,8,0:1:0:0:
278,143,159654,1,2,0:1:0:0:
439,329,159817,5,4,3:2:0:0:
221,253,159979,1,2,0:1:0:0:
381,169,160141,1,8,0:1:0:0:
315,260,160303,1,2,0:1:0:0:
183,113,160465,2,0,P|264:93|349:83,1,160.379999510559,0|0,3:0|0:0,0:0:0:0:
422,49,160790,2,0,L|441:106,1,53.459999836853,8|0,0:1|0:0,0:0:0:0:
505,155,160952,2,0,L|485:212,1,53.459999836853,2|0,0:1|0:0,0:0:0:0:
512,306,161114,6,0,P|485:253|380:276,1,160.379999510559,6|0,0:3|0:0,0:0:0:0:
349,319,161438,2,0,L|328:196,1,106.919999673706,8|2,0:1|0:1,0:0:0:0:
89,107,161763,1,0,3:0:0:0:
215,197,161925,1,2,0:1:0:0:
38,318,162087,2,0,P|94:307|163:301,1,106.919999673706,8|2,0:1|0:3,0:0:0:0:
323,358,162411,6,0,L|250:345,1,53.459999836853,0|0,3:0|3:0,0:0:0:0:
342,268,162574,2,0,L|394:258,1,53.459999836853,8|8,0:1|0:1,0:0:0:0:
475,311,162736,5,8,0:1:0:0:
500,281,162817,1,8,0:1:0:0:
510,243,162898,1,8,0:1:0:0:
501,204,162979,1,8,0:1:0:0:
475,174,163060,6,0,P|443:165|412:161,1,53.459999836853,8|8,0:1|0:1,0:0:0:0:
313,105,163222,2,0,P|338:97|364:92,1,53.459999836853,8|8,0:1|0:1,0:0:0:0:
264,15,163384,5,8,0:1:0:0:
225,51,163465,1,2,0:3:0:0:
210,102,163546,1,8,0:3:0:0:
225,153,163627,1,4,0:3:0:0:
263,190,163708,5,4,3:1:0:0:
386,56,163871,1,0,0:0:0:0:
252,203,164033,2,0,P|178:193|107:172,1,148.229993893112,10|0,0:1|0:0,0:0:0:0:
66,106,164357,1,0,3:0:0:0:
0,315,164519,2,0,P|71:294|144:284,1,148.229993893112,0|0,3:0|0:0,0:0:0:0:
217,316,164844,1,0,0:0:0:0:
342,201,165006,6,0,P|334:153|296:123,1,98.8199959287416,2|0,3:1|0:0,0:0:0:0:
467,280,165330,2,0,P|429:310|421:357,1,98.8199959287416,10|0,0:1|0:0,0:0:0:0:
278,253,165655,1,2,3:1:0:0:
431,145,165817,1,0,3:0:0:0:
333,319,165979,1,8,0:1:0:0:
225,153,166141,1,0,0:0:0:0:
339,87,166303,5,2,3:1:0:0:
222,32,166465,1,0,0:0:0:0:
305,173,166628,1,10,0:1:0:0:
201,233,166790,2,0,B|104:217|169:176|66:155,1,148.229993893112
31,95,167114,2,0,B|-23:128|-23:128|3:212,1,148.229993893112,0|0,3:0|0:0,0:0:0:0:
31,282,167438,1,0,0:0:0:0:
199,149,167601,5,2,3:1:0:0:
95,203,167763,1,0,0:0:0:0:
143,34,167925,1,8,0:1:0:0:
216,143,168087,2,0,B|279:152|297:91|285:90|312:39|373:46,1,197.639991857483,0|0,0:0|3:0,0:0:0:0:
512,170,168574,1,8,0:1:0:0:
431,0,168736,1,8,0:1:0:0:
404,236,168898,6,0,P|426:155|451:85,1,148.229993893112,4|0,3:2|0:0,0:0:0:0:
502,40,169222,1,10,0:1:0:0:
345,112,169384,2,0,P|327:182|318:216,1,98.8199959287416,0|2,0:0|3:1,0:0:0:0:
124,239,169709,2,0,P|193:218|228:209,1,98.8199959287416,0|8,3:0|0:1,0:0:0:0:
332,384,170033,2,0,P|279:334|254:308,1,98.8199959287416,0|0,0:0|3:0,0:0:0:0:
257,146,170357,1,0,0:0:0:0:
177,313,170519,5,10,0:1:0:0:
120,138,170682,1,0,0:0:0:0:
282,233,170844,5,2,3:1:0:0:
339,58,171007,1,0,3:0:0:0:
78,20,171168,5,8,0:1:0:0:
200,182,171330,1,8,0:1:0:0:
200,182,171411,1,2,0:1:0:0:
200,182,171492,2,0,P|172:222|125:233,1,98.8199959287416,0|0,3:0|0:0,0:0:0:0:
207,0,171817,5,10,0:1:0:0:
303,190,171979,1,0,0:0:0:0:
462,0,172141,2,0,P|452:44|444:98,1,98.8199959287416,2|0,3:1|0:0,0:0:0:0:
467,332,172465,5,10,0:1:0:0:
368,142,172627,1,0,0:0:0:0:
212,332,172789,2,0,P|222:288|230:234,1,98.8199959287416,2|0,3:1|0:0,0:0:0:0:
381,137,173114,2,0,P|388:185|398:234,1,98.8199959287416,8|4,0:1|3:0,0:0:0:0:
243,70,173438,5,8,0:1:0:0:
385,0,173601,1,8,0:1:0:0:
295,145,173763,1,8,0:1:0:0:
258,166,173844,1,8,0:1:0:0:
214,167,173925,1,8,0:1:0:0:
179,141,174006,1,8,0:1:0:0:
166,99,174087,5,4,3:1:0:0:
311,235,174249,2,0,P|355:245|407:260,1,98.8199959287416,2|8,0:1|0:1,0:0:0:0:
199,384,174573,2,0,P|183:311|158:241,1,148.229993893112,2|0,0:1|0:0,0:0:0:0:
107,184,174897,1,2,0:1:0:0:
261,301,175059,1,8,0:1:0:0:
115,357,175222,1,2,0:1:0:0:
240,178,175384,6,0,P|302:158|391:138,1,148.229993893112,0|0,3:0|0:0,0:0:0:0:
463,155,175708,1,8,0:1:0:0:
358,49,175870,1,2,0:1:0:0:
512,0,176032,1,0,3:0:0:0:
381,168,176194,1,2,0:1:0:0:
292,0,176357,1,8,0:1:0:0:
494,80,176519,1,2,0:1:0:0:
430,238,176681,5,0,3:0:0:0:
363,161,176843,2,0,B|277:167|309:214|231:221,1,148.229993893112,2|0,0:1|0:0,0:0:0:0:
182,290,177167,2,0,P|198:220|150:168,1,148.229993893112,2|0,0:1|0:0,0:0:0:0:
78,141,177492,1,2,0:1:0:0:
226,83,177654,1,8,0:1:0:0:
151,11,177816,1,2,0:1:0:0:
280,167,177978,6,0,B|357:161|325:114|411:108,1,148.229993893112,0|0,3:0|0:0,0:0:0:0:
482,76,178303,1,8,0:1:0:0:
384,251,178465,2,0,P|294:209|200:178,1,197.639991857483,2|10,0:3|0:1,0:0:0:0:
42,55,178951,1,8,0:1:0:0:
102,247,179113,1,10,0:1:0:0:
202,82,179276,6,0,P|178:15|109:10,1,148.229993893112,0|0,3:0|0:0,0:0:0:0:
42,55,179600,1,8,0:1:0:0:
177,164,179762,2,0,P|225:166|264:137,1,98.8199959287416,2|0,0:1|3:0,0:0:0:0:
95,260,180087,2,0,P|46:262|7:233,1,98.8199959287416,2|8,0:1|0:1,0:0:0:0:
160,366,180411,2,0,P|233:346|354:320,1,197.639991857483,2|2,0:1|0:1,0:0:0:0:
497,270,180897,5,8,0:1:0:0:
352,223,181059,1,2,0:1:0:0:
383,127,181222,5,0,3:0:0:0:
210,180,181384,1,2,0:1:0:0:
288,90,181546,5,8,0:1:0:0:
104,30,181708,1,2,0:1:0:0:
219,191,181870,6,0,P|267:179|312:161,1,98.8199959287416,0|2,3:0|0:1,0:0:0:0:
47,120,182194,2,0,P|18:152|15:205,1,98.8199959287416,8|2,0:1|0:1,0:0:0:0:
240,308,182519,2,0,P|240:259|208:223,1,98.8199959287416,0|8,3:0|0:1,0:0:0:0:
223,195,182762,1,8,0:1:0:0:
223,195,182843,2,0,L|169:210,1,49.4099979643708,8|2,0:1|0:3,0:0:0:0:
144,118,183005,2,0,L|192:105,1,49.4099979643708,8|4,0:3|0:3,0:0:0:0:
303,173,183167,5,0,3:0:0:0:
315,173,183249,1,8,0:1:0:0:
353,142,183330,1,8,0:1:0:0:
369,96,183411,1,8,0:1:0:0:
359,49,183492,2,0,L|313:32,1,49.4099979643708,8|8,0:3|0:3,0:0:0:0:
433,5,183654,2,0,L|479:22,1,49.4099979643708,8|8,0:3|0:3,0:0:0:0:
457,268,183816,5,8,0:1:0:0:
497,240,183897,1,2,0:3:0:0:
512,194,183978,1,8,0:3:0:0:
494,149,184059,1,4,0:3:0:0:
460,119,184141,2,0,L|414:100,1,49.4099979643708,8|2,0:1|0:3,0:0:0:0:
317,269,184303,2,0,L|363:251,1,49.4099979643708,8|4,0:3|0:3,0:0:0:0:
233,95,184465,6,0,P|218:137|203:180,1,90.7200011074219,4|0,3:2|0:0,0:0:0:0:
29,253,184790,2,0,P|14:209|0:167,1,90.7200011074219,8|2,0:1|0:1,0:0:0:0:
151,321,185114,6,0,P|194:335|236:350,1,90.7200011074219,0|2,3:0|0:1,0:0:0:0:
124,168,185438,1,8,0:1:0:0:
28,349,185600,1,2,0:1:0:0:
142,152,185762,6,0,B|250:174|186:223|306:250,1,181.440002214844,0|8,3:0|0:1,0:0:0:0:
424,83,186249,2,0,B|362:117|362:117|402:220,1,181.440002214844,2|2,0:1|0:1,0:0:0:0:
337,31,186735,1,8,0:1:0:0:
502,140,186898,1,2,0:1:0:0:
319,246,187060,2,0,P|303:203|286:161,1,90.7200011074219,0|2,3:0|0:1,0:0:0:0:
491,296,187384,2,0,P|474:338|458:380,1,90.7200011074219,8|2,0:1|0:1,0:0:0:0:
411,152,187709,6,0,P|455:145|500:138,1,90.7200011074219,0|2,3:0|0:1,0:0:0:0:
320,366,188033,1,8,0:1:0:0:
212,178,188195,1,2,0:1:0:0:
329,384,188357,6,0,B|351:276|400:340|427:220,1,181.440002214844,0|8,3:0|0:1,0:0:0:0:
254,41,188844,2,0,B|276:113|308:72|330:149,1,136.080001661133,2|0,0:1|0:0,0:0:0:0:
343,170,189168,1,10,0:1:0:0:
186,280,189330,2,0,B|109:302|150:334|77:356,1,136.080001661133,8|0,0:1|0:0,0:0:0:0:
4,382,189655,6,0,P|0:337|24:301,1,90.7200011074219,4|2,3:1|0:1,0:0:0:0:
160,191,189979,2,0,P|204:202|247:214,1,90.7200011074219,8|2,0:1|0:1,0:0:0:0:
96,52,190303,6,0,P|52:63|8:76,1,90.7200011074219,0|2,3:0|0:1,0:0:0:0:
263,16,190627,1,8,0:1:0:0:
160,191,190789,1,2,0:1:0:0:
279,4,190952,6,0,P|366:33|362:136,1,181.440002214844,0|8,3:0|0:1,0:0:0:0:
254,285,191438,2,0,P|235:195|326:147,1,181.440002214844,2|2,0:1|0:1,0:0:0:0:
506,187,191925,2,0,P|445:220|379:193,1,136.080001661133,8|0,0:1|0:0,0:0:0:0:
365,192,192249,5,0,3:0:0:0:
403,114,192411,1,2,0:1:0:0:
273,238,192573,5,8,0:1:0:0:
311,316,192735,1,2,0:1:0:0:
144,139,192898,5,0,3:0:0:0:
79,294,193060,1,2,0:1:0:0:
232,148,193222,2,0,P|226:103|197:69,1,90.7200011074219,8|2,0:1|0:1,0:0:0:0:
201,50,193465,1,0,0:0:0:0:
201,50,193546,5,0,3:0:0:0:
368,0,193709,1,2,0:1:0:0:
341,198,193871,2,0,P|329:153|317:110,1,90.7200011074219,8|2,0:1|0:1,0:0:0:0:
497,23,194195,1,0,3:0:0:0:
497,23,194276,1,0,0:0:0:0:
497,23,194357,2,0,L|481:74,1,45.3600005537109,2|0,0:1|0:0,0:0:0:0:
405,132,194519,6,0,L|421:182,1,37.2599987492066,8|0,0:1|0:0,0:0:0:0:
484,228,194682,2,0,L|468:276,1,29.1600007119141,2|0,0:1|0:0,0:0:0:0:
444,347,194844,6,0,P|407:368|356:357,1,90.7200011074219,4|2,3:2|0:1,0:0:0:0:
258,184,195168,2,0,P|301:175|340:197,1,90.7200011074219,8|2,0:1|0:1,0:0:0:0:
167,384,195492,6,0,P|155:339|143:296,1,90.7200011074219,0|2,3:2|0:1,0:0:0:0:
65,124,195817,1,8,0:1:0:0:
216,261,195979,1,2,0:1:0:0:
49,113,196141,6,0,P|72:30|157:13,1,181.440002214844,0|8,3:2|0:1,0:0:0:0:
317,206,196628,2,0,B|210:184|274:135|169:112,1,181.440002214844,2|2,0:1|0:1,0:0:0:0:
285,36,197114,1,8,0:1:0:0:
166,208,197276,1,2,0:1:0:0:
298,21,197438,2,0,P|313:63|328:106,1,90.7200011074219,0|2,3:2|0:1,0:0:0:0:
482,207,197763,2,0,P|496:164|512:121,1,90.7200011074219,8|2,0:1|0:1,0:0:0:0:
342,301,198087,6,0,P|299:285|256:270,1,90.7200011074219,0|2,3:2|0:1,0:0:0:0:
379,132,198411,1,8,0:1:0:0:
455,330,198574,1,2,0:1:0:0:
368,111,198736,6,0,B|261:132|325:181|220:204,1,181.440002214844,0|8,3:2|0:1,0:0:0:0:
110,40,199222,2,0,P|183:49|207:101,1,136.080001661133,2|0,0:1|0:0,0:0:0:0:
219,118,199546,1,10,0:1:0:0:
86,297,199709,2,0,P|72:250|46:167,1,136.080001661133,8|0,0:1|0:0,0:0:0:0:
117,126,200033,2,0,P|130:165|146:214,1,90.7200011074219,4|2,3:2|0:1,0:0:0:0:
225,355,200357,2,0,P|264:376|307:368,1,90.7200011074219,8|2,0:1|0:1,0:0:0:0:
384,189,200682,6,0,P|340:180|301:202,1,90.7200011074219,0|2,3:2|0:1,0:0:0:0:
441,342,201006,1,8,0:1:0:0:
512,156,201168,1,2,0:1:0:0:
435,362,201330,6,0,P|415:281|374:163,1,181.440002214844,0|8,3:2|0:1,0:0:0:0:
222,83,201817,2,0,B|168:71|141:117|154:128|134:174|72:158,1,181.440002214844,2|2,0:1|0:1,0:0:0:0:
321,0,202303,2,0,P|394:9|418:61,1,136.080001661133,8|0,0:1|0:0,0:0:0:0:
429,74,202628,5,0,3:2:0:0:
391,152,202790,1,2,0:1:0:0:
254,238,202952,5,8,0:1:0:0:
216,160,203114,1,2,0:1:0:0:
482,151,203277,5,0,3:2:0:0:
421,305,203439,1,2,0:1:0:0:
322,111,203601,2,0,P|279:94|230:81,1,90.7200011074219,8|2,0:1|0:1,0:0:0:0:
226,67,203844,1,2,0:1:0:0:
226,67,203925,5,4,3:1:0:0:
116,272,204087,1,4,3:0:0:0:
116,272,204168,1,4,3:0:0:0:
116,272,204249,1,8,0:1:0:0:
150,262,204330,1,8,0:1:0:0:
184,253,204411,1,8,0:1:0:0:
219,245,204492,1,8,0:1:0:0:
254,238,204574,2,0,P|279:234|310:230,1,45.3600005537109,8|8,0:1|0:1,0:0:0:0:
366,74,204736,6,0,P|348:72|321:65,1,45.3600005537109,8|8,3:1|0:1,0:0:0:0:
409,251,204898,2,0,P|426:249|452:241,1,45.3600005537109,8|8,3:1|0:1,0:0:0:0:
240,146,205060,5,2,3:1:0:0:
