osu file format v14

[General]
AudioFilename: audio.mp3
AudioLeadIn: 0
PreviewTime: 69833
Countdown: 0
SampleSet: Soft
StackLeniency: 0.5
Mode: 0
LetterboxInBreaks: 0
WidescreenStoryboard: 0

[Editor]
DistanceSpacing: 1.4
BeatDivisor: 4
GridSize: 32
TimelineZoom: 1.5

[Metadata]
Title:Teo
TitleUnicode:テオ
Artist:Araki
ArtistUnicode:あらき
Creator:Nevo
Version:Shunao's Hard
Source:
Tags:byd bite you death Akitoshi -Laura- armin a_r_m_i_n snownino shunao shogunmoon ultaite cover vocaloid hatsune miku synth rock
BeatmapID:1617569
BeatmapSetID:759178

[Difficulty]
HPDrainRate:5
CircleSize:3.7
OverallDifficulty:6
ApproachRate:8
SliderMultiplier:1.4
SliderTickRate:1

[Events]
//Background and Video events
0,0,"anime-girl-falling-down-clouds-sky-school-uniform.jpg",0,0
//Break Periods
//Storyboard Layer 0 (Background)
//Storyboard Layer 1 (Fail)
//Storyboard Layer 2 (Pass)
//Storyboard Layer 3 (Foreground)
//Storyboard Sound Samples

[TimingPoints]
1482,324.324324324324,4,2,2,40,1,0
1482,-133.333333333333,4,2,2,40,0,0
3022,-133.333333333333,4,2,2,5,0,0
3103,-133.333333333333,4,2,2,40,0,0
3346,-133.333333333333,4,2,2,5,0,0
3427,-133.333333333333,4,2,2,40,0,0
3995,-133.333333333333,4,2,2,5,0,0
4076,-133.333333333333,4,2,2,40,0,0
4644,-133.333333333333,4,2,2,5,0,0
4725,-133.333333333333,4,2,2,40,0,0
5292,-133.333333333333,4,2,2,5,0,0
5373,-133.333333333333,4,2,2,40,0,0
5941,-133.333333333333,4,2,2,5,0,0
6022,-133.333333333333,4,2,2,40,0,0
6590,-133.333333333333,4,2,2,5,0,0
6671,-133.333333333333,4,2,2,40,0,0
7968,-125,4,2,2,40,0,0
11860,-125,4,2,2,50,0,0
12022,-125,4,2,2,5,0,0
12103,-125,4,2,2,50,0,0
12265,-125,4,2,2,5,0,0
12346,-125,4,2,2,50,0,0
12509,-125,4,2,2,5,0,0
12671,-125,4,2,2,60,0,0
13157,-100,4,2,2,65,0,0
13400,-100,4,2,2,5,0,0
13481,-100,4,2,2,65,0,0
13725,-100,4,2,2,5,0,0
13806,-100,4,2,2,65,0,0
14049,-100,4,2,2,5,0,0
14130,-100,4,2,2,65,0,0
14373,-100,4,2,2,5,0,0
14454,-100,4,2,2,65,0,0
14698,-100,4,2,2,5,0,0
14779,-100,4,2,2,65,0,0
15995,-100,4,2,2,5,0,0
16076,-100,4,2,2,65,0,0
16319,-100,4,2,2,5,0,0
16400,-100,4,2,2,65,0,0
16644,-100,4,2,2,5,0,0
16725,-100,4,2,2,65,0,0
16968,-100,4,2,2,5,0,0
17049,-100,4,2,2,65,0,0
17292,-100,4,2,2,5,0,0
17373,-100,4,2,2,65,0,0
18265,-100,4,2,2,5,0,0
18346,-100,4,2,2,65,0,0
18590,-100,4,2,2,5,0,0
18671,-100,4,2,2,65,0,0
18914,-100,4,2,2,5,0,0
18995,-100,4,2,2,65,0,0
19238,-100,4,2,2,5,0,0
19319,-100,4,2,2,65,0,0
19563,-100,4,2,2,5,0,0
19644,-100,4,2,2,65,0,0
19887,-100,4,2,2,5,0,0
19968,-100,4,2,2,65,0,0
21184,-100,4,2,2,5,0,0
21265,-100,4,2,2,65,0,0
23536,-111.111111111111,4,2,2,60,0,0
28157,-111.111111111111,4,2,2,5,0,0
28238,-111.111111111111,4,2,2,60,0,0
28563,-111.111111111111,4,2,3,60,0,0
29617,-111.111111111111,4,2,3,5,0,0
29698,-111.111111111111,4,2,3,60,0,0
30265,-111.111111111111,4,2,3,5,0,0
30346,-111.111111111111,4,2,3,60,0,0
31238,-111.111111111111,4,2,3,5,0,0
31319,-111.111111111111,4,2,3,60,0,0
31563,-111.111111111111,4,2,3,5,0,0
31644,-111.111111111111,4,2,3,60,0,0
32049,-111.111111111111,4,2,3,5,0,0
32130,-111.111111111111,4,2,3,60,0,0
32617,-111.111111111111,4,2,2,60,0,0
35454,-111.111111111111,4,2,2,5,0,0
35536,-111.111111111111,4,2,2,60,0,0
37725,-111.111111111111,4,2,2,5,0,0
37806,-111.111111111111,4,2,2,60,0,0
38536,-111.111111111111,4,2,2,5,0,0
38617,-111.111111111111,4,2,2,60,0,0
40644,-111.111111111111,4,2,2,5,0,0
40725,-111.111111111111,4,2,2,60,0,0
40968,-111.111111111111,4,2,2,5,0,0
41049,-111.111111111111,4,2,2,60,0,0
41292,-111.111111111111,4,2,2,5,0,0
41373,-111.111111111111,4,2,2,60,0,0
41617,-111.111111111111,4,2,2,5,0,0
41698,-111.111111111111,4,2,2,60,0,0
41941,-111.111111111111,4,2,2,5,0,0
42022,-111.111111111111,4,2,2,60,0,0
42265,-111.111111111111,4,2,2,5,0,0
42346,-111.111111111111,4,2,2,60,0,0
42590,-111.111111111111,4,2,2,5,0,0
42671,-111.111111111111,4,2,2,60,0,0
42914,-111.111111111111,4,2,2,5,0,0
42995,-111.111111111111,4,2,2,60,0,0
44292,-100,4,2,2,65,0,0
44536,-100,4,2,2,5,0,0
44617,-100,4,2,2,65,0,0
44860,-100,4,2,2,5,0,0
44941,-100,4,2,2,65,0,0
45184,-100,4,2,2,5,0,0
45265,-100,4,2,2,65,0,0
45509,-100,4,2,2,5,0,0
45590,-100,4,2,2,65,0,0
45833,-100,4,2,2,5,0,0
45914,-100,4,2,2,65,0,0
47130,-100,4,2,2,5,0,0
47211,-100,4,2,2,65,0,0
47454,-100,4,2,2,5,0,0
47536,-100,4,2,2,65,0,0
47779,-100,4,2,2,5,0,0
47860,-100,4,2,2,65,0,0
49481,-111.111111111111,4,2,2,60,0,0
53617,-111.111111111111,4,2,2,5,0,0
53698,-111.111111111111,4,2,2,60,0,0
54103,-111.111111111111,4,2,2,5,0,0
54184,-111.111111111111,4,2,2,60,0,0
54671,-111.111111111111,4,2,3,60,0,0
55968,-111.111111111111,4,2,2,60,0,0
56211,-111.111111111111,4,2,2,5,0,0
56292,-111.111111111111,4,2,2,60,0,0
57184,-111.111111111111,4,2,2,5,0,0
57265,-111.111111111111,4,2,2,60,0,0
57509,-111.111111111111,4,2,2,5,0,0
57590,-111.111111111111,4,2,2,60,0,0
61400,-111.111111111111,4,2,2,5,0,0
61481,-111.111111111111,4,2,2,60,0,0
62698,-111.111111111111,4,2,2,5,0,0
62779,-111.111111111111,4,2,2,60,0,0
63022,-111.111111111111,4,2,2,5,0,0
63103,-111.111111111111,4,2,2,60,0,0
63346,-111.111111111111,4,2,2,5,0,0
63427,-111.111111111111,4,2,2,60,0,0
63671,-111.111111111111,4,2,2,5,0,0
63752,-111.111111111111,4,2,2,60,0,0
65049,-111.111111111111,4,2,3,60,0,0
66590,-111.111111111111,4,2,3,5,0,0
66671,-111.111111111111,4,2,3,60,0,0
66914,-111.111111111111,4,2,3,5,0,0
66995,-111.111111111111,4,2,3,60,0,0
70238,-86.9565217391304,4,2,3,80,0,1
70481,-86.9565217391304,4,2,3,5,0,1
70563,-86.9565217391304,4,2,3,80,0,1
72427,-86.9565217391304,4,2,3,5,0,1
72509,-86.9565217391304,4,2,3,80,0,1
73076,-86.9565217391304,4,2,3,5,0,1
73157,-86.9565217391304,4,2,3,70,0,1
75671,-86.9565217391304,4,2,3,5,0,1
75752,-86.9565217391304,4,2,3,70,0,1
77617,-86.9565217391304,4,2,3,5,0,1
77698,-86.9565217391304,4,2,3,70,0,1
78265,-86.9565217391304,4,2,3,5,0,1
78346,-86.9565217391304,4,2,3,70,0,1
78590,-86.9565217391304,4,2,3,5,0,1
78671,-86.9565217391304,4,2,3,70,0,1
78833,-86.9565217391304,4,2,2,70,0,1
79968,-86.9565217391304,4,2,2,80,0,1
80536,-86.9565217391304,4,2,2,70,0,1
80617,-86.9565217391304,4,2,3,80,0,1
80860,-86.9565217391304,4,2,3,5,0,1
80941,-86.9565217391304,4,2,3,80,0,1
82806,-86.9565217391304,4,2,3,5,0,1
82887,-86.9565217391304,4,2,3,80,0,1
83454,-86.9565217391304,4,2,3,5,0,1
83536,-86.9565217391304,4,2,3,80,0,1
86049,-86.9565217391304,4,2,3,5,0,1
86130,-86.9565217391304,4,2,3,80,0,1
88319,-86.9565217391304,4,2,3,5,0,1
88400,-86.9565217391304,4,2,3,80,0,1
88644,-86.9565217391304,4,2,3,5,0,1
88725,-86.9565217391304,4,2,3,80,0,1
88968,-86.9565217391304,4,2,3,5,0,1
89049,-86.9565217391304,4,2,3,80,0,1
89292,-86.9565217391304,4,2,3,5,0,1
89373,-86.9565217391304,4,2,3,80,0,1
89617,-86.9565217391304,4,2,3,5,0,1
89698,-86.9565217391304,4,2,3,80,0,1
89860,-86.9565217391304,4,2,2,80,0,1
90995,-100,4,2,3,80,0,0
100725,-100,4,2,2,80,0,0
101373,-100,4,2,3,80,0,0
109968,-100,4,2,2,80,0,0
111752,-100,4,2,3,65,0,0
111995,-100,4,2,3,5,0,0
112076,-100,4,2,2,65,0,0
112319,-100,4,2,2,5,0,0
112400,-100,4,2,2,65,0,0
112644,-100,4,2,2,5,0,0
112725,-100,4,2,2,65,0,0
112968,-100,4,2,2,5,0,0
113049,-100,4,2,2,65,0,0
113292,-100,4,2,2,5,0,0
113373,-100,4,2,2,65,0,0
114590,-100,4,2,2,5,0,0
114671,-100,4,2,2,65,0,0
114915,-100,4,2,2,5,0,0
114996,-100,4,2,2,65,0,0
115239,-100,4,2,2,5,0,0
115320,-100,4,2,2,65,0,0
115563,-100,4,2,2,5,0,0
115644,-100,4,2,2,65,0,0
115888,-100,4,2,2,5,0,0
115969,-100,4,2,2,65,0,0
117185,-100,4,2,2,5,0,0
117266,-100,4,2,2,65,0,0
117509,-100,4,2,2,5,0,0
117590,-100,4,2,2,65,0,0
117834,-100,4,2,2,5,0,0
117915,-100,4,2,2,65,0,0
118158,-100,4,2,2,5,0,0
118239,-100,4,2,2,65,0,0
118482,-100,4,2,2,5,0,0
118563,-100,4,2,2,65,0,0
119455,-100,4,2,2,65,0,0
119536,-100,4,2,2,65,0,0
119780,-100,4,2,2,5,0,0
119861,-100,4,2,2,65,0,0
120104,-100,4,2,2,65,0,0
120185,-100,4,2,2,65,0,0
120428,-100,4,2,2,65,0,0
120509,-100,4,2,2,65,0,0
120753,-100,4,2,2,65,0,0
120834,-100,4,2,2,65,0,0
121077,-100,4,2,2,65,0,0
121158,-100,4,2,2,65,0,0
122374,-100,4,2,2,5,0,0
122455,-100,4,2,2,65,0,0
122698,-100,4,2,2,5,0,0
122779,-100,4,2,2,65,0,0
123022,-100,4,2,2,5,0,0
123103,-100,4,2,2,65,0,0
123346,-100,4,2,2,5,0,0
123427,-100,4,2,2,65,0,0
123671,-100,4,2,2,5,0,0
123752,-100,4,2,2,65,0,0
124726,-100,4,2,2,65,0,0
124968,-100,4,2,2,5,0,0
125049,-100,4,2,2,65,0,0
125292,-100,4,2,2,5,0,0
125373,-100,4,2,2,65,0,0
125617,-100,4,2,2,5,0,0
125698,-100,4,2,2,65,0,0
125941,-100,4,2,2,5,0,0
126022,-100,4,2,2,65,0,0
126265,-100,4,2,2,5,0,0
126346,-100,4,2,2,65,0,0
127238,-100,4,2,2,5,0,0
127319,-100,4,2,2,65,0,0
127563,-100,4,2,2,5,0,0
127644,-100,4,2,2,65,0,0
127887,-100,4,2,2,5,0,0
127968,-100,4,2,2,65,0,0
128211,-100,4,2,2,5,0,0
128292,-100,4,2,2,65,0,0
128536,-100,4,2,2,5,0,0
128617,-100,4,2,2,65,0,0
128860,-100,4,2,2,5,0,0
128941,-100,4,2,2,65,0,0
129347,-100,4,2,2,65,0,0
129428,-100,4,2,2,65,0,0
129753,-100,4,2,2,65,0,0
129915,-100,4,2,3,65,0,0
130157,-100,4,2,2,5,0,0
130238,-100,4,2,3,65,0,0
130807,-100,4,2,3,65,0,0
130888,-100,4,2,3,65,0,0
131455,-100,4,2,3,65,0,0
131536,-100,4,2,3,65,0,0

[Colours]
Combo1 : 192,192,192
Combo2 : 0,255,255
Combo3 : 0,128,192

[HitObjects]
186,297,2617,5,8,0:3:0:0:
186,297,2698,1,8,0:3:0:0:
186,297,2779,2,0,L|176:190,1,105.000004005432,4|8,3:2|0:0,0:0:0:0:
113,129,3265,2,0,P|157:140|216:100,1,105.000004005432,0|0,0:0|0:0,0:0:0:0:
264,43,3752,1,8,0:0:0:0:
264,43,3914,2,0,P|312:28|381:47,1,105.000004005432,0|0,0:0|0:0,0:0:0:0:
447,71,4400,1,8,0:0:0:0:
447,71,4563,2,0,L|437:185,1,105.000004005432,0|0,0:0|0:0,0:0:0:0:
370,233,5049,2,0,L|374:295,1,52.5000020027161,8|0,0:0|0:0,0:0:0:0:
305,343,5373,6,0,P|256:327|185:334,1,105.000004005432,0|8,3:0|0:0,0:0:0:0:
118,355,5859,2,0,P|64:368|5:349,1,105.000004005432,0|0,0:0|0:0,0:0:0:0:
6,266,6346,1,8,0:0:0:0:
6,266,6509,2,0,L|-1:152,1,105.000004005432,0|0,0:0|0:0,0:0:0:0:
46,86,6994,1,8,0:0:0:0:
46,86,7157,2,0,P|93:104|159:88,1,105.000004005432,0|8,0:0|0:0,0:0:0:0:
216,39,7644,1,8,0:0:0:0:
300,95,7806,1,8,0:0:0:0:
300,95,7887,1,8,0:0:0:0:
300,95,7968,6,0,L|294:168,1,56,4|0,3:2|0:0,0:0:0:0:
223,203,8292,2,0,L|229:270,1,56,8|0,0:0|0:0,0:0:0:0:
307,300,8617,2,0,B|300:369,2,56,0|0|8,3:0|0:0|0:0,0:0:0:0:
380,248,9103,1,0,0:0:0:0:
380,248,9265,2,0,P|411:241|445:244,1,56,0|0,3:0|0:0,0:0:0:0:
502,182,9590,2,0,L|495:112,1,56,8|0,0:0|0:0,0:0:0:0:
432,64,9914,2,0,L|438:-2,2,56,0|0|8,3:0|0:0|0:0,0:0:0:0:
352,105,10400,1,0,0:0:0:0:
352,105,10563,6,0,L|279:99,1,56,0|0,3:0|0:0,0:0:0:0:
227,43,10887,2,0,L|157:49,1,56,8|0,0:0|0:0,0:0:0:0:
104,107,11212,2,0,B|41:101,2,56,0|0|8,3:0|0:0|0:0,0:0:0:0:
167,186,11698,1,8,0:0:0:0:
167,186,11779,1,0,0:0:0:0:
167,186,11860,2,0,P|176:227|172:282,2,84,2|2|2,3:2|3:2|3:2,0:0:0:0:
331,257,12671,2,0,P|326:279|324:309,5,28,8|8|8|8|8|8,0:0|0:0|0:0|0:0|0:0|0:0,0:0:0:0:
316,339,13157,6,0,P|258:303|180:328,1,140,6|10,3:2|0:0,0:0:0:0:
109,358,13644,1,0,0:0:0:0:
109,358,13806,2,0,L|92:204,1,140,2|10,3:2|0:0,0:0:0:0:
154,47,14454,2,0,P|218:22|289:55,1,140,2|10,3:2|0:0,0:0:0:0:
352,104,14941,2,0,L|337:257,1,140,2|2,0:0|0:0,0:0:0:0:
273,306,15427,1,10,0:0:0:0:
273,306,15590,6,0,P|337:289|405:333,1,140,2|0,0:0|0:0,0:0:0:0:
480,363,16076,2,0,L|487:288,1,70,10|0,0:0|0:0,0:0:0:0:
510,205,16400,2,0,L|493:59,1,140,2|10,3:2|0:0,0:0:0:0:
316,24,17049,2,0,L|302:174,1,140,2|10,3:2|0:0,0:0:0:0:
242,232,17536,2,0,P|193:236|120:181,1,140,2|10,0:0|0:0,0:0:0:0:
65,114,18022,1,10,0:0:0:0:
241,71,18346,6,0,L|390:82,1,140,4|10,3:2|0:0,0:0:0:0:
424,161,18833,1,0,0:0:0:0:
424,161,18995,2,0,L|281:171,1,140,2|10,3:2|0:0,0:0:0:0:
175,317,19644,2,0,L|30:305,1,140,2|10,3:2|0:0,0:0:0:0:
5,219,20130,2,0,P|11:147|78:98,1,140,2|2,0:0|0:0,0:0:0:0:
142,66,20617,1,10,0:0:0:0:
281,182,20941,6,0,B|355:159|344:219|434:187,1,140,6|8,3:2|0:0,0:0:0:0:
500,156,21427,1,0,0:0:0:0:
507,247,21590,2,0,L|513:328,2,70,0|8|8,3:0|0:0|0:0,0:0:0:0:
426,289,22076,1,0,0:0:0:0:
335,292,22238,2,0,P|308:285|275:284,3,35,8|8|8|8,0:0|0:0|0:0|0:0,0:0:0:0:
258,302,22563,2,0,P|233:307|206:306,3,35,0|0|2|0,3:0|3:0|3:2|3:0,0:0:0:0:
183,285,22887,2,0,P|157:278|125:277,3,35,10|8|0|0,0:0|0:0|3:0|3:0,0:0:0:0:
110,301,23211,2,0,P|84:305|58:303,3,35,10|8|2|0,0:0|0:0|3:2|3:0,0:0:0:0:
31,314,23536,6,0,P|3:261|26:191,1,125.999996154785,6|8,3:2|0:0,0:0:0:0:
69,127,24022,2,0,L|63:48,2,62.9999980773926,2|2|2,0:0|3:2|3:2,0:0:0:0:
145,172,24509,2,0,L|153:97,1,62.9999980773926,10|2,0:0|0:0,0:0:0:0:
214,47,24833,2,0,B|276:22|273:78|350:53,1,125.999996154785,2|8,3:2|0:0,0:0:0:0:
412,13,25319,2,0,P|386:54|399:130,1,125.999996154785,2|0,0:0|3:0,0:0:0:0:
475,168,25806,2,0,L|471:236,1,62.9999980773926,8|2,0:0|0:0,0:0:0:0:
510,310,26130,6,0,P|465:275|398:284,1,125.999996154785,2|10,3:2|0:0,0:0:0:0:
319,321,26617,2,0,P|315:284|288:172,1,125.999996154785,2|2,0:0|3:2,0:0:0:0:
220,151,27103,2,0,P|212:181|207:222,1,62.9999980773926,8|0,0:0|0:0,0:0:0:0:
172,293,27427,2,0,P|119:263|57:277,1,125.999996154785,2|10,3:2|0:0,0:0:0:0:
16,197,27914,2,0,B|4:157|4:157|31:69,1,125.999996154785,2|8,0:0|0:0,0:0:0:0:
99,23,28400,1,0,3:0:0:0:
181,56,28563,1,2,1:2:0:0:
181,56,28644,1,0,0:0:0:0:
181,56,28725,6,0,L|247:50,1,62.9999980773926,6|2,3:2|1:2,0:0:0:0:
327,23,29049,2,0,L|408:30,1,62.9999980773926,10|2,0:0|1:2,0:0:0:0:
469,65,29373,2,0,P|498:107|469:195,1,125.999996154785,2|10,3:2|0:0,0:0:0:0:
417,233,29860,1,2,1:2:0:0:
417,233,30022,2,0,L|285:227,1,125.999996154785,2|10,3:2|0:0,0:0:0:0:
202,225,30509,1,2,1:2:0:0:
202,225,30671,2,0,P|196:185|187:144,1,62.9999980773926,2|2,3:2|3:2,0:0:0:0:
114,204,30995,2,0,P|108:236|102:283,1,62.9999980773926,10|0,0:0|0:0,0:0:0:0:
38,325,31319,6,0,B|83:320|83:320|111:334|111:334|164:329,1,125.999996154785,0|10,3:0|0:0,0:0:0:0:
246,308,31806,2,0,P|255:277|258:239,1,62.9999980773926,2|0,1:2|0:0,0:0:0:0:
195,184,32130,2,0,P|187:150|184:118,1,62.9999980773926,2|8,3:2|0:0,0:0:0:0:
224,43,32454,1,2,0:0:0:0:
224,43,32617,2,0,P|278:26|343:80,1,125.999996154785,2|8,3:2|0:0,0:0:0:0:
401,126,33103,1,0,0:0:0:0:
401,126,33265,2,0,L|392:206,1,62.9999980773926,2|0,3:2|3:0,0:0:0:0:
438,264,33590,1,8,0:0:0:0:
438,264,33671,1,8,0:0:0:0:
438,264,33752,1,8,0:0:0:0:
362,330,33914,6,0,B|295:306|305:359|232:334,1,125.999996154785,6|8,3:2|0:0,0:0:0:0:
185,268,34400,2,0,L|179:189,2,62.9999980773926,2|2|2,0:0|3:2|3:2,0:0:0:0:
106,309,34887,2,0,L|102:388,1,62.9999980773926,10|2,0:0|0:0,0:0:0:0:
16,353,35211,2,0,L|7:209,1,125.999996154785,2|10,3:2|0:0,0:0:0:0:
2,139,35697,2,0,P|40:93|114:94,1,125.999996154785,2|0,0:0|3:0,0:0:0:0:
191,92,36184,2,0,L|197:14,1,62.9999980773926,8|2,0:0|0:0,0:0:0:0:
283,26,36508,6,0,B|326:21|326:21|356:33|356:33|422:25,1,125.999996154785,2|10,3:2|0:0,0:0:0:0:
475,82,36995,2,0,P|466:144|452:205,1,125.999996154785,2|2,0:0|3:2,0:0:0:0:
367,231,37481,2,0,P|334:225|295:221,1,62.9999980773926,10|0,0:0|0:0,0:0:0:0:
239,162,37805,2,0,B|257:200|257:200|242:295,1,125.999996154785,2|10,3:2|0:0,0:0:0:0:
190,353,38292,2,0,P|247:329|322:358,1,125.999996154785,2|8,0:0|0:0,0:0:0:0:
390,371,38778,1,0,3:0:0:0:
476,350,38941,1,10,0:0:0:0:
476,350,39022,1,0,0:0:0:0:
476,350,39103,6,0,L|486:280,1,62.9999980773926,6|2,3:2|0:0,0:0:0:0:
425,222,39427,2,0,L|416:152,1,62.9999980773926,8|0,0:0|0:0,0:0:0:0:
356,95,39751,2,0,P|303:75|241:102,1,125.999996154785,2|10,3:2|0:0,0:0:0:0:
184,168,40238,1,2,0:0:0:0:
184,168,40400,2,0,L|52:162,1,125.999996154785,2|10,3:2|0:0,0:0:0:0:
21,242,40887,1,0,0:0:0:0:
21,242,41049,2,0,P|27:272|31:304,1,62.9999980773926,2|0,3:2|0:0,0:0:0:0:
116,280,41373,2,0,P|107:312|104:359,1,62.9999980773926,10|0,0:0|0:0,0:0:0:0:
188,366,41698,6,0,B|238:362|238:362|264:368|264:368|324:363,2,125.999996154785,6|10|2,3:2|0:0|3:2,0:0:0:0:
135,197,42671,1,10,0:0:0:0:
15,67,42995,2,0,P|22:107|25:138,1,62.9999980773926,6|8,3:2|0:0,0:0:0:0:
32,217,43319,2,0,L|80:209,3,31.4999990386963,8|8|8|8,3:2|0:0|0:0|0:0,0:0:0:0:
103,194,43644,2,0,L|149:198,3,31.4999990386963,10|8|10|8,0:0|0:0|0:0|0:0,0:0:0:0:
173,216,43968,2,0,L|217:210,3,31.4999990386963,10|8|8|8,0:0|0:0|0:0|0:0,0:0:0:0:
252,202,44292,6,0,P|272:132|226:61,1,140,6|10,3:2|0:0,0:0:0:0:
161,34,44779,1,0,0:0:0:0:
161,34,44941,2,0,L|11:21,1,140,2|10,3:2|0:0,0:0:0:0:
39,202,45589,2,0,L|184:191,1,140,2|10,3:2|0:0,0:0:0:0:
237,261,46076,2,0,L|385:272,1,140,2|2,0:0|0:0,0:0:0:0:
443,209,46562,1,10,0:0:0:0:
443,209,46725,6,0,P|467:269|432:343,1,140,2|0,0:0|0:0,0:0:0:0:
354,365,47211,2,0,L|279:370,1,70,10|0,0:0|0:0,0:0:0:0:
212,314,47535,2,0,L|66:303,1,140,2|10,3:2|3:2,0:0:0:0:
33,220,48022,1,0,3:0:0:0:
44,129,48184,2,0,L|86:125,3,35,10|0|8|8,3:2|0:0|0:0|0:0,0:0:0:0:
107,88,48509,2,0,L|152:91,3,35,8|0|10|8,3:0|0:0|0:0|0:0,0:0:0:0:
176,119,48833,2,0,L|226:116,3,35,10|8|0|0,0:0|0:0|3:0|3:0,0:0:0:0:
246,88,49157,2,0,L|285:85,3,35,10|8|10|8,0:0|0:0|0:0|0:0,0:0:0:0:
306,121,49481,6,0,L|441:135,1,125.999996154785,6|8,3:2|0:0,0:0:0:0:
505,86,49967,2,0,P|497:55|492:8,2,62.9999980773926,0|0|2,0:0|3:0|3:2,0:0:0:0:
498,174,50454,2,0,P|495:217|484:259,1,62.9999980773926,10|2,0:0|0:0,0:0:0:0:
458,318,50779,2,0,P|408:309|345:369,1,125.999996154785,2|10,3:2|0:0,0:0:0:0:
265,369,51265,2,0,L|256:229,1,125.999996154785,2|0,0:0|3:0,0:0:0:0:
201,174,51751,2,0,L|208:94,1,62.9999980773926,8|2,0:0|0:0,0:0:0:0:
135,58,52076,6,0,P|87:29|12:42,1,125.999996154785,2|10,3:2|0:0,0:0:0:0:
0,120,52563,1,0,0:0:0:0:
0,120,52725,2,0,L|6:207,1,62.9999980773926,2|0,3:2|0:0,0:0:0:0:
66,244,53048,2,0,L|60:314,1,62.9999980773926,8|0,0:0|0:0,0:0:0:0:
136,352,53373,2,0,P|183:373|256:352,1,125.999996154785,2|10,3:2|0:0,0:0:0:0:
330,311,53860,2,0,P|338:254|360:184,1,125.999996154785,2|8,0:0|0:0,0:0:0:0:
406,115,54345,1,0,3:0:0:0:
351,44,54508,1,0,0:0:0:0:
351,44,54589,1,0,0:0:0:0:
351,44,54670,6,0,L|265:36,1,62.9999980773926,6|2,3:2|1:2,0:0:0:0:
200,46,54994,2,0,P|202:80|207:110,1,62.9999980773926,10|2,0:2|1:2,0:0:0:0:
274,164,55319,2,0,P|270:225|257:295,1,125.999996154785,2|10,3:2|0:0,0:0:0:0:
205,359,55805,1,2,0:0:0:0:
205,359,55967,2,0,P|143:335|73:353,1,125.999996154785,2|10,3:2|0:0,0:0:0:0:
15,291,56454,1,2,0:0:0:0:
15,291,56616,2,0,L|10:213,1,62.9999980773926,2|2,3:2|0:0,0:0:0:0:
5,140,56940,2,0,P|36:132|72:137,1,62.9999980773926,10|0,0:0|0:0,0:0:0:0:
148,171,57265,6,0,B|274:163,1,125.999996154785,0|10,3:2|0:0,0:0:0:0:
346,111,57751,2,0,L|409:116,1,62.9999980773926,2|0,0:0|3:0,0:0:0:0:
483,162,58076,2,0,P|477:194|472:237,1,62.9999980773926,2|8,0:0|0:0,0:0:0:0:
399,272,58400,1,8,0:0:0:0:
399,272,58562,2,0,B|356:267|356:267|318:275|318:275|273:270,1,125.999996154785,2|8,3:2|0:0,0:0:0:0:
187,255,59048,1,0,0:0:0:0:
187,255,59210,2,0,L|194:192,1,62.9999980773926,2|2,3:2|0:0,0:0:0:0:
133,126,59536,2,0,L|138:90,2,31.4999990386963,10|8|2,0:0|0:0|0:0,0:0:0:0:
47,180,59860,6,0,B|16:211|16:211|26:299,1,125.999996154785,6|8,3:2|0:0,0:0:0:0:
112,303,60346,2,0,L|117:384,2,62.9999980773926,2|2|2,0:0|3:2|3:2,0:0:0:0:
187,255,60833,2,0,P|218:251|256:256,1,62.9999980773926,10|2,0:0|0:0,0:0:0:0:
326,297,61157,2,0,P|358:302|406:295,1,62.9999980773926,2|0,3:2|0:0,0:0:0:0:
473,276,61481,2,0,L|462:136,1,125.999996154785,10|0,0:0|3:0,0:0:0:0:
391,97,61968,1,0,0:0:0:0:
391,97,62130,2,0,L|397:19,1,62.9999980773926,8|2,0:0|0:0,0:0:0:0:
307,40,62454,6,0,P|251:73|186:58,1,125.999996154785,2|10,3:2|0:0,0:0:0:0:
112,26,62941,1,0,0:0:0:0:
112,26,63103,2,0,L|117:103,1,62.9999980773926,2|0,3:2|0:0,0:0:0:0:
180,148,63427,2,0,L|173:223,1,62.9999980773926,10|0,0:0|0:0,0:0:0:0:
110,272,63751,2,0,P|167:255|229:294,1,125.999996154785,2|10,3:2|0:0,0:0:0:0:
266,362,64238,1,2,0:0:0:0:
266,362,64400,2,0,L|351:356,1,62.9999980773926,2|8,3:3|0:0,0:0:0:0:
416,359,64724,1,8,0:0:0:0:
475,293,64887,1,8,0:0:0:0:
475,293,64968,1,8,0:0:0:0:
475,293,65049,6,0,P|482:260|485:223,1,62.9999980773926,6|0,3:2|1:2,0:0:0:0:
420,170,65373,2,0,P|413:136|411:100,1,62.9999980773926,10|0,0:0|1:0,0:0:0:0:
332,68,65697,2,0,P|341:33|343:-5,2,62.9999980773926,2|2|10,3:2|1:2|0:0,0:0:0:0:
272,133,66184,1,2,1:2:0:0:
272,133,66346,2,0,P|222:102|140:127,1,125.999996154785,2|10,3:2|0:0,0:0:0:0:
76,145,66833,1,0,0:0:0:0:
76,145,66995,2,0,L|70:62,1,62.9999980773926,2|0,3:2|0:0,0:0:0:0:
132,18,67319,1,8,0:0:0:0:
132,18,67400,1,8,0:0:0:0:
132,18,67481,1,8,0:0:0:0:
219,31,67644,6,0,L|269:27,3,31.4999990386963,14|8|8|8,3:2|0:0|0:0|0:0,0:0:0:0:
293,21,67968,2,0,L|324:23,3,31.4999990386963,10|8|10|8,0:0|0:0|0:0|0:0,0:0:0:0:
366,37,68292,2,0,L|416:33,3,31.4999990386963,10|8|8|8,0:0|0:0|0:0|0:0,0:0:0:0:
440,22,68617,2,0,L|471:24,3,31.4999990386963,10|8|10|8,0:0|0:0|0:0|0:0,0:0:0:0:
505,52,68941,6,0,P|521:113|482:176,2,125.999996154785,14|12|12,3:2|3:2|3:2,0:0:0:0:
432,103,69752,1,0,3:0:0:0:
357,150,69914,2,0,L|269:143,1,62.9999980773926,8|0,0:0|0:0,0:0:0:0:
192,185,70238,6,0,P|185:230|181:295,1,80.5000015354157,6|0,3:0|0:0,0:0:0:0:
90,231,70563,2,0,P|97:268|102:333,1,80.5000015354157,10|2,0:0|1:2,0:0:0:0:
186,355,70887,2,0,P|190:311|200:269,1,80.5000015354157,2|2,3:2|1:2,0:0:0:0:
292,255,71211,1,10,0:0:0:0:
382,289,71373,1,2,1:2:0:0:
461,233,71536,2,0,P|468:192|471:145,2,80.5000015354157,2|2|10,3:2|1:2|0:0,0:0:0:0:
382,289,72022,1,2,1:2:0:0:
292,255,72184,2,0,B|230:246|230:246|185:258|185:258|130:250,1,161.000003070831,2|10,3:2|0:0,0:0:0:0:
44,211,72671,1,2,0:0:0:0:
22,117,72833,6,0,L|16:31,1,80.5000015354157,6|0,3:0|0:0,0:0:0:0:
111,20,73157,2,0,L|104:110,1,80.5000015354157,10|2,0:0|1:2,0:0:0:0:
199,118,73481,2,0,L|193:32,1,80.5000015354157,2|2,3:2|1:2,0:0:0:0:
287,13,73806,1,10,0:0:0:0:
383,20,73968,1,2,1:2:0:0:
457,80,74130,2,0,L|450:170,2,80.5000015354157,2|2|10,3:2|1:2|0:0,0:0:0:0:
383,20,74617,1,2,1:2:0:0:
325,97,74779,2,0,P|284:100|232:80,2,80.5000015354157,2|8|10,3:2|0:0|0:0,0:0:0:0:
383,20,75265,1,2,0:0:0:0:
457,80,75427,6,0,L|450:166,1,80.5000015354157,6|0,3:0|0:0,0:0:0:0:
372,218,75752,2,0,L|380:311,1,80.5000015354157,10|2,0:0|1:2,0:0:0:0:
306,362,76076,2,0,P|265:372|219:358,1,80.5000015354157,2|2,3:2|1:2,0:0:0:0:
142,318,76400,1,10,0:0:0:0:
100,230,76563,1,2,1:2:0:0:
154,150,76725,2,0,L|145:60,2,80.5000015354157,2|2|10,3:2|1:2|0:0,0:0:0:0:
238,197,77211,1,2,1:2:0:0:
328,164,77373,2,0,B|415:133|403:215|503:178,1,161.000003070831,2|10,3:2|0:0,0:0:0:0:
511,92,77860,1,2,0:0:0:0:
431,37,78022,6,0,L|337:30,1,80.5000015354157,6|0,3:0|0:0,0:0:0:0:
271,86,78346,2,0,L|102:98,1,161.000003070831,10|2,0:0|3:2,0:0:0:0:
32,155,78833,1,8,0:0:0:0:
32,155,78914,1,8,0:0:0:0:
32,155,78995,2,0,P|20:196|35:242,1,80.5000015354157,10|0,0:0|3:0,0:0:0:0:
99,297,79319,2,0,L|139:292,3,40.2500007677078,10|8|8|8,0:0|0:0|0:0|0:0,0:0:0:0:
180,266,79644,2,0,L|220:270,3,40.2500007677078,8|0|0|0,0:0|0:0|0:0|0:0,0:0:0:0:
251,306,79968,2,0,L|299:301,3,40.2500007677078,10|8|0|0,0:0|0:0|3:0|3:0,0:0:0:0:
331,275,80292,2,0,L|371:279,3,40.2500007677078,10|8|0|0,0:0|0:0|3:0|3:0,0:0:0:0:
414,257,80617,6,0,P|423:218|426:168,1,80.5000015354157,6|0,3:0|0:0,0:0:0:0:
341,131,80941,2,0,P|332:92|329:42,1,80.5000015354157,10|2,0:0|1:2,0:0:0:0:
239,15,81265,2,0,P|235:55|226:94,1,80.5000015354157,2|2,3:2|1:2,0:0:0:0:
143,143,81590,1,10,0:0:0:0:
55,102,81752,1,2,1:2:0:0:
9,187,81914,2,0,L|15:276,2,80.5000015354157,2|2|10,3:2|1:2|0:0,0:0:0:0:
55,102,82400,1,2,1:2:0:0:
152,99,82563,2,0,P|228:94|274:166,1,161.000003070831,2|10,3:2|0:0,0:0:0:0:
286,253,83049,1,2,0:0:0:0:
230,331,83211,6,0,L|142:323,1,80.5000015354157,6|0,3:0|0:0,0:0:0:0:
205,245,83536,2,0,L|285:252,1,80.5000015354157,10|2,0:0|1:2,0:0:0:0:
273,157,83860,2,0,L|192:164,1,80.5000015354157,2|2,3:2|1:2,0:0:0:0:
138,84,84184,1,10,0:0:0:0:
206,16,84346,1,2,1:2:0:0:
295,54,84509,2,0,P|289:91|285:151,2,80.5000015354157,2|2|8,3:2|1:2|0:0,0:0:0:0:
386,23,84995,1,2,1:2:0:0:
466,76,85157,2,0,P|472:109|476:168,2,80.5000015354157,2|8|10,3:2|0:0|0:0,0:0:0:0:
386,23,85644,1,2,0:0:0:0:
367,117,85806,6,0,P|360:153|357:217,1,80.5000015354157,6|0,3:0|0:0,0:0:0:0:
264,166,86130,2,0,P|271:202|274:266,1,80.5000015354157,10|2,0:0|1:2,0:0:0:0:
180,222,86454,2,0,P|173:258|170:322,1,80.5000015354157,2|2,3:2|1:2,0:0:0:0:
85,349,86779,1,10,0:0:0:0:
3,297,86941,1,2,1:2:0:0:
9,200,87103,2,0,P|2:164|-1:100,2,80.5000015354157,6|0|10,3:0|1:2|0:0,0:0:0:0:
100,166,87590,1,2,1:2:0:0:
180,222,87752,2,0,L|264:215,1,80.5000015354157,2|2,3:2|1:2,0:0:0:0:
350,180,88076,2,0,L|447:190,1,80.5000015354157,10|0,0:0|0:0,0:0:0:0:
505,128,88400,6,0,P|497:52|409:24,1,161.000003070831,6|10,3:0|0:0,0:0:0:0:
329,29,88887,1,0,0:0:0:0:
242,71,89049,2,0,L|135:62,1,80.5000015354157,2|0,3:2|0:0,0:0:0:0:
72,100,89373,2,0,P|60:141|75:187,1,80.5000015354157,10|0,0:0|0:0,0:0:0:0:
146,234,89697,2,0,L|186:229,3,40.2500007677078,6|0|8|8,3:0|0:0|0:0|0:0,0:0:0:0:
227,203,90022,2,0,L|267:207,3,40.2500007677078,10|8|8|8,0:0|0:0|0:0|0:0,0:0:0:0:
298,243,90346,2,0,L|346:238,3,40.2500007677078,10|8|10|8,0:0|0:0|0:0|0:0,0:0:0:0:
378,212,90670,2,0,L|418:216,3,40.2500007677078,10|8|10|8,0:0|0:0|0:0|0:0,0:0:0:0:
463,224,90995,6,0,B|490:251|490:251|482:361,1,140,6|10,3:0|0:0,0:0:0:0:
393,368,91481,2,0,P|327:344|261:375,1,140,0|2,0:0|0:0,0:0:0:0:
174,370,91968,2,0,L|167:285,1,70,8|2,0:0|0:0,0:0:0:0:
91,250,92292,2,0,P|154:259|222:198,1,140,2|10,3:2|0:0,0:0:0:0:
263,139,92779,1,0,0:0:0:0:
263,139,92941,2,0,P|314:128|352:132,1,70,2|2,3:2|0:0,0:0:0:0:
387,57,93265,2,0,P|336:46|298:50,1,70,10|2,0:0|0:0,0:0:0:0:
227,58,93590,6,0,P|142:61|71:54,1,140,6|10,3:0|0:0,0:0:0:0:
20,117,94076,2,0,B|-6:150|-6:150|7:268,1,140,2|2,0:0|0:0,0:0:0:0:
46,328,94563,2,0,L|131:337,1,70,8|0,0:0|0:0,0:0:0:0:
190,283,94887,2,0,B|243:277|243:277|280:290|280:290|341:284,1,140,2|10,3:2|0:0,0:0:0:0:
412,253,95373,2,0,P|387:184|424:115,1,140,2|2,0:0|0:0,0:0:0:0:
477,190,95860,2,0,P|498:226|501:267,1,70,10|2,0:0|0:0,0:0:0:0:
467,337,96184,6,0,P|413:300|335:334,1,140,6|10,3:0|0:0,0:0:0:0:
267,366,96671,2,0,L|256:222,1,140,2|2,0:0|0:0,0:0:0:0:
312,155,97157,1,8,0:0:0:0:
312,155,97319,2,0,P|233:139|167:246,1,210,2|10,0:0|0:0,0:0:0:0:
168,325,97968,1,2,0:0:0:0:
168,325,98130,2,0,L|86:318,1,70,0|2,3:0|0:0,0:0:0:0:
61,235,98454,2,0,L|134:229,1,70,10|0,0:0|0:0,0:0:0:0:
198,167,98779,6,0,P|206:131|206:71,1,70,6|0,3:0|0:0,0:0:0:0:
291,35,99103,2,0,P|293:69|301:103,1,70,10|0,0:0|0:0,0:0:0:0:
377,174,99427,2,0,P|385:138|385:78,1,70,2|0,3:2|0:0,0:0:0:0:
481,56,99752,2,0,P|483:90|491:124,1,70,10|0,0:0|0:0,0:0:0:0:
488,215,100076,2,0,P|482:276|465:363,1,140,12|12,3:0|0:0,0:0:0:0:
377,371,100563,1,0,0:0:0:0:
291,339,100725,2,0,L|235:333,3,35,2|0|10|8,3:2|0:0|0:0|0:0,0:0:0:0:
220,307,101049,2,0,L|165:313,3,35,10|8|10|8,0:0|0:0|0:0|0:0,0:0:0:0:
139,310,101373,6,0,B|147:222,2,70,6|0|8,3:0|0:0|0:0,0:0:0:0:
57,351,101860,2,0,L|47:202,1,140,2|2,0:0|0:0,0:0:0:0:
113,149,102346,2,0,P|149:142|190:152,1,70,8|0,0:0|0:0,0:0:0:0:
267,178,102670,2,0,P|331:200|403:175,1,140,2|10,3:2|0:0,0:0:0:0:
483,147,103157,1,2,0:0:0:0:
483,147,103319,2,0,L|476:231,1,70,2|2,3:2|0:0,0:0:0:0:
414,282,103643,2,0,L|420:358,1,70,10|2,0:0|0:0,0:0:0:0:
328,356,103968,6,0,P|293:348|248:357,2,70,2|2|8,3:2|0:0|0:0,0:0:0:0:
326,265,104454,2,0,P|312:209|305:120,1,140,2|2,0:0|0:0,0:0:0:0:
237,65,104941,2,0,L|167:57,1,70,8|2,0:0|0:0,0:0:0:0:
85,96,105265,2,0,B|55:119|55:119|71:239,1,140,2|10,3:2|0:0,0:0:0:0:
103,304,105751,2,0,P|164:271|235:292,1,140,2|8,0:0|0:0,0:0:0:0:
296,349,106238,2,0,L|378:343,1,70,0|8,0:0|0:0,0:0:0:0:
454,323,106562,6,0,B|461:277|461:277|430:187,1,140,6|10,3:0|0:0,0:0:0:0:
348,147,107049,2,0,P|419:155|476:108,1,140,2|2,0:0|0:0,0:0:0:0:
394,66,107535,1,8,0:0:0:0:
394,66,107697,2,0,P|315:60|256:163,1,210,2|10,0:0|0:0,0:0:0:0:
256,254,108346,1,2,0:0:0:0:
256,254,108508,2,0,L|249:338,1,70,0|2,3:0|0:0,0:0:0:0:
164,354,108832,2,0,L|157:269,1,70,8|2,0:0|0:0,0:0:0:0:
73,249,109157,6,0,L|81:158,1,70,2|0,3:2|0:0,0:0:0:0:
154,128,109481,2,0,L|148:51,1,70,10|0,0:0|0:0,0:0:0:0:
232,21,109806,1,2,3:2:0:0:
315,57,109968,1,8,0:0:0:0:
315,57,110049,1,8,0:0:0:0:
315,57,110130,2,0,P|351:59|395:52,1,70,10|0,0:0|3:0,0:0:0:0:
474,42,110454,2,0,L|478:86,3,35,10|8|8|8,0:0|0:0|0:0|0:0,0:0:0:0:
500,115,110778,2,0,L|496:164,3,35,0|0|0|0,3:0|3:0|3:0|3:0,0:0:0:0:
465,182,111103,2,0,L|469:231,3,35,10|8|0|0,0:0|0:0|3:0|3:0,0:0:0:0:
495,253,111427,2,0,L|491:294,3,35,8|8|0|0,0:0|0:0|3:0|3:0,0:0:0:0:
480,332,111752,6,0,B|406:303|417:364|334:334,1,140,6|10,3:2|0:0,0:0:0:0:
262,298,112239,1,0,0:0:0:0:
262,298,112401,2,0,L|273:142,1,140,10|0,3:2|0:0,0:0:0:0:
99,99,113049,2,0,L|109:241,1,140,2|10,3:2|0:0,0:0:0:0:
50,309,113536,2,0,P|109:281|182:313,1,140,2|0,0:0|0:0,0:0:0:0:
249,358,114022,1,10,0:0:0:0:
249,358,114185,6,0,L|401:352,1,140,2|0,0:0|0:0,0:0:0:0:
466,304,114671,2,0,L|473:229,1,70,10|0,0:0|0:0,0:0:0:0:
386,204,114995,2,0,L|372:57,1,140,2|10,3:2|0:0,0:0:0:0:
193,29,115644,2,0,P|125:22|70:80,1,140,10|0,3:2|0:0,0:0:0:0:
81,158,116131,2,0,P|149:150|230:157,1,140,2|0,0:0|0:0,0:0:0:0:
266,233,116617,1,10,0:0:0:0:
95,297,116941,6,0,P|90:228|79:149,1,140,4|10,3:2|0:0,0:0:0:0:
74,67,117428,1,0,0:0:0:0:
74,67,117590,2,0,P|136:39|208:75,1,140,2|10,3:2|0:0,0:0:0:0:
312,207,118239,2,0,L|473:198,1,140,10|0,3:2|0:0,0:0:0:0:
494,118,118725,2,0,P|475:57|401:26,1,140,2|2,0:0|0:0,0:0:0:0:
320,42,119211,1,8,0:0:0:0:
170,146,119536,6,0,B|148:177|148:177|156:294,1,140,6|8,3:2|0:0,0:0:0:0:
210,350,120022,2,0,B|291:344,1,70,0|0,0:0|3:0,0:0:0:0:
354,292,120347,2,0,L|359:210,2,70,8|8|0,0:0|0:0|0:0,0:0:0:0:
267,262,120833,2,0,L|261:179,1,70,2|0,3:2|0:0,0:0:0:0:
270,101,121157,2,0,P|308:89|355:101,2,70,10|0|2,0:0|0:0|3:0,0:0:0:0:
189,143,121644,1,0,0:0:0:0:
100,162,121806,1,8,0:0:0:0:
22,114,121968,1,0,0:0:0:0:
68,20,122130,6,0,B|119:14|119:14|157:32|157:32|211:26,1,140,6|10,3:2|0:0,0:0:0:0:
294,29,122617,1,0,0:0:0:0:
294,29,122779,2,0,L|305:169,1,140,2|10,3:2|0:0,0:0:0:0:
439,45,123427,2,0,L|428:195,1,140,2|10,3:2|0:0,0:0:0:0:
409,274,123914,2,0,P|340:255|274:305,1,140,2|2,0:0|0:0,0:0:0:0:
227,358,124400,1,10,0:0:0:0:
227,358,124563,6,0,L|69:348,1,140,2|0,0:0|0:0,0:0:0:0:
47,267,125049,2,0,L|122:262,1,70,10|0,0:0|0:0,0:0:0:0:
200,227,125373,2,0,P|187:152|183:81,1,140,2|10,3:2|0:0,0:0:0:0:
350,15,126022,2,0,P|345:79|330:166,1,140,2|10,3:2|0:0,0:0:0:0:
327,245,126509,2,0,P|266:212|180:242,1,140,2|10,0:0|0:0,0:0:0:0:
128,282,126995,1,10,0:0:0:0:
287,369,127319,6,0,L|437:358,1,140,4|10,3:2|0:0,0:0:0:0:
485,289,127806,1,0,0:0:0:0:
485,289,127968,2,0,P|498:219|468:151,1,140,2|10,3:2|0:0,0:0:0:0:
319,57,128617,2,0,L|172:45,1,140,2|10,3:2|0:0,0:0:0:0:
90,63,129103,2,0,B|69:99|69:99|82:212,1,140,2|2,0:0|0:0,0:0:0:0:
91,287,129590,1,10,0:0:0:0:
258,215,129914,6,0,B|332:192|321:252|411:220,1,140,6|8,3:2|0:0,0:0:0:0:
480,197,130400,2,0,B|472:113,1,70,0|0,0:0|3:0,0:0:0:0:
396,77,130725,2,0,L|405:-12,2,70,8|8|0,0:0|0:0|0:0,0:0:0:0:
307,98,131211,2,0,P|300:125|299:158,3,35,8|0|8|8,0:0|0:0|0:0|0:0,0:0:0:0:
265,162,131536,2,0,P|270:187|269:214,3,35,8|0|0|8,0:0|0:0|0:0|0:0,0:0:0:0:
302,228,131860,2,0,P|295:254|294:286,3,35,8|8|10|8,0:0|0:0|0:0|0:0,0:0:0:0:
259,291,132184,2,0,P|263:317|261:343,3,35,10|8|10|8,0:0|0:0|0:0|0:0,0:0:0:0:
