osu file format v14

[General]
AudioFilename: audio.mp3
AudioLeadIn: 0
PreviewTime: 69833
Countdown: 0
SampleSet: Soft
StackLeniency: 0.2
Mode: 0
LetterboxInBreaks: 0
WidescreenStoryboard: 1

[Editor]
Bookmarks: 44292,111752,132346
DistanceSpacing: 1.2
BeatDivisor: 4
GridSize: 32
TimelineZoom: 2.1

[Metadata]
Title:Teo
TitleUnicode:テオ
Artist:Araki
ArtistUnicode:あらき
Creator:Nevo
Version:NiNo's Insane
Source:
Tags:byd bite you death Akitoshi -Laura- armin a_r_m_i_n snownino shunao shogunmoon ultaite cover vocaloid hatsune miku synth rock
BeatmapID:1617047
BeatmapSetID:759178

[Difficulty]
HPDrainRate:5
CircleSize:4
OverallDifficulty:8
ApproachRate:9
SliderMultiplier:1.8
SliderTickRate:1

[Events]
//Background and Video events
0,0,"anime-girl-falling-down-clouds-sky-school-uniform.jpg",0,0
//Break Periods
//Storyboard Layer 0 (Background)
//Storyboard Layer 1 (Fail)
//Storyboard Layer 2 (Pass)
//Storyboard Layer 3 (Foreground)
//Storyboard Sound Samples

[TimingPoints]
1482,324.324324324324,4,2,2,40,1,0
2779,-133.333333333333,4,2,2,40,0,0
3022,-133.333333333333,4,2,2,5,0,0
3103,-133.333333333333,4,2,2,40,0,0
3346,-133.333333333333,4,2,2,5,0,0
3427,-133.333333333333,4,2,2,40,0,0
3995,-133.333333333333,4,2,2,5,0,0
4076,-133.333333333333,4,2,2,40,0,0
4644,-133.333333333333,4,2,2,5,0,0
4725,-133.333333333333,4,2,2,40,0,0
5292,-133.333333333333,4,2,2,5,0,0
5373,-133.333333333333,4,2,2,40,0,0
5941,-133.333333333333,4,2,2,5,0,0
6022,-133.333333333333,4,2,2,40,0,0
6590,-133.333333333333,4,2,2,5,0,0
6671,-133.333333333333,4,2,2,40,0,0
11860,-133.333333333333,4,2,2,50,0,0
12022,-133.333333333333,4,2,2,5,0,0
12103,-133.333333333333,4,2,2,50,0,0
12265,-133.333333333333,4,2,2,5,0,0
12346,-133.333333333333,4,2,2,50,0,0
12509,-133.333333333333,4,2,2,5,0,0
12671,-100,4,2,2,60,0,0
13157,-100,4,2,2,65,0,0
13400,-100,4,2,2,5,0,0
13481,-100,4,2,2,65,0,0
13725,-100,4,2,2,5,0,0
13806,-100,4,2,2,65,0,0
14049,-100,4,2,2,5,0,0
14130,-100,4,2,2,65,0,0
14373,-100,4,2,2,5,0,0
14454,-100,4,2,2,65,0,0
14698,-100,4,2,2,5,0,0
14779,-100,4,2,2,65,0,0
15995,-100,4,2,2,5,0,0
16076,-100,4,2,2,65,0,0
16319,-100,4,2,2,5,0,0
16400,-100,4,2,2,65,0,0
16644,-100,4,2,2,5,0,0
16725,-100,4,2,2,65,0,0
16968,-100,4,2,2,5,0,0
17049,-100,4,2,2,65,0,0
17292,-100,4,2,2,5,0,0
17373,-100,4,2,2,65,0,0
18265,-100,4,2,2,5,0,0
18346,-100,4,2,2,65,0,0
18590,-100,4,2,2,5,0,0
18671,-100,4,2,2,65,0,0
18914,-100,4,2,2,5,0,0
18995,-100,4,2,2,65,0,0
19238,-100,4,2,2,5,0,0
19319,-100,4,2,2,65,0,0
19563,-100,4,2,2,5,0,0
19644,-100,4,2,2,65,0,0
19887,-100,4,2,2,5,0,0
19968,-100,4,2,2,65,0,0
21184,-100,4,2,2,5,0,0
21265,-100,4,2,2,65,0,0
23536,-133.333333333333,4,2,2,60,0,0
28157,-133.333333333333,4,2,2,5,0,0
28238,-133.333333333333,4,2,2,60,0,0
28563,-133.333333333333,4,2,3,60,0,0
29617,-133.333333333333,4,2,3,5,0,0
29698,-133.333333333333,4,2,3,60,0,0
30265,-133.333333333333,4,2,3,5,0,0
30346,-133.333333333333,4,2,3,60,0,0
31238,-133.333333333333,4,2,3,5,0,0
31319,-133.333333333333,4,2,3,60,0,0
31563,-133.333333333333,4,2,3,5,0,0
31644,-133.333333333333,4,2,3,60,0,0
32049,-133.333333333333,4,2,3,5,0,0
32130,-133.333333333333,4,2,3,60,0,0
32617,-133.333333333333,4,2,2,60,0,0
35454,-133.333333333333,4,2,2,5,0,0
35536,-133.333333333333,4,2,2,60,0,0
37725,-133.333333333333,4,2,2,5,0,0
37806,-133.333333333333,4,2,2,60,0,0
38536,-133.333333333333,4,2,2,5,0,0
38617,-133.333333333333,4,2,2,60,0,0
40644,-133.333333333333,4,2,2,5,0,0
40725,-133.333333333333,4,2,2,60,0,0
40968,-133.333333333333,4,2,2,5,0,0
41049,-133.333333333333,4,2,2,60,0,0
41292,-133.333333333333,4,2,2,5,0,0
41373,-133.333333333333,4,2,2,60,0,0
41617,-133.333333333333,4,2,2,5,0,0
41698,-133.333333333333,4,2,2,60,0,0
41941,-133.333333333333,4,2,2,5,0,0
42022,-133.333333333333,4,2,2,60,0,0
42265,-133.333333333333,4,2,2,5,0,0
42346,-133.333333333333,4,2,2,60,0,0
42590,-133.333333333333,4,2,2,5,0,0
42671,-133.333333333333,4,2,2,60,0,0
42914,-133.333333333333,4,2,2,5,0,0
42995,-133.333333333333,4,2,2,60,0,0
44292,-100,4,2,2,65,0,0
44536,-100,4,2,2,5,0,0
44617,-100,4,2,2,65,0,0
44860,-100,4,2,2,5,0,0
44941,-100,4,2,2,65,0,0
45184,-100,4,2,2,5,0,0
45265,-100,4,2,2,65,0,0
45509,-100,4,2,2,5,0,0
45590,-100,4,2,2,65,0,0
45833,-100,4,2,2,5,0,0
45914,-100,4,2,2,65,0,0
47130,-100,4,2,2,5,0,0
47211,-100,4,2,2,65,0,0
47454,-100,4,2,2,5,0,0
47536,-100,4,2,2,65,0,0
47779,-100,4,2,2,5,0,0
47860,-100,4,2,2,65,0,0
49481,-133.333333333333,4,2,2,60,0,0
53617,-133.333333333333,4,2,2,5,0,0
53698,-133.333333333333,4,2,2,60,0,0
54103,-133.333333333333,4,2,2,5,0,0
54184,-133.333333333333,4,2,2,60,0,0
54671,-133.333333333333,4,2,3,60,0,0
55968,-133.333333333333,4,2,2,60,0,0
56211,-133.333333333333,4,2,2,5,0,0
56292,-133.333333333333,4,2,2,60,0,0
57184,-133.333333333333,4,2,2,5,0,0
57265,-133.333333333333,4,2,2,60,0,0
57509,-133.333333333333,4,2,2,5,0,0
57590,-133.333333333333,4,2,2,60,0,0
61400,-133.333333333333,4,2,2,5,0,0
61481,-133.333333333333,4,2,2,60,0,0
62698,-133.333333333333,4,2,2,5,0,0
62779,-133.333333333333,4,2,2,60,0,0
63022,-133.333333333333,4,2,2,5,0,0
63103,-133.333333333333,4,2,2,60,0,0
63346,-133.333333333333,4,2,2,5,0,0
63427,-133.333333333333,4,2,2,60,0,0
63671,-133.333333333333,4,2,2,5,0,0
63752,-133.333333333333,4,2,2,60,0,0
65049,-133.333333333333,4,2,3,60,0,0
66590,-133.333333333333,4,2,3,5,0,0
66671,-133.333333333333,4,2,3,60,0,0
66914,-133.333333333333,4,2,3,5,0,0
66995,-133.333333333333,4,2,3,60,0,0
67644,-100,4,2,3,60,0,0
70238,-100,4,2,3,80,0,1
70481,-100,4,2,3,5,0,1
70563,-100,4,2,3,80,0,1
72427,-100,4,2,3,5,0,1
72509,-100,4,2,3,80,0,1
73076,-100,4,2,3,5,0,1
73157,-100,4,2,3,70,0,1
75671,-100,4,2,3,5,0,1
75752,-100,4,2,3,70,0,1
77617,-100,4,2,3,5,0,1
77698,-100,4,2,3,70,0,1
78265,-100,4,2,3,5,0,1
78346,-100,4,2,3,70,0,1
78590,-100,4,2,3,5,0,1
78671,-100,4,2,3,70,0,1
78833,-100,4,2,2,70,0,1
79968,-100,4,2,2,80,0,1
80536,-100,4,2,2,70,0,1
80617,-100,4,2,3,80,0,1
80860,-100,4,2,3,5,0,1
80941,-100,4,2,3,80,0,1
82806,-100,4,2,3,5,0,1
82887,-100,4,2,3,80,0,1
83454,-100,4,2,3,5,0,1
83536,-100,4,2,3,80,0,1
86049,-100,4,2,3,5,0,1
86130,-100,4,2,3,80,0,1
88319,-100,4,2,3,5,0,1
88400,-100,4,2,3,80,0,1
88644,-100,4,2,3,5,0,1
88725,-100,4,2,3,80,0,1
88968,-100,4,2,3,5,0,1
89049,-100,4,2,3,80,0,1
89292,-100,4,2,3,5,0,1
89373,-100,4,2,3,80,0,1
89617,-100,4,2,3,5,0,1
89698,-100,4,2,3,80,0,1
89860,-100,4,2,2,80,0,1
90995,-100,4,2,3,80,0,1
100725,-100,4,2,2,80,0,1
101373,-100,4,2,3,80,0,1
109968,-100,4,2,2,80,0,1
111752,-100,4,2,3,65,0,0
111995,-100,4,2,3,5,0,0
112076,-100,4,2,2,65,0,0
112319,-100,4,2,2,5,0,0
112400,-100,4,2,2,65,0,0
112644,-100,4,2,2,5,0,0
112725,-100,4,2,2,65,0,0
112968,-100,4,2,2,5,0,0
113049,-100,4,2,2,65,0,0
113292,-100,4,2,2,5,0,0
113373,-100,4,2,2,65,0,0
114590,-100,4,2,2,5,0,0
114671,-100,4,2,2,65,0,0
114915,-100,4,2,2,5,0,0
114996,-100,4,2,2,65,0,0
115239,-100,4,2,2,5,0,0
115320,-100,4,2,2,65,0,0
115563,-100,4,2,2,5,0,0
115644,-100,4,2,2,65,0,0
115888,-100,4,2,2,5,0,0
115969,-100,4,2,2,65,0,0
117185,-100,4,2,2,5,0,0
117266,-100,4,2,2,65,0,0
117509,-100,4,2,2,5,0,0
117590,-100,4,2,2,65,0,0
117834,-100,4,2,2,5,0,0
117915,-100,4,2,2,65,0,0
118158,-100,4,2,2,5,0,0
118239,-100,4,2,2,65,0,0
118482,-100,4,2,2,5,0,0
118563,-100,4,2,2,65,0,0
119455,-100,4,2,2,65,0,0
119536,-100,4,2,2,65,0,0
119780,-100,4,2,2,5,0,0
119861,-100,4,2,2,65,0,0
120104,-100,4,2,2,65,0,0
120185,-100,4,2,2,65,0,0
120428,-100,4,2,2,65,0,0
120509,-100,4,2,2,65,0,0
120753,-100,4,2,2,65,0,0
120834,-100,4,2,2,65,0,0
121077,-100,4,2,2,65,0,0
121158,-100,4,2,2,65,0,0
122374,-100,4,2,2,5,0,0
122455,-100,4,2,2,65,0,0
122698,-100,4,2,2,5,0,0
122779,-100,4,2,2,65,0,0
123022,-100,4,2,2,5,0,0
123103,-100,4,2,2,65,0,0
123346,-100,4,2,2,5,0,0
123427,-100,4,2,2,65,0,0
123671,-100,4,2,2,5,0,0
123752,-100,4,2,2,65,0,0
124726,-100,4,2,2,65,0,0
124968,-100,4,2,2,5,0,0
125049,-100,4,2,2,65,0,0
125292,-100,4,2,2,5,0,0
125373,-100,4,2,2,65,0,0
125617,-100,4,2,2,5,0,0
125698,-100,4,2,2,65,0,0
125941,-100,4,2,2,5,0,0
126022,-100,4,2,2,65,0,0
126265,-100,4,2,2,5,0,0
126346,-100,4,2,2,65,0,0
127238,-100,4,2,2,5,0,0
127319,-100,4,2,2,65,0,0
127563,-100,4,2,2,5,0,0
127644,-100,4,2,2,65,0,0
127887,-100,4,2,2,5,0,0
127968,-100,4,2,2,65,0,0
128211,-100,4,2,2,5,0,0
128292,-100,4,2,2,65,0,0
128536,-100,4,2,2,5,0,0
128617,-100,4,2,2,65,0,0
128860,-100,4,2,2,5,0,0
128941,-100,4,2,2,65,0,0
129347,-100,4,2,2,65,0,0
129428,-100,4,2,2,65,0,0
129753,-100,4,2,2,65,0,0
129915,-100,4,2,3,65,0,0
130157,-100,4,2,2,5,0,0
130238,-100,4,2,3,65,0,0
130807,-100,4,2,3,65,0,0
130888,-100,4,2,3,65,0,0
131455,-100,4,2,3,65,0,0
131536,-100,4,2,3,65,0,0

[Colours]
Combo1 : 192,192,192
Combo2 : 0,255,255
Combo3 : 0,128,192

[HitObjects]
256,128,2617,5,8,0:3:0:0:
256,128,2698,1,8,0:3:0:0:
256,128,2779,2,0,L|184:123,1,67.5000025749208,4|0,3:2|0:0,0:0:0:0:
107,118,3103,2,0,L|102:185,1,67.5000025749208,8|0,0:0|0:0,0:0:0:0:
94,265,3427,2,0,L|166:270,1,67.5000025749208,0|0,3:0|0:0,0:0:0:0:
243,275,3751,2,0,L|247:207,1,67.5000025749208,8|0,0:0|0:0,0:0:0:0:
256,128,4076,6,0,L|184:123,1,67.5000025749208,0|0,3:0|0:0,0:0:0:0:
140,58,4400,2,0,L|68:63,1,67.5000025749208,8|0,0:0|0:0,0:0:0:0:
16,122,4725,2,0,P|7:159|11:198,1,67.5000025749208,0|0,3:0|0:0,0:0:0:0:
68,242,5049,2,0,P|77:279|73:318,1,67.5000025749208,8|0,0:0|0:0,0:0:0:0:
13,360,5373,6,0,L|159:354,1,135.000005149842,0|8,3:0|0:0,0:0:0:0:
201,292,5860,1,0,0:0:0:0:
201,292,6022,2,0,L|273:295,1,67.5000025749208,0|0,3:0|0:0,0:0:0:0:
317,359,6346,2,0,L|389:355,1,67.5000025749208,8|0,0:0|0:0,0:0:0:0:
465,355,6671,6,0,L|472:285,1,67.5000025749208,0|0,3:0|0:0,0:0:0:0:
406,239,6995,2,0,L|399:169,1,67.5000025749208,8|0,0:0|0:0,0:0:0:0:
338,118,7319,1,0,3:0:0:0:
296,187,7481,1,8,0:0:0:0:
235,134,7644,1,8,0:0:0:0:
200,210,7806,1,8,0:0:0:0:
200,210,7887,1,8,0:0:0:0:
200,210,7968,6,0,L|196:297,2,67.5000025749208,4|0|8,3:2|0:0|0:0,0:0:0:0:
132,150,8454,1,0,0:0:0:0:
90,219,8617,2,0,L|86:306,2,67.5000025749208,0|0|8,3:0|0:0|0:0,0:0:0:0:
29,166,9103,1,0,0:0:0:0:
71,97,9265,6,0,L|67:10,1,67.5000025749208,0|0,3:0|0:0,0:0:0:0:
149,26,9590,2,0,L|236:22,1,67.5000025749208,8|0,0:0|0:0,0:0:0:0:
283,67,9914,1,0,3:0:0:0:
225,124,10076,1,0,0:0:0:0:
292,169,10238,2,0,L|379:165,1,67.5000025749208,8|0,0:0|0:0,0:0:0:0:
440,160,10563,6,0,P|456:206|451:231,1,67.5000025749208,0|0,3:0|0:0,0:0:0:0:
378,253,10887,2,0,P|362:299|367:324,1,67.5000025749208,8|0,0:0|0:0,0:0:0:0:
300,365,11211,2,0,L|230:354,1,67.5000025749208,0|0,3:0|0:0,0:0:0:0:
183,290,11536,2,0,L|113:301,1,67.5000025749208,8|8,0:0|0:0,0:0:0:0:
75,300,11779,1,0,0:0:0:0:
75,300,11860,6,0,B|49:259|49:259|60:191,2,101.250003862381,2|2|2,3:2|3:2|3:2,0:0:0:0:
82,307,12671,1,8,0:0:0:0:
82,307,12752,1,8,0:0:0:0:
82,307,12833,2,0,L|77:362,3,45,8|8|8|8,0:0|0:0|0:0|0:0,0:0:0:0:
110,269,13157,6,0,P|146:253|206:257,1,90,6|0,3:2|0:0,0:0:0:0:
247,327,13481,2,0,P|283:343|343:339,1,90,10|0,0:0|0:0,0:0:0:0:
413,301,13806,1,2,3:2:0:0:
336,253,13968,1,0,0:0:0:0:
417,212,14130,2,0,P|435:169|421:110,1,90,10|0,0:0|0:0,0:0:0:0:
404,40,14454,6,0,L|308:51,1,90,2|0,3:2|0:0,0:0:0:0:
249,112,14779,2,0,L|153:101,1,90,10|2,0:0|0:0,0:0:0:0:
79,141,15103,1,2,3:3:0:0:
79,141,15184,1,0,0:0:0:0:
79,141,15265,1,2,0:0:0:0:
153,191,15427,1,10,0:0:0:0:
73,231,15590,1,2,0:0:0:0:
147,281,15752,6,0,L|236:291,1,90,6|0,3:2|0:0,0:0:0:0:
295,359,16076,2,0,L|384:348,1,90,10|0,0:0|0:0,0:0:0:0:
473,337,16400,2,0,P|492:296|479:226,1,90,2|0,3:2|0:0,0:0:0:0:
409,211,16725,2,0,P|390:169|403:99,1,90,10|0,0:0|0:0,0:0:0:0:
424,42,17049,5,2,3:2:0:0:
480,112,17211,1,0,0:0:0:0:
391,125,17373,2,0,L|268:119,1,90,10|2,0:0|0:0,0:0:0:0:
243,50,17698,1,2,3:0:0:0:
243,50,17779,1,0,0:0:0:0:
243,50,17860,2,0,L|174:53,1,45,10|0,0:0|0:0,0:0:0:0:
145,125,18022,2,0,L|22:119,1,90,10|0,0:0|0:0,0:0:0:0:
23,204,18346,6,0,P|10:258|24:301,1,90,4|0,3:2|0:0,0:0:0:0:
94,339,18671,2,0,P|107:285|93:242,1,90,10|0,0:0|0:0,0:0:0:0:
104,162,18995,2,0,L|205:174,1,90,2|0,3:2|0:0,0:0:0:0:
236,251,19319,2,0,L|337:239,1,90,10|0,0:0|0:0,0:0:0:0:
410,208,19644,5,2,3:2:0:0:
340,151,19806,1,0,0:0:0:0:
325,240,19968,2,0,L|322:349,1,90,10|2,0:0|0:0,0:0:0:0:
243,372,20292,1,2,3:0:0:0:
243,372,20373,1,0,0:0:0:0:
243,372,20454,1,2,0:0:0:0:
202,291,20617,1,10,0:0:0:0:
123,334,20779,1,0,0:0:0:0:
82,253,20941,6,0,L|84:163,1,90,6|0,3:2|0:0,0:0:0:0:
86,73,21265,2,0,L|175:75,1,90,8|0,0:0|0:0,0:0:0:0:
259,110,21590,1,0,3:0:0:0:
188,165,21752,1,8,0:0:0:0:
272,200,21914,2,0,L|361:202,1,90,8|0,0:0|0:0,0:0:0:0:
450,204,22238,5,8,0:0:0:0:
460,183,22319,1,8,0:0:0:0:
465,161,22400,1,8,0:0:0:0:
465,139,22481,1,8,0:0:0:0:
461,117,22563,2,0,L|451:66,3,45,0|0|2|0,3:0|3:0|3:2|3:0,0:0:0:0:
403,95,22887,2,0,L|368:55,3,45,10|8|0|0,0:0|0:0|3:0|3:0,0:0:0:0:
341,104,23211,2,0,L|291:87,3,45,10|8|2|0,0:0|0:0|3:2|3:0,0:0:0:0:
291,142,23536,6,0,P|275:178|277:211,1,67.5000025749208,6|0,3:2|0:0,0:0:0:0:
338,256,23860,2,0,P|354:292|352:325,1,67.5000025749208,8|2,0:0|0:0,0:0:0:0:
289,368,24184,2,0,L|216:359,2,67.5000025749208,2|2|10,3:2|3:2|0:0,0:0:0:0:
353,319,24671,1,2,0:0:0:0:
417,270,24833,6,0,L|483:278,1,67.5000025749208,2|0,3:2|0:0,0:0:0:0:
497,198,25157,1,8,0:0:0:0:
497,198,25319,2,0,L|505:131,1,67.5000025749208,2|0,0:0|0:0,0:0:0:0:
445,76,25644,1,0,3:0:0:0:
374,116,25806,2,0,L|369:193,1,67.5000025749208,8|2,0:0|0:0,0:0:0:0:
309,236,26130,6,0,L|314:313,1,67.5000025749208,2|0,3:2|0:0,0:0:0:0:
250,354,26454,1,10,0:0:0:0:
250,354,26617,2,0,L|173:359,1,67.5000025749208,2|0,0:0|0:0,0:0:0:0:
122,304,26941,1,2,3:2:0:0:
122,304,27104,2,0,L|45:299,1,67.5000025749208,8|0,0:0|0:0,0:0:0:0:
8,233,27427,6,0,P|5:186|11:152,1,67.5000025749208,2|0,3:2|0:0,0:0:0:0:
52,97,27752,1,10,0:0:0:0:
52,97,27914,2,0,L|138:109,1,67.5000025749208,2|0,0:0|0:0,0:0:0:0:
159,176,28238,2,0,L|249:163,1,67.5000025749208,8|0,0:0|3:0,0:0:0:0:
306,154,28563,1,2,1:2:0:0:
306,154,28725,6,0,L|299:247,2,67.5000025749208,6|2|10,3:2|1:2|0:0,0:0:0:0:
369,103,29211,1,2,1:2:0:0:
405,174,29373,2,0,L|398:267,1,67.5000025749208,2|0,3:2|0:0,0:0:0:0:
476,268,29698,2,0,L|483:361,1,67.5000025749208,10|2,0:0|1:2,0:0:0:0:
402,356,30022,6,0,L|325:348,1,67.5000025749208,2|0,3:2|0:0,0:0:0:0:
264,308,30346,1,10,0:0:0:0:
335,268,30509,1,2,1:2:0:0:
265,227,30671,2,0,L|188:219,1,67.5000025749208,2|2,3:2|3:2,0:0:0:0:
151,153,30995,2,0,L|74:161,1,67.5000025749208,10|0,0:0|0:0,0:0:0:0:
24,215,31319,5,0,3:0:0:0:
24,215,31644,1,10,0:0:0:0:
64,284,31806,2,0,L|141:292,1,67.5000025749208,2|0,1:2|0:0,0:0:0:0:
175,358,32130,2,0,L|252:350,1,67.5000025749208,2|8,3:2|0:0,0:0:0:0:
322,343,32454,1,2,0:0:0:0:
402,335,32617,6,0,L|395:267,1,67.5000025749208,2|0,3:2|0:0,0:0:0:0:
324,227,32941,2,0,L|330:159,1,67.5000025749208,8|0,0:0|0:0,0:0:0:0:
290,89,33265,1,2,3:2:0:0:
249,159,33427,1,0,3:0:0:0:
208,88,33590,1,8,0:0:0:0:
208,88,33671,1,8,0:0:0:0:
208,88,33753,1,8,0:0:0:0:
167,158,33914,6,0,L|155:308,1,135.000005149842,6|8,3:2|0:0,0:0:0:0:
201,359,34400,1,2,0:0:0:0:
237,286,34563,2,0,P|276:272|306:277,1,67.5000025749208,2|2,3:2|3:2,0:0:0:0:
348,340,34887,2,0,P|387:354|417:349,1,67.5000025749208,10|2,0:0|0:0,0:0:0:0:
476,302,35211,6,0,L|472:205,1,67.5000025749208,2|0,3:2|0:0,0:0:0:0:
470,153,35536,1,10,0:0:0:0:
402,197,35698,2,0,L|314:189,1,67.5000025749208,2|0,0:0|0:0,0:0:0:0:
288,124,36022,1,0,3:0:0:0:
288,124,36184,2,0,L|200:132,1,67.5000025749208,8|2,0:0|0:0,0:0:0:0:
171,194,36509,6,0,L|83:186,2,67.5000025749208,2|0|10,3:2|0:0|0:0,0:0:0:0:
229,250,36995,1,2,0:0:0:0:
287,306,37157,2,0,L|354:312,1,67.5000025749208,0|2,0:0|3:2,0:0:0:0:
415,365,37481,2,0,L|482:358,1,67.5000025749208,10|0,0:0|0:0,0:0:0:0:
494,278,37806,6,0,P|474:239|479:192,1,67.5000025749208,2|0,3:2|0:0,0:0:0:0:
405,171,38130,2,0,P|425:132|420:85,1,67.5000025749208,10|2,0:0|0:0,0:0:0:0:
345,116,38454,1,0,0:0:0:0:
327,195,38617,2,0,L|330:269,2,67.5000025749208,8|0|10,0:0|3:0|0:0,0:0:0:0:
267,140,39103,6,0,P|231:121|191:125,1,67.5000025749208,6|2,3:2|0:0,0:0:0:0:
152,182,39427,2,0,P|188:201|228:197,1,67.5000025749208,8|0,0:0|0:0,0:0:0:0:
125,105,39752,2,0,P|90:126|74:163,1,67.5000025749208,2|2,3:2|3:3,0:0:0:0:
86,229,40076,1,10,0:0:0:0:
152,182,40238,1,2,0:0:0:0:
152,182,40400,5,2,3:2:0:0:
152,182,40725,2,0,L|232:194,1,67.5000025749208,10|0,0:0|0:0,0:0:0:0:
255,264,41049,2,0,L|335:252,1,67.5000025749208,2|0,3:2|0:0,0:0:0:0:
353,179,41373,2,0,L|433:191,1,67.5000025749208,10|0,0:0|0:0,0:0:0:0:
499,203,41698,6,0,P|512:154|509:124,1,67.5000025749208,6|0,3:2|0:0,0:0:0:0:
500,57,42022,2,0,L|433:46,1,67.5000025749208,10|0,0:0|0:0,0:0:0:0:
366,92,42346,2,0,L|299:102,1,67.5000025749208,2|0,3:2|0:0,0:0:0:0:
218,95,42671,2,0,P|191:137|190:177,1,67.5000025749208,10|0,0:0|0:0,0:0:0:0:
187,234,42995,5,6,3:2:0:0:
274,235,43157,1,8,0:0:0:0:
274,235,43238,1,8,0:0:0:0:
274,235,43319,2,0,L|333:237,3,33.7500012874604,8|8|8|8,3:2|0:0|0:0|0:0,0:0:0:0:
264,288,43644,2,0,L|314:319,3,33.7500012874604,10|8|10|8,0:0|0:0|0:0|0:0,0:0:0:0:
228,328,43968,2,0,L|255:380,3,33.7500012874604,10|8|8|8,0:0|0:0|0:0|0:0,0:0:0:0:
176,344,44292,6,0,L|76:332,1,90,6|0,3:2|0:0,0:0:0:0:
17,275,44617,2,0,L|29:175,1,90,10|0,0:0|0:0,0:0:0:0:
86,117,44941,1,2,3:2:0:0:
115,202,45103,1,0,0:0:0:0:
174,134,45265,2,0,L|272:128,1,90,10|0,0:0|0:0,0:0:0:0:
340,176,45590,5,2,3:2:0:0:
260,218,45752,1,0,0:0:0:0:
263,128,45914,2,0,P|288:97|348:83,1,90,10|2,0:0|0:0,0:0:0:0:
426,130,46238,1,2,3:0:0:0:
426,130,46319,1,2,0:0:0:0:
426,130,46400,1,2,0:0:0:0:
340,176,46563,1,10,0:0:0:0:
334,81,46725,1,2,0:0:0:0:
419,122,46887,6,0,L|425:240,1,90,4|0,3:2|0:0,0:0:0:0:
348,260,47211,2,0,L|342:378,1,90,10|0,0:0|0:0,0:0:0:0:
253,345,47536,1,2,3:2:0:0:
258,255,47698,1,0,0:0:0:0:
163,340,47860,1,10,3:2:0:0:
175,257,48022,1,0,3:0:0:0:
175,257,48103,1,0,0:0:0:0:
175,257,48184,6,0,L|179:167,1,90,10|8,3:2|0:0,0:0:0:0:
200,158,48427,1,8,0:0:0:0:
200,158,48509,2,0,L|195:68,1,90,8|10,3:0|0:0,0:0:0:0:
194,45,48752,1,8,0:0:0:0:
194,45,48833,2,0,P|145:27|94:34,1,90,10|0,0:0|3:0,0:0:0:0:
27,69,49157,1,10,0:0:0:0:
87,150,49319,1,10,0:0:0:0:
87,150,49400,1,8,0:0:0:0:
87,150,49481,6,0,L|92:237,1,67.5000025749208,6|0,3:2|0:0,0:0:0:0:
96,298,49806,1,8,0:0:0:0:
96,298,49968,2,0,P|135:314|174:316,1,67.5000025749208,2|0,0:0|3:0,0:0:0:0:
231,354,50292,1,2,3:2:0:0:
231,354,50454,2,0,P|264:328|285:295,1,67.5000025749208,10|2,0:0|0:0,0:0:0:0:
346,265,50779,6,0,P|340:223|322:188,1,67.5000025749208,2|0,3:2|0:0,0:0:0:0:
254,171,51103,1,10,0:0:0:0:
178,141,51265,2,0,P|183:99|201:64,1,67.5000025749208,2|0,0:0|0:0,0:0:0:0:
241,10,51590,1,0,3:0:0:0:
241,10,51752,2,0,L|314:19,1,67.5000025749208,8|2,0:0|0:0,0:0:0:0:
347,89,52076,6,0,L|420:80,1,67.5000025749208,2|0,3:2|0:0,0:0:0:0:
494,72,52400,2,0,P|504:112|500:155,1,67.5000025749208,10|0,0:0|0:0,0:0:0:0:
443,193,52725,2,0,P|433:233|437:276,1,67.5000025749208,2|0,3:2|0:0,0:0:0:0:
434,339,53049,2,0,L|367:330,1,67.5000025749208,8|0,0:0|0:0,0:0:0:0:
302,282,53373,6,0,L|235:290,1,67.5000025749208,2|0,3:2|0:0,0:0:0:0:
162,328,53698,1,10,0:0:0:0:
127,254,53861,2,0,L|59:249,1,67.5000025749208,2|0,0:0|0:0,0:0:0:0:
162,328,54185,2,0,P|205:279|190:201,1,135.000005149842,8|0,0:0|0:0,0:0:0:0:
135,160,54671,6,0,L|143:82,1,67.5000025749208,6|2,3:2|1:2,0:0:0:0:
200,37,54995,2,0,L|267:41,1,67.5000025749208,10|2,0:2|1:2,0:0:0:0:
347,51,55319,2,0,P|302:66|281:155,1,135.000005149842,2|10,3:2|0:0,0:0:0:0:
327,207,55806,1,2,0:0:0:0:
247,219,55968,6,0,L|88:212,1,135.000005149842,2|10,3:2|0:0,0:0:0:0:
45,166,56454,1,2,0:0:0:0:
118,130,56617,2,0,L|185:132,1,67.5000025749208,2|2,3:2|0:0,0:0:0:0:
233,68,56941,2,0,L|300:65,1,67.5000025749208,10|0,0:0|0:0,0:0:0:0:
371,103,57265,5,0,3:2:0:0:
371,103,57590,1,10,0:0:0:0:
429,158,57752,2,0,L|420:247,1,67.5000025749208,2|0,0:0|3:0,0:0:0:0:
345,251,58076,2,0,L|354:340,1,67.5000025749208,2|8,0:0|0:0,0:0:0:0:
295,375,58400,1,10,0:0:0:0:
233,321,58563,6,0,L|226:253,1,67.5000025749208,2|0,3:2|0:0,0:0:0:0:
158,209,58887,2,0,L|164:141,1,67.5000025749208,8|0,0:0|0:0,0:0:0:0:
202,70,59211,1,2,3:2:0:0:
246,137,59373,1,2,0:0:0:0:
290,72,59536,1,10,0:0:0:0:
290,72,59617,1,8,0:0:0:0:
290,72,59698,1,2,0:0:0:0:
165,142,59860,6,0,L|27:131,1,135.000005149842,6|8,3:2|0:0,0:0:0:0:
24,50,60346,1,2,0:0:0:0:
101,24,60509,2,0,L|168:29,1,67.5000025749208,2|2,3:2|3:2,0:0:0:0:
224,87,60833,1,10,0:0:0:0:
165,142,60995,1,2,0:0:0:0:
221,200,61157,6,0,L|288:205,1,67.5000025749208,2|0,3:2|0:0,0:0:0:0:
362,238,61481,2,0,P|329:180|350:118,1,135.000005149842,10|0,0:0|3:0,0:0:0:0:
410,173,61968,1,0,0:0:0:0:
443,248,62130,2,0,L|446:326,1,67.5000025749208,8|2,0:0|0:0,0:0:0:0:
369,342,62454,6,0,L|291:345,1,67.5000025749208,2|0,3:2|0:0,0:0:0:0:
246,284,62779,2,0,L|168:281,1,67.5000025749208,10|0,0:0|0:0,0:0:0:0:
130,346,63103,2,0,L|52:349,1,67.5000025749208,2|0,3:2|0:0,0:0:0:0:
12,284,63427,2,0,P|7:241|12:204,1,67.5000025749208,10|0,0:0|0:0,0:0:0:0:
59,153,63752,6,0,L|126:150,1,67.5000025749208,2|0,3:2|0:0,0:0:0:0:
191,101,64076,1,10,0:0:0:0:
191,101,64238,1,2,0:0:0:0:
248,157,64400,2,0,L|242:250,1,67.5000025749208,2|8,3:3|0:0,0:0:0:0:
298,284,64725,1,8,0:0:0:0:
364,237,64887,1,8,0:0:0:0:
364,237,64968,1,8,0:0:0:0:
364,237,65049,6,0,L|368:169,1,67.5000025749208,6|0,3:2|1:2,0:0:0:0:
375,89,65373,2,0,L|307:84,1,67.5000025749208,10|0,0:0|1:0,0:0:0:0:
251,25,65698,2,0,L|183:29,1,67.5000025749208,2|2,3:2|1:2,0:0:0:0:
102,35,66022,1,10,0:0:0:0:
108,116,66184,1,2,1:2:0:0:
114,197,66346,6,0,L|120:279,1,67.5000025749208,2|0,3:2|0:0,0:0:0:0:
124,345,66671,2,0,P|156:364|199:366,1,67.5000025749208,10|0,0:0|0:0,0:0:0:0:
265,377,66995,2,0,P|231:346|250:250,1,135.000005149842,2|8,3:2|0:0,0:0:0:0:
310,229,67481,1,8,0:0:0:0:
244,181,67644,6,0,L|195:176,3,45,14|8|8|8,3:2|0:0|0:0|0:0,0:0:0:0:
247,126,67968,2,0,L|207:97,3,45,10|8|10|8,0:0|0:0|0:0|0:0,0:0:0:0:
277,79,68292,2,0,L|256:34,3,45,10|8|8|8,0:0|0:0|0:0|0:0,0:0:0:0:
326,54,68617,1,10,0:0:0:0:
348,55,68698,1,8,0:0:0:0:
370,57,68779,1,10,0:0:0:0:
393,58,68860,1,8,0:0:0:0:
415,60,68941,6,0,P|440:84|447:148,1,90,14|0,3:2|0:0,0:0:0:0:
398,210,69265,1,12,3:2:0:0:
398,210,69590,1,12,3:2:0:0:
322,161,69752,1,0,3:0:0:0:
322,161,69833,1,0,3:0:0:0:
322,161,69914,2,0,L|221:155,1,90,8|0,0:0|0:0,0:0:0:0:
185,79,70238,6,0,L|84:85,1,90,6|0,3:0|0:0,0:0:0:0:
17,130,70563,1,10,0:0:0:0:
95,174,70725,1,2,1:2:0:0:
21,138,70887,1,2,3:2:0:0:
99,182,71049,1,2,1:2:0:0:
25,146,71211,1,10,0:0:0:0:
103,190,71373,1,2,1:2:0:0:
29,154,71536,5,2,3:2:0:0:
107,198,71698,1,2,1:2:0:0:
107,109,71860,1,10,0:0:0:0:
29,154,72022,1,2,1:2:0:0:
107,198,72184,2,0,L|196:192,1,90,2|0,3:2|0:0,0:0:0:0:
282,220,72509,1,10,0:0:0:0:
215,280,72671,1,2,0:0:0:0:
301,308,72833,6,0,L|390:302,1,90,6|0,3:0|0:0,0:0:0:0:
469,258,73157,1,10,0:0:0:0:
391,213,73319,1,2,1:2:0:0:
475,252,73481,1,2,3:2:0:0:
397,207,73643,1,2,1:2:0:0:
481,246,73806,1,10,0:0:0:0:
403,201,73968,1,2,1:2:0:0:
487,240,74130,5,2,3:2:0:0:
409,195,74292,1,2,1:2:0:0:
410,286,74455,1,10,0:0:0:0:
487,240,74617,1,2,1:2:0:0:
409,195,74779,1,2,3:2:0:0:
410,286,74941,2,0,L|416:345,1,45,8|0,0:0|0:0,0:0:0:0:
487,240,75103,2,0,L|497:140,1,90,10|2,0:0|0:0,0:0:0:0:
469,64,75427,6,0,P|432:46|373:48,1,90,6|0,3:0|0:0,0:0:0:0:
335,121,75752,1,10,0:0:0:0:
294,40,75914,1,2,1:2:0:0:
329,127,76076,1,2,3:2:0:0:
288,46,76238,1,2,1:2:0:0:
323,133,76401,1,10,0:0:0:0:
282,52,76563,1,2,1:2:0:0:
317,139,76724,5,2,3:2:0:0:
276,58,76886,1,2,1:2:0:0:
227,135,77049,1,10,0:0:0:0:
317,139,77211,1,2,1:2:0:0:
276,58,77373,2,0,L|164:52,1,90,2|0,3:2|0:0,0:0:0:0:
96,48,77698,1,10,0:0:0:0:
91,137,77860,1,2,0:0:0:0:
86,226,78022,6,0,P|126:261|178:262,1,90,6|0,3:0|0:0,0:0:0:0:
251,270,78346,2,0,P|233:217|284:144,1,135,10|0,0:0|0:0,0:0:0:0:
310,131,78671,1,2,3:2:0:0:
371,209,78833,1,8,0:0:0:0:
371,209,78914,1,8,0:0:0:0:
371,209,78995,2,0,L|375:263,3,45,10|0|0|0,0:0|3:0|3:0|3:0,0:0:0:0:
422,171,79319,5,10,0:0:0:0:
423,148,79400,1,8,0:0:0:0:
425,126,79481,1,8,0:0:0:0:
426,103,79562,1,8,0:0:0:0:
428,81,79644,2,0,L|432:27,3,45,8|0|0|0,0:0|0:0|0:0|0:0,0:0:0:0:
348,93,79968,2,0,L|352:147,3,45,10|8|0|0,0:0|0:0|3:0|3:0,0:0:0:0:
298,29,80292,2,0,P|257:18|202:24,1,90,10|0,0:0|3:0,0:0:0:0:
141,80,80617,6,0,L|150:179,1,90,6|0,3:0|0:0,0:0:0:0:
171,256,80941,1,10,0:0:0:0:
236,194,81103,1,2,1:2:0:0:
258,281,81265,1,2,3:2:0:0:
323,219,81427,1,2,1:2:0:0:
345,306,81589,1,10,0:0:0:0:
410,244,81752,1,2,1:2:0:0:
432,331,81914,5,2,3:2:0:0:
345,306,82076,1,2,1:2:0:0:
410,244,82238,1,10,0:0:0:0:
323,219,82400,1,2,1:2:0:0:
388,157,82563,2,0,P|454:165|486:197,1,90,2|0,3:2|0:0,0:0:0:0:
323,219,82887,1,10,0:0:0:0:
301,132,83049,1,2,0:0:0:0:
279,45,83211,6,0,P|238:29|182:39,1,90,6|0,3:0|0:0,0:0:0:0:
130,99,83536,1,10,0:0:0:0:
216,122,83698,1,2,1:2:0:0:
153,187,83860,1,2,3:2:0:0:
239,210,84022,1,2,1:2:0:0:
176,275,84184,1,10,0:0:0:0:
262,298,84346,1,2,1:2:0:0:
199,363,84509,5,2,3:2:0:0:
176,275,84671,1,2,1:2:0:0:
262,298,84833,1,8,0:0:0:0:
239,210,84995,1,2,1:2:0:0:
176,275,85157,1,2,3:2:0:0:
153,187,85319,2,0,L|140:131,1,45,8|0,0:0|0:0,0:0:0:0:
239,210,85481,2,0,L|337:216,1,90,10|2,0:0|0:0,0:0:0:0:
389,148,85806,6,0,L|487:142,1,90,6|0,3:0|0:0,0:0:0:0:
473,52,86130,1,10,0:0:0:0:
384,58,86292,1,2,1:2:0:0:
389,148,86454,1,2,3:2:0:0:
300,154,86616,1,2,1:2:0:0:
295,64,86779,1,10,0:0:0:0:
206,70,86941,1,2,1:2:0:0:
211,160,87103,5,6,3:0:0:0:
300,154,87265,1,0,1:2:0:0:
216,250,87427,1,10,0:0:0:0:
305,244,87589,1,2,1:2:0:0:
221,340,87752,1,2,3:2:0:0:
394,238,87914,1,2,1:2:0:0:
211,160,88076,2,0,L|121:165,1,90,10|0,0:0|0:0,0:0:0:0:
295,64,88400,6,0,L|384:69,1,90,6|0,3:0|0:0,0:0:0:0:
475,73,88725,2,0,P|442:126|456:216,1,135,10|0,0:0|0:0,0:0:0:0:
475,230,89049,2,0,P|425:244|401:280,1,90,2|0,3:2|0:0,0:0:0:0:
396,362,89373,2,0,P|369:307|279:301,1,135,10|0,0:0|0:0,0:0:0:0:
259,309,89698,5,6,3:0:0:0:
191,249,89860,1,8,0:0:0:0:
180,229,89941,1,8,0:0:0:0:
174,207,90022,1,10,0:0:0:0:
172,185,90103,1,8,0:0:0:0:
176,162,90184,1,8,0:0:0:0:
183,141,90265,1,8,0:0:0:0:
195,122,90346,6,0,P|214:98|233:89,1,45,10|8,0:0|0:0,0:0:0:0:
310,148,90509,2,0,P|291:172|272:181,1,45,10|8,0:0|0:0,0:0:0:0:
169,101,90671,2,0,P|188:77|207:68,1,45,10|8,0:0|0:0,0:0:0:0:
333,165,90834,2,0,P|314:189|295:198,1,45,10|8,0:0|0:0,0:0:0:0:
312,53,90995,6,0,L|503:28,1,180,6|10,3:0|0:0,0:0:0:0:
493,119,91481,2,0,P|465:154|461:201,1,90,0|0,0:0|3:0,0:0:0:0:
470,287,91806,2,0,L|372:274,1,90,2|8,0:0|0:0,0:0:0:0:
300,315,92130,1,2,0:0:0:0:
265,231,92292,6,0,B|280:186|280:186|271:125,1,90,2|0,3:2|0:0,0:0:0:0:
254,55,92617,2,0,B|206:82|206:82|94:50,1,135,10|0,0:0|0:0,0:0:0:0:
86,47,92941,1,2,3:2:0:0:
33,119,93103,1,2,0:0:0:0:
105,171,93265,1,10,0:0:0:0:
52,243,93427,1,2,0:0:0:0:
124,295,93590,6,0,B|180:336|180:336|305:309,1,180,6|10,3:0|0:0,0:0:0:0:
377,300,94076,2,0,P|359:249|372:204,1,90,2|0,0:0|3:0,0:0:0:0:
430,151,94400,2,0,P|448:100|435:55,1,90,2|8,0:0|0:0,0:0:0:0:
365,16,94725,1,0,0:0:0:0:
319,93,94887,6,0,B|280:119|280:119|216:114,1,90,2|0,3:2|0:0,0:0:0:0:
159,69,95211,1,10,0:0:0:0:
101,138,95373,2,0,L|90:320,1,180,2|10,0:0|0:0,0:0:0:0:
166,366,95860,1,10,0:0:0:0:
170,276,96022,1,2,0:0:0:0:
246,325,96184,6,0,P|286:351|345:344,1,90,6|0,3:0|0:0,0:0:0:0:
397,293,96509,1,10,0:0:0:0:
311,261,96671,2,0,P|297:215|310:166,1,90,2|0,0:0|3:0,0:0:0:0:
382,128,96995,2,0,P|396:82|383:33,1,90,2|8,0:0|0:0,0:0:0:0:
304,7,97319,1,2,0:0:0:0:
257,84,97481,6,0,L|156:79,1,90,0|0,3:0|0:0,0:0:0:0:
84,117,97806,1,10,0:0:0:0:
157,168,97968,1,2,0:0:0:0:
74,206,98130,1,0,3:0:0:0:
147,257,98292,1,2,0:0:0:0:
64,295,98454,1,10,0:0:0:0:
157,168,98617,1,0,0:0:0:0:
220,312,98779,6,0,L|309:316,1,90,6|0,3:0|0:0,0:0:0:0:
394,347,99103,2,0,P|385:291|443:235,1,135,10|0,0:0|0:0,0:0:0:0:
467,206,99427,2,0,P|411:192|384:152,1,90,2|0,3:2|0:0,0:0:0:0:
391,78,99752,2,0,P|363:136|273:132,1,135,10|0,0:0|0:0,0:0:0:0:
258,124,100076,6,0,P|266:192|249:220,1,90,12|0,3:0|0:0,0:0:0:0:
266,253,100319,1,0,0:0:0:0:
266,253,100400,2,0,P|211:293|178:293,1,90,12|0,0:0|0:0,0:0:0:0:
158,324,100644,1,0,0:0:0:0:
158,324,100725,1,2,3:2:0:0:
78,307,100887,1,10,0:0:0:0:
78,307,100968,1,8,0:0:0:0:
78,307,101049,1,10,0:0:0:0:
135,237,101211,1,10,0:0:0:0:
48,213,101373,5,6,3:0:0:0:
112,150,101536,2,0,P|163:152|197:172,1,90,0|8,0:0|0:0,0:0:0:0:
218,258,101860,2,0,P|167:256|133:236,1,90,2|0,0:0|3:0,0:0:0:0:
283,195,102184,2,0,P|306:240|306:279,1,90,2|8,0:0|0:0,0:0:0:0:
196,171,102509,1,0,0:0:0:0:
261,108,102671,6,0,P|312:109|346:130,1,90,2|0,3:2|0:0,0:0:0:0:
370,219,102995,1,10,0:0:0:0:
283,195,103157,1,2,0:0:0:0:
196,171,103319,1,2,3:2:0:0:
261,108,103481,1,2,0:0:0:0:
283,195,103644,1,10,0:0:0:0:
218,258,103806,1,2,0:0:0:0:
131,234,103968,5,2,3:2:0:0:
196,171,104130,2,0,L|293:198,1,90,2|8,0:0|0:0,0:0:0:0:
317,278,104454,2,0,L|414:251,1,90,2|0,0:0|0:0,0:0:0:0:
491,232,104779,2,0,P|471:183|476:125,1,90,2|8,0:0|0:0,0:0:0:0:
495,60,105103,1,2,0:0:0:0:
406,44,105265,6,0,L|303:38,1,90,2|0,3:2|0:0,0:0:0:0:
226,32,105590,1,10,0:0:0:0:
220,122,105752,2,0,L|215:212,1,90,2|0,0:0|3:0,0:0:0:0:
262,288,106076,2,0,P|299:244|304:200,1,90,8|0,0:0|0:0,0:0:0:0:
172,290,106400,1,8,0:0:0:0:
219,366,106563,6,0,P|275:376|316:358,1,90,6|0,3:0|0:0,0:0:0:0:
395,364,106887,1,10,0:0:0:0:
348,287,107049,2,0,P|291:276|250:294,1,90,2|0,0:0|3:0,0:0:0:0:
172,290,107373,2,0,P|188:240|182:190,1,90,2|8,0:0|0:0,0:0:0:0:
120,140,107698,1,2,0:0:0:0:
193,88,107860,6,0,L|303:98,1,90,0|0,3:2|0:0,0:0:0:0:
364,132,108184,1,10,0:0:0:0:
292,186,108346,1,2,0:0:0:0:
374,222,108509,1,0,3:0:0:0:
302,276,108671,1,2,0:0:0:0:
384,312,108833,1,8,0:0:0:0:
220,240,108995,1,2,0:0:0:0:
374,222,109157,6,0,L|488:218,1,90,2|0,3:2|0:0,0:0:0:0:
505,139,109481,2,0,P|458:129|426:39,1,135,10|0,0:0|0:0,0:0:0:0:
419,10,109806,2,0,P|380:44|328:48,1,90,2|8,3:2|0:0,0:0:0:0:
328,33,110049,1,8,0:0:0:0:
306,25,110130,1,10,0:0:0:0:
283,23,110211,1,0,3:0:0:0:
260,24,110292,2,0,L|207:30,1,45,0|0,3:0|3:0,0:0:0:0:
173,109,110454,5,10,0:0:0:0:
184,128,110535,1,8,0:0:0:0:
192,149,110616,1,8,0:0:0:0:
195,171,110697,1,8,0:0:0:0:
192,192,110779,2,0,P|190:214|183:235,1,45,0|0,3:0|0:0,0:0:0:0:
110,276,110941,2,0,P|102:254|101:232,1,45,0|0,3:0|0:0,0:0:0:0:
182,321,111103,5,10,0:0:0:0:
167,338,111184,1,8,0:0:0:0:
149,351,111265,1,0,3:0:0:0:
128,359,111346,1,0,3:0:0:0:
106,361,111427,1,8,0:0:0:0:
84,357,111508,1,8,0:0:0:0:
64,348,111589,1,0,3:0:0:0:
47,333,111671,1,0,3:0:0:0:
35,315,111752,6,0,P|19:275|24:207,1,90,6|0,3:2|0:0,0:0:0:0:
90,175,112076,2,0,P|106:135|101:67,1,90,10|0,0:0|0:0,0:0:0:0:
86,1,112400,2,0,L|198:13,1,90,10|8,3:2|0:0,0:0:0:0:
216,91,112725,2,0,L|328:79,1,90,10|0,0:0|0:0,0:0:0:0:
388,115,113049,5,2,3:2:0:0:
317,170,113211,1,0,0:0:0:0:
400,204,113373,2,0,L|404:298,1,90,10|2,0:0|0:0,0:0:0:0:
338,356,113698,1,2,3:3:0:0:
338,356,113779,1,2,0:3:0:0:
338,356,113860,1,2,0:0:0:0:
289,280,114022,1,10,0:0:0:0:
224,343,114184,1,2,0:0:0:0:
175,267,114346,6,0,L|171:177,1,90,6|0,3:2|0:0,0:0:0:0:
88,140,114671,2,0,L|91:50,1,90,10|0,0:0|0:0,0:0:0:0:
172,9,114995,1,2,3:2:0:0:
219,85,115157,1,0,0:0:0:0:
300,44,115319,2,0,P|345:29|397:34,1,90,10|0,0:0|0:0,0:0:0:0:
455,90,115644,6,0,B|443:136|443:136|459:188,1,90,10|0,3:2|0:0,0:0:0:0:
366,165,115968,2,0,B|378:211|378:211|362:263,1,90,10|2,0:0|0:0,0:0:0:0:
294,306,116292,1,2,3:0:0:0:
294,306,116373,1,2,0:3:0:0:
294,306,116454,2,0,L|226:298,1,45,10|0,0:0|0:0,0:0:0:0:
159,293,116617,2,0,P|177:249|172:203,1,90,10|0,0:0|0:0,0:0:0:0:
107,148,116941,5,4,3:2:0:0:
88,235,117103,1,0,0:0:0:0:
173,207,117265,2,0,L|272:202,1,90,10|0,0:0|0:0,0:0:0:0:
351,197,117590,1,2,3:2:0:0:
304,122,117752,1,0,0:0:0:0:
263,202,117914,1,10,0:0:0:0:
215,127,118076,1,0,0:0:0:0:
173,207,118238,6,0,L|178:306,1,90,10|0,3:2|0:0,0:0:0:0:
268,292,118563,2,0,L|263:202,1,90,10|0,0:0|0:0,0:0:0:0:
222,134,118887,1,2,3:0:0:0:
222,134,118968,1,2,0:3:0:0:
222,134,119049,1,2,0:0:0:0:
173,207,119211,1,8,0:0:0:0:
125,131,119373,1,0,0:0:0:0:
83,211,119536,6,0,L|87:300,1,90,6|0,3:2|0:0,0:0:0:0:
145,369,119860,2,0,P|178:338|236:335,1,90,8|0,0:0|0:0,0:0:0:0:
304,364,120184,1,0,3:0:0:0:
316,275,120346,1,8,0:0:0:0:
400,308,120509,2,0,L|499:314,1,90,8|0,0:0|0:0,0:0:0:0:
469,225,120833,6,0,P|452:174|459:129,1,90,2|0,3:2|0:0,0:0:0:0:
471,50,121157,2,0,P|430:64|378:61,1,90,10|0,0:0|0:0,0:0:0:0:
302,25,121481,1,2,3:0:0:0:
302,25,121563,1,2,0:3:0:0:
302,25,121644,1,0,0:0:0:0:
280,112,121806,1,8,0:0:0:0:
199,75,121968,1,0,0:0:0:0:
177,162,122130,6,0,L|174:251,1,90,6|0,3:2|0:0,0:0:0:0:
171,339,122454,2,0,L|260:341,1,90,10|0,0:0|0:0,0:0:0:0:
349,343,122779,1,2,3:2:0:0:
352,254,122941,1,0,0:0:0:0:
261,341,123103,1,10,0:0:0:0:
263,251,123265,1,0,0:0:0:0:
265,161,123427,6,0,L|267:71,1,90,2|0,3:2|0:0,0:0:0:0:
177,162,123752,2,0,L|174:251,1,90,10|2,0:0|0:0,0:0:0:0:
87,158,124076,1,2,3:3:0:0:
87,158,124157,1,2,0:3:0:0:
87,158,124238,1,2,0:0:0:0:
89,69,124400,1,10,0:0:0:0:
179,72,124563,1,2,0:0:0:0:
177,162,124725,6,0,L|174:251,1,90,6|0,3:2|0:0,0:0:0:0:
261,341,125049,2,0,L|263:251,1,90,10|0,0:0|0:0,0:0:0:0:
265,161,125373,1,2,3:2:0:0:
352,254,125536,1,0,0:0:0:0:
355,164,125698,1,10,0:0:0:0:
263,251,125860,1,0,0:0:0:0:
265,161,126022,6,0,L|267:71,1,90,2|0,3:2|0:0,0:0:0:0:
179,72,126346,2,0,L|89:69,1,90,10|2,0:0|0:0,0:0:0:0:
87,158,126671,1,2,3:0:0:0:
87,158,126752,1,2,0:3:0:0:
87,158,126833,2,0,L|85:202,1,45,10|0,0:0|0:0,0:0:0:0:
81,293,126995,2,0,P|133:315|178:309,1,90,10|0,0:0|0:0,0:0:0:0:
255,309,127319,6,0,P|244:254|254:213,1,90,4|0,3:2|0:0,0:0:0:0:
327,173,127644,2,0,P|338:118|328:77,1,90,10|0,0:0|0:0,0:0:0:0:
256,35,127968,1,2,3:2:0:0:
227,120,128130,1,0,0:0:0:0:
152,70,128292,2,0,L|51:62,1,90,10|0,0:0|0:0,0:0:0:0:
54,151,128617,6,0,L|46:240,1,90,2|0,3:2|0:0,0:0:0:0:
137,247,128941,2,0,L|238:255,1,90,10|2,0:0|0:0,0:0:0:0:
322,268,129265,1,2,3:0:0:0:
322,268,129346,1,2,0:3:0:0:
322,268,129427,1,2,0:0:0:0:
277,180,129590,1,10,0:0:0:0:
227,254,129752,1,0,0:0:0:0:
187,173,129914,6,0,L|185:75,1,90,6|0,3:2|0:0,0:0:0:0:
239,11,130238,2,0,P|276:32|338:27,1,90,8|0,0:0|0:0,0:0:0:0:
382,100,130563,2,0,P|419:79|481:84,1,90,0|8,3:0|0:0,0:0:0:0:
498,162,130887,2,0,P|482:205|489:253,1,90,8|0,0:0|0:0,0:0:0:0:
506,335,131211,6,0,L|454:331,1,45,8|0,0:0|0:0,0:0:0:0:
395,271,131373,1,8,0:0:0:0:
372,272,131454,1,8,0:0:0:0:
350,274,131535,1,8,0:0:0:0:
327,276,131616,1,8,0:0:0:0:
305,277,131698,2,0,L|253:281,1,45,8|8,0:0|0:0,0:0:0:0:
198,345,131860,1,8,0:0:0:0:
175,344,131941,1,8,0:0:0:0:
153,342,132022,1,10,0:0:0:0:
130,340,132103,1,8,0:0:0:0:
108,339,132185,2,0,L|56:335,1,45,10|8,0:0|0:0,0:0:0:0:
11,263,132346,5,10,0:0:0:0:
