osu file format v14

[General]
AudioFilename: audio.mp3
AudioLeadIn: 0
PreviewTime: 69833
Countdown: 0
SampleSet: Soft
StackLeniency: 0.5
Mode: 0
LetterboxInBreaks: 0
WidescreenStoryboard: 0

[Editor]
Bookmarks: 44292,111752
DistanceSpacing: 0.1
BeatDivisor: 4
GridSize: 32
TimelineZoom: 1.5

[Metadata]
Title:Teo
TitleUnicode:テオ
Artist:Araki
ArtistUnicode:あらき
Creator:Nevo
Version:Descent
Source:
Tags:byd bite you death Akitoshi -Laura- armin a_r_m_i_n snownino shunao shogunmoon ultaite cover vocaloid hatsune miku synth rock
BeatmapID:1596706
BeatmapSetID:759178

[Difficulty]
HPDrainRate:6
CircleSize:4
OverallDifficulty:9
ApproachRate:9.3
SliderMultiplier:1.7
SliderTickRate:1

[Events]
//Background and Video events
0,0,"anime-girl-falling-down-clouds-sky-school-uniform.jpg",0,0
//Break Periods
//Storyboard Layer 0 (Background)
//Storyboard Layer 1 (Fail)
//Storyboard Layer 2 (Pass)
//Storyboard Layer 3 (Foreground)
//Storyboard Sound Samples

[TimingPoints]
1482,324.324324324324,4,2,2,40,1,0
1482,-133.333333333333,4,2,2,40,0,0
3022,-100,4,2,2,5,0,0
3103,-66.6666666666667,4,2,2,40,0,0
3346,-66.6666666666667,4,2,2,5,0,0
3427,-133.333333333333,4,2,2,40,0,0
3752,-66.6666666666667,4,2,2,40,0,0
3995,-66.6666666666667,4,2,2,5,0,0
4076,-133.333333333333,4,2,2,40,0,0
4400,-66.6666666666667,4,2,2,40,0,0
4644,-66.6666666666667,4,2,2,5,0,0
4725,-133.333333333333,4,2,2,40,0,0
5049,-66.6666666666667,4,2,2,40,0,0
5292,-66.6666666666667,4,2,2,5,0,0
5373,-133.333333333333,4,2,2,40,0,0
5698,-66.6666666666667,4,2,2,40,0,0
5941,-66.6666666666667,4,2,2,5,0,0
6022,-133.333333333333,4,2,2,40,0,0
6346,-66.6666666666667,4,2,2,40,0,0
6590,-66.6666666666667,4,2,2,5,0,0
6671,-133.333333333333,4,2,2,40,0,0
6995,-66.6666666666667,4,2,2,40,0,0
7644,-100,4,2,2,40,0,0
11860,-100,4,2,2,50,0,0
12022,-100,4,2,2,5,0,0
12103,-100,4,2,2,50,0,0
12265,-100,4,2,2,5,0,0
12346,-100,4,2,2,50,0,0
12509,-100,4,2,2,5,0,0
12671,-100,4,2,2,60,0,0
13157,-83.3333333333333,4,2,2,65,0,0
13400,-83.3333333333333,4,2,2,5,0,0
13481,-83.3333333333333,4,2,2,65,0,0
13725,-83.3333333333333,4,2,2,5,0,0
13806,-83.3333333333333,4,2,2,65,0,0
14049,-83.3333333333333,4,2,2,5,0,0
14130,-83.3333333333333,4,2,2,65,0,0
14373,-83.3333333333333,4,2,2,5,0,0
14454,-83.3333333333333,4,2,2,65,0,0
14698,-83.3333333333333,4,2,2,5,0,0
14779,-83.3333333333333,4,2,2,65,0,0
15995,-83.3333333333333,4,2,2,5,0,0
16076,-83.3333333333333,4,2,2,65,0,0
16319,-83.3333333333333,4,2,2,5,0,0
16400,-83.3333333333333,4,2,2,65,0,0
16644,-83.3333333333333,4,2,2,5,0,0
16725,-83.3333333333333,4,2,2,65,0,0
16968,-83.3333333333333,4,2,2,5,0,0
17049,-83.3333333333333,4,2,2,65,0,0
17292,-83.3333333333333,4,2,2,5,0,0
17373,-83.3333333333333,4,2,2,65,0,0
18265,-83.3333333333333,4,2,2,5,0,0
18346,-83.3333333333333,4,2,2,65,0,0
18590,-83.3333333333333,4,2,2,5,0,0
18671,-83.3333333333333,4,2,2,65,0,0
18914,-83.3333333333333,4,2,2,5,0,0
18995,-83.3333333333333,4,2,2,65,0,0
19238,-83.3333333333333,4,2,2,5,0,0
19319,-83.3333333333333,4,2,2,65,0,0
19563,-83.3333333333333,4,2,2,5,0,0
19644,-83.3333333333333,4,2,2,65,0,0
19887,-83.3333333333333,4,2,2,5,0,0
19968,-83.3333333333333,4,2,2,65,0,0
21184,-83.3333333333333,4,2,2,5,0,0
21265,-83.3333333333333,4,2,2,65,0,0
23536,-100,4,2,2,60,0,0
28157,-100,4,2,2,5,0,0
28238,-100,4,2,2,60,0,0
28563,-100,4,2,3,60,0,0
29617,-100,4,2,3,5,0,0
29698,-100,4,2,3,60,0,0
30265,-100,4,2,3,5,0,0
30346,-100,4,2,3,60,0,0
31238,-100,4,2,3,5,0,0
31319,-100,4,2,3,60,0,0
31563,-100,4,2,3,5,0,0
31644,-100,4,2,3,60,0,0
32049,-100,4,2,3,5,0,0
32130,-100,4,2,3,60,0,0
32617,-100,4,2,2,60,0,0
35454,-100,4,2,2,5,0,0
35536,-100,4,2,2,60,0,0
37725,-100,4,2,2,5,0,0
37806,-100,4,2,2,60,0,0
38536,-100,4,2,2,5,0,0
38617,-100,4,2,2,60,0,0
40644,-100,4,2,2,5,0,0
40725,-100,4,2,2,60,0,0
40968,-100,4,2,2,5,0,0
41049,-100,4,2,2,60,0,0
41292,-100,4,2,2,5,0,0
41373,-100,4,2,2,60,0,0
41617,-100,4,2,2,5,0,0
41698,-100,4,2,2,60,0,0
41941,-100,4,2,2,5,0,0
42022,-100,4,2,2,60,0,0
42265,-100,4,2,2,5,0,0
42346,-100,4,2,2,60,0,0
42590,-100,4,2,2,5,0,0
42671,-100,4,2,2,60,0,0
42914,-100,4,2,2,5,0,0
42995,-100,4,2,2,60,0,0
44292,-83.3333333333333,4,2,2,65,0,0
44536,-83.3333333333333,4,2,2,5,0,0
44617,-83.3333333333333,4,2,2,65,0,0
44860,-83.3333333333333,4,2,2,5,0,0
44941,-83.3333333333333,4,2,2,65,0,0
45184,-83.3333333333333,4,2,2,5,0,0
45265,-83.3333333333333,4,2,2,65,0,0
45509,-83.3333333333333,4,2,2,5,0,0
45590,-83.3333333333333,4,2,2,65,0,0
45833,-83.3333333333333,4,2,2,5,0,0
45914,-83.3333333333333,4,2,2,65,0,0
47130,-83.3333333333333,4,2,2,5,0,0
47211,-83.3333333333333,4,2,2,65,0,0
47454,-83.3333333333333,4,2,2,5,0,0
47536,-83.3333333333333,4,2,2,65,0,0
47779,-83.3333333333333,4,2,2,5,0,0
47860,-83.3333333333333,4,2,2,65,0,0
49481,-100,4,2,2,60,0,0
53617,-100,4,2,2,5,0,0
53698,-100,4,2,2,60,0,0
54103,-100,4,2,2,5,0,0
54184,-100,4,2,2,60,0,0
54671,-100,4,2,3,60,0,0
55968,-100,4,2,2,60,0,0
56211,-100,4,2,2,5,0,0
56292,-100,4,2,2,60,0,0
57184,-100,4,2,2,5,0,0
57265,-100,4,2,2,60,0,0
57509,-100,4,2,2,5,0,0
57590,-100,4,2,2,60,0,0
61400,-100,4,2,2,5,0,0
61481,-100,4,2,2,60,0,0
62698,-100,4,2,2,5,0,0
62779,-100,4,2,2,60,0,0
63022,-100,4,2,2,5,0,0
63103,-100,4,2,2,60,0,0
63346,-100,4,2,2,5,0,0
63427,-100,4,2,2,60,0,0
63671,-100,4,2,2,5,0,0
63752,-100,4,2,2,60,0,0
65049,-100,4,2,3,60,0,0
66590,-100,4,2,3,5,0,0
66671,-100,4,2,3,60,0,0
66914,-100,4,2,3,5,0,0
66995,-100,4,2,3,60,0,0
69590,-83.3333333333333,4,2,3,60,0,0
69914,-133.333333333333,4,2,3,60,0,0
70238,-71.4285714285714,4,2,3,80,0,1
70481,-71.4285714285714,4,2,3,5,0,1
70563,-71.4285714285714,4,2,3,80,0,1
72427,-71.4285714285714,4,2,3,5,0,1
72509,-71.4285714285714,4,2,3,80,0,1
73076,-71.4285714285714,4,2,3,5,0,1
73157,-71.4285714285714,4,2,3,70,0,1
75671,-71.4285714285714,4,2,3,5,0,1
75752,-71.4285714285714,4,2,3,70,0,1
77617,-71.4285714285714,4,2,3,5,0,1
77698,-71.4285714285714,4,2,3,70,0,1
78265,-71.4285714285714,4,2,3,5,0,1
78346,-71.4285714285714,4,2,3,70,0,1
78590,-71.4285714285714,4,2,3,5,0,1
78671,-71.4285714285714,4,2,3,70,0,1
78833,-71.4285714285714,4,2,2,70,0,1
79968,-71.4285714285714,4,2,2,80,0,1
80536,-71.4285714285714,4,2,2,70,0,1
80617,-71.4285714285714,4,2,3,80,0,1
80860,-71.4285714285714,4,2,3,5,0,1
80941,-71.4285714285714,4,2,3,80,0,1
82806,-71.4285714285714,4,2,3,5,0,1
82887,-71.4285714285714,4,2,3,80,0,1
83454,-71.4285714285714,4,2,3,5,0,1
83536,-71.4285714285714,4,2,3,80,0,1
86049,-71.4285714285714,4,2,3,5,0,1
86130,-71.4285714285714,4,2,3,80,0,1
88319,-71.4285714285714,4,2,3,5,0,1
88400,-71.4285714285714,4,2,3,80,0,1
88644,-71.4285714285714,4,2,3,5,0,1
88725,-71.4285714285714,4,2,3,80,0,1
88968,-71.4285714285714,4,2,3,5,0,1
89049,-71.4285714285714,4,2,3,80,0,1
89292,-71.4285714285714,4,2,3,5,0,1
89373,-71.4285714285714,4,2,3,80,0,1
89617,-71.4285714285714,4,2,3,5,0,1
89698,-71.4285714285714,4,2,3,80,0,1
89860,-71.4285714285714,4,2,2,80,0,1
90995,-83.3333333333333,4,2,3,80,0,0
100725,-83.3333333333333,4,2,2,80,0,0
101373,-83.3333333333333,4,2,3,80,0,0
109968,-83.3333333333333,4,2,2,80,0,0
111752,-83.3333333333333,4,2,3,65,0,0
111995,-83.3333333333333,4,2,3,5,0,0
112076,-83.3333333333333,4,2,2,65,0,0
112319,-83.3333333333333,4,2,2,5,0,0
112400,-83.3333333333333,4,2,2,65,0,0
112644,-83.3333333333333,4,2,2,5,0,0
112725,-83.3333333333333,4,2,2,65,0,0
112968,-83.3333333333333,4,2,2,5,0,0
113049,-83.3333333333333,4,2,2,65,0,0
113292,-83.3333333333333,4,2,2,5,0,0
113373,-83.3333333333333,4,2,2,65,0,0
114590,-83.3333333333333,4,2,2,5,0,0
114671,-83.3333333333333,4,2,2,65,0,0
114915,-83.3333333333333,4,2,2,5,0,0
114996,-83.3333333333333,4,2,2,65,0,0
115239,-83.3333333333333,4,2,2,5,0,0
115320,-83.3333333333333,4,2,2,65,0,0
115563,-83.3333333333333,4,2,2,5,0,0
115644,-83.3333333333333,4,2,2,65,0,0
115888,-83.3333333333333,4,2,2,5,0,0
115969,-83.3333333333333,4,2,2,65,0,0
117185,-83.3333333333333,4,2,2,5,0,0
117266,-83.3333333333333,4,2,2,65,0,0
117509,-83.3333333333333,4,2,2,5,0,0
117590,-83.3333333333333,4,2,2,65,0,0
117834,-83.3333333333333,4,2,2,5,0,0
117915,-83.3333333333333,4,2,2,65,0,0
118158,-83.3333333333333,4,2,2,5,0,0
118239,-83.3333333333333,4,2,2,65,0,0
118482,-83.3333333333333,4,2,2,5,0,0
118563,-83.3333333333333,4,2,2,65,0,0
119455,-83.3333333333333,4,2,2,65,0,0
119536,-83.3333333333333,4,2,2,65,0,0
119780,-83.3333333333333,4,2,2,5,0,0
119861,-83.3333333333333,4,2,2,65,0,0
120104,-83.3333333333333,4,2,2,65,0,0
120185,-83.3333333333333,4,2,2,65,0,0
120428,-83.3333333333333,4,2,2,65,0,0
120509,-83.3333333333333,4,2,2,65,0,0
120753,-83.3333333333333,4,2,2,65,0,0
120834,-83.3333333333333,4,2,2,65,0,0
121077,-83.3333333333333,4,2,2,65,0,0
121158,-83.3333333333333,4,2,2,65,0,0
122374,-83.3333333333333,4,2,2,5,0,0
122455,-83.3333333333333,4,2,2,65,0,0
122698,-83.3333333333333,4,2,2,5,0,0
122779,-83.3333333333333,4,2,2,65,0,0
123022,-83.3333333333333,4,2,2,5,0,0
123103,-83.3333333333333,4,2,2,65,0,0
123346,-83.3333333333333,4,2,2,5,0,0
123427,-83.3333333333333,4,2,2,65,0,0
123671,-83.3333333333333,4,2,2,5,0,0
123752,-83.3333333333333,4,2,2,65,0,0
124726,-83.3333333333333,4,2,2,65,0,0
124968,-83.3333333333333,4,2,2,5,0,0
125049,-83.3333333333333,4,2,2,65,0,0
125292,-83.3333333333333,4,2,2,5,0,0
125373,-83.3333333333333,4,2,2,65,0,0
125617,-83.3333333333333,4,2,2,5,0,0
125698,-83.3333333333333,4,2,2,65,0,0
125941,-83.3333333333333,4,2,2,5,0,0
126022,-83.3333333333333,4,2,2,65,0,0
126265,-83.3333333333333,4,2,2,5,0,0
126346,-83.3333333333333,4,2,2,65,0,0
127238,-83.3333333333333,4,2,2,5,0,0
127319,-83.3333333333333,4,2,2,65,0,0
127563,-83.3333333333333,4,2,2,5,0,0
127644,-83.3333333333333,4,2,2,65,0,0
127887,-83.3333333333333,4,2,2,5,0,0
127968,-83.3333333333333,4,2,2,65,0,0
128211,-83.3333333333333,4,2,2,5,0,0
128292,-83.3333333333333,4,2,2,65,0,0
128536,-83.3333333333333,4,2,2,5,0,0
128617,-83.3333333333333,4,2,2,65,0,0
128860,-83.3333333333333,4,2,2,5,0,0
128941,-83.3333333333333,4,2,2,65,0,0
129347,-83.3333333333333,4,2,2,65,0,0
129428,-83.3333333333333,4,2,2,65,0,0
129753,-83.3333333333333,4,2,2,65,0,0
129915,-83.3333333333333,4,2,3,65,0,0
130157,-83.3333333333333,4,2,2,5,0,0
130238,-83.3333333333333,4,2,3,65,0,0
130807,-83.3333333333333,4,2,3,65,0,0
130888,-83.3333333333333,4,2,3,65,0,0
131455,-83.3333333333333,4,2,3,65,0,0
131536,-83.3333333333333,4,2,3,65,0,0

[Colours]
Combo1 : 192,192,192
Combo2 : 0,255,255
Combo3 : 0,128,192

[HitObjects]
56,103,2617,5,8,0:3:0:0:
56,103,2698,1,8,0:3:0:0:
56,103,2779,2,0,L|64:206,1,95.6250036478044,4|0,3:2|0:0,0:0:0:0:
104,268,3103,2,0,L|91:132,1,127.500004863739,8|0,0:0|0:0,0:0:0:0:
246,47,3427,2,0,L|237:150,1,95.6250036478044,0|0,3:0|0:0,0:0:0:0:
198,212,3752,2,0,L|210:76,1,127.500004863739,8|0,0:0|0:0,0:0:0:0:
366,325,4076,6,0,P|318:308|257:322,1,95.6250036478044,0|0,3:0|0:0,0:0:0:0:
194,318,4400,2,0,P|253:284|321:281,1,127.500004863739,8|0,0:0|0:0,0:0:0:0:
466,157,4725,2,0,P|418:174|357:160,1,95.6250036478044,0|0,3:0|0:0,0:0:0:0:
294,164,5049,2,0,P|353:197|421:200,1,127.500004863739,8|0,0:0|0:0,0:0:0:0:
246,47,5373,6,0,B|188:40|188:40|149:55,1,95.6250036478044,0|0,3:0|0:0,0:0:0:0:
80,128,5698,2,0,B|164:138|164:138|221:116,1,127.500004863739,8|0,0:0|0:0,0:0:0:0:
249,312,6022,2,0,B|191:319|191:319|152:304,1,95.6250036478044,0|0,3:0|0:0,0:0:0:0:
83,231,6347,2,0,B|167:220|167:220|224:242,1,127.500004863739,8|0,0:0|0:0,0:0:0:0:
387,344,6671,6,0,L|378:240,1,95.6250036478044,0|0,3:0|0:0,0:0:0:0:
339,179,6995,2,0,L|351:314,1,127.500004863739,8|0,0:0|0:0,0:0:0:0:
207,235,7319,1,0,3:0:0:0:
438,192,7481,1,8,0:0:0:0:
267,95,7644,1,8,0:0:0:0:
237,364,7806,1,8,0:0:0:0:
237,364,7887,1,8,0:0:0:0:
237,364,7968,6,0,L|141:359,1,85,4|0,3:2|0:0,0:0:0:0:
0,223,8292,1,8,0:0:0:0:
119,220,8454,1,0,0:0:0:0:
65,361,8617,2,0,L|60:265,1,85,0|0,3:0|0:0,0:0:0:0:
244,194,8941,2,0,L|239:290,1,85,8|0,0:0|0:0,0:0:0:0:
61,160,9265,5,0,3:0:0:0:
172,153,9427,1,0,0:0:0:0:
119,11,9590,2,0,L|114:107,1,85,8|0,0:0|0:0,0:0:0:0:
104,280,9914,1,0,3:0:0:0:
61,160,10076,1,0,0:0:0:0:
10,311,10238,1,8,0:0:0:0:
194,246,10400,1,0,0:0:0:0:
108,364,10563,6,0,L|104:280,1,85,0|0,3:0|0:0,0:0:0:0:
90,84,10887,1,8,0:0:0:0:
34,233,11049,1,0,0:0:0:0:
246,174,11211,2,0,P|202:158|139:181,1,85,0|0,3:0|0:0,0:0:0:0:
235,320,11536,2,0,L|309:323,2,42.5,8|8|8,0:0|0:0|0:0,0:0:0:0:
10,311,11860,5,2,3:2:0:0:
90,84,12103,1,2,3:2:0:0:
235,320,12346,1,2,3:2:0:0:
359,48,12671,6,0,L|370:105,1,42.5,8|8,0:0|0:0,0:0:0:0:
437,129,12833,2,0,L|426:186,1,42.5,8|8,0:0|0:0,0:0:0:0:
359,210,12995,1,8,0:0:0:0:
367,251,13076,1,8,0:0:0:0:
375,293,13157,6,0,L|489:277,1,101.999996887207,6|0,3:2|0:0,0:0:0:0:
246,174,13481,2,0,L|131:158,1,101.999996887207,10|0,0:0|0:0,0:0:0:0:
244,345,13806,2,0,P|280:289|281:255,1,101.999996887207,2|0,3:2|0:0,0:0:0:0:
67,182,14130,2,0,P|31:238|30:272,1,101.999996887207,10|0,0:0|0:0,0:0:0:0:
194,164,14454,6,0,L|239:48,1,101.999996887207,2|0,3:2|0:0,0:0:0:0:
20,96,14779,1,10,0:0:0:0:
103,277,14941,2,0,L|58:161,1,101.999996887207,2|2,0:0|3:3,0:0:0:0:
327,164,15265,1,2,0:0:0:0:
244,345,15427,2,0,L|289:229,1,101.999996887207,10|2,0:0|0:0,0:0:0:0:
6,298,15752,5,6,3:2:0:0:
6,298,16076,2,0,B|74:294|74:294|123:264,1,101.999996887207,10|0,0:0|0:0,0:0:0:0:
244,345,16400,2,0,B|176:349|176:349|127:379,1,101.999996887207,2|0,3:2|0:0,0:0:0:0:
193,160,16725,2,0,L|178:273,1,101.999996887207,10|0,0:0|0:0,0:0:0:0:
33,106,17049,6,0,L|48:219,1,101.999996887207,2|0,3:2|0:0,0:0:0:0:
208,64,17373,1,10,0:0:0:0:
80,284,17536,2,0,L|205:255,1,101.999996887207,2|2,0:0|3:0,0:0:0:0:
432,203,17860,1,10,0:0:0:0:
343,368,18023,2,0,L|243:344,1,101.999996887207,10|0,0:0|0:0,0:0:0:0:
408,294,18346,5,4,3:2:0:0:
408,294,18671,2,0,P|437:243|409:172,1,101.999996887207,10|0,0:0|0:0,0:0:0:0:
288,164,18995,2,0,P|310:209|356:231,1,101.999996887207,2|0,3:2|0:0,0:0:0:0:
459,124,19319,2,0,P|408:121|367:149,1,101.999996887207,10|0,0:0|0:0,0:0:0:0:
243,344,19644,6,0,L|123:337,1,101.999996887207,2|0,3:2|0:0,0:0:0:0:
75,150,19968,1,10,0:0:0:0:
62,330,20130,2,0,L|68:229,1,101.999996887207,2|2,0:0|3:0,0:0:0:0:
243,344,20454,1,2,0:0:0:0:
255,163,20616,2,0,L|249:264,1,101.999996887207,10|0,0:0|0:0,0:0:0:0:
173,109,20941,6,0,P|225:73|306:72,1,101.999996887207,6|0,3:2|0:0,0:0:0:0:
417,128,21265,1,8,0:0:0:0:
255,163,21427,1,0,0:0:0:0:
354,239,21590,1,0,3:0:0:0:
359,49,21752,1,8,0:0:0:0:
173,109,21914,2,0,L|64:101,1,101.999996887207,8|0,0:0|0:0,0:0:0:0:
219,253,22238,6,0,L|286:242,1,50.9999984436036,8|8,0:0|0:0,0:0:0:0:
318,312,22400,2,0,L|357:256,1,50.9999984436036,8|8,0:0|0:0,0:0:0:0:
160,193,22563,5,0,3:0:0:0:
135,236,22644,1,0,3:0:0:0:
140,286,22725,1,2,3:2:0:0:
174,324,22806,1,0,3:0:0:0:
223,335,22887,1,10,0:0:0:0:
252,317,22968,1,8,0:0:0:0:
285,309,23049,1,0,3:0:0:0:
318,312,23130,1,0,3:0:0:0:
332,322,23211,5,10,0:0:0:0:
348,330,23292,1,8,0:0:0:0:
365,335,23373,1,2,3:2:0:0:
383,337,23454,1,0,3:0:0:0:
400,336,23536,6,0,L|414:231,1,85,6|0,3:2|0:0,0:0:0:0:
317,143,23860,2,0,L|331:248,1,85,8|2,0:0|0:0,0:0:0:0:
466,167,24184,1,2,3:2:0:0:
397,125,24346,1,2,3:2:0:0:
479,0,24509,2,0,L|468:84,1,85,10|2,0:0|0:0,0:0:0:0:
264,76,24833,6,0,P|344:62|397:125,1,170,2|8,3:2|0:0,0:0:0:0:
347,310,25319,2,0,L|317:143,1,170,2|0,0:0|3:0,0:0:0:0:
155,234,25806,2,0,L|239:219,1,85,8|2,0:0|0:0,0:0:0:0:
279,352,26130,6,0,L|195:337,1,85,2|0,3:2|0:0,0:0:0:0:
38,304,26454,1,10,0:0:0:0:
119,321,26617,1,2,0:0:0:0:
51,222,26779,1,0,0:0:0:0:
64,382,26941,1,2,3:2:0:0:
126,150,27103,2,0,L|137:235,1,85,8|0,0:0|0:0,0:0:0:0:
14,71,27427,6,0,L|4:156,1,85,2|0,3:2|0:0,0:0:0:0:
51,222,27752,1,10,0:0:0:0:
183,86,27914,2,0,P|137:66|96:69,1,85,2|0,0:0|0:0,0:0:0:0:
206,165,28238,1,8,0:0:0:0:
263,106,28400,1,0,3:0:0:0:
126,150,28563,1,2,1:2:0:0:
216,249,28725,6,0,L|205:164,1,85,6|2,3:2|1:2,0:0:0:0:
291,281,29049,1,10,0:0:0:0:
228,333,29211,1,2,1:2:0:0:
369,308,29373,2,0,L|379:223,1,85,2|0,3:2|0:0,0:0:0:0:
407,61,29698,1,10,0:0:0:0:
313,135,29860,1,2,1:2:0:0:
479,153,30022,6,0,L|394:143,1,85,2|0,3:2|0:0,0:0:0:0:
232,128,30346,1,10,0:0:0:0:
308,218,30509,1,2,1:2:0:0:
313,135,30671,1,2,3:2:0:0:
227,211,30834,1,2,3:2:0:0:
280,59,30995,2,0,P|328:55|372:75,1,85,10|0,0:0|0:0,0:0:0:0:
391,227,31319,6,0,P|370:270|331:298,1,85,0|0,3:0|0:0,0:0:0:0:
166,267,31644,1,10,0:0:0:0:
140,101,31806,2,0,L|149:186,1,85,2|0,1:2|0:0,0:0:0:0:
236,375,32130,2,0,L|245:291,1,85,2|8,3:2|0:0,0:0:0:0:
227,211,32454,1,2,0:0:0:0:
30,243,32617,6,0,B|68:266|68:266|178:253,1,127.5,2|2,3:2|0:3,0:0:0:0:
165,266,32941,1,8,0:0:0:0:
151,176,33103,1,0,0:0:0:0:
284,153,33265,2,0,P|306:188|308:230,1,85,2|0,3:2|3:0,0:0:0:0:
223,341,33590,2,0,L|160:350,1,42.5,8|8,0:0|0:0,0:0:0:0:
105,372,33752,2,0,L|42:362,1,42.5,8|0,0:0|0:0,0:0:0:0:
0,172,33914,6,0,L|89:165,1,85,6|0,3:2|0:0,0:0:0:0:
216,113,34238,1,8,0:0:0:0:
134,106,34400,1,2,0:0:0:0:
165,266,34563,2,0,L|172:182,1,85,2|2,3:2|3:2,0:0:0:0:
297,127,34887,2,0,L|303:211,1,85,10|2,0:0|0:0,0:0:0:0:
420,337,35211,6,0,P|362:290|276:314,1,170,2|10,3:2|0:0,0:0:0:0:
88,257,35698,2,0,P|165:282|231:233,1,170,2|0,0:0|3:0,0:0:0:0:
148,117,36184,2,0,L|153:202,1,85,8|2,0:0|0:0,0:0:0:0:
301,42,36509,6,0,L|296:126,1,85,2|0,3:2|0:0,0:0:0:0:
77,76,36833,1,10,0:0:0:0:
147,34,36995,1,2,0:0:0:0:
78,158,37157,1,0,0:0:0:0:
6,37,37319,1,2,3:2:0:0:
148,117,37481,2,0,L|241:111,1,85,10|0,0:0|0:0,0:0:0:0:
316,237,37806,6,0,L|223:231,1,85,2|0,3:2|0:0,0:0:0:0:
364,170,38130,1,10,0:0:0:0:
350,314,38292,1,2,0:0:0:0:
283,162,38454,1,0,0:0:0:0:
268,303,38617,1,8,0:0:0:0:
397,244,38779,1,0,3:0:0:0:
395,384,38941,1,10,0:0:0:0:
231,231,39103,6,0,L|138:225,1,85,6|2,3:2|0:0,0:0:0:0:
62,324,39427,2,0,B|92:298|92:298|179:303,1,127.5,8|2,0:0|0:3,0:0:0:0:
208,380,39752,2,0,L|115:374,1,85,2|2,3:2|3:3,0:0:0:0:
146,225,40076,1,10,0:0:0:0:
179,303,40238,1,2,0:0:0:0:
249,148,40400,6,0,L|230:230,1,85,2|0,3:2|0:0,0:0:0:0:
55,191,40725,2,0,L|73:273,1,85,10|0,0:0|0:0,0:0:0:0:
303,268,41049,6,0,L|321:185,1,85,2|0,3:2|0:0,0:0:0:0:
146,225,41374,2,0,L|127:142,1,85,10|0,0:0|0:0,0:0:0:0:
348,339,41698,6,0,P|297:351|259:336,1,85,6|0,3:2|0:0,0:0:0:0:
260,199,42022,2,0,P|295:237|301:277,1,85,10|0,0:0|0:0,0:0:0:0:
54,277,42346,6,0,P|69:226|101:201,1,85,2|0,3:2|0:0,0:0:0:0:
219,270,42670,2,0,P|168:282|130:267,1,85,10|0,0:0|0:0,0:0:0:0:
350,155,42995,5,6,3:2:0:0:
293,309,43157,1,8,0:0:0:0:
302,267,43238,1,8,0:0:0:0:
293,226,43319,1,8,3:2:0:0:
268,191,43400,1,8,0:0:0:0:
263,153,43481,1,8,0:0:0:0:
272,111,43562,1,8,0:0:0:0:
296,77,43644,1,10,0:0:0:0:
335,61,43725,1,8,0:0:0:0:
377,62,43806,6,0,L|409:113,1,42.5,10|8,0:0|0:0,0:0:0:0:
475,126,43968,2,0,L|461:183,1,42.5,10|8,0:0|0:0,0:0:0:0:
499,239,44130,2,0,L|448:270,1,42.5,8|8,0:0|0:0,0:0:0:0:
375,344,44292,6,0,L|379:232,1,101.999996887207,6|0,3:2|0:0,0:0:0:0:
170,200,44617,2,0,P|217:208|274:185,1,101.999996887207,10|0,0:0|0:0,0:0:0:0:
160,21,44941,2,0,P|129:57|120:118,1,101.999996887207,2|0,3:2|0:0,0:0:0:0:
320,101,45265,2,0,P|303:56|255:18,1,101.999996887207,10|0,0:0|0:0,0:0:0:0:
25,234,45590,6,0,B|88:229|88:229|121:204|121:204|174:199,1,152.999995330811,2|0,3:2|0:0,0:0:0:0:
247,199,45914,1,10,0:0:0:0:
163,383,46076,2,0,L|152:282,1,101.999996887207,2|2,0:0|3:0,0:0:0:0:
152,282,46319,1,2,0:0:0:0:
152,282,46400,1,2,0:0:0:0:
130,123,46563,1,10,0:0:0:0:
25,235,46726,1,2,0:0:0:0:
43,28,46887,5,4,3:2:0:0:
43,28,47211,2,0,L|32:129,1,101.999996887207,10|0,0:0|0:0,0:0:0:0:
228,104,47536,2,0,L|217:3,1,101.999996887207,2|0,3:2|0:0,0:0:0:0:
4,211,47860,2,0,P|62:208|104:172,1,101.999996887207,10|0,3:2|3:0,0:0:0:0:
138,23,48184,5,10,3:2:0:0:
173,245,48346,1,8,0:0:0:0:
197,272,48427,1,8,0:0:0:0:
230,286,48508,1,8,3:0:0:0:
267,285,48589,1,0,0:0:0:0:
300,270,48671,1,10,0:0:0:0:
336,235,48752,1,8,0:0:0:0:
386,227,48833,2,0,L|398:296,3,50.9999984436036,10|8|0|0,0:0|0:0|3:0|3:0,0:0:0:0:
349,154,49157,6,0,L|361:85,1,50.9999984436036,10|8,0:0|0:0,0:0:0:0:
438,91,49319,2,0,L|426:22,1,50.9999984436036,10|8,0:0|0:0,0:0:0:0:
230,44,49481,6,0,P|279:51|327:28,1,85,6|0,3:2|0:0,0:0:0:0:
141,2,49806,2,0,L|152:110,1,85,8|2,0:0|0:0,0:0:0:0:
165,233,50130,1,0,3:0:0:0:
214,157,50292,1,2,3:2:0:0:
206,306,50454,1,10,0:0:0:0:
246,233,50617,1,2,0:0:0:0:
79,211,50779,6,0,B|90:280|90:280|115:307|115:307|127:386,1,170,2|10,3:2|0:0,0:0:0:0:
119,74,51265,2,0,B|130:143|130:143|155:170|155:170|167:249,1,170,2|0,0:0|3:0,0:0:0:0:
317,166,51752,2,0,L|220:152,1,85,8|2,0:0|0:0,0:0:0:0:
206,306,52076,6,0,P|239:263|246:229,1,85,2|0,3:2|0:0,0:0:0:0:
164,232,52400,2,0,P|126:252|84:254,1,85,10|0,0:0|0:0,0:0:0:0:
33,131,52725,2,0,P|65:158|106:171,1,85,2|0,3:2|0:0,0:0:0:0:
107,88,53049,2,0,P|87:51|85:9,1,85,8|0,0:0|0:0,0:0:0:0:
295,8,53373,6,0,P|292:50|272:87,1,85,2|0,3:2|0:0,0:0:0:0:
187,162,53698,1,10,0:0:0:0:
189,80,53860,1,2,0:0:0:0:
269,169,54022,1,0,0:0:0:0:
105,168,54184,1,8,0:0:0:0:
195,244,54346,2,0,B|222:259|222:259|292:250,1,85,0|0,3:0|0:0,0:0:0:0:
439,175,54671,6,0,L|447:90,1,85,6|2,3:2|1:2,0:0:0:0:
276,253,54995,2,0,L|268:168,1,85,10|2,0:2|1:2,0:0:0:0:
478,252,55319,2,0,P|430:260|386:242,1,85,2|0,3:2|1:0,0:0:0:0:
207,111,55644,1,10,0:0:0:0:
285,85,55806,1,2,0:0:0:0:
276,253,55968,6,0,P|315:224|333:180,1,85,2|0,3:2|0:0,0:0:0:0:
225,31,56292,1,10,0:0:0:0:
146,53,56454,1,2,0:0:0:0:
189,191,56617,1,2,3:2:0:0:
207,111,56779,1,2,0:0:0:0:
67,75,56941,2,0,L|-27:67,1,85,10|0,0:0|0:0,0:0:0:0:
86,278,57265,6,0,L|180:270,1,85,0|0,3:2|0:0,0:0:0:0:
298,262,57590,1,10,0:0:0:0:
194,346,57752,1,2,0:0:0:0:
189,191,57914,1,0,3:0:0:0:
276,342,58076,2,0,P|352:324|363:213,1,170,2|2,0:0|0:0,0:0:0:0:
300,101,58563,6,0,B|273:146|273:146|297:262,1,170,2|8,3:2|0:0,0:0:0:0:
358,162,59049,1,0,0:0:0:0:
179,109,59211,1,2,3:2:0:0:
189,191,59373,1,2,0:0:0:0:
252,62,59536,1,10,0:0:0:0:
252,62,59617,1,8,0:0:0:0:
252,62,59698,1,2,0:0:0:0:
104,198,59860,6,0,L|198:190,1,85,6|0,3:2|0:0,0:0:0:0:
276,342,60184,2,0,L|182:334,1,85,8|2,0:0|0:0,0:0:0:0:
267,169,60509,2,0,P|266:220|236:257,1,85,2|2,3:2|3:2,0:0:0:0:
131,131,60833,1,10,0:0:0:0:
209,110,60995,1,2,0:0:0:0:
56,0,61157,6,0,L|64:84,1,85,2|0,3:2|0:0,0:0:0:0:
95,293,61481,1,10,0:0:0:0:
131,131,61644,2,0,L|123:215,1,85,2|0,0:0|3:0,0:0:0:0:
64,84,61968,1,0,0:0:0:0:
209,110,62130,2,0,L|303:102,1,85,8|2,0:0|0:0,0:0:0:0:
450,196,62454,6,0,P|408:192|372:169,1,85,2|0,3:2|0:0,0:0:0:0:
212,211,62779,2,0,P|254:207|290:185,1,85,10|0,0:0|0:0,0:0:0:0:
440,29,63103,2,0,L|433:114,1,85,2|0,3:2|0:0,0:0:0:0:
218,46,63427,2,0,L|226:131,1,85,10|0,0:0|0:0,0:0:0:0:
258,280,63752,5,2,3:2:0:0:
212,211,63914,1,0,0:0:0:0:
338,260,64076,1,10,0:0:0:0:
179,290,64238,1,2,0:0:0:0:
317,340,64400,1,2,3:3:0:0:
245,135,64563,1,8,0:0:0:0:
100,310,64725,1,8,0:0:0:0:
338,260,64887,5,8,0:0:0:0:
338,260,64968,1,8,0:0:0:0:
338,260,65049,2,0,L|444:251,1,85,6|0,3:2|1:2,0:0:0:0:
245,135,65373,2,0,L|351:144,1,85,10|0,0:0|1:0,0:0:0:0:
212,211,65698,1,2,3:2:0:0:
207,60,65860,1,2,1:2:0:0:
86,128,66022,1,10,0:0:0:0:
245,135,66184,1,2,1:2:0:0:
125,53,66346,6,0,P|68:48|35:64,1,85,2|0,3:2|0:0,0:0:0:0:
51,202,66671,2,0,P|108:207|141:191,1,85,10|0,0:0|0:0,0:0:0:0:
252,50,66995,2,0,L|243:152,1,85,2|0,3:2|0:0,0:0:0:0:
190,326,67319,5,8,0:0:0:0:
161,337,67400,1,8,0:0:0:0:
131,340,67481,1,8,0:0:0:0:
101,335,67562,1,8,0:0:0:0:
74,322,67644,5,14,3:2:0:0:
117,293,67725,1,8,0:0:0:0:
168,282,67806,1,8,0:0:0:0:
219,289,67887,1,8,0:0:0:0:
265,313,67968,1,10,0:0:0:0:
323,323,68049,1,8,0:0:0:0:
376,300,68130,1,10,0:0:0:0:
408,251,68211,1,8,0:0:0:0:
407,193,68292,5,10,0:0:0:0:
364,221,68373,1,8,0:0:0:0:
340,267,68454,1,8,0:0:0:0:
342,318,68535,1,8,0:0:0:0:
369,362,68617,6,0,L|440:355,1,42.5,10|8,0:0|0:0,0:0:0:0:
512,141,68779,2,0,L|469:136,1,42.5,10|8,0:0|0:0,0:0:0:0:
139,100,68941,5,14,3:2:0:0:
488,20,69265,1,12,3:2:0:0:
219,289,69590,6,0,L|214:200,1,50.9999984436036,12|0,3:2|0:0,0:0:0:0:
382,75,69752,2,0,L|377:164,1,50.9999984436036,0|0,3:0|3:0,0:0:0:0:
143,202,69914,6,0,P|177:167|237:158,1,95.6250036478044,8|0,0:0|0:0,0:0:0:0:
335,241,70238,6,0,L|202:237,1,118.999996368408,6|0,3:0|0:0,0:0:0:0:
47,122,70563,5,10,0:0:0:0:
285,85,70725,1,2,1:2:0:0:
29,214,70887,5,2,3:2:0:0:
309,162,71049,1,2,1:2:0:0:
8,308,71211,5,10,0:0:0:0:
335,241,71373,1,2,1:2:0:0:
163,39,71536,5,2,3:2:0:0:
169,334,71698,1,2,1:2:0:0:
245,43,71860,1,10,0:0:0:0:
105,283,72022,1,2,1:2:0:0:
44,53,72184,2,0,L|170:38,1,118.999996368408,2|0,3:2|0:0,0:0:0:0:
412,201,72509,1,10,0:0:0:0:
186,141,72671,1,2,0:0:0:0:
336,48,72833,6,0,L|334:183,1,118.999996368408,6|0,3:0|0:0,0:0:0:0:
327,354,73157,5,10,0:0:0:0:
186,141,73319,1,2,1:2:0:0:
82,364,73481,5,2,3:2:0:0:
260,104,73644,1,2,1:2:0:0:
249,381,73806,5,10,0:0:0:0:
113,100,73968,1,2,1:2:0:0:
165,382,74130,5,2,3:2:0:0:
190,57,74292,1,2,1:2:0:0:
391,263,74454,1,10,0:0:0:0:
186,141,74617,1,2,1:2:0:0:
249,358,74779,2,0,L|258:236,1,118.999996368408,2|8,3:2|0:0,0:0:0:0:
275,33,75103,1,10,0:0:0:0:
176,226,75265,1,2,0:0:0:0:
395,132,75427,6,0,L|273:123,1,118.999996368408,6|0,3:0|0:0,0:0:0:0:
123,120,75752,5,10,0:0:0:0:
420,219,75914,1,2,1:2:0:0:
99,205,76076,5,2,3:2:0:0:
395,132,76238,1,2,1:2:0:0:
43,144,76400,5,10,0:0:0:0:
347,276,76564,1,2,1:2:0:0:
20,226,76724,5,2,3:2:0:0:
331,191,76887,1,2,1:2:0:0:
98,52,77049,1,10,0:0:0:0:
188,335,77211,1,2,1:2:0:0:
307,100,77373,2,0,L|165:91,1,118.999996368408,2|0,3:2|0:0,0:0:0:0:
405,222,77698,1,10,0:0:0:0:
334,6,77860,1,2,0:0:0:0:
149,258,78022,6,0,L|122:117,1,118.999996368408,6|0,3:0|0:0,0:0:0:0:
337,282,78346,2,0,P|280:310|224:295,1,118.999996368408,10|0,0:0|0:0,0:0:0:0:
45,130,78671,1,2,3:2:0:0:
307,100,78833,6,0,L|297:158,1,59.4999981842042,8|8,0:0|0:0,0:0:0:0:
237,356,78995,2,0,L|226:287,1,59.4999981842042,10|0,0:0|3:0,0:0:0:0:
165,119,79157,6,0,L|155:176,1,59.4999981842042,0|0,3:0|3:0,0:0:0:0:
78,290,79319,2,0,L|67:222,1,59.4999981842042,10|8,0:0|0:0,0:0:0:0:
45,130,79481,1,8,0:0:0:0:
42,111,79562,1,8,0:0:0:0:
39,93,79643,1,8,0:0:0:0:
36,75,79724,1,8,0:0:0:0:
33,57,79805,1,8,0:0:0:0:
31,38,79886,1,8,0:0:0:0:
28,20,79968,6,0,L|93:25,1,59.4999981842042,10|8,0:0|0:0,0:0:0:0:
224,114,80130,2,0,L|159:119,1,59.4999981842042,0|0,3:0|3:0,0:0:0:0:
59,211,80292,6,0,L|-6:206,3,59.4999981842042,10|8|0|0,0:0|0:0|3:0|3:0,0:0:0:0:
227,297,80617,6,0,L|386:282,1,118.999996368408,6|0,3:0|0:0,0:0:0:0:
491,101,80941,5,10,0:0:0:0:
442,351,81103,1,2,1:2:0:0:
340,41,81265,5,2,3:2:0:0:
345,285,81427,1,2,1:2:0:0:
165,60,81590,5,10,0:0:0:0:
227,297,81752,1,2,1:2:0:0:
24,148,81914,5,2,3:2:0:0:
147,370,82076,1,2,1:2:0:0:
247,118,82238,1,10,0:0:0:0:
32,261,82400,1,2,1:2:0:0:
165,60,82563,2,0,L|151:185,1,118.999996368408,2|0,3:2|0:0,0:0:0:0:
70,41,82887,1,10,0:0:0:0:
259,22,83049,1,2,0:0:0:0:
139,297,83211,6,0,L|152:178,1,118.999996368408,6|0,3:0|0:0,0:0:0:0:
418,129,83536,5,10,0:0:0:0:
83,62,83698,1,2,1:2:0:0:
367,45,83860,5,2,3:2:0:0:
49,155,84022,1,2,1:2:0:0:
402,239,84184,5,10,0:0:0:0:
172,16,84346,1,2,1:2:0:0:
51,274,84509,5,2,3:2:0:0:
314,168,84671,1,2,1:2:0:0:
49,155,84833,1,8,0:0:0:0:
259,81,84995,1,2,1:2:0:0:
218,384,85157,2,0,L|204:265,1,118.999996368408,2|8,3:2|0:0,0:0:0:0:
172,16,85481,1,10,0:0:0:0:
134,194,85644,1,2,0:0:0:0:
377,94,85806,6,0,L|258:80,1,118.999996368408,6|0,3:0|0:0,0:0:0:0:
361,301,86130,5,10,0:0:0:0:
466,57,86292,1,2,1:2:0:0:
469,346,86454,5,2,3:2:0:0:
394,14,86616,1,2,1:2:0:0:
134,239,86778,5,10,0:0:0:0:
491,139,86940,1,2,1:2:0:0:
87,151,87102,5,6,3:0:0:0:
448,223,87265,1,0,1:2:0:0:
122,70,87427,5,10,0:0:0:0:
392,321,87590,1,2,1:2:0:0:
371,19,87752,5,2,3:2:0:0:
199,356,87914,1,2,1:2:0:0:
258,80,88076,2,0,L|271:221,1,118.999996368408,10|0,0:0|0:0,0:0:0:0:
37,22,88400,2,0,L|24:163,1,118.999996368408,6|0,3:0|0:0,0:0:0:0:
337,48,88725,6,0,P|275:-3|206:14,1,118.999996368408,10|0,0:0|0:0,0:0:0:0:
256,265,89049,2,0,P|331:236|350:168,1,118.999996368408,2|0,3:2|0:0,0:0:0:0:
108,86,89373,2,0,P|94:165|144:216,1,118.999996368408,10|0,0:0|0:0,0:0:0:0:
269,91,89698,6,0,L|277:8,3,59.4999981842042,6|0|8|8,3:0|0:0|0:0|0:0,0:0:0:0:
292,140,90022,5,10,0:0:0:0:
349,170,90103,1,8,0:0:0:0:
408,152,90184,1,8,0:0:0:0:
434,95,90265,1,8,0:0:0:0:
413,35,90346,6,0,L|355:25,1,59.4999981842042,10|8,0:0|0:0,0:0:0:0:
108,86,90509,2,0,L|166:76,1,59.4999981842042,10|8,0:0|0:0,0:0:0:0:
349,170,90671,6,0,L|291:160,1,59.4999981842042,10|8,0:0|0:0,0:0:0:0:
139,221,90833,2,0,L|197:211,1,59.4999981842042,10|8,0:0|0:0,0:0:0:0:
302,370,90995,6,0,B|309:251|309:251|272:288,1,152.999995330811,6|0,3:0|0:0,0:0:0:0:
193,337,91319,2,0,L|54:331,1,101.999996887207,10|0,0:0|0:0,0:0:0:0:
221,201,91644,1,0,3:0:0:0:
387,337,91806,2,0,L|393:218,1,101.999996887207,2|8,0:0|0:0,0:0:0:0:
399,37,92130,1,2,0:0:0:0:
173,121,92292,6,0,B|235:116|235:116|267:132|267:132|328:125,1,152.999995330811,2|0,3:2|0:0,0:0:0:0:
399,37,92617,2,0,L|259:52,1,101.999996887207,10|0,0:0|0:0,0:0:0:0:
66,73,92941,1,2,3:2:0:0:
173,121,93103,1,2,0:0:0:0:
153,27,93265,1,10,0:0:0:0:
88,169,93427,1,2,0:0:0:0:
252,226,93590,6,0,L|258:100,1,101.999996887207,6|0,3:0|0:0,0:0:0:0:
66,73,93914,1,10,0:0:0:0:
92,270,94076,2,0,L|86:144,1,101.999996887207,2|0,0:0|3:0,0:0:0:0:
295,308,94400,2,0,P|240:313|187:286,1,101.999996887207,2|8,0:0|0:0,0:0:0:0:
353,228,94725,1,0,0:0:0:0:
435,324,94887,6,0,B|450:219|450:219|430:151,1,152.999995330811,2|0,3:2|0:0,0:0:0:0:
400,102,95211,1,10,0:0:0:0:
353,228,95373,1,2,0:0:0:0:
373,25,95536,1,0,3:0:0:0:
331,149,95698,1,2,0:0:0:0:
239,46,95860,1,10,0:0:0:0:
400,102,96022,1,2,0:0:0:0:
245,230,96184,6,0,L|250:129,1,101.999996887207,6|0,3:0|0:0,0:0:0:0:
437,252,96509,2,0,L|441:353,1,101.999996887207,10|2,0:0|0:0,0:0:0:0:
353,228,96833,1,0,3:0:0:0:
511,98,96995,2,0,L|506:199,1,101.999996887207,2|8,0:0|0:0,0:0:0:0:
338,40,97319,6,0,L|342:141,1,101.999996887207,2|0,0:0|3:0,0:0:0:0:
357,312,97644,1,0,0:0:0:0:
416,173,97806,1,10,0:0:0:0:
279,191,97968,1,2,0:0:0:0:
497,217,98130,1,0,3:0:0:0:
353,228,98292,1,2,0:0:0:0:
410,91,98454,1,10,0:0:0:0:
430,255,98617,1,0,0:0:0:0:
237,119,98779,6,0,P|282:104|336:129,1,101.999996887207,6|0,3:0|0:0,0:0:0:0:
190,258,99103,1,10,0:0:0:0:
153,74,99265,1,0,0:0:0:0:
282,286,99427,1,2,3:2:0:0:
305,24,99590,1,0,0:0:0:0:
103,171,99752,1,10,0:0:0:0:
378,246,99914,1,0,0:0:0:0:
133,338,100076,5,12,3:0:0:0:
339,146,100238,1,0,0:0:0:0:
339,146,100319,1,0,0:0:0:0:
339,146,100400,1,12,0:0:0:0:
62,37,100563,5,0,0:0:0:0:
62,37,100644,1,0,0:0:0:0:
62,37,100725,2,0,L|72:98,1,50.9999984436036,2|0,3:2|0:0,0:0:0:0:
185,230,100887,2,0,L|193:179,1,50.9999984436036,10|8,0:0|0:0,0:0:0:0:
31,174,101049,6,0,L|92:164,1,50.9999984436036,10|8,0:0|0:0,0:0:0:0:
263,107,101211,2,0,L|212:98,1,50.9999984436036,10|8,0:0|0:0,0:0:0:0:
102,249,101373,5,6,3:0:0:0:
102,249,101536,2,0,L|124:380,1,101.999996887207,0|8,0:0|0:0,0:0:0:0:
278,191,101860,2,0,L|256:322,1,101.999996887207,2|0,0:0|3:0,0:0:0:0:
183,130,102184,1,2,0:0:0:0:
263,107,102346,1,8,0:0:0:0:
185,213,102509,5,0,0:0:0:0:
185,213,102671,2,0,P|107:159|131:66,1,203.999993774414,2|10,3:2|0:0,0:0:0:0:
183,130,103157,1,2,0:0:0:0:
27,83,103319,2,0,P|20:135|39:208,1,101.999996887207,2|2,3:2|0:0,0:0:0:0:
99,299,103644,1,10,0:0:0:0:
4,280,103806,1,2,0:0:0:0:
163,225,103968,5,2,3:2:0:0:
163,225,104130,2,0,L|277:241,1,101.999996887207,2|8,0:0|0:0,0:0:0:0:
364,92,104454,2,0,L|262:106,1,101.999996887207,2|0,0:0|0:0,0:0:0:0:
297,314,104779,2,0,P|341:266|333:197,1,101.999996887207,2|8,0:0|0:0,0:0:0:0:
204,38,105103,5,2,0:0:0:0:
204,38,105265,2,0,B|174:90|174:90|210:251,1,203.999993774414,2|10,3:2|0:0,0:0:0:0:
260,106,105752,1,2,0:0:0:0:
93,77,105914,1,0,3:0:0:0:
205,230,106076,1,8,0:0:0:0:
204,38,106238,1,0,0:0:0:0:
103,178,106400,5,8,0:0:0:0:
103,178,106563,2,0,L|88:30,1,101.999996887207,6|0,3:0|0:0,0:0:0:0:
280,293,106887,1,10,0:0:0:0:
280,293,107050,2,0,L|290:191,1,101.999996887207,2|0,0:0|3:0,0:0:0:0:
379,72,107373,2,0,P|392:124|363:175,1,101.999996887207,2|8,0:0|0:0,0:0:0:0:
225,154,107698,6,0,P|260:118|309:112,1,101.999996887207,2|0,0:0|3:2,0:0:0:0:
454,184,108022,1,0,0:0:0:0:
349,245,108184,1,10,0:0:0:0:
372,166,108346,1,2,0:0:0:0:
430,265,108509,1,0,3:0:0:0:
428,105,108671,1,2,0:0:0:0:
292,186,108833,1,8,0:0:0:0:
454,184,108995,1,2,0:0:0:0:
325,5,109157,6,0,L|314:107,1,101.999996887207,2|0,3:2|0:0,0:0:0:0:
239,278,109481,2,0,L|227:176,1,101.999996887207,10|0,0:0|0:0,0:0:0:0:
204,32,109806,1,2,3:2:0:0:
115,171,109968,1,8,0:0:0:0:
149,193,110049,1,8,0:0:0:0:
191,196,110130,1,10,0:0:0:0:
227,176,110211,1,0,3:0:0:0:
261,153,110292,1,0,3:0:0:0:
302,150,110373,1,0,3:0:0:0:
339,170,110454,5,10,0:0:0:0:
338,189,110535,1,8,0:0:0:0:
336,207,110616,1,8,0:0:0:0:
334,225,110697,1,8,0:0:0:0:
332,243,110778,1,0,3:0:0:0:
330,262,110859,1,0,3:0:0:0:
329,280,110940,1,0,3:0:0:0:
327,298,111021,1,0,3:0:0:0:
321,336,111103,5,10,0:0:0:0:
297,302,111184,1,8,0:0:0:0:
269,275,111265,1,0,3:0:0:0:
235,256,111346,1,0,3:0:0:0:
198,245,111427,1,8,0:0:0:0:
158,244,111508,1,8,0:0:0:0:
120,251,111589,1,0,3:0:0:0:
85,267,111670,1,0,3:0:0:0:
53,290,111752,6,0,L|41:152,1,101.999996887207,6|0,3:2|0:0,0:0:0:0:
297,95,112076,2,0,P|305:142|282:199,1,101.999996887207,10|0,0:0|0:0,0:0:0:0:
118,85,112400,2,0,P|154:54|215:45,1,101.999996887207,10|0,3:2|0:0,0:0:0:0:
198,245,112724,2,0,P|153:228|115:180,1,101.999996887207,10|0,0:0|0:0,0:0:0:0:
315,13,113049,6,0,B|310:76|310:76|285:109|285:109|280:162,1,152.999995330811,2|0,3:2|0:0,0:0:0:0:
280,235,113373,1,10,0:0:0:0:
464,151,113536,2,0,L|363:140,1,101.999996887207,2|2,0:0|3:3,0:0:0:0:
363,140,113778,1,2,0:3:0:0:
363,140,113859,1,2,0:0:0:0:
204,118,114022,1,10,0:0:0:0:
316,13,114185,1,2,0:0:0:0:
280,235,114346,5,6,3:2:0:0:
280,235,114671,2,0,L|291:336,1,101.999996887207,10|0,0:0|0:0,0:0:0:0:
162,180,114995,2,0,L|151:281,1,101.999996887207,2|0,3:2|0:0,0:0:0:0:
243,163,115319,1,10,0:0:0:0:
187,102,115481,1,0,0:0:0:0:
376,38,115643,6,0,L|361:151,1,101.999996887207,10|0,3:2|0:0,0:0:0:0:
341,305,115967,1,10,0:0:0:0:
468,251,116130,2,0,L|343:222,1,101.999996887207,2|2,0:0|3:0,0:0:0:0:
368,227,116373,1,2,0:3:0:0:
368,227,116454,1,10,0:0:0:0:
265,356,116617,2,0,L|250:243,1,101.999996887207,10|0,0:0|0:0,0:0:0:0:
215,18,116940,5,4,3:2:0:0:
215,18,117265,2,0,L|233:131,1,101.999996887207,10|0,0:0|0:0,0:0:0:0:
368,227,117590,2,0,L|386:114,1,101.999996887207,2|0,3:2|0:0,0:0:0:0:
162,180,117914,2,0,P|218:209|277:197,1,101.999996887207,10|0,0:0|0:0,0:0:0:0:
430,46,118238,6,0,L|310:53,1,101.999996887207,10|0,3:2|0:0,0:0:0:0:
263,240,118562,1,10,0:0:0:0:
248,46,118724,2,0,L|254:147,1,101.999996887207,2|2,0:0|3:0,0:0:0:0:
254,147,118968,1,2,0:3:0:0:
254,147,119049,1,2,0:0:0:0:
443,227,119210,2,0,L|437:126,1,101.999996887207,8|0,0:0|0:0,0:0:0:0:
263,240,119536,5,6,3:2:0:0:
355,270,119698,1,0,0:0:0:0:
256,341,119860,2,0,L|262:240,1,101.999996887207,8|0,0:0|0:0,0:0:0:0:
99,262,120184,2,0,L|105:363,1,101.999996887207,0|8,3:0|0:0,0:0:0:0:
331,186,120509,2,0,P|299:158|227:158,1,101.999996887207,8|0,0:0|0:0,0:0:0:0:
94,178,120833,5,2,3:2:0:0:
262,239,120995,1,0,0:0:0:0:
131,104,121157,1,10,0:0:0:0:
98,261,121319,1,0,0:0:0:0:
13,168,121481,1,2,3:0:0:0:
13,168,121563,1,2,0:3:0:0:
13,168,121644,1,0,0:0:0:0:
169,215,121806,1,8,0:0:0:0:
25,297,121968,1,0,0:0:0:0:
131,104,122130,5,6,3:2:0:0:
98,261,122292,1,0,0:0:0:0:
251,218,122454,2,0,L|361:205,1,101.999996887207,10|0,0:0|0:0,0:0:0:0:
291,384,122779,2,0,L|226:294,1,101.999996887207,2|0,3:2|0:0,0:0:0:0:
414,266,123103,2,0,L|369:368,1,101.999996887207,10|0,0:0|0:0,0:0:0:0:
389,91,123427,6,0,L|431:185,1,101.999996887207,2|0,3:2|0:0,0:0:0:0:
235,127,123752,1,10,0:0:0:0:
313,61,123914,1,2,0:0:0:0:
315,219,124076,1,2,3:3:0:0:
315,219,124157,1,2,0:3:0:0:
315,219,124238,1,2,0:0:0:0:
142,126,124400,1,10,0:0:0:0:
235,127,124563,1,2,0:0:0:0:
122,234,124725,5,6,3:2:0:0:
122,234,125049,2,0,L|237:219,1,101.999996887207,10|0,0:0|0:0,0:0:0:0:
79,68,125374,2,0,P|58:131|66:164,1,101.999996887207,2|0,3:2|0:0,0:0:0:0:
292,179,125698,2,0,P|312:115|304:82,1,101.999996887207,10|0,0:0|0:0,0:0:0:0:
174,230,126022,6,0,L|160:353,1,101.999996887207,2|0,3:2|0:0,0:0:0:0:
320,375,126347,1,10,0:0:0:0:
292,179,126509,2,0,L|305:302,1,101.999996887207,2|2,0:0|3:0,0:0:0:0:
302,280,126752,1,2,0:3:0:0:
302,280,126833,1,10,0:0:0:0:
66,165,126995,2,0,L|52:288,1,101.999996887207,10|0,0:0|0:0,0:0:0:0:
180,124,127320,5,4,3:2:0:0:
180,124,127644,2,0,P|223:89|289:86,1,101.999996887207,10|0,0:0|0:0,0:0:0:0:
340,234,127968,2,0,P|292:217|260:179,1,101.999996887207,2|0,3:2|0:0,0:0:0:0:
356,41,128292,2,0,P|364:95|334:154,1,101.999996887207,10|0,0:0|0:0,0:0:0:0:
185,257,128617,6,0,L|57:250,1,101.999996887207,2|0,3:2|0:0,0:0:0:0:
194,116,128941,1,10,0:0:0:0:
194,116,129022,1,0,0:0:0:0:
194,116,129103,2,0,L|322:109,1,101.999996887207,2|2,0:0|3:0,0:0:0:0:
295,110,129346,1,2,0:3:0:0:
295,110,129427,1,2,0:0:0:0:
366,273,129590,2,0,L|360:171,1,101.999996887207,10|0,0:0|0:0,0:0:0:0:
185,257,129914,6,0,L|179:358,1,101.999996887207,6|0,3:2|0:0,0:0:0:0:
263,196,130238,1,8,0:0:0:0:
95,223,130400,1,0,0:0:0:0:
278,291,130563,1,0,3:0:0:0:
173,160,130725,1,8,0:0:0:0:
110,320,130887,1,8,0:0:0:0:
185,257,131049,1,0,0:0:0:0:
19,286,131211,5,8,0:0:0:0:
197,350,131373,1,8,0:0:0:0:
227,329,131454,1,8,0:0:0:0:
262,318,131535,1,8,0:0:0:0:
298,318,131616,1,8,0:0:0:0:
333,329,131697,1,8,0:0:0:0:
363,349,131779,1,8,0:0:0:0:
398,360,131860,1,8,0:0:0:0:
434,360,131941,1,8,0:0:0:0:
469,350,132022,6,0,L|480:288,1,50.9999984436036,10|8,0:0|0:0,0:0:0:0:
413,251,132184,2,0,L|402:188,1,50.9999984436036,10|8,0:0|0:0,0:0:0:0:
469,151,132346,2,0,L|479:88,1,50.9999984436036,10|8,0:0|0:0,0:0:0:0:
