osu file format v14

[General]
AudioFilename: audio.mp3
AudioLeadIn: 0
PreviewTime: 69793
Countdown: 0
SampleSet: Soft
StackLeniency: 0.5
Mode: 0
LetterboxInBreaks: 0
WidescreenStoryboard: 1

[Editor]
DistanceSpacing: 0.7
BeatDivisor: 4
GridSize: 32
TimelineZoom: 4.399998

[Metadata]
Title:Teo
TitleUnicode:テオ
Artist:Araki
ArtistUnicode:あらき
Creator:Nevo
Version:Ascent.
Source:
Tags:foxy grandpa Akitoshi -Laura- lapp milkayy snownino_ shunao shogunmoon utaite cover vocaloid hatsune miku synth rock killian tachibana_ [_TNTlealu_] omoi Ascent japanese jrock j-rock foxygrandpa
BeatmapID:3483307
BeatmapSetID:1704681

[Difficulty]
HPDrainRate:6
CircleSize:4
OverallDifficulty:9
ApproachRate:9.3
SliderMultiplier:1.7
SliderTickRate:1

[Events]
//Background and Video events
0,0,"anime-girl-falling-up-clouds-sky-school-uniform.jpg",0,0
//Break Periods
//Storyboard Layer 0 (Background)
//Storyboard Layer 1 (Fail)
//Storyboard Layer 2 (Pass)
//Storyboard Layer 3 (Foreground)
//Storyboard Layer 4 (Overlay)
//Storyboard Sound Samples

[TimingPoints]
1547,324.324324324324,4,2,1,60,1,0
2844,-125,4,2,1,60,0,0
3087,-125,4,2,1,5,0,0
3168,-83.3333333333333,4,2,1,60,0,0
3492,-125,4,2,1,60,0,0
3736,-125,4,2,1,5,0,0
3816,-83.3333333333333,4,2,1,60,0,0
4141,-125,4,2,1,60,0,0
4384,-125,4,2,1,5,0,0
4465,-83.3333333333333,4,2,1,60,0,0
4790,-125,4,2,1,60,0,0
5033,-125,4,2,1,5,0,0
5114,-83.3333333333333,4,2,1,60,0,0
5438,-125,4,2,1,60,0,0
5682,-125,4,2,1,5,0,0
5762,-83.3333333333333,4,2,1,60,0,0
6087,-125,4,2,1,60,0,0
6330,-125,4,2,1,5,0,0
6411,-83.3333333333333,4,2,1,60,0,0
6736,-125,4,2,1,60,0,0
6979,-125,4,2,1,5,0,0
7060,-83.3333333333333,4,2,1,60,0,0
8033,-100,4,2,1,60,0,0
12736,-100,4,2,1,80,0,0
13222,-90.9090909090909,4,2,1,80,0,0
15817,-100,4,2,1,80,0,0
16060,-100,4,2,1,5,0,0
16141,-90.9090909090909,4,2,1,80,0,0
18087,-100,4,2,1,80,0,0
18411,-90.9090909090909,4,2,1,80,0,0
18655,-90.9090909090909,4,2,1,5,0,0
18736,-90.9090909090909,4,2,1,80,0,0
21249,-90.9090909090909,4,2,1,5,0,0
21330,-90.9090909090909,4,2,1,80,0,0
23601,-111.111111111111,4,2,1,80,0,0
27492,-100,4,2,1,80,0,0
27817,-111.111111111111,4,2,1,80,0,0
28790,-100,4,2,1,80,0,0
34222,-100,4,2,1,5,0,0
34303,-100,4,2,1,80,0,0
37871,-90.9090909090909,4,2,1,80,0,0
38195,-100,4,2,1,80,0,0
39168,-90.9090909090909,4,2,1,80,0,0
40060,-90.9090909090909,4,2,1,5,0,0
40141,-90.9090909090909,4,2,1,80,0,0
41357,-90.9090909090909,4,2,1,5,0,0
41438,-90.9090909090909,4,2,1,80,0,0
47519,-90.9090909090909,4,2,1,5,0,0
47601,-90.9090909090909,4,2,1,80,0,0
67790,-90.9090909090909,4,2,1,60,0,0
68033,-90.9090909090909,4,2,1,80,0,0
69736,-90.9090909090909,4,2,1,5,0,0
69817,-90.9090909090909,4,2,1,80,0,0
69979,-125,4,2,1,80,0,0
70222,-125,4,2,1,5,0,0
70303,-71.4285714285714,4,2,1,80,0,1
88709,-71.4285714285714,4,2,1,5,0,1
88790,-71.4285714285714,4,2,1,80,0,1
91384,-83.3333333333333,4,2,1,80,0,1
99168,-71.4285714285714,4,2,1,80,0,1
100871,-71.4285714285714,4,2,1,5,0,1
100952,-71.4285714285714,4,2,1,80,0,1
101033,-71.4285714285714,4,2,1,5,0,1
101114,-71.4285714285714,4,2,1,80,0,1
101438,-83.3333333333333,4,2,1,80,0,0
111817,-83.3333333333333,4,2,1,80,0,0
115709,-100,4,2,1,80,0,0
116438,-100,4,2,1,5,0,0
116519,-100,4,2,1,80,0,0
118303,-83.3333333333333,4,2,1,80,0,0
131519,-83.3333333333333,4,2,1,5,0,0
131601,-83.3333333333333,4,2,1,80,0,0
131682,-83.3333333333333,4,2,1,5,0,0
131763,-83.3333333333333,4,2,1,80,0,0
137925,-83.3333333333333,4,2,1,50,0,0
138087,-83.3333333333333,4,2,1,80,0,0
138168,-83.3333333333333,4,2,1,50,0,0
138411,-83.3333333333333,4,2,1,80,0,0
138492,-83.3333333333333,4,2,1,50,0,0
138736,-83.3333333333333,4,2,1,80,0,0
151303,-83.3333333333333,4,2,1,5,0,0
151384,-83.3333333333333,4,2,1,80,0,0
151546,-83.3333333333333,4,2,1,60,0,0
152033,-200,4,2,1,80,0,0
152925,-200,4,2,1,5,0,0
153006,-100,4,2,0,100,0,0
153249,-100,4,2,1,5,0,0
153330,-71.4285714285714,4,2,1,80,0,1
153574,-71.4285714285714,4,2,1,5,0,1
153655,-71.4285714285714,4,2,1,80,0,1
156168,-71.4285714285714,4,2,1,5,0,1
156249,-71.4285714285714,4,2,1,80,0,1
158763,-71.4285714285714,4,2,1,5,0,1
158844,-71.4285714285714,4,2,1,80,0,1
160709,-71.4285714285714,4,2,1,5,0,1
160790,-71.4285714285714,4,2,1,80,0,1
161357,-71.4285714285714,4,2,1,5,0,1
161438,-71.4285714285714,4,2,1,80,0,1
162736,-62.5,4,2,1,80,0,1
164033,-71.4285714285714,4,2,1,80,0,1
173438,-62.5,4,2,1,80,0,1
174087,-71.4285714285714,4,2,1,80,0,1
179276,-83.3333333333333,4,2,1,80,0,1
184465,-83.3333333333333,4,2,1,80,0,0
184709,-83.3333333333333,4,2,1,5,0,0
184790,-83.3333333333333,4,2,1,80,0,0
194844,-90.9090909090909,4,2,1,80,0,0

[Colours]
Combo1 : 128,0,255
Combo2 : 255,128,0
Combo3 : 0,255,255
Combo4 : 255,128,255

[HitObjects]
486,326,2682,5,8,0:3:0:0:
486,326,2763,1,4,0:3:0:0:
486,326,2844,2,0,P|421:301|361:310,1,102,4|0,0:0|0:0,0:0:0:0:
309,359,3168,6,0,P|353:338|375:261,1,101.999996887207,8|2,0:1|0:1,0:0:0:0:
246,76,3492,2,0,L|271:219,1,101.999996887207,0|0,3:0|0:0,0:0:0:0:
287,274,3817,6,0,L|298:130,1,101.999996887207,8|2,0:1|0:1,0:0:0:0:
60,139,4141,2,0,B|110:159|110:159|165:140,1,102,0|0,3:0|0:0,0:0:0:0:
156,228,4465,6,0,B|106:211|106:211|44:229,1,101.999996887207,8|2,0:1|0:1,0:0:0:0:
380,220,4790,2,0,P|401:169|391:120,1,101.999996887207,0|0,3:0|0:0,0:0:0:0:
338,33,5114,6,0,P|354:99|403:140,1,101.999996887207,8|2,0:1|0:1,0:0:0:0:
482,331,5438,2,0,L|350:313,1,102,0|0,3:0|0:0,0:0:0:0:
269,324,5763,6,0,L|369:305,1,101.999996887207,8|2,0:1|0:1,0:0:0:0:
205,125,6087,2,0,B|215:179|215:179|260:212,1,102,0|0,3:0|0:0,0:0:0:0:
189,260,6411,6,0,B|171:210|171:210|118:192,1,101.999996887207,8|2,0:1|0:1,0:0:0:0:
40,27,6736,2,0,P|91:55|138:48,1,101.999996887207,0|0,3:0|0:0,0:0:0:0:
244,33,7060,6,0,P|192:24|136:42,1,101.999996887207,8|2,0:1|0:1,0:0:0:0:
324,167,7384,1,0,3:0:0:0:
371,51,7546,1,8,0:1:0:0:
198,131,7709,1,8,0:1:0:0:
400,255,7871,1,8,0:1:0:0:
433,249,7952,1,8,0:1:0:0:
465,237,8033,6,0,L|479:146,1,85,4|2,3:2|0:1,0:0:0:0:
301,280,8357,2,0,L|351:348,1,85,8|2,0:1|0:1,0:0:0:0:
386,133,8682,2,0,L|301:120,1,85,0|2,3:2|0:1,0:0:0:0:
429,297,9006,2,0,L|497:246,1,85,8|2,0:1|0:1,0:0:0:0:
214,253,9330,5,0,3:2:0:0:
231,337,9492,1,2,0:1:0:0:
126,269,9655,1,8,0:1:0:0:
143,353,9817,1,2,0:1:0:0:
298,276,9979,5,0,3:2:0:0:
56,333,10141,1,2,0:1:0:0:
156,182,10303,1,8,0:1:0:0:
156,182,10465,1,2,0:1:0:0:
28,65,10628,6,0,P|38:126|66:161,1,85,0|2,3:2|0:1,0:0:0:0:
222,88,10952,1,8,0:1:0:0:
222,88,11114,1,2,0:1:0:0:
162,6,11276,2,0,P|134:38|121:78,1,85,0|2,3:2|0:1,0:0:0:0:
214,253,11601,1,8,0:1:0:0:
252,269,11682,1,0,3:0:0:0:
294,266,11763,1,0,3:0:0:0:
331,245,11844,1,0,3:0:0:0:
355,210,11925,5,10,0:1:0:0:
90,200,12168,1,10,0:1:0:0:
455,344,12411,1,10,0:1:0:0:
442,354,12736,5,8,3:1:0:0:
402,337,12817,1,8,3:1:0:0:
361,326,12898,1,8,3:1:0:0:
319,321,12979,1,8,3:1:0:0:
277,322,13060,1,8,3:1:0:0:
235,329,13141,1,8,3:1:0:0:
193,350,13222,5,4,3:2:0:0:
403,186,13384,1,2,0:1:0:0:
137,134,13546,2,0,L|18:109,1,93.5000028533936,8|2,0:1|0:1,0:0:0:0:
228,249,13871,2,0,L|109:274,1,93.5000028533936,0|2,3:0|0:1,0:0:0:0:
332,96,14195,2,0,L|213:71,1,93.5000028533936,8|2,0:1|0:1,0:0:0:0:
403,186,14519,6,0,P|441:136|443:76,1,93.5000028533936,0|2,3:0|0:1,0:0:0:0:
309,5,14844,1,8,0:1:0:0:
228,249,15006,2,0,P|243:291|277:323,1,93.5000028533936,2|0,0:1|3:0,0:0:0:0:
277,323,15249,1,0,3:0:0:0:
277,323,15330,1,2,3:1:0:0:
332,96,15492,1,8,0:1:0:0:
76,167,15655,1,2,0:1:0:0:
328,234,15817,6,0,L|349:75,1,127.5,0|0,3:0|0:0,0:0:0:0:
309,5,16141,6,0,L|337:119,1,93.5000028533936,8|2,0:1|0:1,0:0:0:0:
175,147,16465,2,0,L|152:237,1,93.5000028533936,0|2,3:0|0:1,0:0:0:0:
409,276,16790,2,0,L|437:390,1,93.5000028533936,8|2,0:1|0:1,0:0:0:0:
413,144,17114,6,0,P|359:183|295:179,1,93.5000028533936,0|2,3:0|0:1,0:0:0:0:
83,42,17438,1,8,0:1:0:0:
335,91,17601,1,2,0:1:0:0:
152,237,17763,1,0,3:0:0:0:
144,191,17844,1,0,3:0:0:0:
135,148,17925,1,10,3:1:0:0:
409,276,18087,1,8,0:1:0:0:
398,289,18411,6,0,P|324:276|246:335,1,140.25000428009,4|0,3:2|0:0,0:0:0:0:
157,370,18736,6,0,P|80:347|52:305,1,93.5000028533936,8|2,0:1|0:1,0:0:0:0:
288,186,19060,2,0,P|241:190|203:216,1,93.5000028533936,0|2,3:0|0:1,0:0:0:0:
434,377,19384,2,0,P|354:374|315:341,1,93.5000028533936,8|2,0:1|0:1,0:0:0:0:
423,141,19709,6,0,B|431:187|431:187|407:285,1,140.25000428009,0|0,3:0|0:0,0:0:0:0:
408,277,20033,1,8,0:1:0:0:
154,218,20195,1,2,0:1:0:0:
337,81,20357,1,0,3:0:0:0:
330,127,20438,1,0,3:0:0:0:
325,175,20519,1,2,3:1:0:0:
234,331,20682,1,8,3:1:0:0:
234,331,20763,1,8,3:1:0:0:
234,331,20844,1,2,3:1:0:0:
61,170,21006,6,0,P|143:121|209:128,1,140.25000428009,4|0,3:2|0:0,0:0:0:0:
262,245,21330,1,8,0:1:0:0:
411,27,21492,1,2,0:1:0:0:
446,233,21655,1,0,3:0:0:0:
448,256,21736,1,0,3:0:0:0:
452,278,21817,1,10,0:1:0:0:
156,226,21979,1,10,0:1:0:0:
398,155,22141,2,0,L|457:142,1,46.7500014266968,0|0,3:0|3:0,0:0:0:0:
314,46,22303,5,8,1:0:0:0:
309,78,22384,1,8,1:0:0:0:
304,110,22465,1,8,1:0:0:0:
299,143,22546,1,8,1:0:0:0:
295,175,22628,5,2,0:3:0:0:
254,197,22709,1,2,0:3:0:0:
208,203,22790,1,2,0:3:0:0:
163,191,22871,1,2,0:3:0:0:
126,164,22951,1,8,0:3:0:0:
85,143,23032,1,8,0:3:0:0:
41,154,23113,1,8,0:3:0:0:
16,192,23194,1,8,0:3:0:0:
20,237,23276,6,0,L|39:316,1,46.7500014266968,8|4,0:1|0:3,0:0:0:0:
118,350,23438,2,0,L|128:304,1,46.7500014266968,4|4,0:3|0:3,0:0:0:0:
244,301,23601,6,0,P|319:311|384:266,1,152.999995330811,4|8,0:0|0:1,0:0:0:0:
427,195,24087,1,2,0:2:0:0:
278,140,24249,2,0,L|302:239,1,76.4999976654053,2|2,3:2|0:0,0:0:0:0:
170,156,24574,2,0,L|188:81,1,76.4999976654053,8|2,0:1|0:2,0:0:0:0:
64,152,24898,6,0,P|75:204|93:314,1,152.999995330811,2|8,3:2|0:1,0:0:0:0:
172,359,25384,2,0,P|210:329|328:326,1,152.999995330811,2|2,0:0|0:0,0:0:0:0:
415,360,25871,1,8,0:1:0:0:
415,360,26033,1,2,0:2:0:0:
489,152,26195,6,0,L|474:257,1,76.4999976654053,2|2,3:2|0:0,0:0:0:0:
331,86,26519,1,8,0:1:0:0:
331,86,26682,2,0,L|394:170,1,76.4999976654053,2|2,0:2|3:2,0:0:0:0:
191,113,27006,1,2,0:0:0:0:
191,113,27168,2,0,P|136:93|89:96,1,76.4999976654053,8|2,0:1|0:2,0:0:0:0:
175,298,27492,6,0,L|293:274,1,85,2|0,3:2|0:0,0:0:0:0:
94,362,27817,1,8,0:1:0:0:
94,362,27979,1,2,0:2:0:0:
198,198,28141,1,2,3:2:0:0:
294,362,28303,1,8,0:1:0:0:
323,108,28465,1,2,3:0:0:0:
258,281,28628,1,4,3:0:0:0:
182,55,28790,6,0,P|134:71|71:66,1,85,4|2,0:0|0:2,0:0:0:0:
303,0,29114,1,8,0:1:0:0:
422,129,29276,1,2,0:0:0:0:
339,191,29438,2,0,L|319:89,1,85,2|2,3:2|0:0,0:0:0:0:
216,236,29763,1,8,0:1:0:0:
435,260,29925,1,2,0:2:0:0:
207,334,30087,6,0,L|227:232,1,85,2|2,3:2|0:0,0:0:0:0:
68,160,30411,1,8,0:1:0:0:
108,250,30574,1,2,0:2:0:0:
129,69,30736,1,0,3:0:0:0:
171,167,30898,1,2,0:1:0:0:
38,300,31060,2,0,P|78:276|144:269,1,85,8|2,0:1|0:1,0:0:0:0:
290,349,31384,6,0,L|183:329,1,85,2|2,3:2|0:0,0:0:0:0:
359,241,31709,1,8,0:1:0:0:
429,288,31871,2,0,L|536:268,1,85,2|2,0:2|3:2,0:0:0:0:
318,164,32195,2,0,L|425:144,1,85,2|8,0:0|0:1,0:0:0:0:
266,260,32519,1,2,0:2:0:0:
132,127,32682,6,0,P|189:134|238:31,1,170,0|8,3:0|0:1,0:0:0:0:
12,111,33168,1,2,0:0:0:0:
12,111,33330,2,0,L|35:211,1,85,2|2,3:2|0:0,0:0:0:0:
74,334,33655,1,8,0:1:0:0:
114,346,33736,1,8,0:1:0:0:
156,342,33817,1,8,0:1:0:0:
193,322,33898,1,8,0:1:0:0:
220,289,33979,6,0,L|240:155,1,127.5,4|0,0:1|0:0,0:0:0:0:
242,79,34303,2,0,L|267:200,1,85,8|2,0:1|0:0,0:0:0:0:
402,245,34628,1,2,3:2:0:0:
402,245,34790,1,0,0:0:0:0:
369,344,34952,1,8,0:1:0:0:
492,292,35114,1,0,0:0:0:0:
297,235,35276,6,0,P|230:220|113:226,1,170,2|8,3:2|0:1,0:0:0:0:
365,156,35763,2,0,P|284:182|199:187,1,170,2|0,3:2|3:0,0:0:0:0:
66,66,36249,1,8,0:1:0:0:
55,82,36574,6,0,L|37:175,1,85,2|0,3:2|0:0,0:0:0:0:
185,30,36898,1,8,0:1:0:0:
255,88,37060,2,0,P|316:87|347:65,1,85,0|2,0:0|3:2,0:0:0:0:
476,0,37384,1,0,0:0:0:0:
512,90,37546,2,0,L|496:203,1,85,8|0,0:1|0:0,0:0:0:0:
347,302,37871,6,0,L|329:197,1,93.5000028533936,2|0,3:2|0:0,0:0:0:0:
435,363,38195,1,8,0:1:0:0:
253,325,38357,2,0,P|201:310|143:304,1,85,2|0,0:0|3:0,0:0:0:0:
43,345,38682,1,8,0:1:0:0:
235,230,38844,1,0,3:0:0:0:
115,163,39006,1,2,0:2:0:0:
115,163,39087,1,2,0:2:0:0:
115,163,39168,6,0,L|96:267,1,93.5000028533936,4|2,0:1|0:2,0:0:0:0:
251,138,39492,2,0,L|232:242,1,93.5000028533936,8|2,0:1|0:2,0:0:0:0:
179,67,39817,2,0,P|242:37|321:55,1,140.25000428009,2|0,3:2|0:0,0:0:0:0:
390,103,40141,1,8,0:1:0:0:
390,103,40303,1,2,0:0:0:0:
328,257,40465,6,0,B|377:270|377:270|447:252,1,93.5000028533936,0|2,3:0|0:0,0:0:0:0:
245,376,40790,2,0,B|294:363|294:363|364:381,1,93.5000028533936,8|2,0:1|0:0,0:0:0:0:
232,198,41114,2,0,B|198:293|198:293|138:313,1,140.25000428009,0|0,3:0|0:0,0:0:0:0:
94,376,41438,2,0,P|69:321|76:273,1,93.5000028533936,8|2,0:1|0:1,0:0:0:0:
189,78,41763,6,0,L|98:99,1,93.5000028533936,0|2,3:0|0:2,0:0:0:0:
321,133,42087,2,0,L|412:153,1,93.5000028533936,8|2,0:1|0:2,0:0:0:0:
193,296,42411,2,0,L|172:204,1,93.5000028533936,0|2,3:0|0:2,0:0:0:0:
314,338,42736,2,0,L|335:247,1,93.5000028533936,8|2,0:1|0:2,0:0:0:0:
382,49,43060,5,4,0:1:0:0:
353,85,43141,1,0,3:0:0:0:
312,106,43222,1,8,0:1:0:0:
266,107,43303,1,8,0:1:0:0:
224,88,43384,1,2,3:1:0:0:
187,58,43465,1,8,0:1:0:0:
142,48,43546,1,8,0:1:0:0:
97,59,43627,1,8,0:1:0:0:
61,88,43708,1,2,3:0:0:0:
42,130,43789,1,8,0:1:0:0:
43,176,43871,2,0,L|62:242,1,46.7500014266968,8|8,0:1|0:1,0:0:0:0:
126,294,44033,5,4,3:0:0:0:
181,285,44114,1,8,0:1:0:0:
236,277,44195,1,8,0:1:0:0:
292,268,44276,1,8,0:1:0:0:
347,260,44357,5,4,3:2:0:0:
149,159,44519,1,2,0:1:0:0:
342,115,44682,1,8,0:1:0:0:
280,359,44844,1,2,0:1:0:0:
235,107,45006,2,0,P|263:47|303:14,1,93.5000028533936,0|2,3:0|0:1,0:0:0:0:
430,92,45330,2,0,P|383:95|341:114,1,93.5000028533936,8|2,0:1|0:1,0:0:0:0:
399,314,45655,6,0,L|419:178,1,93.5000028533936,0|2,3:0|0:1,0:0:0:0:
195,228,45979,1,8,0:1:0:0:
263,330,46141,1,2,0:1:0:0:
310,161,46303,1,0,3:0:0:0:
310,161,46384,1,0,3:0:0:0:
310,161,46465,1,2,3:1:0:0:
258,346,46628,1,8,0:1:0:0:
81,230,46790,1,2,0:1:0:0:
311,255,46952,1,0,3:0:0:0:
327,264,47276,6,0,P|396:230|409:150,1,140.25000428009,8|0,0:1|0:0,0:0:0:0:
388,83,47601,2,0,L|415:179,1,93.5000028533936,0|2,3:0|0:1,0:0:0:0:
143,11,47925,2,0,L|116:107,1,93.5000028533936,8|0,0:1|3:0,0:0:0:0:
153,190,48168,1,0,3:0:0:0:
153,190,48249,6,0,P|192:162|212:109,1,93.5000028533936,12|8,0:1|0:1,0:0:0:0:
46,172,48574,1,2,0:3:0:0:
54,217,48655,1,2,0:3:0:0:
63,263,48736,1,4,0:3:0:0:
72,309,48817,1,4,0:3:0:0:
80,355,48898,2,0,P|138:325|180:310,1,93.5000028533936,8|0,0:1|3:0,0:0:0:0:
380,363,49222,1,8,0:1:0:0:
425,369,49303,1,0,3:0:0:0:
468,351,49384,1,8,0:1:0:0:
496,314,49465,1,0,3:0:0:0:
502,269,49546,6,0,P|432:240|306:235,1,187.000005706787,4|8,0:0|0:1,0:0:0:0:
145,143,50033,1,2,0:2:0:0:
241,300,50195,1,2,3:2:0:0:
266,102,50357,1,2,0:2:0:0:
224,205,50519,1,8,0:1:0:0:
121,41,50682,1,2,0:2:0:0:
2,224,50844,6,0,P|39:161|158:148,1,187.000005706787,2|8,3:2|0:1,0:0:0:0:
128,346,51330,2,0,L|106:211,1,93.5000028533936,2|2,0:2|3:2,0:0:0:0:
40,109,51655,1,2,0:2:0:0:
224,205,51817,1,8,0:1:0:0:
263,105,51979,1,2,0:2:0:0:
112,253,52141,6,0,P|57:246|17:223,1,93.5000028533936,2|2,3:2|0:2,0:0:0:0:
216,321,52465,2,0,P|161:328|121:351,1,93.5000028533936,8|2,0:1|0:2,0:0:0:0:
326,381,52790,2,0,L|338:272,1,93.5000028533936,2|2,3:2|0:2,0:0:0:0:
491,214,53114,2,0,L|501:306,1,93.5000028533936,8|2,0:1|0:2,0:0:0:0:
314,158,53438,6,0,P|382:170|445:78,1,187.000005706787,2|8,3:2|0:1,0:0:0:0:
213,75,53925,2,0,P|199:179|213:270,1,187.000005706787,2|8,0:2|0:1,0:0:0:0:
98,169,54411,1,2,3:2:0:0:
160,352,54574,1,2,0:2:0:0:
91,299,54736,6,0,L|-26:272,1,93.5000028533936,6|2,3:2|0:2,0:0:0:0:
227,208,55060,1,8,0:1:0:0:
227,208,55222,1,2,0:2:0:0:
353,351,55384,2,0,L|470:324,1,93.5000028533936,2|2,3:2|0:2,0:0:0:0:
285,281,55709,1,8,0:1:0:0:
160,352,55871,1,2,0:2:0:0:
67,202,56033,6,0,P|49:148|51:94,1,93.5000028533936,2|2,3:2|0:2,0:0:0:0:
181,17,56357,1,8,0:1:0:0:
144,138,56519,1,2,0:2:0:0:
329,42,56682,1,2,3:2:0:0:
245,124,56844,1,2,0:1:0:0:
419,120,57006,2,0,P|489:130|531:165,1,93.5000028533936,8|2,0:1|0:1,0:0:0:0:
449,330,57330,6,0,L|430:219,1,93.5000028533936,2|2,3:2|0:2,0:0:0:0:
329,42,57655,1,8,0:1:0:0:
230,217,57817,2,0,B|199:229|199:229|131:216,1,93.5000028533936,2|2,0:2|3:2,0:0:0:0:
31,324,58141,2,0,B|62:312|62:312|130:325,1,93.5000028533936,2|8,0:2|0:1,0:0:0:0:
246,384,58465,1,2,0:2:0:0:
356,211,58628,6,0,P|324:131|234:82,1,187.000005706787,2|8,3:2|0:1,0:0:0:0:
230,217,59114,1,2,0:2:0:0:
338,91,59276,1,2,3:2:0:0:
390,316,59438,1,2,0:2:0:0:
218,207,59601,1,8,0:1:0:0:
177,184,59682,1,8,0:1:0:0:
132,173,59763,1,2,0:3:0:0:
85,176,59844,1,4,0:3:0:0:
41,191,59925,6,0,L|64:306,1,93.5000028533936,4|0,0:1|3:0,0:0:0:0:
97,71,60249,2,0,L|-18:48,1,93.5000028533936,8|0,0:1|0:0,0:0:0:0:
190,3,60574,1,2,3:2:0:0:
190,3,60736,1,0,3:0:0:0:
263,136,60898,1,8,0:1:0:0:
263,136,61060,1,0,0:0:0:0:
454,95,61222,6,0,P|380:98|361:-2,1,187.000005706787,2|8,3:2|0:1,0:0:0:0:
293,247,61709,2,0,P|368:210|466:234,1,187.000005706787,0|0,0:0|3:0,0:0:0:0:
327,361,62195,2,0,L|210:347,1,93.5000028533936,8|0,0:1|0:0,0:0:0:0:
38,238,62519,6,0,P|73:288|91:335,1,93.5000028533936,2|0,3:2|3:0,0:0:0:0:
195,157,62844,2,0,P|184:217|163:263,1,93.5000028533936,8|0,0:1|0:0,0:0:0:0:
35,54,63168,2,0,P|70:104|88:151,1,93.5000028533936,2|0,3:2|3:0,0:0:0:0:
311,14,63493,2,0,P|300:74|279:120,1,93.5000028533936,8|0,0:1|0:0,0:0:0:0:
38,238,63817,6,0,B|89:210|130:244|130:244|169:276|228:252,1,187.000005706787,2|8,3:2|0:1,0:0:0:0:
399,193,64303,1,0,0:0:0:0:
246,350,64465,5,2,3:1:0:0:
191,107,64628,1,8,0:1:0:0:
69,344,64790,5,8,0:1:0:0:
420,283,64952,1,8,0:1:0:0:
420,283,65033,1,8,0:1:0:0:
420,283,65114,6,0,L|319:263,1,93.5000028533936,4|2,3:2|0:1,0:0:0:0:
85,174,65438,2,0,L|176:192,1,93.5000028533936,8|2,0:1|0:1,0:0:0:0:
349,169,65763,5,0,3:0:0:0:
160,292,65925,1,2,0:1:0:0:
211,104,66087,1,8,0:1:0:0:
288,348,66249,1,2,0:1:0:0:
450,178,66411,6,0,P|443:129|402:83,1,93.5000028533936,0|2,3:0|0:1,0:0:0:0:
130,251,66736,2,0,P|175:269|236:256,1,93.5000028533936,8|2,0:1|0:1,0:0:0:0:
166,35,67060,2,0,L|195:201,1,140.25000428009,0|0,3:0|0:0,0:0:0:0:
218,264,67384,1,8,0:1:0:0:
211,286,67465,1,0,3:0:0:0:
205,308,67546,1,0,3:0:0:0:
198,331,67627,1,0,3:0:0:0:
193,354,67709,5,4,0:1:0:0:
166,315,67790,1,8,0:1:0:0:
158,270,67871,1,8,0:1:0:0:
168,224,67952,1,8,0:1:0:0:
195,187,68033,1,8,0:1:0:0:
235,164,68114,1,8,0:1:0:0:
282,158,68195,1,8,0:1:0:0:
326,172,68276,1,8,0:1:0:0:
361,202,68357,1,8,0:1:0:0:
407,210,68438,1,8,0:1:0:0:
452,198,68519,1,8,0:1:0:0:
487,169,68600,1,8,0:1:0:0:
507,127,68682,6,0,L|443:102,1,46.7500014266968,2|8,0:3|0:3,0:0:0:0:
301,14,68844,2,0,L|257:31,1,46.7500014266968,4|4,0:3|0:3,0:0:0:0:
34,127,69006,5,10,0:1:0:0:
471,283,69330,1,10,0:1:0:0:
144,346,69655,6,0,L|98:357,1,46.7500014266968,8|0,3:1|0:0,0:0:0:0:
333,216,69817,2,0,L|378:227,1,46.7500014266968,0|0,3:0|3:0,0:0:0:0:
256,381,69979,2,0,L|243:257,1,102,4|0,3:2|0:0,0:0:0:0:
197,212,70303,6,0,L|216:50,1,118.999996368408,4|2,3:1|0:1,0:0:0:0:
96,268,70628,5,8,0:1:0:0:
429,227,70790,1,2,0:1:0:0:
100,171,70952,5,0,3:0:0:0:
392,140,71114,1,2,0:1:0:0:
50,94,71276,5,8,0:1:0:0:
426,54,71438,1,2,0:1:0:0:
282,329,71601,5,0,3:0:0:0:
162,93,71763,1,2,0:1:0:0:
177,372,71925,1,8,0:1:0:0:
306,204,72087,1,2,0:1:0:0:
103,174,72249,2,0,L|148:312,1,118.999996368408,0|2,3:0|0:1,0:0:0:0:
271,85,72574,1,8,0:1:0:0:
50,94,72736,1,10,0:1:0:0:
279,326,72898,6,0,P|339:328|393:297,1,118.999996368408,0|2,3:0|0:1,0:0:0:0:
364,38,73222,5,8,0:1:0:0:
310,232,73384,1,2,0:1:0:0:
179,36,73546,5,0,3:0:0:0:
219,260,73709,1,2,0:1:0:0:
15,104,73871,5,8,0:1:0:0:
136,319,74033,1,2,0:1:0:0:
373,142,74195,5,0,3:0:0:0:
160,104,74357,1,2,0:1:0:0:
466,100,74519,1,8,0:1:0:0:
237,176,74682,1,2,0:1:0:0:
441,315,74844,2,0,L|457:164,1,118.999996368408,0|10,3:0|0:1,0:0:0:0:
275,67,75168,1,8,0:1:0:0:
340,237,75330,1,10,0:1:0:0:
50,142,75492,6,0,P|120:106|196:111,1,118.999996368408,4|2,3:1|0:1,0:0:0:0:
284,326,75817,5,8,0:1:0:0:
11,251,75979,1,2,0:1:0:0:
340,237,76141,5,0,3:0:0:0:
78,329,76303,1,2,0:1:0:0:
394,329,76465,5,8,0:1:0:0:
122,229,76628,1,2,0:1:0:0:
428,198,76790,5,0,3:0:0:0:
284,326,76952,1,2,0:1:0:0:
202,117,77114,1,8,0:1:0:0:
340,237,77276,1,2,0:1:0:0:
375,7,77438,2,0,L|356:153,1,118.999996368408,0|2,3:0|0:1,0:0:0:0:
105,132,77763,1,8,0:1:0:0:
257,28,77925,1,2,0:1:0:0:
78,235,78087,2,0,P|29:215|-1:158,1,118.999996368408,0|2,3:0|0:1,0:0:0:0:
341,237,78411,6,0,L|364:376,1,118.999996368408,8|2,0:1|0:1,0:0:0:0:
171,55,78736,2,0,L|148:194,1,118.999996368408,0|8,3:0|0:1,0:0:0:0:
151,172,78979,1,8,0:1:0:0:
151,172,79060,1,2,0:3:0:0:
194,192,79141,1,8,0:3:0:0:
242,193,79222,1,4,0:3:0:0:
285,171,79303,1,4,0:3:0:0:
313,131,79384,5,8,0:1:0:0:
359,104,79465,1,2,0:3:0:0:
413,104,79546,1,2,0:3:0:0:
459,131,79627,1,2,0:3:0:0:
477,179,79708,1,8,0:3:0:0:
477,233,79789,1,8,0:3:0:0:
452,278,79870,1,4,0:3:0:0:
405,301,79951,1,4,0:3:0:0:
352,297,80033,6,0,L|340:233,3,59.4999981842042,8|0|0|0,0:1|3:0|3:0|3:0,0:0:0:0:
286,360,80357,1,8,0:1:0:0:
246,331,80438,1,8,0:1:0:0:
199,315,80519,1,8,0:1:0:0:
151,315,80600,1,8,0:1:0:0:
103,328,80682,6,0,L|133:195,1,118.999996368408,4|2,3:2|0:1,0:0:0:0:
304,6,81006,5,8,0:1:0:0:
360,265,81168,1,2,0:1:0:0:
176,34,81330,5,0,3:0:0:0:
417,172,81492,1,2,0:1:0:0:
96,140,81655,5,8,0:1:0:0:
401,70,81817,1,2,0:1:0:0:
188,266,81979,5,0,3:0:0:0:
77,34,82141,1,2,0:1:0:0:
55,232,82303,1,8,0:1:0:0:
262,162,82465,1,2,0:1:0:0:
0,153,82628,2,0,L|26:303,1,118.999996368408,0|2,3:0|0:1,0:0:0:0:
224,362,82952,1,8,0:1:0:0:
224,362,83033,1,0,0:0:0:0:
224,362,83114,1,10,0:1:0:0:
466,280,83276,6,0,P|385:282|322:249,1,118.999996368408,0|2,3:0|0:1,0:0:0:0:
133,142,83601,5,8,0:1:0:0:
413,177,83763,1,2,0:1:0:0:
71,224,83925,5,0,3:0:0:0:
420,187,84087,1,2,0:1:0:0:
50,78,84249,5,8,0:1:0:0:
319,151,84411,1,2,0:1:0:0:
194,301,84574,5,0,3:0:0:0:
132,50,84736,1,2,0:1:0:0:
319,310,84898,1,8,0:1:0:0:
363,41,85060,1,2,0:1:0:0:
131,180,85222,2,0,L|-5:161,1,118.999996368408,0|10,3:0|0:1,0:0:0:0:
228,94,85546,1,8,0:1:0:0:
194,301,85709,1,10,0:1:0:0:
372,143,85871,6,0,L|499:120,1,118.999996368408,4|2,3:2|0:1,0:0:0:0:
287,245,86195,5,8,0:1:0:0:
365,24,86357,1,2,0:1:0:0:
351,310,86519,5,0,3:0:0:0:
235,65,86682,1,2,0:1:0:0:
202,341,86844,5,8,0:1:0:0:
300,126,87006,1,2,0:1:0:0:
456,353,87168,5,0,3:0:0:0:
144,216,87330,1,2,0:1:0:0:
432,211,87493,5,8,0:1:0:0:
230,263,87655,1,2,0:1:0:0:
456,227,87817,1,0,3:0:0:0:
212,98,87979,1,2,0:1:0:0:
319,334,88141,2,0,L|346:188,1,118.999996368408,8|2,0:1|0:1,0:0:0:0:
0,82,88465,6,0,P|32:171|144:172,1,178.499994552612,4|0,0:1|0:0,0:0:0:0:
212,98,88790,2,0,B|171:79|171:79|90:98,1,118.999996368408,8|2,0:1|0:1,0:0:0:0:
338,92,89114,2,0,B|322:49|322:49|251:5,1,118.999996368408,0|2,3:0|0:1,0:0:0:0:
434,177,89438,2,0,B|453:136|453:136|434:55,1,118.999996368408,0|2,3:0|0:1,0:0:0:0:
23,189,89763,5,0,3:0:0:0:
18,241,89844,1,0,3:0:0:0:
38,290,89925,1,8,0:1:0:0:
79,324,90006,1,8,0:1:0:0:
131,335,90087,6,0,L|200:315,1,59.4999981842042,8|8,0:1|0:1,0:0:0:0:
377,246,90249,2,0,L|307:227,1,59.4999981842042,8|8,0:1|0:1,0:0:0:0:
135,181,90411,2,0,L|204:161,1,59.4999981842042,8|8,0:1|0:1,0:0:0:0:
376,107,90573,2,0,L|306:88,1,59.4999981842042,8|8,0:1|0:1,0:0:0:0:
324,344,90736,5,8,0:1:0:0:
383,348,90817,1,2,0:3:0:0:
438,328,90898,1,8,0:3:0:0:
478,285,90979,1,4,0:3:0:0:
495,228,91060,6,0,P|514:304|508:369,1,118.999996368408,4|0,3:1|0:0,0:0:0:0:
248,210,91384,2,0,P|258:108|297:14,1,203.999993774414,10|0,0:1|3:0,0:0:0:0:
477,100,91871,2,0,B|440:118|440:118|351:112,1,101.999996887207,0|10,3:0|0:1,0:0:0:0:
181,21,92195,1,0,0:0:0:0:
106,241,92357,6,0,L|125:341,1,101.999996887207,2|0,3:1|0:0,0:0:0:0:
346,177,92682,2,0,L|327:277,1,101.999996887207,10|0,0:1|0:0,0:0:0:0:
125,97,93006,1,2,3:1:0:0:
238,160,93168,1,0,3:0:0:0:
46,165,93330,1,8,0:1:0:0:
291,89,93492,1,0,0:0:0:0:
126,9,93655,6,0,P|137:62|152:196,1,152.999995330811,2|0,3:1|0:0,0:0:0:0:
106,241,93979,1,10,0:1:0:0:
249,331,94141,2,0,B|293:345|293:345|367:321,1,101.999996887207,0|0,0:0|3:0,0:0:0:0:
505,196,94465,6,0,P|433:197|392:70,1,203.999993774414,0|0,3:0|0:0,0:0:0:0:
249,4,94952,2,0,L|269:132,1,101.999996887207,2|0,3:1|0:0,0:0:0:0:
465,116,95276,1,8,0:1:0:0:
284,230,95438,2,0,P|191:188|100:187,1,152.999995330811
58,220,95763,1,0,3:0:0:0:
181,298,95925,1,8,0:1:0:0:
240,109,96087,1,8,0:1:0:0:
345,335,96249,6,0,L|446:324,1,101.999996887207,4|0,3:2|0:0,0:0:0:0:
284,230,96574,1,10,0:1:0:0:
189,381,96736,2,0,P|128:368|95:301,1,101.999996887207,0|2,0:0|3:1,0:0:0:0:
118,142,97060,2,0,P|137:201|95:263,1,101.999996887207,0|8,3:0|0:1,0:0:0:0:
0,83,97384,6,0,B|47:111|47:111|211:84,1,203.999993774414
455,8,97871,1,10,0:1:0:0:
383,189,98033,1,0,0:0:0:0:
294,9,98195,1,2,3:1:0:0:
385,206,98357,1,0,3:0:0:0:
178,63,98519,1,8,0:1:0:0:
140,96,98600,1,8,0:1:0:0:
118,142,98681,1,8,0:1:0:0:
116,193,98762,1,8,0:1:0:0:
133,240,98844,2,0,L|292:212,1,152.999995330811,0|0,3:0|0:0,0:0:0:0:
337,290,99168,6,0,L|461:309,1,118.999996368408,10|0,0:1|0:0,0:0:0:0:
118,142,99492,2,0,L|-6:161,1,118.999996368408,2|0,3:1|0:0,0:0:0:0:
256,361,99817,2,0,L|380:380,1,118.999996368408,10|0,0:1|0:0,0:0:0:0:
156,50,100141,2,0,L|31:69,1,118.999996368408,2|0,3:1|0:0,0:0:0:0:
241,258,100465,1,8,0:1:0:0:
247,216,100546,1,4,3:0:0:0:
253,175,100627,1,4,3:0:0:0:
260,134,100708,1,4,3:0:0:0:
267,93,100790,6,0,P|314:67|352:64,1,59.4999981842042,8|0,0:1|0:0,0:0:0:0:
431,220,100952,2,0,P|404:207|374:202,1,59.4999981842042,8|0,0:1|0:0,0:0:0:0:
177,341,101114,1,8,0:1:0:0:
216,357,101195,1,8,0:1:0:0:
257,356,101276,1,8,0:1:0:0:
295,340,101357,1,8,0:1:0:0:
324,310,101438,5,4,3:1:0:0:
86,247,101601,2,0,L|55:380,1,101.999996887207,2|8,0:1|0:1,0:0:0:0:
231,173,101925,2,0,L|364:204,1,101.999996887207,2|0,0:1|3:0,0:0:0:0:
114,141,102249,2,0,P|93:78|115:18,1,101.999996887207,2|8,0:1|0:1,0:0:0:0:
365,0,102574,1,2,0:1:0:0:
189,81,102736,6,0,B|293:66|293:66|358:101,1,152.999995330811,0|0,3:0|0:0,0:0:0:0:
416,153,103060,1,8,0:1:0:0:
384,270,103222,1,2,0:1:0:0:
269,162,103384,1,0,3:0:0:0:
304,296,103546,1,2,0:1:0:0:
151,237,103709,1,8,0:1:0:0:
231,350,103871,1,2,0:1:0:0:
67,339,104033,5,0,3:0:0:0:
269,162,104195,2,0,L|164:147,1,101.999996887207,2|8,0:1|0:1,0:0:0:0:
0,78,104519,2,0,L|133:56,1,101.999996887207,2|0,0:1|3:0,0:0:0:0:
132,236,104844,2,0,P|78:195|67:125,1,101.999996887207,2|8,0:1|0:1,0:0:0:0:
191,59,105168,1,2,0:1:0:0:
74,306,105330,6,0,P|149:268|243:246,1,152.999995330811,0|0,3:0|0:0,0:0:0:0:
296,305,105655,1,8,0:1:0:0:
426,187,105817,2,0,L|437:60,1,101.999996887207,2|0,3:1|3:0,0:0:0:0:
326,209,106141,1,10,0:1:0:0:
493,287,106303,1,8,0:1:0:0:
334,111,106465,1,10,0:1:0:0:
374,359,106628,6,0,P|315:340|169:324,1,203.999993774414,0|8,3:0|0:1,0:0:0:0:
24,238,107114,2,0,P|101:232|162:201,1,101.999996887207,2|0,0:1|3:0,0:0:0:0:
75,37,107438,2,0,L|56:152,1,101.999996887207,2|8,0:1|0:1,0:0:0:0:
317,108,107763,6,0,P|245:70|151:165,1,203.999993774414,2|2,0:1|0:1,0:0:0:0:
417,195,108249,1,8,0:1:0:0:
402,39,108411,1,2,0:1:0:0:
253,197,108574,1,0,3:0:0:0:
488,255,108736,1,2,0:1:0:0:
166,295,108898,1,8,0:1:0:0:
338,230,109060,1,2,0:1:0:0:
111,132,109222,6,0,B|38:110|38:110|-6:125,1,101.999996887207,0|2,3:0|0:1,0:0:0:0:
253,197,109546,2,0,P|268:133|248:63,1,101.999996887207,8|2,0:1|0:1,0:0:0:0:
358,317,109871,2,0,P|387:307|426:273,1,50.9999984436036,0|0,3:0|0:0,0:0:0:0:
448,200,110033,1,8,0:1:0:0:
450,179,110114,1,8,0:1:0:0:
452,159,110195,1,2,3:0:0:0:
455,139,110276,1,8,3:0:0:0:
457,119,110357,1,4,3:0:0:0:
460,98,110438,1,4,3:0:0:0:
462,80,110519,6,0,L|518:87,7,50.9999984436036,0|0|8|8|2|8|4|4,3:0|3:0|0:1|0:1|0:3|0:3|0:3|0:3,0:0:0:0:
370,27,111168,5,8,0:1:0:0:
323,6,111249,1,2,0:3:0:0:
273,9,111330,1,8,0:3:0:0:
230,36,111411,1,0,0:0:0:0:
209,82,111492,1,8,0:1:0:0:
167,111,111573,1,2,0:3:0:0:
117,115,111654,1,8,0:3:0:0:
71,94,111735,1,0,0:0:0:0:
42,53,111817,5,4,3:2:0:0:
256,192,111898,12,0,115546,0:0:0:0:
166,265,115709,5,2,0:2:0:0:
382,333,115952,1,2,0:2:0:0:
100,343,116195,2,0,P|65:282|97:199,1,127.5,2|0,0:1|0:0,0:0:0:0:
175,183,116519,2,0,L|231:172,1,42.5,0|0,3:0|3:0,0:0:0:0:
449,113,116682,5,8,1:0:0:0:
166,265,117006,5,6,3:1:0:0:
132,250,117114,1,2,0:1:0:0:
101,236,117222,1,2,0:1:0:0:
246,194,117330,5,10,0:1:0:0:
209,188,117438,1,2,0:1:0:0:
175,183,117546,1,2,0:1:0:0:
304,104,117655,5,2,3:0:0:0:
267,108,117763,1,2,0:1:0:0:
233,112,117871,1,2,0:1:0:0:
337,2,117979,5,10,0:1:0:0:
302,15,118087,1,2,0:1:0:0:
270,28,118195,1,2,0:1:0:0:
438,77,118303,5,0,3:0:0:0:
448,293,118465,2,0,P|450:213|428:84,1,203.999993774414,2|2,0:1|0:1,0:0:0:0:
356,339,118952,2,0,P|287:279|194:251,1,152.999995330811,0|0,3:0|0:0,0:0:0:0:
93,258,119276,1,8,0:1:0:0:
354,185,119438,1,2,0:1:0:0:
155,42,119601,6,0,B|132:89|132:89|163:208,1,152.999995330811,0|0,3:0|0:0,0:0:0:0:
230,256,119925,2,0,L|243:180,1,50.9999984436036,8|0,0:1|0:0,0:0:0:0:
434,129,120087,2,0,P|364:149|304:106,1,152.999995330811,2|0,0:1|0:0,0:0:0:0:
289,31,120411,1,2,0:1:0:0:
511,85,120574,1,8,0:1:0:0:
503,259,120736,6,0,P|478:158|483:55,1,203.999993774414,2|2,0:1|0:1,0:0:0:0:
331,230,121222,2,0,P|404:337|418:374,1,152.999995330811,8|0,0:1|0:0,0:0:0:0:
412,358,121546,1,0,3:0:0:0:
169,212,121709,1,8,0:1:0:0:
339,141,121871,1,8,0:1:0:0:
155,220,122033,2,0,L|86:204,1,50.9999984436036,8|8,0:1|0:1,0:0:0:0:
49,142,122195,5,4,3:1:0:0:
30,116,122303,1,2,0:1:0:0:
8,94,122411,1,2,0:1:0:0:
138,128,122519,5,8,0:1:0:0:
127,98,122627,1,2,0:1:0:0:
111,72,122735,1,2,0:1:0:0:
240,20,122844,5,0,3:0:0:0:
232,50,122952,1,2,0:1:0:0:
219,80,123060,1,2,0:1:0:0:
310,98,123168,5,8,0:1:0:0:
296,125,123276,1,2,0:1:0:0:
275,150,123384,1,2,0:1:0:0:
270,251,123492,5,0,3:0:0:0:
302,239,123600,1,2,0:1:0:0:
329,224,123708,1,2,0:1:0:0:
261,340,123816,5,8,0:1:0:0:
294,337,123924,1,2,0:1:0:0:
323,328,124032,1,2,0:1:0:0:
174,229,124141,5,0,3:0:0:0:
126,212,124249,1,2,0:1:0:0:
75,209,124357,1,2,0:1:0:0:
4,325,124465,5,8,0:1:0:0:
55,322,124573,1,2,0:1:0:0:
103,305,124681,1,2,0:1:0:0:
238,174,124790,6,0,P|214:234|205:352,1,152.999995330811,0|0,3:0|0:0,0:0:0:0:
251,166,125114,2,0,L|231:47,1,101.999996887207,8|2,0:1|0:1,0:0:0:0:
329,279,125438,2,0,P|376:298|426:299,1,101.999996887207,0|2,3:0|0:1,0:0:0:0:
214,59,125763,5,8,0:1:0:0:
254,334,125925,1,8,0:1:0:0:
450,149,126087,5,0,3:0:0:0:
407,122,126168,1,8,0:1:0:0:
357,120,126249,1,8,0:1:0:0:
307,135,126330,1,8,0:1:0:0:
267,169,126411,1,8,3:1:0:0:
229,203,126492,1,8,0:1:0:0:
180,216,126573,1,8,0:1:0:0:
130,206,126654,1,8,0:1:0:0:
92,174,126736,5,8,0:3:0:0:
86,143,126817,1,8,0:3:0:0:
80,113,126898,1,8,0:1:0:0:
76,83,126979,1,8,0:1:0:0:
68,51,127060,5,8,3:1:0:0:
62,106,127141,1,8,0:1:0:0:
56,162,127222,1,8,0:1:0:0:
51,218,127303,1,8,0:1:0:0:
45,274,127384,5,4,3:1:0:0:
172,87,127546,1,2,0:1:0:0:
251,278,127709,1,8,0:1:0:0:
290,97,127871,1,2,0:1:0:0:
353,242,128033,1,0,3:0:0:0:
391,106,128195,1,2,0:1:0:0:
436,190,128357,1,8,0:1:0:0:
480,110,128519,1,2,0:1:0:0:
270,191,128682,5,0,3:0:0:0:
488,268,128844,1,2,0:1:0:0:
280,296,129006,1,8,0:1:0:0:
420,347,129168,2,0,P|333:322|196:343,1,203.999993774414,2|2,0:1|0:1,0:0:0:0:
63,275,129655,2,0,P|134:271|184:239,1,101.999996887207,8|2,0:1|0:1,0:0:0:0:
105,80,129979,6,0,L|92:223,1,101.999996887207,0|2,3:0|0:1,0:0:0:0:
191,26,130303,1,8,0:1:0:0:
3,117,130465,1,0,0:0:0:0:
190,157,130628,2,0,B|223:164|223:164|305:143,1,101.999996887207,0|2,3:0|0:1,0:0:0:0:
460,317,130952,2,0,B|427:324|427:324|345:303,1,101.999996887207,8|0,0:1|0:0,0:0:0:0:
435,34,131276,6,0,B|465:61|465:61|473:121|430:180,1,152.999995330811,0|0,3:0|0:0,0:0:0:0:
416,241,131601,2,0,L|397:181,1,50.9999984436036,8|0,0:1|0:0,0:0:0:0:
220,46,131763,2,0,P|155:122|57:142,1,203.999993774414,4|8,3:2|0:1,0:0:0:0:
57,142,132168,1,8,0:1:0:0:
57,142,132250,1,8,0:3:0:0:
107,146,132331,1,8,0:3:0:0:
151,170,132412,1,8,0:1:0:0:
181,211,132493,1,8,0:1:0:0:
191,260,132574,6,0,L|179:363,1,101.999996887207,4|2,3:1|0:1,0:0:0:0:
314,179,132898,2,0,L|326:282,1,101.999996887207,8|0,0:1|0:0,0:0:0:0:
451,68,133222,2,0,L|349:79,1,101.999996887207,0|2,3:0|0:1,0:0:0:0:
57,165,133546,2,0,L|158:176,1,101.999996887207,8|0,0:1|0:0,0:0:0:0:
441,327,133871,5,0,3:0:0:0:
297,293,134033,1,2,0:1:0:0:
496,225,134195,1,8,0:1:0:0:
351,187,134357,1,0,0:0:0:0:
475,48,134519,2,0,P|468:98|444:143,1,101.999996887207,0|2,3:0|0:1,0:0:0:0:
259,378,134844,5,8,0:1:0:0:
256,327,134925,1,2,0:3:0:0:
254,276,135006,1,8,0:3:0:0:
252,225,135087,1,4,0:3:0:0:
250,174,135168,5,8,3:1:0:0:
169,314,135330,1,8,3:1:0:0:
295,108,135655,5,8,3:1:0:0:
400,311,135817,1,8,3:1:0:0:
222,57,136141,5,8,3:1:0:0:
89,327,136303,1,8,3:1:0:0:
284,0,136628,5,8,3:1:0:0:
461,384,136790,2,0,P|488:339|486:283,1,101.999996887207,4|0,3:0|3:0,0:0:0:0:
168,214,137114,6,0,L|67:231,1,101.999996887207,10|0,0:1|3:0,0:0:0:0:
332,116,137438,2,0,L|432:133,1,101.999996887207,10|0,0:1|3:0,0:0:0:0:
102,12,137763,6,0,P|99:38|116:85,1,50.9999984436036,4|0,3:2|0:0,0:0:0:0:
214,133,137925,1,8,0:1:0:0:
171,106,138006,1,8,0:1:0:0:
121,104,138087,1,8,3:1:0:0:
76,127,138168,1,8,0:1:0:0:
50,170,138249,1,8,0:1:0:0:
48,221,138330,1,8,0:1:0:0:
73,265,138411,5,8,3:1:0:0:
120,260,138492,1,8,0:1:0:0:
163,253,138573,1,8,0:1:0:0:
208,247,138654,1,8,0:1:0:0:
245,220,138736,5,8,0:1:0:0:
295,226,138817,1,2,0:3:0:0:
343,233,138898,1,8,0:3:0:0:
392,242,138979,1,4,0:3:0:0:
415,277,139060,6,0,L|431:347,3,50.9999984436036,4|8|8|8,3:1|0:1|0:1|0:1,0:0:0:0:
512,212,139384,2,0,L|501:262,3,50.9999984436036,8|2|2|2,3:1|0:3|0:3|0:3,0:0:0:0:
343,95,139709,2,0,L|359:165,3,50.9999984436036,8|8|8|8,3:1|0:3|0:3|0:3,0:0:0:0:
512,16,140033,2,0,L|500:65,3,50.9999984436036,8|4|4|4,3:1|0:3|0:3|0:3,0:0:0:0:
458,205,140357,5,4,3:2:0:0:
417,235,140438,1,0,3:0:0:0:
368,249,140519,1,0,3:0:0:0:
318,244,140600,1,0,3:0:0:0:
272,221,140681,1,2,3:1:0:0:
247,179,140762,1,0,3:0:0:0:
204,155,140844,1,0,3:0:0:0:
153,149,140925,1,0,3:0:0:0:
103,163,141006,1,2,3:1:0:0:
62,194,141087,1,0,3:0:0:0:
37,236,141168,1,0,3:0:0:0:
30,286,141249,1,0,3:0:0:0:
41,333,141330,6,0,L|133:320,1,50.9999984436036,8|8,3:1|3:1,0:0:0:0:
396,142,141492,2,0,L|304:129,1,50.9999984436036,8|8,3:1|3:1,0:0:0:0:
100,23,141655,5,8,1:0:0:0:
162,384,141817,1,4,3:0:0:0:
321,313,142141,1,0,3:0:0:0:
160,209,142465,1,0,3:0:0:0:
161,224,142546,1,0,3:0:0:0:
163,240,142628,1,8,1:0:0:0:
414,76,142952,5,4,3:2:0:0:
411,92,144249,1,4,3:2:0:0:
408,107,145546,1,4,3:2:0:0:
408,123,146844,1,4,3:2:0:0:
185,335,147979,1,8,0:1:0:0:
185,335,148060,1,8,0:1:0:0:
189,338,148141,6,0,L|79:323,1,101.999996887207,6|2,3:1|0:1,0:0:0:0:
159,242,148384,1,2,0:1:0:0:
159,242,148465,2,0,L|49:227,1,101.999996887207,0|2,3:0|0:1,0:0:0:0:
316,340,148790,5,0,3:0:0:0:
410,322,148952,1,2,0:1:0:0:
349,260,149114,1,0,3:0:0:0:
440,239,149276,1,2,0:1:0:0:
252,74,149438,5,0,3:0:0:0:
369,167,149601,1,2,0:1:0:0:
420,33,149763,1,0,3:0:0:0:
376,180,149925,1,2,0:1:0:0:
165,52,150087,5,0,3:0:0:0:
350,90,150249,1,2,0:1:0:0:
190,206,150411,2,0,L|41:184,1,101.999996887207,0|2,3:0|0:1,0:0:0:0:
255,328,150736,5,4,0:1:0:0:
255,328,151060,2,0,P|237:265|139:297,1,152.999995330811
99,324,151384,6,0,L|114:411,1,50.9999984436036,0|0,3:0|3:0,0:0:0:0:
189,205,151546,2,0,L|198:155,1,50.9999984436036,8|8,0:1|0:1,0:0:0:0:
113,8,151709,5,8,0:1:0:0:
143,48,151790,1,2,0:3:0:0:
186,74,151871,1,8,0:3:0:0:
236,81,151952,1,4,0:3:0:0:
286,69,152033,6,0,B|363:16|457:29|457:29|431:46|413:81,1,233.75,4|0,3:2|0:0,0:0:0:0:
502,114,153006,2,0,P|507:197|496:253,1,127.5,2|0,0:0|0:0,0:0:0:0:
442,333,153330,6,0,P|396:294|267:260,1,178.499994552612,4|0,3:2|0:0,0:0:0:0:
105,301,153655,5,8,0:1:0:0:
417,197,153817,1,2,0:1:0:0:
225,100,153979,5,0,3:0:0:0:
319,363,154141,1,2,0:1:0:0:
85,290,154303,5,8,0:1:0:0:
427,178,154465,1,2,0:1:0:0:
209,84,154628,5,0,3:0:0:0:
310,382,154790,1,2,0:1:0:0:
322,101,154952,1,8,0:1:0:0:
236,283,155114,1,2,0:1:0:0:
127,60,155276,2,0,P|171:11|223:0,1,118.999996368408,0|2,3:0|0:1,0:0:0:0:
417,183,155601,1,8,0:1:0:0:
100,151,155763,1,10,0:1:0:0:
357,81,155925,6,0,L|384:278,1,178.499994552612,4|0,3:2|0:0,0:0:0:0:
398,351,156249,5,8,0:1:0:0:
446,32,156411,1,2,0:1:0:0:
288,296,156574,5,0,3:0:0:0:
261,23,156736,1,2,0:1:0:0:
178,325,156898,5,8,0:1:0:0:
62,81,157060,1,2,0:1:0:0:
376,186,157222,5,0,3:0:0:0:
95,287,157384,1,2,0:1:0:0:
325,98,157546,1,8,0:1:0:0:
341,349,157709,1,2,0:1:0:0:
157,211,157871,2,0,L|284:166,1,118.999996368408,0|10,3:0|0:1,0:0:0:0:
95,287,158195,1,8,0:1:0:0:
376,186,158357,1,10,0:1:0:0:
29,24,158519,6,0,B|52:68|52:68|224:101,1,178.499994552612,4|0,3:1|0:0,0:0:0:0:
331,102,158844,5,8,0:1:0:0:
222,314,159006,1,2,0:1:0:0:
261,36,159168,5,0,3:0:0:0:
404,339,159330,1,2,0:1:0:0:
444,14,159492,5,8,0:1:0:0:
314,339,159655,1,2,0:1:0:0:
351,0,159817,5,4,3:2:0:0:
461,235,159979,1,2,0:1:0:0:
200,145,160141,1,8,0:1:0:0:
451,110,160303,1,2,0:1:0:0:
266,258,160465,2,0,P|193:282|94:218,1,178.499994552612,0|0,3:0|0:0,0:0:0:0:
20,173,160790,2,0,P|1:261|15:320,1,118.999996368408,8|2,0:1|0:1,0:0:0:0:
69,60,161114,6,0,B|120:37|120:37|170:50|170:50|267:41,1,178.499994552612,6|0,0:3|0:0,0:0:0:0:
408,131,161438,2,0,P|456:188|480:256,1,118.999996368408,8|2,0:1|0:1,0:0:0:0:
300,210,161763,2,0,P|297:269|277:325,1,118.999996368408,0|2,3:0|0:1,0:0:0:0:
395,13,162087,2,0,P|469:19|534:50,1,118.999996368408,8|2,0:1|0:3,0:0:0:0:
29,206,162411,5,0,3:0:0:0:
4,151,162492,1,0,3:0:0:0:
9,93,162573,1,8,0:1:0:0:
46,50,162654,1,8,0:1:0:0:
95,23,162736,6,0,L|162:38,1,68,8|8,0:1|0:1,0:0:0:0:
402,74,162898,2,0,L|336:89,1,68,8|8,0:1|0:1,0:0:0:0:
110,144,163060,6,0,L|177:159,1,68,8|8,0:1|0:1,0:0:0:0:
392,193,163222,2,0,L|326:208,1,68,8|8,0:1|0:1,0:0:0:0:
137,270,163384,6,0,L|204:285,1,68,8|2,0:1|0:3,0:0:0:0:
368,304,163546,2,0,L|302:319,1,68,8|4,0:3|0:3,0:0:0:0:
257,384,163709,6,0,L|241:170,1,204,4|0,3:1|0:0,0:0:0:0:
182,71,164033,2,0,P|286:147|395:94,1,237.999992736817,10|0,0:1|3:0,0:0:0:0:
493,303,164519,2,0,P|429:272|335:266,1,118.999996368408,0|10,3:0|0:1,0:0:0:0:
180,360,164844,1,0,0:0:0:0:
72,184,165006,6,0,L|47:28,1,118.999996368408,2|0,3:1|0:0,0:0:0:0:
255,164,165330,2,0,L|236:281,1,118.999996368408,10|0,0:1|0:0,0:0:0:0:
168,122,165655,1,2,3:1:0:0:
384,92,165817,1,0,3:0:0:0:
275,42,165979,1,8,0:1:0:0:
510,109,166141,1,0,0:0:0:0:
402,280,166303,6,0,P|385:202|378:50,1,178.499994552612,2|0,3:1|0:0,0:0:0:0:
384,92,166628,1,10,0:1:0:0:
330,332,166790,2,0,P|270:292|191:283,1,118.999996368408,0|0,0:0|3:0,0:0:0:0:
15,351,167114,2,0,P|76:351|130:325,1,118.999996368408,0|8,3:0|0:1,0:0:0:0:
257,133,167438,1,0,0:0:0:0:
55,253,167601,6,0,P|48:147|26:57,1,178.499994552612,2|0,3:1|0:0,0:0:0:0:
19,55,167925,1,8,0:1:0:0:
173,0,168087,2,0,P|157:52|153:117,1,118.999996368408
382,280,168411,1,0,3:0:0:0:
310,98,168574,1,8,0:1:0:0:
207,292,168736,1,8,0:1:0:0:
324,83,168898,6,0,B|387:71|387:71|432:85|432:85|512:70,1,178.499994552612,4|0,3:2|0:0,0:0:0:0:
508,62,169222,1,10,0:1:0:0:
337,200,169384,2,0,P|263:179|208:139,1,118.999996368408,0|2,0:0|3:1,0:0:0:0:
101,342,169709,6,0,B|152:330|152:330|233:272,1,118.999996368408,0|8,3:0|0:1,0:0:0:0:
49,86,170033,2,0,P|12:170|143:228,1,237.999992736817
185,81,170519,1,10,0:1:0:0:
256,246,170682,1,0,0:0:0:0:
349,118,170844,5,2,3:1:0:0:
305,333,171006,1,0,3:0:0:0:
258,159,171168,1,8,0:1:0:0:
313,348,171330,1,8,0:1:0:0:
463,226,171492,2,0,L|341:211,1,118.999996368408,0|0,3:0|0:0,0:0:0:0:
126,147,171817,6,0,P|103:85|101:-7,1,118.999996368408,10|0,0:1|0:0,0:0:0:0:
376,122,172141,2,0,P|399:60|401:-32,1,118.999996368408,2|0,3:1|0:0,0:0:0:0:
204,252,172465,2,0,L|87:274,1,118.999996368408,10|0,0:1|0:0,0:0:0:0:
317,198,172709,1,2,0:1:0:0:
317,198,172790,2,0,L|433:220,1,118.999996368408,2|0,3:1|0:0,0:0:0:0:
290,294,173033,1,2,0:1:0:0:
290,294,173114,1,8,0:1:0:0:
223,159,173276,1,4,3:0:0:0:
223,159,173357,1,4,3:0:0:0:
223,159,173438,6,0,L|206:61,1,68,8|0,0:1|0:0,0:0:0:0:
317,198,173601,2,0,L|328:131,1,68,8|0,0:1|0:0,0:0:0:0:
167,267,173763,2,0,L|125:176,1,68,8|8,0:1|0:1,0:0:0:0:
367,312,173926,2,0,L|395:250,1,68,8|8,0:1|0:1,0:0:0:0:
256,382,174087,5,4,3:1:0:0:
107,357,174249,2,0,P|186:300|291:297,1,178.499994552612,2|0,0:1|0:0,0:0:0:0:
167,267,174574,2,0,P|250:262|303:281,1,118.999996368408,2|0,0:1|3:0,0:0:0:0:
512,152,174898,2,0,P|428:160|359:128,1,118.999996368408,2|8,0:1|0:1,0:0:0:0:
311,0,175222,1,2,0:1:0:0:
426,59,175384,6,0,B|375:65|375:65|328:85|328:85|251:77,1,178.499994552612,0|0,3:0|0:0,0:0:0:0:
144,46,175709,1,8,0:1:0:0:
270,162,175871,1,2,0:1:0:0:
51,210,176033,1,0,3:0:0:0:
163,140,176195,1,2,0:1:0:0:
111,298,176357,1,8,0:1:0:0:
67,120,176519,1,2,0:1:0:0:
37,353,176682,5,0,3:0:0:0:
228,315,176844,2,0,L|83:293,1,118.999996368408,2|8,0:1|0:1,0:0:0:0:
307,379,177168,2,0,P|327:320|309:253,1,118.999996368408,2|0,0:1|3:0,0:0:0:0:
240,157,177492,2,0,P|291:213|433:198,1,178.499994552612,2|0,0:1|0:0,0:0:0:0:
444,160,177817,1,2,0:1:0:0:
325,8,177979,6,0,L|344:139,1,118.999996368408,0|2,3:0|0:1,0:0:0:0:
243,298,178303,1,8,0:1:0:0:
145,227,178465,2,0,P|122:182|122:114,1,118.999996368408,2|0,0:3|3:0,0:0:0:0:
272,17,178790,1,10,0:1:0:0:
272,17,178871,1,0,3:0:0:0:
272,17,178952,1,8,0:1:0:0:
240,157,179114,1,10,0:1:0:0:
27,97,179276,6,0,L|213:71,1,152.999995330811,0|0,3:0|0:0,0:0:0:0:
178,75,179601,1,8,0:1:0:0:
303,238,179763,2,0,L|421:219,1,101.999996887207,2|0,0:1|3:0,0:0:0:0:
210,367,180087,2,0,P|194:316|190:253,1,101.999996887207,2|8,0:1|0:1,0:0:0:0:
325,139,180411,2,0,P|319:189|304:238,1,101.999996887207,2|0,0:1|3:0,0:0:0:0:
254,46,180736,1,2,0:1:0:0:
427,97,180898,5,8,0:1:0:0:
427,97,181060,1,2,0:1:0:0:
232,176,181222,1,0,3:0:0:0:
134,15,181384,1,2,0:1:0:0:
131,265,181546,1,8,0:1:0:0:
338,184,181709,1,2,0:1:0:0:
57,185,181871,2,0,P|33:222|23:287,1,101.999996887207,0|2,3:0|0:1,0:0:0:0:
148,115,182195,6,0,L|130:-11,1,101.999996887207,8|2,0:1|0:1,0:0:0:0:
338,184,182519,2,0,L|356:58,1,101.999996887207,0|8,3:0|0:1,0:0:0:0:
352,83,182763,1,8,0:1:0:0:
352,83,182844,1,8,0:1:0:0:
396,106,182925,1,2,0:3:0:0:
425,148,183006,1,8,0:3:0:0:
431,198,183087,1,4,0:3:0:0:
413,245,183168,2,0,L|424:310,3,50.9999984436036,0|8|8|8,3:0|0:1|0:1|0:1,0:0:0:0:
337,298,183492,2,0,L|347:362,3,50.9999984436036,8|8|8|8,0:3|0:3|0:3|0:3,0:0:0:0:
258,246,183817,5,8,0:1:0:0:
213,221,183898,1,2,0:3:0:0:
163,214,183979,1,8,0:3:0:0:
113,223,184060,1,4,0:3:0:0:
69,249,184141,2,0,L|55:326,1,50.9999984436036,8|2,0:1|0:3,0:0:0:0:
201,139,184303,2,0,L|191:88,1,50.9999984436036,8|4,0:3|0:3,0:0:0:0:
83,2,184465,6,0,P|133:39|257:23,1,152.999995330811,4|0,3:2|0:0,0:0:0:0:
326,11,184790,2,0,L|305:131,1,101.999996887207,8|2,0:1|0:1,0:0:0:0:
495,99,185114,2,0,L|516:219,1,101.999996887207,0|2,3:0|0:1,0:0:0:0:
380,266,185438,2,0,L|397:165,1,101.999996887207,8|2,0:1|0:1,0:0:0:0:
470,317,185763,6,0,P|405:363|288:313,1,203.999993774414,0|8,3:0|0:1,0:0:0:0:
86,268,186249,2,0,P|162:281|232:166,1,203.999993774414,2|2,0:1|0:1,0:0:0:0:
110,89,186736,2,0,B|110:129|110:129|146:212,1,101.999996887207,8|2,0:1|0:1,0:0:0:0:
335,89,187060,5,0,3:0:0:0:
323,102,187384,2,0,P|261:92|214:91,1,101.999996887207,8|2,0:1|0:1,0:0:0:0:
380,8,187709,2,0,P|414:46|444:88,1,101.999996887207,0|2,3:0|0:1,0:0:0:0:
410,273,188033,2,0,L|387:146,1,101.999996887207,8|2,0:1|0:1,0:0:0:0:
234,349,188357,6,0,P|300:280|410:289,1,203.999993774414,0|8,3:0|0:1,0:0:0:0:
245,197,188844,2,0,P|161:182|115:188,1,101.999996887207,2|0,0:1|3:0,0:0:0:0:
144,182,189087,1,0,0:0:0:0:
144,182,189168,1,10,0:1:0:0:
387,117,189330,1,8,0:1:0:0:
398,126,189655,6,0,L|401:20,1,101.999996887207,4|2,3:1|0:1,0:0:0:0:
191,77,189979,2,0,P|260:96|329:75,1,101.999996887207,8|2,0:1|0:1,0:0:0:0:
112,7,190303,2,0,P|61:4|13:22,1,101.999996887207,0|2,3:0|0:1,0:0:0:0:
91,196,190628,2,0,L|74:78,1,101.999996887207,8|2,0:1|0:1,0:0:0:0:
19,288,190952,6,0,P|114:228|231:249,1,203.999993774414,0|8,3:0|0:1,0:0:0:0:
386,308,191438,2,0,P|285:311|203:254,1,203.999993774414,2|2,0:1|0:1,0:0:0:0:
338,102,191925,2,0,L|305:238,1,101.999996887207,8|2,0:1|0:1,0:0:0:0:
143,111,192249,6,0,B|177:98|177:98|250:113,1,101.999996887207,0|2,3:0|0:1,0:0:0:0:
101,193,192574,1,8,0:1:0:0:
65,53,192736,1,2,0:1:0:0:
15,260,192898,1,0,3:0:0:0:
30,134,193060,1,2,0:1:0:0:
82,310,193222,2,0,P|140:313|189:283,1,101.999996887207,8|2,0:1|0:1,0:0:0:0:
242,132,193546,6,0,L|138:110,1,101.999996887207,0|2,3:0|0:1,0:0:0:0:
280,229,193871,2,0,L|384:207,1,101.999996887207,8|2,0:1|0:1,0:0:0:0:
443,115,194195,1,0,3:0:0:0:
443,115,194276,1,0,0:0:0:0:
443,115,194357,1,2,0:1:0:0:
452,285,194519,1,8,0:1:0:0:
338,132,194682,1,2,0:1:0:0:
297,331,194844,6,0,P|224:323|184:251,1,140.25000428009,4|0,3:2|0:0,0:0:0:0:
113,233,195168,2,0,P|144:199|188:184,1,93.5000028533936,8|2,0:1|0:1,0:0:0:0:
315,44,195492,2,0,P|361:42|403:61,1,93.5000028533936,0|2,3:2|0:1,0:0:0:0:
216,87,195817,2,0,P|139:65|42:62,1,140.25000428009,8|0,0:1|0:0,0:0:0:0:
16,120,196141,6,0,P|36:167|57:311,1,187.000005706787,0|8,3:2|0:1,0:0:0:0:
216,87,196628,2,0,P|214:138|172:277,1,187.000005706787,2|2,0:1|0:1,0:0:0:0:
417,134,197114,2,0,P|390:202|371:239,1,93.5000028533936,8|2,0:1|0:1,0:0:0:0:
294,325,197438,6,0,B|325:303|367:310|367:310|414:319|454:285,1,140.25000428009,0|0,3:2|0:0,0:0:0:0:
381,220,197763,2,0,L|279:211,1,93.5000028533936,8|2,0:1|0:1,0:0:0:0:
206,352,198087,2,0,L|104:343,1,93.5000028533936,0|2,3:2|0:1,0:0:0:0:
20,181,198411,2,0,P|75:225|137:237,1,93.5000028533936,8|2,0:1|0:1,0:0:0:0:
105,38,198736,6,0,B|94:63|94:63|111:141,1,93.5000028533936,0|2,3:2|0:1,0:0:0:0:
269,0,199060,1,8,0:1:0:0:
328,95,199222,2,0,L|153:69,1,140.25000428009,2|0,0:1|0:0,0:0:0:0:
108,127,199546,1,10,0:1:0:0:
316,197,199709,2,0,L|432:169,1,93.5000028533936,8|10,0:1|0:1,0:0:0:0:
249,293,200033,6,0,P|201:222|206:161,1,140.25000428009,4|0,3:2|0:0,0:0:0:0:
165,248,200357,2,0,P|108:253|46:235,1,93.5000028533936,8|2,0:1|0:1,0:0:0:0:
187,353,200682,2,0,P|130:348|68:366,1,93.5000028533936,0|2,3:2|0:1,0:0:0:0:
318,359,201006,2,0,P|338:311|339:252,1,93.5000028533936,8|2,0:1|0:1,0:0:0:0:
109,65,201330,6,0,L|124:200,1,93.5000028533936,0|2,3:2|0:1,0:0:0:0:
304,49,201655,1,8,0:1:0:0:
204,19,201817,2,0,L|219:154,1,93.5000028533936,2|0,0:1|3:2,0:0:0:0:
214,111,202060,1,0,0:0:0:0:
214,111,202141,1,2,0:1:0:0:
414,100,202303,1,8,0:1:0:0:
304,49,202465,1,2,0:1:0:0:
380,228,202628,6,0,P|471:221|494:201,1,93.5000028533936,0|2,3:2|0:1,0:0:0:0:
290,306,202952,2,0,P|199:299|176:279,1,93.5000028533936,8|2,0:1|0:1,0:0:0:0:
220,133,203276,1,0,3:2:0:0:
250,228,203438,1,2,0:1:0:0:
154,77,203601,1,8,0:1:0:0:
129,191,203763,1,2,0:1:0:0:
296,81,203925,5,4,3:1:0:0:
61,117,204087,1,4,3:0:0:0:
31,152,204168,1,4,3:0:0:0:
19,197,204249,1,8,0:1:0:0:
29,242,204330,1,8,0:1:0:0:
58,279,204411,1,8,0:1:0:0:
99,299,204492,1,8,0:1:0:0:
146,299,204573,1,8,0:1:0:0:
192,281,204655,1,8,0:1:0:0:
223,245,204736,6,0,L|241:179,1,46.7500014266968,8|8,3:1|0:1,0:0:0:0:
174,69,204898,2,0,L|192:135,1,46.7500014266968,8|8,3:1|0:1,0:0:0:0:
268,349,205060,5,2,3:1:0:0:
