osu file format v14

[General]
AudioFilename: audio.mp3
AudioLeadIn: 0
PreviewTime:69793
Countdown: 0
SampleSet: Soft
StackLeniency: 0.5
Mode: 0
LetterboxInBreaks: 0
WidescreenStoryboard: 1

[Editor]
DistanceSpacing: 0.8
BeatDivisor: 4
GridSize: 32
TimelineZoom: 1.2

[Metadata]
Title:Teo
TitleUnicode:テオ
Artist:Araki
ArtistUnicode:あらき
Creator:Nevo
Version:Akitoshi's Normal.
Source:
Tags:foxy grandpa Akitoshi -Laura- lapp milkayy snownino_ shunao shogunmoon utaite cover vocaloid hatsune miku synth rock killian tachibana_ [_TNTlealu_] omoi Ascent japanese jrock j-rock foxygrandpa
BeatmapID:3497821
BeatmapSetID:1704681

[Difficulty]
HPDrainRate:3
CircleSize:3.2
OverallDifficulty:4
ApproachRate:5
SliderMultiplier:0.999999999999999
SliderTickRate:1

[Events]
//Background and Video events
0,0,"anime-girl-falling-up-clouds-sky-school-uniform.jpg",0,0
//Break Periods
2,114611,115806
2,143152,146941
2,187260,193644
//Storyboard Layer 0 (Background)
//Storyboard Layer 1 (Fail)
//Storyboard Layer 2 (Pass)
//Storyboard Layer 3 (Foreground)
//Storyboard Layer 4 (Overlay)
//Storyboard Sound Samples

[TimingPoints]
1547,324.324324324324,4,2,1,60,1,0
2844,-100,4,2,1,60,0,0
3087,-100,4,2,1,5,0,0
3168,-100,4,2,1,60,0,0
3736,-100,4,2,1,5,0,0
3816,-100,4,2,1,60,0,0
4384,-100,4,2,1,5,0,0
4465,-100,4,2,1,60,0,0
5033,-100,4,2,1,5,0,0
5114,-100,4,2,1,60,0,0
5682,-100,4,2,1,5,0,0
5762,-100,4,2,1,60,0,0
6330,-100,4,2,1,5,0,0
6411,-100,4,2,1,60,0,0
6979,-100,4,2,1,5,0,0
7060,-100,4,2,1,60,0,0
8033,-100,4,2,1,60,0,0
12736,-100,4,2,1,80,0,0
13222,-100,4,2,1,80,0,0
15817,-100,4,2,1,80,0,0
16060,-100,4,2,1,5,0,0
16141,-100,4,2,1,80,0,0
18087,-100,4,2,1,80,0,0
18411,-100,4,2,1,80,0,0
18655,-100,4,2,1,5,0,0
18736,-100,4,2,1,80,0,0
21249,-100,4,2,1,5,0,0
21330,-100,4,2,1,80,0,0
23601,-100,4,2,1,80,0,0
27492,-100,4,2,1,80,0,0
27817,-100,4,2,1,80,0,0
28790,-100,4,2,1,80,0,0
34222,-100,4,2,1,5,0,0
34303,-100,4,2,1,80,0,0
37871,-100,4,2,1,80,0,0
38195,-100,4,2,1,80,0,0
39168,-100,4,2,1,80,0,0
40060,-100,4,2,1,5,0,0
40141,-100,4,2,1,80,0,0
41357,-100,4,2,1,5,0,0
41438,-100,4,2,1,80,0,0
47519,-100,4,2,1,5,0,0
47601,-100,4,2,1,80,0,0
67790,-100,4,2,1,60,0,0
68033,-100,4,2,1,80,0,0
69736,-100,4,2,1,5,0,0
69817,-100,4,2,1,80,0,0
69979,-100,4,2,1,80,0,0
70222,-100,4,2,1,5,0,0
70303,-95.2380952380952,4,2,1,80,0,1
88709,-95.2380952380952,4,2,1,5,0,1
88790,-95.2380952380952,4,2,1,80,0,1
100871,-95.2380952380952,4,2,1,5,0,1
100952,-95.2380952380952,4,2,1,80,0,1
101033,-95.2380952380952,4,2,1,5,0,1
101114,-95.2380952380952,4,2,1,80,0,1
111817,-100,4,2,1,80,0,0
115709,-100,4,2,1,80,0,0
116438,-100,4,2,1,5,0,0
116519,-100,4,2,1,80,0,0
118303,-100,4,2,1,80,0,0
131519,-100,4,2,1,5,0,0
131601,-100,4,2,1,80,0,0
131682,-100,4,2,1,5,0,0
131763,-100,4,2,1,80,0,0
137925,-100,4,2,1,50,0,0
138087,-100,4,2,1,80,0,0
138168,-100,4,2,1,50,0,0
138411,-100,4,2,1,80,0,0
138492,-100,4,2,1,50,0,0
138736,-100,4,2,1,80,0,0
151303,-100,4,2,1,5,0,0
151384,-100,4,2,1,80,0,0
151546,-100,4,2,1,60,0,0
152033,-100,4,2,1,80,0,0
152925,-100,4,2,1,5,0,0
153006,-100,4,2,0,100,0,0
153249,-100,4,2,1,5,0,0
153330,-95.2380952380952,4,2,1,80,0,1
153574,-95.2380952380952,4,2,1,5,0,1
153655,-95.2380952380952,4,2,1,80,0,1
156168,-95.2380952380952,4,2,1,5,0,1
156249,-95.2380952380952,4,2,1,80,0,1
158763,-95.2380952380952,4,2,1,5,0,1
158844,-95.2380952380952,4,2,1,80,0,1
160709,-95.2380952380952,4,2,1,5,0,1
160790,-95.2380952380952,4,2,1,80,0,1
161357,-95.2380952380952,4,2,1,5,0,1
161438,-95.2380952380952,4,2,1,80,0,1
184465,-100,4,2,1,80,0,0
184709,-100,4,2,1,5,0,0
184790,-100,4,2,1,80,0,0
194844,-100,4,2,1,80,0,0

[Colours]
Combo1 : 128,0,255
Combo2 : 255,128,0
Combo3 : 0,255,255
Combo4 : 255,128,255

[HitObjects]
102,148,2844,6,0,P|145:138|205:131,1,99.9999999999999,4|8,0:0|0:1,0:0:0:0:
272,62,3492,2,0,P|315:72|375:79,1,99.9999999999999,0|8,3:0|0:1,0:0:0:0:
470,74,4141,2,0,P|490:120|479:179,1,99.9999999999999,0|8,3:0|0:1,0:0:0:0:
389,200,4790,2,0,P|369:246|380:305,1,99.9999999999999,0|8,3:0|0:1,0:0:0:0:
311,371,5438,5,0,3:0:0:0:
233,307,5763,1,8,0:1:0:0:
149,361,6087,2,0,P|87:351|37:346,1,99.9999999999999,0|8,3:0|0:1,0:0:0:0:
0,259,6736,1,0,3:0:0:0:
58,177,7060,1,8,0:1:0:0:
157,179,7384,2,0,P|162:211|167:236,2,50,0|8|8,3:0|0:1|0:1,0:0:0:0:
140,80,8033,6,0,P|87:86|36:70,2,99.9999999999999,4|8|0,3:2|0:1|3:2,0:0:0:0:
228,33,9006,1,8,0:1:0:0:
320,70,9330,2,0,P|332:117|341:169,1,99.9999999999999,0|8,3:2|0:1,0:0:0:0:
429,215,9979,2,0,P|417:262|408:314,1,99.9999999999999,0|8,3:2|0:1,0:0:0:0:
314,347,10628,6,0,P|246:362|198:345,1,99.9999999999999,0|8,3:2|0:1,0:0:0:0:
134,299,11276,1,0,3:2:0:0:
172,206,11601,2,0,L|163:153,1,50,8|0,0:1|3:0,0:0:0:0:
158,107,11925,2,0,P|119:111|78:96,2,74.9999999999999,10|10|10,0:1|0:1|0:1,0:0:0:0:
249,65,12736,2,0,L|240:12,2,50,8|8|8,3:1|3:1|3:1,0:0:0:0:
282,102,13222,6,0,P|329:82|385:88,1,99.9999999999999,4|8,3:2|0:1,0:0:0:0:
470,120,13871,1,0,3:0:0:0:
498,215,14195,1,8,0:1:0:0:
443,298,14519,2,0,P|382:291|331:287,1,99.9999999999999,0|8,3:0|0:1,0:0:0:0:
305,254,15006,2,0,P|244:261|193:265,1,99.9999999999999,2|2,0:1|3:1,0:0:0:0:
155,268,15492,1,8,0:1:0:0:
67,219,15817,6,0,P|57:173|74:115,1,99.9999999999999,0|8,3:0|0:1,0:0:0:0:
140,51,16465,1,0,3:0:0:0:
240,51,16790,1,8,0:1:0:0:
310,121,17114,2,0,P|371:125|414:107,1,99.9999999999999,0|8,3:0|0:1,0:0:0:0:
456,110,17601,2,0,P|440:157|446:206,1,99.9999999999999,2|10,0:1|3:1,0:0:0:0:
457,254,18087,1,8,0:1:0:0:
425,348,18411,6,0,P|379:342|321:336,1,99.9999999999999,4|8,3:2|0:1,0:0:0:0:
225,326,19060,1,0,3:0:0:0:
175,239,19384,1,8,0:1:0:0:
242,164,19709,2,0,P|235:109|229:58,1,99.9999999999999,0|8,3:0|0:1,0:0:0:0:
219,15,20195,2,0,P|180:39|123:37,1,99.9999999999999,2|2,0:1|3:1,0:0:0:0:
79,23,20682,1,8,3:1:0:0:
14,98,21006,6,0,P|6:147|0:197,1,99.9999999999999,4|8,3:2|0:1,0:0:0:0:
80,256,21655,2,0,P|87:304|90:323,1,50,0|10,3:0|0:1,0:0:0:0:
94,354,21979,1,10,0:1:0:0:
193,356,22303,2,0,P|226:338|296:353,1,99.9999999999999,8|2,1:0|0:3,0:0:0:0:
339,339,22790,1,2,0:3:0:0:
339,339,22952,2,0,P|372:357|442:342,1,99.9999999999999,8|8,0:3|0:1,0:0:0:0:
490,267,23601,6,0,P|481:213|474:165,1,99.9999999999999,4|8,0:0|0:1,0:0:0:0:
405,95,24249,2,0,P|409:68|413:44,2,50,2|2|8,3:2|0:0|0:1,0:0:0:0:
308,122,24898,2,0,P|260:135|202:113,1,99.9999999999999,2|8,3:2|0:1,0:0:0:0:
178,85,25384,2,0,P|130:72|72:94,1,99.9999999999999,2|2,0:0|0:0,0:0:0:0:
46,120,25871,1,8,0:1:0:0:
8,212,26195,6,0,P|16:268|23:315,1,99.9999999999999,2|8,3:2|0:1,0:0:0:0:
32,360,26682,2,0,P|77:335|128:340,1,99.9999999999999,2|2,0:2|0:0,0:0:0:0:
169,360,27168,1,8,0:1:0:0:
260,318,27492,2,0,P|305:343|356:338,1,99.9999999999999,2|8,3:2|0:1,0:0:0:0:
400,320,27979,1,2,0:2:0:0:
400,320,28141,2,0,L|460:334,2,50,2|8|2,3:2|0:1|3:0,0:0:0:0:
358,228,28790,6,0,P|349:171|339:118,1,99.9999999999999,4|8,0:0|0:1,0:0:0:0:
270,58,29438,1,2,3:2:0:0:
169,58,29763,1,8,0:1:0:0:
98,128,30087,2,0,P|82:184|101:234,1,99.9999999999999,2|8,3:2|0:1,0:0:0:0:
144,308,30736,2,0,P|141:334|135:374,2,50,0|2|8,3:0|0:1|0:1,0:0:0:0:
225,250,31384,6,0,P|270:257|328:266,1,99.9999999999999,2|8,3:2|0:1,0:0:0:0:
421,234,32033,1,2,3:2:0:0:
421,234,32195,2,0,P|436:187|413:122,1,99.9999999999999,2|2,0:0|0:2,0:0:0:0:
400,94,32682,1,0,3:0:0:0:
311,47,33006,1,8,0:1:0:0:
215,76,33330,2,0,P|220:122|220:134,1,50,2|2,3:2|0:0,0:0:0:0:
257,159,33655,2,0,P|253:183|251:208,1,50,8|8,0:1|0:1,0:0:0:0:
225,250,33979,6,0,P|170:236|118:255,1,99.9999999999999,4|8,0:1|0:1,0:0:0:0:
42,297,34628,2,0,P|51:339|54:357,2,50,2|0|8,3:2|0:0|0:1,0:0:0:0:
2,204,35276,2,0,P|9:155|19:106,1,99.9999999999999,2|8,3:2|0:1,0:0:0:0:
30,57,35763,2,0,P|78:68|125:54,1,99.9999999999999,2|0,3:2|3:0,0:0:0:0:
166,26,36249,1,8,0:1:0:0:
243,89,36574,6,0,P|253:137|260:187,1,99.9999999999999,2|8,3:2|0:1,0:0:0:0:
267,236,37060,2,0,P|315:224|362:238,1,99.9999999999999
404,265,37546,1,8,0:1:0:0:
357,353,37871,2,0,P|308:364|261:350,1,99.9999999999999,2|8,3:2|0:1,0:0:0:0:
224,326,38357,1,2,0:0:0:0:
224,326,38519,2,0,L|163:337,2,50,0|8|0,3:0|0:1|3:0,0:0:0:0:
267,236,39168,6,0,P|275:186|255:135,1,99.9999999999999,4|8,0:1|0:1,0:0:0:0:
178,80,39817,1,2,3:2:0:0:
94,135,40141,2,0,P|99:162|103:189,1,50,8|2,0:1|0:0,0:0:0:0:
111,233,40465,2,0,P|62:228|10:255,2,99.9999999999999,0|8|0,3:0|0:1|3:0,0:0:0:0:
186,299,41438,1,8,0:1:0:0:
267,236,41763,6,0,P|319:244|377:254,1,99.9999999999999,0|8,3:0|0:1,0:0:0:0:
465,260,42411,1,0,3:0:0:0:
507,169,42736,1,8,0:1:0:0:
462,79,43060,2,0,P|412:62|352:76,1,99.9999999999999,4|2,0:1|3:1,0:0:0:0:
327,98,43546,1,8,0:1:0:0:
327,98,43709,2,0,P|333:138|336:152,2,50,2|8|4,3:0|0:1|3:0,0:0:0:0:
239,49,44357,6,0,P|189:66|129:52,1,99.9999999999999,4|8,3:2|0:1,0:0:0:0:
46,34,45006,1,0,3:0:0:0:
1,123,45330,1,8,0:1:0:0:
59,204,45655,2,0,P|106:197|163:188,1,99.9999999999999,0|8,3:0|0:1,0:0:0:0:
199,161,46141,2,0,P|246:168|303:177,1,99.9999999999999,2|2,0:1|3:1,0:0:0:0:
347,185,46628,1,8,0:1:0:0:
431,238,46952,6,0,P|451:286|439:335,1,99.9999999999999,0|8,3:0|0:1,0:0:0:0:
350,374,47601,1,0,3:0:0:0:
260,328,47925,2,0,P|215:334|191:338,1,50,8|0,0:1|3:0,0:0:0:0:
168,361,48249,2,0,P|114:354|64:348,1,99.9999999999999,12|2,0:1|0:3,0:0:0:0:
23,345,48736,1,4,0:3:0:0:
23,345,48898,2,0,P|9:299|26:243,1,99.9999999999999,8|8,0:1|0:1,0:0:0:0:
76,166,49546,6,0,P|119:183|180:171,1,99.9999999999999,4|8,0:0|0:1,0:0:0:0:
240,103,50195,2,0,L|234:49,2,50,2|2|8,3:2|0:2|0:1,0:0:0:0:
297,184,50844,2,0,P|286:249|282:291,1,99.9999999999999,2|8,3:2|0:1,0:0:0:0:
273,332,51330,2,0,P|316:315|377:327,1,99.9999999999999,2|2,0:2|0:2,0:0:0:0:
413,343,51817,1,8,0:1:0:0:
493,283,52141,6,0,P|487:233|478:184,1,99.9999999999999,2|8,3:2|0:1,0:0:0:0:
424,99,52790,2,0,P|429:68|433:45,2,50,2|2|8,3:2|0:2|0:1,0:0:0:0:
356,172,53438,2,0,P|309:179|252:160,1,99.9999999999999,2|8,3:2|0:1,0:0:0:0:
231,129,53925,1,2,0:2:0:0:
231,129,54087,2,0,P|236:98|240:75,2,50,2|8|2,3:2|0:1|3:2,0:0:0:0:
164,203,54736,6,0,P|114:209|67:195,1,99.9999999999999,6|8,3:2|0:1,0:0:0:0:
22,174,55222,1,2,0:2:0:0:
22,174,55384,2,0,P|30:229|35:288,1,99.9999999999999,2|8,3:2|0:1,0:0:0:0:
99,348,56033,1,2,3:2:0:0:
198,340,56357,1,8,0:1:0:0:
265,265,56682,2,0,L|319:274,2,50,2|2|8,3:2|0:1|0:1,0:0:0:0:
196,192,57330,6,0,P|187:141|206:89,1,99.9999999999999,2|8,3:2|0:1,0:0:0:0:
290,46,57979,1,2,3:2:0:0:
290,46,58141,2,0,P|337:60|386:51,1,99.9999999999999,2|2,0:2|0:2,0:0:0:0:
434,38,58628,2,0,P|419:85|428:134,1,99.9999999999999,2|8,3:2|0:1,0:0:0:0:
470,224,59276,1,2,3:2:0:0:
399,294,59601,2,0,L|341:301,1,50,8|2,0:1|0:3,0:0:0:0:
306,325,59925,6,0,P|257:317|200:309,1,99.9999999999999,4|8,0:1|0:1,0:0:0:0:
108,293,60574,1,2,3:2:0:0:
47,213,60898,1,8,0:1:0:0:
86,121,61222,2,0,P|138:127|197:104,1,99.9999999999999,2|8,3:2|0:1,0:0:0:0:
227,89,61709,2,0,P|279:83|338:106,1,99.9999999999999,0|0,0:0|3:0,0:0:0:0:
360,130,62195,1,8,0:1:0:0:
409,216,62519,6,0,P|458:210|511:204,2,99.9999999999999,2|8|2,3:2|0:1|3:2,0:0:0:0:
309,231,63492,1,8,0:1:0:0:
230,293,63817,2,0,P|182:311|116:291,1,99.9999999999999,2|8,3:2|0:1,0:0:0:0:
95,283,64303,1,0,0:0:0:0:
95,283,64465,2,0,P|103:234|85:188,1,99.9999999999999,2|8,3:1|0:1,0:0:0:0:
49,160,64952,1,8,0:1:0:0:
49,160,65114,6,0,P|56:104|64:48,1,99.9999999999999,4|8,3:2|0:1,0:0:0:0:
150,13,65763,1,0,3:0:0:0:
236,62,66087,2,0,L|294:51,1,50,8|2,0:1|0:1,0:0:0:0:
334,45,66411,2,0,P|320:95|341:147,1,99.9999999999999,0|8,3:0|0:1,0:0:0:0:
399,215,67060,1,0,3:0:0:0:
489,256,67384,2,0,L|483:314,1,50,8|0,0:1|3:0,0:0:0:0:
479,355,67709,6,0,P|429:372|367:357,1,99.9999999999999,4|8,0:1|0:1,0:0:0:0:
287,337,68357,1,8,0:1:0:0:
222,260,68682,2,0,L|231:200,1,50,2|4,0:3|0:3,0:0:0:0:
239,161,69006,1,10,0:1:0:0:
156,104,69330,1,10,0:1:0:0:
68,152,69655,2,0,P|50:203|63:262,1,99.9999999999999,8|4,3:1|3:2,0:0:0:0:
91,346,70303,6,0,B|141:331|141:331|195:344,1,104.999996795654,4|8,3:1|0:1,0:0:0:0:
245,366,70790,1,2,0:1:0:0:
245,366,70952,2,0,P|306:357|363:349,1,104.999996795654,0|8,3:0|0:1,0:0:0:0:
452,330,71601,1,0,3:0:0:0:
495,234,71925,2,0,P|490:203|486:175,1,52.4999983978271,8|2,0:1|0:1,0:0:0:0:
481,129,72249,2,0,P|432:147|378:135,1,104.999996795654,0|8,3:0|0:1,0:0:0:0:
282,101,72898,6,0,P|274:168|269:213,1,104.999996795654,0|8,3:0|0:1,0:0:0:0:
266,261,73384,1,2,0:1:0:0:
266,261,73546,2,0,P|217:243|163:255,1,104.999996795654,0|8,3:0|0:1,0:0:0:0:
66,285,74195,1,0,3:0:0:0:
18,191,74519,2,0,P|14:158|11:129,1,52.4999983978271,8|2,0:1|0:1,0:0:0:0:
1,87,74844,2,0,P|51:97|100:79,1,104.999996795654,0|8,3:0|0:1,0:0:0:0:
192,29,75492,6,0,P|255:37|303:42,1,104.999996795654,4|8,3:1|0:1,0:0:0:0:
341,78,75979,1,2,0:1:0:0:
341,78,76141,2,0,P|404:70|452:65,1,104.999996795654,0|8,3:0|0:1,0:0:0:0:
506,151,76790,1,0,3:0:0:0:
426,219,77114,2,0,P|435:265|439:287,1,52.4999983978271,8|2,0:1|0:1,0:0:0:0:
444,322,77438,2,0,P|402:311|340:336,1,104.999996795654,0|8,3:0|0:1,0:0:0:0:
248,372,78087,5,0,3:0:0:0:
173,296,78411,1,8,0:1:0:0:
233,209,78736,2,0,P|228:175|221:147,1,52.4999983978271,0|8,3:0|0:1,0:0:0:0:
212,106,79060,1,2,0:3:0:0:
141,28,79384,2,0,P|91:18|25:45,1,104.999996795654,8|8,0:1|0:3,0:0:0:0:
8,75,79871,1,4,0:3:0:0:
8,75,80033,2,0,P|23:124|13:175,1,104.999996795654,8|8,0:1|0:1,0:0:0:0:
5,280,80682,6,0,B|56:298|56:298|112:280,1,104.999996795654,4|8,3:2|0:1,0:0:0:0:
158,270,81168,1,2,0:1:0:0:
158,270,81330,2,0,P|203:290|266:280,1,104.999996795654,0|8,3:0|0:1,0:0:0:0:
348,232,81979,1,0,3:0:0:0:
296,140,82303,2,0,P|300:106|304:78,1,52.4999983978271,8|2,0:1|0:1,0:0:0:0:
299,35,82628,2,0,P|350:41|398:20,1,104.999996795654,0|8,3:0|0:1,0:0:0:0:
494,63,83276,6,0,P|474:108|484:171,1,104.999996795654,0|8,3:0|0:1,0:0:0:0:
500,216,83763,1,2,0:1:0:0:
500,216,83925,2,0,P|492:268|484:325,1,104.999996795654,0|8,3:0|0:1,0:0:0:0:
393,371,84574,1,0,3:0:0:0:
304,315,84898,2,0,P|269:319|248:322,1,52.4999983978271,8|2,0:1|0:1,0:0:0:0:
210,353,85222,2,0,P|146:344|92:337,1,104.999996795654,0|8,3:0|0:1,0:0:0:0:
23,273,85871,6,0,P|11:220|25:173,1,104.999996795654,4|8,3:2|0:1,0:0:0:0:
54,130,86357,1,2,0:1:0:0:
54,130,86519,2,0,P|103:144|154:132,1,104.999996795654,0|8,3:0|0:1,0:0:0:0:
242,75,87168,1,0,3:0:0:0:
302,160,87492,2,0,P|296:198|294:219,1,52.4999983978271,8|2,0:1|0:1,0:0:0:0:
285,263,87817,2,0,P|334:277|385:265,1,104.999996795654,0|8,3:0|0:1,0:0:0:0:
471,204,88465,5,4,0:1:0:0:
508,105,88790,1,8,0:1:0:0:
432,32,89114,2,0,P|378:39|315:49,1,104.999996795654,0|0,3:0|3:0,0:0:0:0:
236,98,89763,2,0,P|209:94|177:89,1,52.4999983978271,0|8,3:0|0:1,0:0:0:0:
141,59,90087,2,0,P|114:62|82:67,1,52.4999983978271,8|8,0:1|0:1,0:0:0:0:
37,76,90411,2,0,P|21:134|35:185,1,104.999996795654,8|8,0:1|0:1,0:0:0:0:
91,262,91060,6,0,B|141:246|141:246|194:262,1,104.999996795654,4|10,3:1|0:1,0:0:0:0:
241,276,91546,2,0,P|246:232|255:171,1,104.999996795654,0|0,0:0|3:0,0:0:0:0:
264,119,92033,1,10,0:1:0:0:
341,47,92357,2,0,P|390:36|452:63,1,104.999996795654,2|10,3:1|0:1,0:0:0:0:
471,154,93006,2,0,P|473:176|478:206,1,52.4999983978271,2|0,3:1|3:0,0:0:0:0:
508,248,93330,2,0,P|505:270|501:300,1,52.4999983978271,8|0,0:1|0:0,0:0:0:0:
490,351,93655,6,0,P|436:341|384:334,1,104.999996795654,2|10,3:1|0:1,0:0:0:0:
342,305,94141,2,0,P|288:315|236:322,1,104.999996795654,0|0,0:0|3:0,0:0:0:0:
186,331,94628,1,8,0:1:0:0:
103,265,94952,2,0,P|113:216|92:155,1,104.999996795654,2|8,3:1|0:1,0:0:0:0:
74,117,95438,2,0,P|125:126|174:112,1,104.999996795654,0|0,0:0|3:0,0:0:0:0:
216,79,95925,1,8,0:1:0:0:
298,14,96249,6,0,P|359:23|414:30,1,104.999996795654,4|10,3:2|0:1,0:0:0:0:
453,40,96736,1,0,0:0:0:0:
489,138,97060,2,0,P|465:186|479:242,1,104.999996795654,0|0,3:0|0:0,0:0:0:0:
496,282,97546,1,0,3:0:0:0:
419,354,97871,1,10,0:1:0:0:
320,317,98195,2,0,P|285:321|259:326,1,52.4999983978271,2|0,3:1|3:0,0:0:0:0:
219,344,98519,2,0,P|184:340|158:335,1,52.4999983978271,8|8,0:1|0:1,0:0:0:0:
114,328,98844,5,0,3:0:0:0:
35,258,99168,2,0,P|23:208|44:153,1,104.999996795654,10|2,0:1|3:1,0:0:0:0:
122,92,99817,2,0,P|172:80|227:101,1,104.999996795654,10|2,0:1|3:1,0:0:0:0:
292,174,100465,1,8,0:1:0:0:
338,268,100790,2,0,P|362:264|398:260,1,52.4999983978271,8|8,0:1|0:1,0:0:0:0:
417,216,101114,2,0,P|441:220|477:224,1,52.4999983978271,8|8,0:1|0:1,0:0:0:0:
508,188,101438,6,0,P|503:140|496:77,1,104.999996795654,4|8,3:1|0:1,0:0:0:0:
487,31,101925,2,0,P|430:54|371:45,1,104.999996795654,2|2,0:1|0:1,0:0:0:0:
337,36,102411,1,8,0:1:0:0:
233,19,102736,2,0,P|173:29|114:38,1,104.999996795654,0|8,3:0|0:1,0:0:0:0:
58,113,103384,2,0,P|67:143|73:173,1,52.4999983978271,0|2,3:0|0:1,0:0:0:0:
110,198,103709,2,0,P|101:228|95:258,1,52.4999983978271,8|2,0:1|0:1,0:0:0:0:
84,299,104033,6,0,P|117:288|188:304,1,104.999996795654,0|8,3:0|0:1,0:0:0:0:
230,326,104519,1,2,0:1:0:0:
329,358,104844,2,0,P|362:369|433:353,1,104.999996795654,2|2,0:1|0:1,0:0:0:0:
465,317,105330,2,0,P|452:249|444:205,1,104.999996795654,0|8,3:0|0:1,0:0:0:0:
402,183,105817,2,0,P|415:115|423:71,1,104.999996795654,2|10,3:1|0:1,0:0:0:0:
433,28,106303,1,8,0:1:0:0:
327,23,106628,6,0,P|277:42|223:35,1,104.999996795654,0|8,3:0|0:1,0:0:0:0:
178,16,107114,1,2,0:1:0:0:
78,48,107438,2,0,P|86:118|89:156,1,104.999996795654,2|2,0:1|0:1,0:0:0:0:
95,204,107925,1,0,3:0:0:0:
176,269,108249,1,8,0:1:0:0:
267,216,108574,2,0,P|293:218|329:222,1,52.4999983978271,0|2,3:0|0:1,0:0:0:0:
358,255,108898,2,0,P|384:252|420:249,1,52.4999983978271,8|2,0:1|0:1,0:0:0:0:
462,250,109222,5,0,3:0:0:0:
478,353,109546,2,0,P|432:372|365:359,1,104.999996795654,8|0,0:1|3:0,0:0:0:0:
335,344,110033,1,8,0:1:0:0:
335,344,110195,2,0,P|289:325|222:338,1,104.999996795654,2|0,3:0|3:0,0:0:0:0:
135,365,110844,1,2,0:3:0:0:
53,298,111168,2,0,P|48:259|43:235,1,52.4999983978271,8|8,0:1|0:3,0:0:0:0:
11,206,111492,2,0,P|16:167|21:143,1,52.4999983978271,8|8,0:1|0:3,0:0:0:0:
33,105,111817,5,4,3:2:0:0:
256,192,111979,12,0,114411,0:0:0:0:
256,192,117006,6,0,P|305:182|370:172,2,99.9999999999999,6|10|2,3:1|0:1|3:0,0:0:0:0:
158,213,117979,1,10,0:1:0:0:
65,175,118303,2,0,P|52:133|72:73,1,99.9999999999999,0|8,3:0|0:1,0:0:0:0:
99,42,118790,1,2,0:1:0:0:
99,42,118952,2,0,P|146:56|193:43,1,99.9999999999999,0|8,3:0|0:1,0:0:0:0:
291,20,119601,6,0,P|363:32|398:38,1,99.9999999999999,0|8,3:0|0:1,0:0:0:0:
437,49,120087,2,0,P|412:92|424:157,1,99.9999999999999,2|2,0:1|0:1,0:0:0:0:
429,188,120574,1,8,0:1:0:0:
353,253,120898,2,0,P|305:266|258:250,1,99.9999999999999,0|8,3:0|0:1,0:0:0:0:
204,166,121546,2,0,P|174:169|135:178,1,50,0|8,3:0|0:1,0:0:0:0:
112,200,121871,2,0,P|87:195|62:192,1,50,8|8,0:1|0:1,0:0:0:0:
14,206,122195,6,0,P|4:158|26:100,2,99.9999999999999,4|8|0,3:1|0:1|3:0,0:0:0:0:
57,296,123168,1,8,0:1:0:0:
150,330,123492,2,0,P|204:320|247:337,1,99.9999999999999,0|8,3:0|0:1,0:0:0:0:
337,298,124141,2,0,P|391:308|434:291,1,99.9999999999999,0|8,3:0|0:1,0:0:0:0:
505,224,124790,5,0,3:0:0:0:
505,124,125114,1,8,0:1:0:0:
414,81,125438,2,0,P|364:90|309:99,1,99.9999999999999,0|8,3:0|0:1,0:0:0:0:
270,113,125925,1,8,0:1:0:0:
270,113,126087,2,0,P|294:165|290:222,2,99.9999999999999,0|8|8,3:0|3:1|0:3,0:0:0:0:
177,75,127060,2,0,P|142:80|108:85,1,50,8|8,3:1|0:1,0:0:0:0:
78,92,127384,6,0,P|97:137|85:192,1,99.9999999999999,4|8,3:1|0:1,0:0:0:0:
56,224,127871,1,2,0:1:0:0:
56,224,128033,2,0,P|65:273|76:337,1,99.9999999999999,0|8,3:0|0:1,0:0:0:0:
163,366,128682,2,0,P|213:373|261:358,1,99.9999999999999,0|8,3:0|0:1,0:0:0:0:
298,327,129168,2,0,P|305:277|290:229,1,99.9999999999999,2|2,0:1|0:1,0:0:0:0:
261,189,129655,1,8,0:1:0:0:
317,106,129979,6,0,P|377:113|426:119,1,99.9999999999999,0|8,3:0|0:1,0:0:0:0:
470,126,130465,1,0,0:0:0:0:
470,126,130628,2,0,P|455:173|462:222,1,99.9999999999999,0|8,3:0|0:1,0:0:0:0:
402,302,131276,2,0,P|354:287|305:294,1,99.9999999999999,0|8,3:0|0:1,0:0:0:0:
264,322,131763,1,4,3:2:0:0:
264,322,131925,2,0,P|272:352|277:375,2,50,8|8|8,0:3|0:1|0:3,0:0:0:0:
180,266,132574,6,0,P|132:280|83:273,1,99.9999999999999,4|8,3:1|0:1,0:0:0:0:
2,215,133222,1,0,3:0:0:0:
2,115,133546,1,8,0:1:0:0:
83,56,133871,2,0,P|132:48|179:63,1,99.9999999999999,0|8,3:0|0:1,0:0:0:0:
254,129,134519,1,0,3:0:0:0:
324,200,134844,2,0,P|357:194|387:189,1,50,8|8,0:1|0:3,0:0:0:0:
425,182,135168,5,8,3:1:0:0:
425,182,135330,2,0,P|414:235|415:290,1,99.9999999999999,8|8,3:1|3:1,0:0:0:0:
418,330,135817,1,8,3:1:0:0:
322,360,136141,1,8,3:1:0:0:
322,360,136303,2,0,P|258:337|219:349,1,99.9999999999999,8|8,3:1|3:1,0:0:0:0:
181,361,136790,1,4,3:0:0:0:
97,305,137114,1,10,0:1:0:0:
108,205,137438,1,10,0:1:0:0:
199,165,137763,6,0,P|243:186|292:181,1,99.9999999999999,4|8,3:2|3:1,0:0:0:0:
381,136,138411,1,8,3:1:0:0:
334,47,138736,2,0,P|295:42|274:40,1,50,8|8,0:1|0:3,0:0:0:0:
240,17,139060,2,0,P|189:24|128:33,1,99.9999999999999,4|8,3:1|3:1,0:0:0:0:
43,55,139709,1,8,3:1:0:0:
5,147,140033,2,0,P|16:191|19:211,1,50,8|4,3:1|0:3,0:0:0:0:
23,244,140357,6,0,P|71:235|122:257,1,99.9999999999999,4|2,3:2|3:1,0:0:0:0:
160,289,140844,1,0,3:0:0:0:
160,289,141006,2,0,P|205:270|254:279,1,99.9999999999999,2|8,3:1|3:1,0:0:0:0:
348,326,141655,1,8,1:0:0:0:
348,326,141817,2,0,L|416:315,1,50,4|0,3:0|0:0,0:0:0:0:
446,308,142141,2,0,P|455:258|437:210,1,99.9999999999999,0|0,3:0|3:0,0:0:0:0:
410,171,142628,1,8,1:0:0:0:
473,94,142952,5,4,3:2:0:0:
256,192,148141,6,0,L|145:209,2,99.9999999999999,6|0|0,3:1|3:0|3:0,0:0:0:0:
354,176,149114,1,0,3:0:0:0:
348,76,149438,2,0,P|304:58|242:68,1,99.9999999999999,0|0,3:0|3:0,0:0:0:0:
210,86,149925,1,2,0:1:0:0:
210,86,150087,2,0,P|160:80|114:98,1,99.9999999999999,0|0,3:0|3:0,0:0:0:0:
37,162,150736,1,4,0:1:0:0:
55,260,151060,6,0,P|102:268|161:278,1,99.9999999999999,0|0,0:0|3:0,0:0:0:0:
227,344,151709,2,0,P|250:340|280:335,1,50,8|8,0:1|0:3,0:0:0:0:
311,299,152033,2,0,B|420:273|396:348|505:321,1,200,4|0,3:2|0:0,0:0:0:0:
464,229,153006,1,2,0:0:0:0:
378,168,153330,6,0,B|330:188|330:188|276:172,1,104.999996795654,4|8,3:2|0:1,0:0:0:0:
233,160,153817,1,2,0:1:0:0:
233,160,153979,2,0,P|179:171|131:182,1,104.999996795654,0|8,3:0|0:1,0:0:0:0:
37,133,154628,1,0,3:0:0:0:
82,38,154952,2,0,P|98:33|135:29,1,52.4999983978271,8|2,0:1|0:1,0:0:0:0:
184,42,155276,2,0,P|233:61|298:45,1,104.999996795654,0|8,3:0|0:1,0:0:0:0:
386,30,155925,6,0,P|376:84|368:138,1,104.999996795654,4|8,3:2|0:1,0:0:0:0:
332,171,156411,1,2,0:1:0:0:
332,171,156574,2,0,P|342:225|350:279,1,104.999996795654,0|8,3:0|0:1,0:0:0:0:
277,351,157222,1,0,3:0:0:0:
174,326,157546,2,0,P|137:332|114:339,1,52.4999983978271,8|2,0:1|0:1,0:0:0:0:
70,344,157871,2,0,P|49:298|57:242,1,104.999996795654,0|8,3:0|0:1,0:0:0:0:
123,165,158519,6,0,P|165:172|230:182,1,104.999996795654,4|8,3:1|0:1,0:0:0:0:
277,210,159006,1,2,0:1:0:0:
277,210,159168,2,0,P|319:203|384:193,1,104.999996795654,0|8,3:0|0:1,0:0:0:0:
448,112,159817,1,4,3:2:0:0:
379,32,160141,2,0,P|346:27|312:33,1,52.4999983978271,8|2,0:1|0:1,0:0:0:0:
281,55,160465,2,0,P|230:69|174:49,1,104.999996795654,0|8,3:0|0:1,0:0:0:0:
83,15,161114,5,6,0:3:0:0:
23,101,161438,2,0,P|6:151|21:206,1,104.999996795654,8|0,0:1|3:0,0:0:0:0:
82,283,162087,2,0,P|132:300|187:285,1,104.999996795654,8|0,0:1|3:0,0:0:0:0:
267,227,162736,1,8,0:1:0:0:
291,124,163060,2,0,P|324:127|359:133,1,52.4999983978271,8|8,0:1|0:1,0:0:0:0:
386,158,163384,2,0,P|419:154|454:149,1,52.4999983978271,8|8,0:1|0:3,0:0:0:0:
488,166,163709,6,0,B|510:216|510:216|488:271,1,104.999996795654,4|10,3:1|0:1,0:0:0:0:
457,303,164195,2,0,P|408:286|352:301,1,104.999996795654,0|0,0:0|3:0,0:0:0:0:
314,328,164682,1,10,0:1:0:0:
217,286,165006,2,0,P|224:221|230:169,1,104.999996795654,2|10,3:1|0:1,0:0:0:0:
196,81,165655,2,0,P|163:84|137:87,1,52.4999983978271,2|0,3:1|3:0,0:0:0:0:
100,115,165979,2,0,P|67:111|41:108,1,52.4999983978271,8|0,0:1|0:0,0:0:0:0:
4,138,166303,6,0,P|25:189|16:241,1,104.999996795654,2|10,3:1|0:1,0:0:0:0:
3,287,166790,2,0,P|54:280|102:300,1,104.999996795654,0|0,0:0|3:0,0:0:0:0:
142,333,167276,1,8,0:1:0:0:
242,363,167601,2,0,P|288:355|347:345,1,104.999996795654,2|8,3:1|0:1,0:0:0:0:
397,336,168087,2,0,P|378:286|388:234,1,104.999996795654,0|0,0:0|3:0,0:0:0:0:
407,187,168574,1,8,0:1:0:0:
359,93,168898,6,0,P|309:112|257:102,1,104.999996795654,4|10,3:2|0:1,0:0:0:0:
211,81,169384,1,0,0:0:0:0:
158,172,169709,2,0,P|166:223|175:275,1,104.999996795654,0|0,3:0|0:0,0:0:0:0:
182,327,170195,1,0,3:0:0:0:
84,365,170519,1,10,0:1:0:0:
6,293,170844,2,0,P|10:267|14:241,1,52.4999983978271,2|0,3:1|3:0,0:0:0:0:
51,203,171168,2,0,P|46:177|42:151,1,52.4999983978271,8|8,0:1|0:1,0:0:0:0:
35,99,171492,5,0,3:0:0:0:
111,26,171817,2,0,P|155:15|221:44,1,104.999996795654,10|2,0:1|3:1,0:0:0:0:
276,114,172465,2,0,P|320:125|386:96,1,104.999996795654,10|2,0:1|3:1,0:0:0:0:
457,40,173114,1,8,0:1:0:0:
509,130,173438,2,0,P|502:179|500:197,1,52.4999983978271,8|8,0:1|0:1,0:0:0:0:
459,213,173763,2,0,P|466:262|468:280,1,52.4999983978271,8|8,0:1|0:1,0:0:0:0:
473,316,174087,6,0,P|425:337|365:323,1,104.999996795654,4|8,3:1|0:1,0:0:0:0:
325,308,174574,2,0,P|277:287|217:301,1,104.999996795654,2|2,0:1|0:1,0:0:0:0:
179,318,175060,1,8,0:1:0:0:
76,294,175384,2,0,P|65:233|57:184,1,104.999996795654,0|8,3:0|0:1,0:0:0:0:
78,87,176033,2,0,P|108:91|139:97,1,52.4999983978271,0|2,3:0|0:1,0:0:0:0:
174,122,176357,2,0,P|204:118|235:112,1,52.4999983978271,8|2,0:1|0:1,0:0:0:0:
275,132,176682,6,0,P|254:187|268:242,1,104.999996795654,0|8,3:0|0:1,0:0:0:0:
281,279,177168,1,2,0:1:0:0:
347,360,177492,2,0,P|400:354|455:347,1,104.999996795654,2|2,0:1|0:1,0:0:0:0:
503,338,177979,2,0,P|510:286|490:238,1,104.999996795654,0|8,3:0|0:1,0:0:0:0:
439,226,178465,2,0,P|431:174|451:126,1,104.999996795654,2|10,0:3|0:1,0:0:0:0:
491,91,178952,1,8,0:1:0:0:
418,14,179276,6,0,P|357:24|308:31,1,104.999996795654,0|8,3:0|0:1,0:0:0:0:
262,42,179763,1,2,0:1:0:0:
216,136,180087,2,0,P|155:126|106:119,1,104.999996795654,2|2,0:1|0:1,0:0:0:0:
59,114,180574,1,0,3:0:0:0:
8,205,180898,1,8,0:1:0:0:
73,287,181222,2,0,P|98:283|124:278,1,52.4999983978271,0|2,3:0|0:1,0:0:0:0:
171,255,181546,2,0,P|196:258|222:263,1,52.4999983978271,8|2,0:1|0:1,0:0:0:0:
274,275,181871,5,0,3:0:0:0:
345,351,182195,2,0,P|397:360|448:336,1,104.999996795654,8|0,0:1|3:0,0:0:0:0:
479,301,182682,1,8,0:1:0:0:
479,301,182844,2,0,P|488:249|464:198,1,104.999996795654,8|0,0:1|3:0,0:0:0:0:
394,127,183492,1,8,0:3:0:0:
305,184,183817,2,0,P|278:181|252:177,1,52.4999983978271,8|8,0:1|0:3,0:0:0:0:
204,156,184141,2,0,P|177:158|151:162,1,52.4999983978271,8|8,0:1|0:3,0:0:0:0:
102,169,184465,5,4,3:2:0:0:
256,192,184628,12,0,187060,3:0:0:0:
230,222,194844,6,0,P|179:241|122:228,1,99.9999999999999,4|8,3:2|0:1,0:0:0:0:
52,177,195492,1,0,3:2:0:0:
94,86,195817,1,8,0:1:0:0:
188,118,196141,2,0,P|236:110|295:101,1,99.9999999999999,0|8,3:2|0:1,0:0:0:0:
325,70,196628,2,0,P|373:78|432:87,1,99.9999999999999,2|2,0:1|0:1,0:0:0:0:
473,93,197114,1,8,0:1:0:0:
498,189,197438,6,0,P|511:236|503:285,1,99.9999999999999,0|8,3:2|0:1,0:0:0:0:
443,365,198087,1,0,3:2:0:0:
343,365,198411,1,8,0:1:0:0:
263,304,198736,2,0,P|269:254|278:205,1,99.9999999999999,0|8,3:2|0:1,0:0:0:0:
315,171,199222,2,0,P|308:121|299:72,1,99.9999999999999,2|10,0:1|0:1,0:0:0:0:
286,23,199709,1,8,0:1:0:0:
186,17,200033,6,0,P|132:15|79:35,1,99.9999999999999,4|8,3:2|0:1,0:0:0:0:
4,83,200682,1,0,3:2:0:0:
26,180,201006,1,8,0:1:0:0:
115,225,201330,2,0,P|169:227|222:207,1,99.9999999999999,0|8,3:2|0:1,0:0:0:0:
256,190,201817,2,0,P|250:266|249:301,1,99.9999999999999,2|2,0:1|0:1,0:0:0:0:
247,339,202303,1,8,0:1:0:0:
344,361,202628,6,0,P|403:365|453:348,1,99.9999999999999,0|8,3:2|0:1,0:0:0:0:
488,265,203276,2,0,P|492:206|475:156,1,99.9999999999999,0|8,3:2|0:1,0:0:0:0:
422,85,203925,1,4,3:1:0:0:
335,135,204249,2,0,P|299:132|278:129,1,50,8|8,0:1|0:1,0:0:0:0:
241,105,204574,2,0,P|167:115|134:120,1,99.9999999999999,8|8,0:1|3:1,0:0:0:0:
93,129,205060,1,2,3:1:0:0:
