osu file format v14

[General]
AudioFilename: audio.mp3
AudioLeadIn: 0
PreviewTime: 69833
Countdown: 0
SampleSet: Soft
StackLeniency: 0.5
Mode: 0
LetterboxInBreaks: 0
WidescreenStoryboard: 1

[Editor]
Bookmarks: 122130,132509
DistanceSpacing: 1
BeatDivisor: 2
GridSize: 32
TimelineZoom: 0.9999999

[Metadata]
Title:Teo
TitleUnicode:テオ
Artist:Araki
ArtistUnicode:あらき
Creator:Nevo
Version:Akitoshi's Normal
Source:
Tags:byd bite you death Akitoshi -Laura- armin a_r_m_i_n snownino shunao shogunmoon ultaite cover vocaloid hatsune miku synth rock
BeatmapID:1599000
BeatmapSetID:759178

[Difficulty]
HPDrainRate:4
CircleSize:3
OverallDifficulty:4
ApproachRate:5
SliderMultiplier:0.999999999999999
SliderTickRate:1

[Events]
//Background and Video events
0,0,"anime-girl-falling-down-clouds-sky-school-uniform.jpg",0,0
//Break Periods
2,114546,120930
//Storyboard Layer 0 (Background)
//Storyboard Layer 1 (Fail)
//Storyboard Layer 2 (Pass)
//Storyboard Layer 3 (Foreground)
//Storyboard Sound Samples

[TimingPoints]
1482,324.324324324324,4,2,2,40,1,0
1482,-105.263157894737,4,2,2,40,0,0
3022,-105.263157894737,4,2,2,5,0,0
3103,-105.263157894737,4,2,2,40,0,0
3346,-105.263157894737,4,2,2,5,0,0
3427,-105.263157894737,4,2,2,40,0,0
3995,-105.263157894737,4,2,2,5,0,0
4076,-105.263157894737,4,2,2,40,0,0
4644,-105.263157894737,4,2,2,5,0,0
4725,-105.263157894737,4,2,2,40,0,0
5292,-105.263157894737,4,2,2,5,0,0
5373,-105.263157894737,4,2,2,40,0,0
5941,-105.263157894737,4,2,2,5,0,0
6022,-105.263157894737,4,2,2,40,0,0
6590,-105.263157894737,4,2,2,5,0,0
6671,-105.263157894737,4,2,2,40,0,0
11860,-105.263157894737,4,2,2,50,0,0
12022,-105.263157894737,4,2,2,5,0,0
12103,-105.263157894737,4,2,2,50,0,0
12265,-105.263157894737,4,2,2,5,0,0
12346,-105.263157894737,4,2,2,50,0,0
12509,-105.263157894737,4,2,2,5,0,0
12671,-105.263157894737,4,2,2,60,0,0
13157,-100,4,2,2,65,0,0
13400,-100,4,2,2,5,0,0
13481,-100,4,2,2,65,0,0
13725,-100,4,2,2,5,0,0
13806,-100,4,2,2,65,0,0
14049,-100,4,2,2,5,0,0
14130,-100,4,2,2,65,0,0
14373,-100,4,2,2,5,0,0
14454,-100,4,2,2,65,0,0
14698,-100,4,2,2,5,0,0
14779,-100,4,2,2,65,0,0
15995,-100,4,2,2,5,0,0
16076,-100,4,2,2,65,0,0
16319,-100,4,2,2,5,0,0
16400,-100,4,2,2,65,0,0
16644,-100,4,2,2,5,0,0
16725,-100,4,2,2,65,0,0
16968,-100,4,2,2,5,0,0
17049,-100,4,2,2,65,0,0
17292,-100,4,2,2,5,0,0
17373,-100,4,2,2,65,0,0
18265,-100,4,2,2,5,0,0
18346,-100,4,2,2,65,0,0
18590,-100,4,2,2,5,0,0
18671,-100,4,2,2,65,0,0
18914,-100,4,2,2,5,0,0
18995,-100,4,2,2,65,0,0
19238,-100,4,2,2,5,0,0
19319,-100,4,2,2,65,0,0
19563,-100,4,2,2,5,0,0
19644,-100,4,2,2,65,0,0
19887,-100,4,2,2,5,0,0
19968,-100,4,2,2,65,0,0
21184,-100,4,2,2,5,0,0
21265,-100,4,2,2,65,0,0
23536,-105.263157894737,4,2,2,60,0,0
28157,-105.263157894737,4,2,2,5,0,0
28238,-105.263157894737,4,2,2,60,0,0
28563,-105.263157894737,4,2,3,60,0,0
29617,-105.263157894737,4,2,3,5,0,0
29698,-105.263157894737,4,2,3,60,0,0
30265,-105.263157894737,4,2,3,5,0,0
30346,-105.263157894737,4,2,3,60,0,0
31238,-105.263157894737,4,2,3,5,0,0
31319,-105.263157894737,4,2,3,60,0,0
31563,-105.263157894737,4,2,3,5,0,0
31644,-105.263157894737,4,2,3,60,0,0
32049,-105.263157894737,4,2,3,5,0,0
32130,-105.263157894737,4,2,3,60,0,0
32617,-105.263157894737,4,2,2,60,0,0
35454,-105.263157894737,4,2,2,5,0,0
35536,-105.263157894737,4,2,2,60,0,0
37725,-105.263157894737,4,2,2,5,0,0
37806,-105.263157894737,4,2,2,60,0,0
38536,-105.263157894737,4,2,2,5,0,0
38617,-105.263157894737,4,2,2,60,0,0
40644,-105.263157894737,4,2,2,5,0,0
40725,-105.263157894737,4,2,2,60,0,0
40968,-105.263157894737,4,2,2,5,0,0
41049,-105.263157894737,4,2,2,60,0,0
41292,-105.263157894737,4,2,2,5,0,0
41373,-105.263157894737,4,2,2,60,0,0
41617,-105.263157894737,4,2,2,5,0,0
41698,-105.263157894737,4,2,2,60,0,0
41941,-105.263157894737,4,2,2,5,0,0
42022,-105.263157894737,4,2,2,60,0,0
42265,-105.263157894737,4,2,2,5,0,0
42346,-105.263157894737,4,2,2,60,0,0
42590,-105.263157894737,4,2,2,5,0,0
42671,-105.263157894737,4,2,2,60,0,0
42914,-105.263157894737,4,2,2,5,0,0
42995,-105.263157894737,4,2,2,60,0,0
44292,-100,4,2,2,65,0,0
44536,-100,4,2,2,5,0,0
44617,-100,4,2,2,65,0,0
44860,-100,4,2,2,5,0,0
44941,-100,4,2,2,65,0,0
45184,-100,4,2,2,5,0,0
45265,-100,4,2,2,65,0,0
45509,-100,4,2,2,5,0,0
45590,-100,4,2,2,65,0,0
45833,-100,4,2,2,5,0,0
45914,-100,4,2,2,65,0,0
47130,-100,4,2,2,5,0,0
47211,-100,4,2,2,65,0,0
47454,-100,4,2,2,5,0,0
47536,-100,4,2,2,65,0,0
47779,-100,4,2,2,5,0,0
47860,-100,4,2,2,65,0,0
49481,-105.263157894737,4,2,2,60,0,0
53617,-105.263157894737,4,2,2,5,0,0
53698,-105.263157894737,4,2,2,60,0,0
54103,-105.263157894737,4,2,2,5,0,0
54184,-105.263157894737,4,2,2,60,0,0
54671,-105.263157894737,4,2,3,60,0,0
55968,-105.263157894737,4,2,2,60,0,0
56211,-105.263157894737,4,2,2,5,0,0
56292,-105.263157894737,4,2,2,60,0,0
57184,-105.263157894737,4,2,2,5,0,0
57265,-105.263157894737,4,2,2,60,0,0
57509,-105.263157894737,4,2,2,5,0,0
57590,-105.263157894737,4,2,2,60,0,0
61400,-105.263157894737,4,2,2,5,0,0
61481,-105.263157894737,4,2,2,60,0,0
62698,-105.263157894737,4,2,2,5,0,0
62779,-105.263157894737,4,2,2,60,0,0
63022,-105.263157894737,4,2,2,5,0,0
63103,-105.263157894737,4,2,2,60,0,0
63346,-105.263157894737,4,2,2,5,0,0
63427,-105.263157894737,4,2,2,60,0,0
63671,-105.263157894737,4,2,2,5,0,0
63752,-105.263157894737,4,2,2,60,0,0
65049,-105.263157894737,4,2,3,60,0,0
66590,-105.263157894737,4,2,3,5,0,0
66671,-105.263157894737,4,2,3,60,0,0
66914,-105.263157894737,4,2,3,5,0,0
66995,-105.263157894737,4,2,3,60,0,0
68941,-100,4,2,3,60,0,0
70238,-95.2380952380952,4,2,3,80,0,1
70481,-95.2380952380952,4,2,3,5,0,1
70563,-95.2380952380952,4,2,3,80,0,1
72427,-95.2380952380952,4,2,3,5,0,1
72509,-95.2380952380952,4,2,3,80,0,1
73076,-95.2380952380952,4,2,3,5,0,1
73157,-95.2380952380952,4,2,3,70,0,1
75671,-95.2380952380952,4,2,3,5,0,1
75752,-95.2380952380952,4,2,3,70,0,1
77617,-95.2380952380952,4,2,3,5,0,1
77698,-95.2380952380952,4,2,3,70,0,1
78265,-95.2380952380952,4,2,3,5,0,1
78346,-95.2380952380952,4,2,3,70,0,1
78590,-95.2380952380952,4,2,3,5,0,1
78671,-95.2380952380952,4,2,3,70,0,1
78833,-95.2380952380952,4,2,2,70,0,1
79968,-95.2380952380952,4,2,2,80,0,1
80536,-95.2380952380952,4,2,2,70,0,1
80617,-95.2380952380952,4,2,3,80,0,1
80860,-95.2380952380952,4,2,3,5,0,1
80941,-95.2380952380952,4,2,3,80,0,1
82806,-95.2380952380952,4,2,3,5,0,1
82887,-95.2380952380952,4,2,3,80,0,1
83454,-95.2380952380952,4,2,3,5,0,1
83536,-95.2380952380952,4,2,3,80,0,1
86049,-95.2380952380952,4,2,3,5,0,1
86130,-95.2380952380952,4,2,3,80,0,1
88319,-95.2380952380952,4,2,3,5,0,1
88400,-95.2380952380952,4,2,3,80,0,1
88644,-95.2380952380952,4,2,3,5,0,1
88725,-95.2380952380952,4,2,3,80,0,1
88968,-95.2380952380952,4,2,3,5,0,1
89049,-95.2380952380952,4,2,3,80,0,1
89292,-95.2380952380952,4,2,3,5,0,1
89373,-95.2380952380952,4,2,3,80,0,1
89617,-95.2380952380952,4,2,3,5,0,1
89698,-95.2380952380952,4,2,3,80,0,1
89860,-95.2380952380952,4,2,2,80,0,1
90995,-100,4,2,3,80,0,0
100725,-100,4,2,2,80,0,0
101373,-100,4,2,3,80,0,0
109968,-100,4,2,2,80,0,0
111752,-100,4,2,3,65,0,0
111995,-100,4,2,3,5,0,0
112076,-100,4,2,2,65,0,0
112319,-100,4,2,2,5,0,0
112400,-100,4,2,2,65,0,0
112644,-100,4,2,2,5,0,0
112725,-100,4,2,2,65,0,0
112968,-100,4,2,2,5,0,0
113049,-100,4,2,2,65,0,0
113292,-100,4,2,2,5,0,0
113373,-100,4,2,2,65,0,0
114590,-100,4,2,2,5,0,0
114671,-100,4,2,2,65,0,0
114915,-100,4,2,2,5,0,0
114996,-100,4,2,2,65,0,0
115239,-100,4,2,2,5,0,0
115320,-100,4,2,2,65,0,0
115563,-100,4,2,2,5,0,0
115644,-100,4,2,2,65,0,0
115888,-100,4,2,2,5,0,0
115969,-100,4,2,2,65,0,0
117185,-100,4,2,2,5,0,0
117266,-100,4,2,2,65,0,0
117509,-100,4,2,2,5,0,0
117590,-100,4,2,2,65,0,0
117834,-100,4,2,2,5,0,0
117915,-100,4,2,2,65,0,0
118158,-100,4,2,2,5,0,0
118239,-100,4,2,2,65,0,0
118482,-100,4,2,2,5,0,0
118563,-100,4,2,2,65,0,0
119455,-100,4,2,2,65,0,0
119536,-100,4,2,2,65,0,0
119780,-100,4,2,2,5,0,0
119861,-100,4,2,2,65,0,0
120104,-100,4,2,2,65,0,0
120185,-100,4,2,2,65,0,0
120428,-100,4,2,2,65,0,0
120509,-100,4,2,2,65,0,0
120753,-100,4,2,2,65,0,0
120834,-100,4,2,2,65,0,0
121077,-100,4,2,2,65,0,0
121158,-100,4,2,2,65,0,0
122374,-100,4,2,2,5,0,0
122455,-100,4,2,2,65,0,0
122698,-100,4,2,2,5,0,0
122779,-100,4,2,2,65,0,0
123022,-100,4,2,2,5,0,0
123103,-100,4,2,2,65,0,0
123346,-100,4,2,2,5,0,0
123427,-100,4,2,2,65,0,0
123671,-100,4,2,2,5,0,0
123752,-100,4,2,2,65,0,0
124726,-100,4,2,2,65,0,0
124968,-100,4,2,2,5,0,0
125049,-100,4,2,2,65,0,0
125292,-100,4,2,2,5,0,0
125373,-100,4,2,2,65,0,0
125617,-100,4,2,2,5,0,0
125698,-100,4,2,2,65,0,0
125941,-100,4,2,2,5,0,0
126022,-100,4,2,2,65,0,0
126265,-100,4,2,2,5,0,0
126346,-100,4,2,2,65,0,0
127238,-100,4,2,2,5,0,0
127319,-100,4,2,2,65,0,0
127563,-100,4,2,2,5,0,0
127644,-100,4,2,2,65,0,0
127887,-100,4,2,2,5,0,0
127968,-100,4,2,2,65,0,0
128211,-100,4,2,2,5,0,0
128292,-100,4,2,2,65,0,0
128536,-100,4,2,2,5,0,0
128617,-100,4,2,2,65,0,0
128860,-100,4,2,2,5,0,0
128941,-100,4,2,2,65,0,0
129347,-100,4,2,2,65,0,0
129428,-100,4,2,2,65,0,0
129753,-100,4,2,2,65,0,0
129915,-100,4,2,3,65,0,0
130157,-100,4,2,2,5,0,0
130238,-100,4,2,3,65,0,0
130807,-100,4,2,3,65,0,0
130888,-100,4,2,3,65,0,0
131455,-100,4,2,3,65,0,0
131536,-100,4,2,3,65,0,0

[Colours]
Combo1 : 192,192,192
Combo2 : 0,255,255
Combo3 : 0,128,192

[HitObjects]
298,87,2779,6,0,P|251:80|205:90,1,94.9999974632263,4|8,3:2|0:0,0:0:0:0:
141,159,3427,2,0,P|134:206|144:252,1,94.9999974632263,0|8,3:0|0:0,0:0:0:0:
205,325,4076,2,0,P|247:332|308:317,1,94.9999974632263,0|8,3:0|0:0,0:0:0:0:
364,253,4725,2,0,P|371:211|356:150,1,94.9999974632263,0|8,3:0|0:0,0:0:0:0:
298,87,5373,6,0,P|341:66|408:76,1,94.9999974632263,0|8,3:0|0:0,0:0:0:0:
465,121,6022,2,0,P|486:164|476:231,1,94.9999974632263,0|8,3:0|0:0,0:0:0:0:
436,292,6671,1,0,3:0:0:0:
342,306,6995,1,8,0:0:0:0:
257,262,7319,2,0,L|187:264,1,47.4999987316132,0|8,3:0|0:0,0:0:0:0:
165,280,7644,2,0,L|95:278,1,47.4999987316132,8|8,0:0|0:0,0:0:0:0:
70,272,7968,6,0,P|55:324|59:374,2,94.9999974632263,4|8|0,3:2|0:0|3:0,0:0:0:0:
116,189,8941,1,8,0:0:0:0:
201,148,9265,2,0,P|216:96|212:46,1,94.9999974632263,0|8,3:0|0:0,0:0:0:0:
303,23,9914,2,0,P|301:70|316:115,1,94.9999974632263,0|8,3:0|0:0,0:0:0:0:
369,194,10563,6,0,L|483:188,2,94.9999974632263,0|8|0,3:0|0:0|3:0,0:0:0:0:
284,238,11536,1,8,0:0:0:0:
215,172,11860,2,0,P|177:178|136:178,2,71.2499980974197,2|2|2,3:2|3:2|3:2,0:0:0:0:
286,108,12671,2,0,L|279:52,2,47.4999987316132,8|8|8,0:0|0:0|0:0,0:0:0:0:
319,145,13157,6,0,P|369:129|426:135,1,99.9999999999999,6|10,3:2|0:0,0:0:0:0:
486,202,13806,1,2,3:2:0:0:
486,301,14130,1,10,0:0:0:0:
415,371,14454,2,0,P|365:373|318:358,1,99.9999999999999,2|10,3:2|0:0,0:0:0:0:
282,322,14941,2,0,L|175:324,1,99.9999999999999,2|2,0:0|0:0,0:0:0:0:
132,326,15427,1,10,0:0:0:0:
45,274,15752,6,0,P|29:222|38:165,1,99.9999999999999,6|10,3:2|0:0,0:0:0:0:
68,83,16400,1,2,3:2:0:0:
158,39,16725,1,10,0:0:0:0:
252,70,17049,2,0,P|247:129|242:180,1,99.9999999999999,2|10,3:2|0:0,0:0:0:0:
210,206,17536,2,0,P|215:265|220:316,1,99.9999999999999,2|10,0:0|0:0,0:0:0:0:
227,354,18022,1,10,0:0:0:0:
325,369,18346,6,0,P|372:369|424:352,1,99.9999999999999,4|10,3:2|0:0,0:0:0:0:
492,282,18995,1,2,3:2:0:0:
492,182,19319,1,10,0:0:0:0:
421,111,19644,2,0,P|373:95|323:94,1,99.9999999999999,2|10,3:2|0:0,0:0:0:0:
276,111,20130,2,0,P|273:166|271:222,1,99.9999999999999,2|2,0:0|0:0,0:0:0:0:
265,260,20617,1,10,0:0:0:0:
208,342,20941,6,0,P|149:349|96:328,1,99.9999999999999,6|8,3:2|0:0,0:0:0:0:
49,258,21590,2,0,L|-9:263,2,50,0|8|8,3:0|0:0|0:0,0:0:0:0:
122,190,22238,2,0,P|181:183|234:204,1,99.9999999999999,8|0,0:0|3:0,0:0:0:0:
260,233,22725,1,2,3:2:0:0:
260,233,22887,2,0,L|365:229,1,99.9999999999999,10|10,0:0|0:0,0:0:0:0:
451,204,23536,6,0,P|457:151|436:101,1,94.9999974632263,6|8,3:2|0:0,0:0:0:0:
360,66,24184,2,0,L|362:14,2,47.4999987316131,2|2|10,3:2|3:2|0:0,0:0:0:0:
281,119,24833,2,0,P|231:115|177:113,1,94.9999974632263,2|8,3:2|0:0,0:0:0:0:
138,111,25319,2,0,P|110:174|127:253,1,142.499996194839,2|8,0:0|0:0,0:0:0:0:
172,325,26130,6,0,P|215:314|273:322,1,94.9999974632263,2|10,3:2|0:0,0:0:0:0:
304,345,26617,2,0,P|372:342|451:338,1,142.499996194839,2|8,0:0|0:0,0:0:0:0:
499,259,27427,2,0,P|503:211|485:154,1,94.9999974632263,2|10,3:2|0:0,0:0:0:0:
420,102,28076,2,0,L|422:44,2,47.4999987316131,0|8|0,0:0|0:0|3:0,0:0:0:0:
335,146,28725,6,0,L|345:251,1,94.9999974632263,6|10,3:2|0:0,0:0:0:0:
349,335,29373,1,2,3:2:0:0:
255,355,29698,1,10,0:0:0:0:
165,322,30022,2,0,P|146:278|146:226,1,94.9999974632263,2|10,3:2|0:0,0:0:0:0:
166,138,30671,1,2,3:2:0:0:
252,99,30995,1,10,0:0:0:0:
335,146,31319,6,0,L|439:138,1,94.9999974632263,0|10,3:0|0:0,0:0:0:0:
477,136,31806,2,0,P|502:205|485:288,1,142.499996194839,2|8,1:2|0:0,0:0:0:0:
428,342,32617,1,2,3:2:0:0:
335,362,32941,1,8,0:0:0:0:
248,323,33265,2,0,L|194:326,1,47.4999987316131,2|0,3:2|3:0,0:0:0:0:
158,348,33590,2,0,L|104:345,1,47.4999987316131,8|8,0:0|0:0,0:0:0:0:
63,337,33914,6,0,P|48:297|58:242,1,94.9999974632263,6|8,3:2|0:0,0:0:0:0:
96,160,34563,2,0,L|92:105,2,47.4999987316131,2|2|10,3:2|3:2|0:0,0:0:0:0:
153,235,35211,2,0,P|205:230|253:226,1,94.9999974632263,2|10,3:2|0:0,0:0:0:0:
290,204,35698,2,0,P|342:209|390:213,1,94.9999974632263,2|0,0:0|3:0,0:0:0:0:
431,220,36184,1,8,0:0:0:0:
500,154,36509,6,0,P|502:100|487:59,1,94.9999974632263,2|10,3:2|0:0,0:0:0:0:
458,25,36995,2,0,P|406:28|347:32,1,94.9999974632263,2|2,0:0|3:2,0:0:0:0:
315,35,37481,1,10,0:0:0:0:
233,84,37806,2,0,P|181:81|122:77,1,94.9999974632263,2|10,3:2|0:0,0:0:0:0:
90,80,38292,2,0,P|71:130|77:188,1,94.9999974632263,2|8,0:0|0:0,0:0:0:0:
85,216,38779,1,0,3:0:0:0:
136,295,39103,6,0,P|183:291|230:289,1,94.9999974632263,6|8,3:2|0:0,0:0:0:0:
325,280,39752,1,2,3:2:0:0:
394,214,40076,1,10,0:0:0:0:
395,119,40400,2,0,P|351:96|289:96,1,94.9999974632263,2|10,3:2|0:0,0:0:0:0:
211,99,41049,1,2,3:2:0:0:
135,156,41373,1,10,0:0:0:0:
124,250,41698,6,0,L|132:349,2,94.9999974632263,6|10|2,3:2|0:0|3:2,0:0:0:0:
49,191,42671,1,10,0:0:0:0:
17,101,42995,2,0,P|48:73|107:55,1,94.9999974632263,6|8,3:2|3:2,0:0:0:0:
192,65,43644,2,0,L|247:62,1,47.4999987316131,10|10,0:0|0:0,0:0:0:0:
284,48,43968,2,0,L|339:51,1,47.4999987316131,10|8,0:0|0:0,0:0:0:0:
377,69,44292,6,0,P|390:123|377:175,1,99.9999999999999,6|10,3:2|0:0,0:0:0:0:
302,227,44941,1,2,3:2:0:0:
203,242,45265,1,10,0:0:0:0:
105,218,45590,2,0,P|92:272|105:324,1,99.9999999999999,2|10,3:2|0:0,0:0:0:0:
122,359,46076,2,0,P|171:355|232:352,1,99.9999999999999,2|2,0:0|0:0,0:0:0:0:
271,348,46563,1,10,0:0:0:0:
357,297,46887,6,0,P|365:248|352:200,1,99.9999999999999,4|10,3:2|0:0,0:0:0:0:
295,118,47536,1,2,3:2:0:0:
198,93,47860,1,10,3:2:0:0:
109,140,48184,2,0,L|49:139,2,50,10|8|8,3:2|0:0|3:0,0:0:0:0:
146,173,48671,2,0,P|158:228|147:278,1,99.9999999999999,10|0,0:0|3:0,0:0:0:0:
122,311,49157,1,10,0:0:0:0:
27,307,49481,6,0,P|6:267|3:211,1,94.9999974632263,6|8,3:2|0:0,0:0:0:0:
59,139,50130,2,0,L|54:84,2,47.4999987316131,0|2|10,3:0|3:2|0:0,0:0:0:0:
142,184,50779,2,0,P|191:178|243:173,1,94.9999974632263,2|10,3:2|0:0,0:0:0:0:
283,170,51265,2,0,P|342:206|426:201,1,142.499996194839,2|8,0:0|0:0,0:0:0:0:
490,148,52076,6,0,P|490:93|469:51,1,94.9999974632263,2|10,3:2|0:0,0:0:0:0:
387,17,52725,1,2,3:2:0:0:
297,47,53049,1,8,0:0:0:0:
270,137,53373,2,0,L|172:131,1,94.9999974632263,2|10,3:2|0:0,0:0:0:0:
135,117,53860,1,2,0:0:0:0:
135,117,54022,2,0,L|79:122,2,47.4999987316131,0|8|0,0:0|0:0|3:0,0:0:0:0:
175,30,54671,6,0,P|218:18|281:26,1,94.9999974632263,6|10,3:2|0:2,0:0:0:0:
357,52,55319,1,2,3:2:0:0:
392,140,55644,1,10,0:0:0:0:
357,228,55968,2,0,L|242:223,1,94.9999974632263,2|10,3:2|0:0,0:0:0:0:
167,215,56617,1,2,3:2:0:0:
116,295,56941,1,10,0:0:0:0:
180,364,57265,6,0,P|228:375|275:362,1,94.9999974632263,0|10,3:2|0:0,0:0:0:0:
307,333,57752,2,0,P|384:336|420:338,1,94.9999974632263,2|2,0:0|0:0,0:0:0:0:
449,341,58238,1,8,0:0:0:0:
503,262,58563,2,0,P|510:214|491:154,1,94.9999974632263,2|8,3:2|0:0,0:0:0:0:
423,111,59211,2,0,L|373:114,1,47.4999987316131,2|2,3:2|0:0,0:0:0:0:
338,144,59536,2,0,L|288:141,1,47.4999987316131,10|2,0:0|0:0,0:0:0:0:
250,115,59860,6,0,L|150:121,1,94.9999974632263,6|8,3:2|0:0,0:0:0:0:
60,132,60509,1,2,3:2:0:0:
17,216,60833,1,10,0:0:0:0:
49,305,61157,2,0,P|102:316|152:303,1,94.9999974632263,2|10,3:2|0:0,0:0:0:0:
182,282,61644,2,0,P|235:271|285:284,1,94.9999974632263,2|0,0:0|0:0,0:0:0:0:
317,298,62130,1,8,0:0:0:0:
402,338,62454,6,0,L|408:227,1,94.9999974632263,2|10,3:2|0:0,0:0:0:0:
414,148,63103,1,2,3:2:0:0:
336,93,63427,1,10,0:0:0:0:
243,116,63752,2,0,P|223:163|226:211,1,94.9999974632263,2|10,3:2|0:0,0:0:0:0:
227,300,64400,2,0,L|173:302,1,47.4999987316131,2|8,3:3|0:0,0:0:0:0:
139,327,64725,2,0,L|85:325,1,47.4999987316131,8|8,0:0|0:0,0:0:0:0:
48,305,65049,6,0,P|28:258|31:210,1,94.9999974632263,6|10,3:2|0:0,0:0:0:0:
57,123,65698,1,2,3:2:0:0:
136,71,66022,2,0,L|204:67,1,47.4999987316131,10|2,0:0|1:2,0:0:0:0:
230,64,66346,2,0,P|276:48|341:57,2,94.9999974632263,2|10|2,3:2|0:0|3:2,0:0:0:0:
203,155,67319,1,8,0:0:0:0:
261,229,67644,6,0,P|308:226|371:224,1,94.9999974632263,14|10,3:2|0:0,0:0:0:0:
408,228,68130,1,10,0:0:0:0:
408,228,68292,2,0,P|423:272|421:319,1,94.9999974632263,10|10,0:0|0:0,0:0:0:0:
338,375,68941,5,14,3:2:0:0:
238,370,69265,1,12,3:2:0:0:
167,299,69590,1,12,3:2:0:0:
166,199,69914,1,8,0:0:0:0:
223,111,70238,6,0,L|341:106,1,104.999996795654,6|10,3:0|0:0,0:0:0:0:
378,86,70725,1,2,1:2:0:0:
378,86,70887,2,0,L|496:91,1,104.999996795654,2|10,3:2|0:0,0:0:0:0:
507,192,71536,2,0,P|503:256|477:293,1,104.999996795654,2|10,3:2|0:0,0:0:0:0:
438,316,72022,1,2,1:2:0:0:
438,316,72184,2,0,P|375:303|332:318,1,104.999996795654,2|10,3:2|0:0,0:0:0:0:
232,321,72833,6,0,P|219:258|234:215,1,104.999996795654,6|10,3:0|0:0,0:0:0:0:
269,183,73319,1,2,1:2:0:0:
269,183,73481,2,0,L|259:74,1,104.999996795654,2|10,3:2|0:0,0:0:0:0:
177,12,74130,2,0,P|122:18|77:57,1,104.999996795654,2|10,3:2|0:0,0:0:0:0:
56,94,74617,1,2,1:2:0:0:
56,94,74779,2,0,L|3:90,2,52.4999983978271,2|8|10,3:2|0:0|0:0,0:0:0:0:
135,162,75427,6,0,P|145:217|129:275,1,104.999996795654,6|10,3:0|0:0,0:0:0:0:
116,316,75914,1,2,1:2:0:0:
116,316,76076,2,0,L|228:320,1,104.999996795654,2|10,3:2|0:0,0:0:0:0:
321,349,76725,2,0,L|433:345,1,104.999996795654,2|10,3:2|0:0,0:0:0:0:
482,345,77211,1,2,1:2:0:0:
482,345,77373,2,0,P|492:290|476:232,1,104.999996795654,2|10,3:2|0:0,0:0:0:0:
409,165,78022,5,6,3:0:0:0:
318,217,78346,2,0,P|268:228|210:215,1,104.999996795654,10|2,0:0|3:2,0:0:0:0:
141,142,78995,2,0,L|145:85,1,52.4999983978271,10|0,0:0|3:0,0:0:0:0:
154,38,79319,2,0,P|204:27|262:40,1,104.999996795654,10|8,0:0|0:0,0:0:0:0:
335,106,79968,1,10,0:0:0:0:
361,207,80292,1,10,0:0:0:0:
306,296,80617,6,0,L|196:301,1,104.999996795654,6|10,3:0|0:0,0:0:0:0:
157,326,81103,1,2,1:2:0:0:
157,326,81265,2,0,L|47:321,1,104.999996795654,2|10,3:2|0:0,0:0:0:0:
10,224,81914,2,0,P|5:168|17:118,1,104.999996795654,2|10,3:2|0:0,0:0:0:0:
44,78,82400,1,2,1:2:0:0:
44,78,82563,2,0,P|100:83|150:71,1,104.999996795654,2|10,3:2|0:0,0:0:0:0:
249,47,83211,6,0,P|246:103|242:158,1,104.999996795654,6|10,3:0|0:0,0:0:0:0:
215,196,83698,1,2,1:2:0:0:
215,196,83860,2,0,P|218:252|222:307,1,104.999996795654,2|10,3:2|0:0,0:0:0:0:
310,356,84509,2,0,P|358:365|422:344,1,104.999996795654,2|8,3:2|0:0,0:0:0:0:
448,313,84995,1,2,1:2:0:0:
448,313,85157,2,0,L|504:316,2,52.4999983978271,2|8|10,3:2|0:0|0:0,0:0:0:0:
359,256,85806,6,0,P|355:203|352:151,1,104.999996795654,6|10,3:0|0:0,0:0:0:0:
350,103,86292,1,2,1:2:0:0:
350,103,86454,2,0,P|294:89|234:104,1,104.999996795654,2|10,3:2|0:0,0:0:0:0:
167,164,87103,2,0,P|111:178|51:163,1,104.999996795654,6|10,3:0|0:0,0:0:0:0:
24,146,87590,1,2,1:2:0:0:
24,146,87752,2,0,L|29:83,2,52.4999983978271,2|2|10,3:2|1:2|0:0,0:0:0:0:
9,249,88400,5,6,3:0:0:0:
83,322,88725,2,0,P|147:311|190:310,1,104.999996795654,10|2,0:0|3:2,0:0:0:0:
291,322,89373,1,10,0:0:0:0:
379,264,89698,2,0,L|442:268,2,52.4999983978271,6|8|10,3:0|0:0|0:0,0:0:0:0:
302,191,90346,2,0,L|239:195,2,52.4999983978271,10|10|10,0:0|0:0|0:0,0:0:0:0:
377,125,90995,5,6,3:0:0:0:
325,39,91319,2,0,P|269:29|210:44,1,99.9999999999999,10|0,0:0|3:0,0:0:0:0:
138,83,91968,1,8,0:0:0:0:
87,169,92292,2,0,L|94:282,1,99.9999999999999,2|10,3:2|0:0,0:0:0:0:
175,325,92941,2,0,L|171:381,2,50,2|2|10,3:2|0:0|0:0,0:0:0:0:
253,262,93590,6,0,P|259:206|247:153,1,99.9999999999999,6|10,3:0|0:0,0:0:0:0:
234,116,94076,2,0,L|345:108,1,99.9999999999999,2|2,0:0|0:0,0:0:0:0:
383,103,94563,1,8,0:0:0:0:
466,157,94887,2,0,P|474:206|468:255,1,99.9999999999999,2|10,3:2|0:0,0:0:0:0:
444,299,95373,2,0,P|394:290|345:296,1,99.9999999999999,2|2,0:0|0:0,0:0:0:0:
298,315,95860,1,10,0:0:0:0:
204,350,96184,6,0,L|99:345,1,99.9999999999999,6|10,3:0|0:0,0:0:0:0:
54,337,96671,2,0,P|44:288|55:238,1,99.9999999999999,2|2,0:0|0:0,0:0:0:0:
73,193,97157,1,8,0:0:0:0:
150,130,97481,2,0,L|257:134,1,99.9999999999999,0|10,3:0|0:0,0:0:0:0:
298,154,97968,1,2,0:0:0:0:
298,154,98130,2,0,L|351:152,2,50,0|2|10,3:0|0:0|0:0,0:0:0:0:
238,234,98779,5,6,3:0:0:0:
285,321,99103,2,0,P|333:331|386:318,1,99.9999999999999,10|2,0:0|3:2,0:0:0:0:
460,257,99752,2,0,P|470:209|457:156,1,99.9999999999999,10|12,0:0|3:0,0:0:0:0:
406,75,100400,1,12,0:0:0:0:
309,102,100725,2,0,L|315:154,2,50,2|10|10,3:2|0:0|0:0,0:0:0:0:
230,39,101373,6,0,P|177:42|115:46,1,99.9999999999999,6|8,3:0|0:0,0:0:0:0:
81,55,101860,1,2,0:0:0:0:
27,139,102184,2,0,P|17:189|26:242,1,99.9999999999999,2|0,0:0|0:0,0:0:0:0:
42,283,102671,1,2,3:2:0:0:
131,326,102995,1,10,0:0:0:0:
228,303,103319,2,0,L|294:307,2,50,2|2|10,3:2|0:0|0:0,0:0:0:0:
176,216,103968,6,0,P|179:165|182:103,1,99.9999999999999,2|8,3:2|0:0,0:0:0:0:
190,66,104454,2,0,P|241:57|296:69,1,99.9999999999999,2|2,0:0|0:0,0:0:0:0:
331,89,104941,1,8,0:0:0:0:
398,162,105265,2,0,P|407:213|395:268,1,99.9999999999999,2|10,3:2|0:0,0:0:0:0:
369,300,105752,1,2,0:0:0:0:
271,320,106076,2,0,L|273:380,2,50,8|0|8,0:0|0:0|0:0,0:0:0:0:
242,278,106563,6,0,L|245:173,1,99.9999999999999,6|10,3:0|0:0,0:0:0:0:
248,128,107049,2,0,P|205:108|143:111,1,99.9999999999999,2|2,0:0|0:0,0:0:0:0:
105,123,107536,1,8,0:0:0:0:
25,183,107860,2,0,L|31:282,1,99.9999999999999,0|10,3:2|0:0,0:0:0:0:
58,332,108346,1,2,0:0:0:0:
58,332,108509,2,0,P|107:350|161:340,1,99.9999999999999,0|8,3:0|0:0,0:0:0:0:
246,306,109157,5,2,3:2:0:0:
316,234,109481,2,0,L|430:227,1,99.9999999999999,10|2,0:0|3:2,0:0:0:0:
470,225,109968,1,8,0:0:0:0:
470,225,110130,2,0,P|474:159|459:121,1,99.9999999999999,10|10,0:0|0:0,0:0:0:0:
402,47,110779,1,0,3:0:0:0:
312,89,111103,2,0,L|244:84,1,50,10|0,0:0|3:0,0:0:0:0:
217,62,111427,2,0,L|149:67,1,50,8|0,0:0|3:0,0:0:0:0:
118,78,111752,5,6,3:2:0:0:
256,192,111914,12,6,114346,3:2:0:0:
301,115,122130,6,0,L|187:120,1,99.9999999999999,6|10,3:2|0:0,0:0:0:0:
101,128,122779,1,2,3:2:0:0:
51,214,123103,1,10,0:0:0:0:
90,305,123427,2,0,P|141:322|204:303,1,99.9999999999999,2|10,3:2|0:0,0:0:0:0:
228,287,123914,2,0,P|279:270|342:289,1,99.9999999999999,2|2,0:0|0:0,0:0:0:0:
366,303,124400,1,10,0:0:0:0:
460,269,124725,6,0,L|464:162,1,99.9999999999999,6|10,3:2|0:0,0:0:0:0:
470,69,125373,1,2,3:2:0:0:
378,28,125698,1,10,0:0:0:0:
289,73,126022,2,0,P|236:82|171:66,1,99.9999999999999,2|10,3:2|0:0,0:0:0:0:
148,47,126509,2,0,P|95:38|30:54,1,99.9999999999999,2|10,0:0|0:0,0:0:0:0:
9,75,126995,1,10,0:0:0:0:
4,174,127319,6,0,L|12:289,1,99.9999999999999,4|10,3:2|0:0,0:0:0:0:
82,343,127968,1,2,3:2:0:0:
180,359,128292,1,10,0:0:0:0:
266,307,128617,2,0,P|270:238|256:204,1,99.9999999999999,2|10,3:2|0:0,0:0:0:0:
229,169,129103,2,0,P|225:100|239:66,1,99.9999999999999,2|2,0:0|0:0,0:0:0:0:
265,32,129590,1,10,0:0:0:0:
364,31,129914,6,0,L|372:135,1,99.9999999999999,6|8,3:2|0:0,0:0:0:0:
376,230,130563,1,0,3:0:0:0:
322,314,130887,1,8,0:0:0:0:
226,343,131211,2,0,P|180:351|112:335,1,99.9999999999999,8|8,0:0|0:0,0:0:0:0:
49,279,131860,2,0,L|43:215,1,50,8|10,0:0|0:0,0:0:0:0:
25,183,132184,2,0,L|31:119,1,50,10|10,0:0|0:0,0:0:0:0:
39,83,132509,5,0,0:0:0:0:
