osu file format v14

[General]
AudioFilename: audio.mp3
AudioLeadIn: 0
PreviewTime: 69833
Countdown: 0
SampleSet: Soft
StackLeniency: 0.6
Mode: 0
LetterboxInBreaks: 0
WidescreenStoryboard: 0

[Editor]
Bookmarks: 13157,44292
DistanceSpacing: 0.1
BeatDivisor: 4
GridSize: 4
TimelineZoom: 1.5

[Metadata]
Title:Teo
TitleUnicode:テオ
Artist:Araki
ArtistUnicode:あらき
Creator:Nevo
Version:A r M i N's Extra
Source:
Tags:byd bite you death Akitoshi -Laura- armin a_r_m_i_n snownino shunao shogunmoon ultaite cover vocaloid hatsune miku synth rock
BeatmapID:1603621
BeatmapSetID:759178

[Difficulty]
HPDrainRate:6
CircleSize:3.8
OverallDifficulty:8.8
ApproachRate:9.3
SliderMultiplier:1.8
SliderTickRate:1

[Events]
//Background and Video events
0,0,"anime-girl-falling-down-clouds-sky-school-uniform.jpg",0,0
//Break Periods
//Storyboard Layer 0 (Background)
//Storyboard Layer 1 (Fail)
//Storyboard Layer 2 (Pass)
//Storyboard Layer 3 (Foreground)
//Storyboard Sound Samples

[TimingPoints]
1482,324.324324324324,4,2,2,40,1,0
1482,-133.333333333333,4,2,2,40,0,0
3022,-133.333333333333,4,2,2,5,0,0
3103,-133.333333333333,4,2,2,40,0,0
3346,-133.333333333333,4,2,2,5,0,0
3427,-133.333333333333,4,2,2,40,0,0
3995,-133.333333333333,4,2,2,5,0,0
4076,-133.333333333333,4,2,2,40,0,0
4644,-133.333333333333,4,2,2,5,0,0
4725,-133.333333333333,4,2,2,40,0,0
5292,-133.333333333333,4,2,2,5,0,0
5373,-133.333333333333,4,2,2,40,0,0
5941,-133.333333333333,4,2,2,5,0,0
6022,-133.333333333333,4,2,2,40,0,0
6590,-133.333333333333,4,2,2,5,0,0
6671,-133.333333333333,4,2,2,40,0,0
11860,-133.333333333333,4,2,2,50,0,0
12022,-133.333333333333,4,2,2,5,0,0
12103,-133.333333333333,4,2,2,50,0,0
12265,-133.333333333333,4,2,2,5,0,0
12346,-133.333333333333,4,2,2,50,0,0
12509,-100,4,2,2,5,0,0
12671,-100,4,2,2,60,0,0
13157,-100,4,2,2,65,0,0
13400,-100,4,2,2,5,0,0
13481,-100,4,2,2,65,0,0
13725,-100,4,2,2,5,0,0
13806,-100,4,2,2,65,0,0
14049,-100,4,2,2,5,0,0
14130,-100,4,2,2,65,0,0
14373,-100,4,2,2,5,0,0
14454,-100,4,2,2,65,0,0
14698,-100,4,2,2,5,0,0
14779,-100,4,2,2,65,0,0
15995,-100,4,2,2,5,0,0
16076,-100,4,2,2,65,0,0
16319,-100,4,2,2,5,0,0
16400,-100,4,2,2,65,0,0
16644,-100,4,2,2,5,0,0
16725,-100,4,2,2,65,0,0
16968,-100,4,2,2,5,0,0
17049,-100,4,2,2,65,0,0
17292,-100,4,2,2,5,0,0
17373,-100,4,2,2,65,0,0
18265,-100,4,2,2,5,0,0
18346,-100,4,2,2,65,0,0
18590,-100,4,2,2,5,0,0
18671,-100,4,2,2,65,0,0
18914,-100,4,2,2,5,0,0
18995,-100,4,2,2,65,0,0
19238,-100,4,2,2,5,0,0
19319,-100,4,2,2,65,0,0
19563,-100,4,2,2,5,0,0
19644,-100,4,2,2,65,0,0
19887,-100,4,2,2,5,0,0
19968,-100,4,2,2,65,0,0
21184,-100,4,2,2,5,0,0
21265,-100,4,2,2,65,0,0
23536,-111.111111111111,4,2,2,60,0,0
28157,-111.111111111111,4,2,2,5,0,0
28238,-111.111111111111,4,2,2,60,0,0
28563,-111.111111111111,4,2,3,60,0,0
29617,-111.111111111111,4,2,3,5,0,0
29698,-111.111111111111,4,2,3,60,0,0
30265,-111.111111111111,4,2,3,5,0,0
30346,-111.111111111111,4,2,3,60,0,0
31238,-111.111111111111,4,2,3,5,0,0
31319,-111.111111111111,4,2,3,60,0,0
31563,-111.111111111111,4,2,3,5,0,0
31644,-111.111111111111,4,2,3,60,0,0
32049,-111.111111111111,4,2,3,5,0,0
32130,-111.111111111111,4,2,3,60,0,0
32617,-111.111111111111,4,2,2,60,0,0
35454,-111.111111111111,4,2,2,5,0,0
35536,-111.111111111111,4,2,2,60,0,0
37725,-111.111111111111,4,2,2,5,0,0
37806,-111.111111111111,4,2,2,60,0,0
38536,-111.111111111111,4,2,2,5,0,0
38617,-111.111111111111,4,2,2,60,0,0
40644,-111.111111111111,4,2,2,5,0,0
40725,-111.111111111111,4,2,2,60,0,0
40968,-111.111111111111,4,2,2,5,0,0
41049,-111.111111111111,4,2,2,60,0,0
41292,-111.111111111111,4,2,2,5,0,0
41373,-111.111111111111,4,2,2,60,0,0
41617,-111.111111111111,4,2,2,5,0,0
41698,-111.111111111111,4,2,2,60,0,0
41941,-111.111111111111,4,2,2,5,0,0
42022,-111.111111111111,4,2,2,60,0,0
42265,-111.111111111111,4,2,2,5,0,0
42346,-111.111111111111,4,2,2,60,0,0
42590,-111.111111111111,4,2,2,5,0,0
42671,-111.111111111111,4,2,2,60,0,0
42914,-111.111111111111,4,2,2,5,0,0
42995,-100,4,2,2,60,0,0
44292,-100,4,2,2,65,0,0
44536,-100,4,2,2,5,0,0
44617,-100,4,2,2,65,0,0
44860,-100,4,2,2,5,0,0
44941,-100,4,2,2,65,0,0
45184,-100,4,2,2,5,0,0
45265,-100,4,2,2,65,0,0
45509,-100,4,2,2,5,0,0
45590,-100,4,2,2,65,0,0
45833,-100,4,2,2,5,0,0
45914,-100,4,2,2,65,0,0
47130,-100,4,2,2,5,0,0
47211,-100,4,2,2,65,0,0
47454,-100,4,2,2,5,0,0
47536,-100,4,2,2,65,0,0
47779,-100,4,2,2,5,0,0
47860,-100,4,2,2,65,0,0
49481,-111.111111111111,4,2,2,60,0,0
53617,-111.111111111111,4,2,2,5,0,0
53698,-111.111111111111,4,2,2,60,0,0
54103,-111.111111111111,4,2,2,5,0,0
54184,-111.111111111111,4,2,2,60,0,0
54671,-111.111111111111,4,2,3,60,0,0
55968,-111.111111111111,4,2,2,60,0,0
56211,-111.111111111111,4,2,2,5,0,0
56292,-111.111111111111,4,2,2,60,0,0
57184,-111.111111111111,4,2,2,5,0,0
57265,-111.111111111111,4,2,2,60,0,0
57509,-111.111111111111,4,2,2,5,0,0
57590,-111.111111111111,4,2,2,60,0,0
59860,-100,4,2,2,60,0,0
61400,-100,4,2,2,5,0,0
61481,-100,4,2,2,60,0,0
62698,-100,4,2,2,5,0,0
62779,-100,4,2,2,60,0,0
63022,-100,4,2,2,5,0,0
63103,-100,4,2,2,60,0,0
63346,-100,4,2,2,5,0,0
63427,-100,4,2,2,60,0,0
63671,-100,4,2,2,5,0,0
63752,-100,4,2,2,60,0,0
65049,-100,4,2,3,60,0,0
66590,-100,4,2,3,5,0,0
66671,-100,4,2,3,60,0,0
66914,-100,4,2,3,5,0,0
66995,-100,4,2,3,60,0,0
67644,-100,4,2,3,60,0,0
68617,-66.6666666666667,4,2,3,60,0,0
68941,-100,4,2,3,60,0,0
69914,-300,4,2,3,60,0,0
70157,-300,4,2,3,60,0,0
70238,-83.3333333333333,4,2,3,80,0,1
70481,-83.3333333333333,4,2,3,5,0,1
70563,-83.3333333333333,4,2,3,80,0,1
72427,-83.3333333333333,4,2,3,5,0,1
72509,-83.3333333333333,4,2,3,80,0,1
73076,-83.3333333333333,4,2,3,5,0,1
73157,-83.3333333333333,4,2,3,70,0,1
75671,-83.3333333333333,4,2,3,5,0,1
75752,-83.3333333333333,4,2,3,70,0,1
77617,-83.3333333333333,4,2,3,5,0,1
77698,-83.3333333333333,4,2,3,70,0,1
78265,-83.3333333333333,4,2,3,5,0,1
78346,-83.3333333333333,4,2,3,70,0,1
78590,-83.3333333333333,4,2,3,5,0,1
78671,-83.3333333333333,4,2,3,70,0,1
78833,-83.3333333333333,4,2,2,70,0,1
79968,-83.3333333333333,4,2,2,80,0,1
80292,-133.333333333333,4,2,2,80,0,1
80536,-133.333333333333,4,2,2,70,0,1
80617,-83.3333333333333,4,2,3,80,0,1
80860,-83.3333333333333,4,2,3,5,0,1
80941,-83.3333333333333,4,2,3,80,0,1
82806,-83.3333333333333,4,2,3,5,0,1
82887,-83.3333333333333,4,2,3,80,0,1
83454,-83.3333333333333,4,2,3,5,0,1
83536,-83.3333333333333,4,2,3,80,0,1
86049,-83.3333333333333,4,2,3,5,0,1
86130,-83.3333333333333,4,2,3,80,0,1
88319,-83.3333333333333,4,2,3,5,0,1
88400,-83.3333333333333,4,2,3,80,0,1
88644,-83.3333333333333,4,2,3,5,0,1
88725,-83.3333333333333,4,2,3,80,0,1
88968,-83.3333333333333,4,2,3,5,0,1
89049,-83.3333333333333,4,2,3,80,0,1
89292,-83.3333333333333,4,2,3,5,0,1
89373,-83.3333333333333,4,2,3,80,0,1
89617,-83.3333333333333,4,2,3,5,0,1
89698,-83.3333333333333,4,2,3,80,0,1
89860,-83.3333333333333,4,2,2,80,0,1
90914,-83.3333333333333,4,2,2,80,0,0
90995,-83.3333333333333,4,2,3,80,0,1
100725,-83.3333333333333,4,2,2,80,0,1
101373,-83.3333333333333,4,2,3,80,0,1
109968,-83.3333333333333,4,2,2,80,0,1
111752,-100,4,2,3,65,0,0
111995,-100,4,2,3,5,0,0
112076,-100,4,2,2,65,0,0
112319,-100,4,2,2,5,0,0
112400,-100,4,2,2,65,0,0
112644,-100,4,2,2,5,0,0
112725,-100,4,2,2,65,0,0
112968,-100,4,2,2,5,0,0
113049,-100,4,2,2,65,0,0
113292,-100,4,2,2,5,0,0
113373,-100,4,2,2,65,0,0
114590,-100,4,2,2,5,0,0
114671,-100,4,2,2,65,0,0
114915,-100,4,2,2,5,0,0
114996,-100,4,2,2,65,0,0
115239,-100,4,2,2,5,0,0
115320,-100,4,2,2,65,0,0
115563,-100,4,2,2,5,0,0
115644,-100,4,2,2,65,0,0
115888,-100,4,2,2,5,0,0
115969,-100,4,2,2,65,0,0
117185,-100,4,2,2,5,0,0
117266,-100,4,2,2,65,0,0
117509,-100,4,2,2,5,0,0
117590,-100,4,2,2,65,0,0
117834,-100,4,2,2,5,0,0
117915,-100,4,2,2,65,0,0
118158,-100,4,2,2,5,0,0
118239,-100,4,2,2,65,0,0
118482,-100,4,2,2,5,0,0
118563,-100,4,2,2,65,0,0
119455,-100,4,2,2,65,0,0
119536,-100,4,2,2,65,0,0
119780,-100,4,2,2,5,0,0
119861,-100,4,2,2,65,0,0
120104,-100,4,2,2,65,0,0
120185,-100,4,2,2,65,0,0
120428,-100,4,2,2,65,0,0
120509,-100,4,2,2,65,0,0
120753,-100,4,2,2,65,0,0
120834,-100,4,2,2,65,0,0
121077,-100,4,2,2,65,0,0
121158,-100,4,2,2,65,0,0
122374,-100,4,2,2,5,0,0
122455,-100,4,2,2,65,0,0
122698,-100,4,2,2,5,0,0
122779,-100,4,2,2,65,0,0
123022,-100,4,2,2,5,0,0
123103,-100,4,2,2,65,0,0
123346,-100,4,2,2,5,0,0
123427,-100,4,2,2,65,0,0
123671,-100,4,2,2,5,0,0
123752,-100,4,2,2,65,0,0
124726,-100,4,2,2,65,0,0
124968,-100,4,2,2,5,0,0
125049,-100,4,2,2,65,0,0
125292,-100,4,2,2,5,0,0
125373,-100,4,2,2,65,0,0
125617,-100,4,2,2,5,0,0
125698,-100,4,2,2,65,0,0
125941,-100,4,2,2,5,0,0
126022,-100,4,2,2,65,0,0
126265,-100,4,2,2,5,0,0
126346,-100,4,2,2,65,0,0
127238,-100,4,2,2,5,0,0
127319,-100,4,2,2,65,0,0
127563,-100,4,2,2,5,0,0
127644,-100,4,2,2,65,0,0
127887,-100,4,2,2,5,0,0
127968,-100,4,2,2,65,0,0
128211,-100,4,2,2,5,0,0
128292,-100,4,2,2,65,0,0
128536,-100,4,2,2,5,0,0
128617,-100,4,2,2,65,0,0
128860,-100,4,2,2,5,0,0
128941,-100,4,2,2,65,0,0
129347,-100,4,2,2,65,0,0
129428,-100,4,2,2,65,0,0
129753,-100,4,2,2,65,0,0
129915,-100,4,2,3,65,0,0
130157,-100,4,2,2,5,0,0
130238,-100,4,2,3,65,0,0
130807,-100,4,2,3,65,0,0
130888,-100,4,2,3,65,0,0
131455,-100,4,2,3,65,0,0
131536,-100,4,2,3,65,0,0

[Colours]
Combo1 : 192,192,192
Combo2 : 0,255,255
Combo3 : 0,128,192

[HitObjects]
262,101,2617,5,8,0:3:0:0:
262,101,2698,1,8,0:3:0:0:
262,101,2779,2,0,L|255:169,1,67.5000025749208,4|0,3:2|0:0,0:0:0:0:
323,299,3103,2,0,L|316:231,1,67.5000025749208,8|0,0:0|0:0,0:0:0:0:
178,211,3427,2,0,P|199:237|230:252,1,67.5000025749208,0|0,3:0|0:0,0:0:0:0:
179,124,3752,2,0,P|147:129|118:148,1,67.5000025749208,8|0,0:0|0:0,0:0:0:0:
255,168,4076,6,0,P|288:162|316:143,1,67.5000025749208,0|0,3:0|0:0,0:0:0:0:
279,20,4400,2,0,P|260:47|255:80,1,67.5000025749208,8|0,0:0|0:0,0:0:0:0:
403,144,4725,2,0,P|397:110|379:82,1,67.5000025749208,0|0,3:0|0:0,0:0:0:0:
359,220,5049,2,0,P|390:231|423:230,1,67.5000025749208,8|0,0:0|0:0,0:0:0:0:
255,168,5373,6,0,P|221:166|190:178,1,67.5000025749208,0|0,3:0|0:0,0:0:0:0:
228,321,5698,2,0,L|235:253,1,67.5000025749208,8|0,0:0|0:0,0:0:0:0:
145,363,6022,2,0,L|138:295,1,67.5000025749208,0|0,3:0|0:0,0:0:0:0:
312,363,6346,2,0,L|319:295,1,67.5000025749208,8|0,0:0|0:0,0:0:0:0:
145,209,6671,6,0,L|138:141,1,67.5000025749208,0|0,3:0|0:0,0:0:0:0:
312,209,6995,2,0,L|319:141,1,67.5000025749208,8|0,0:0|0:0,0:0:0:0:
271,68,7319,1,0,3:0:0:0:
406,136,7481,1,8,0:0:0:0:
230,146,7644,1,8,0:0:0:0:
361,29,7806,2,0,L|358:63,1,33.7500012874604,8|8,0:0|0:0,0:0:0:0:
345,234,7968,5,4,3:2:0:0:
319,141,8130,1,0,0:0:0:0:
288,309,8292,2,0,P|319:326|350:329,1,67.5000025749208,8|0,0:0|0:0,0:0:0:0:
252,221,8617,1,0,3:0:0:0:
204,352,8779,1,0,0:0:0:0:
105,244,8941,2,0,L|112:176,1,67.5000025749208,8|0,0:0|0:0,0:0:0:0:
179,11,9265,5,0,3:0:0:0:
82,87,9427,1,0,0:0:0:0:
237,86,9590,2,0,P|208:102|175:106,1,67.5000025749208,8|0,0:0|0:0,0:0:0:0:
26,12,9914,1,0,3:0:0:0:
111,176,10076,1,0,0:0:0:0:
179,11,10238,1,8,0:0:0:0:
264,175,10400,1,0,0:0:0:0:
82,87,10563,5,0,3:0:0:0:
175,106,10725,1,0,0:0:0:0:
91,238,10887,2,0,P|94:204|110:175,1,67.5000025749208,8|0,0:0|0:0,0:0:0:0:
264,175,11211,1,0,3:0:0:0:
186,233,11373,1,0,0:0:0:0:
266,80,11536,1,8,0:0:0:0:
290,84,11617,1,8,0:0:0:0:
313,94,11698,1,8,0:0:0:0:
333,110,11779,1,0,0:0:0:0:
347,132,11860,6,0,B|382:149|382:149|442:133,2,101.250003862381,2|2|2,3:2|3:2|3:2,0:0:0:0:
101,30,12671,6,0,L|146:23,1,45,8|8,0:0|0:0,0:0:0:0:
249,69,12833,1,8,0:0:0:0:
255,90,12914,1,8,0:0:0:0:
255,112,12995,1,8,0:0:0:0:
248,134,13076,1,8,0:0:0:0:
234,152,13157,6,0,P|219:193|223:238,1,90,6|0,3:2|0:0,0:0:0:0:
401,224,13481,2,0,L|313:206,1,90,10|0,0:0|0:0,0:0:0:0:
199,340,13806,2,0,L|287:322,1,90,2|0,3:2|0:0,0:0:0:0:
122,286,14130,2,0,P|106:327|110:372,1,90,10|0,0:0|0:0,0:0:0:0:
223,238,14454,6,0,L|205:150,1,90,2|0,3:2|0:0,0:0:0:0:
174,7,14779,1,10,0:0:0:0:
112,167,14941,1,2,0:0:0:0:
293,75,15103,2,0,L|249:66,1,45,2|0,3:3|0:0,0:0:0:0:
81,23,15265,1,2,0:0:0:0:
204,149,15427,1,10,0:0:0:0:
36,225,15590,1,2,0:0:0:0:
199,340,15752,6,0,L|287:322,1,90,6|0,3:2|0:0,0:0:0:0:
395,176,16076,2,0,P|351:172|310:188,1,90,10|0,0:0|0:0,0:0:0:0:
376,352,16400,2,0,P|380:308|364:266,1,90,2|0,3:2|0:0,0:0:0:0:
233,135,16725,2,0,P|216:176|221:220,1,90,10|0,0:0|0:0,0:0:0:0:
396,177,17049,6,0,L|378:89,1,90,2|0,3:2|0:0,0:0:0:0:
195,47,17373,1,10,0:0:0:0:
310,188,17536,1,2,0:0:0:0:
298,14,17698,2,0,L|289:58,1,45,2|0,3:0|0:0,0:0:0:0:
248,259,17860,1,10,0:0:0:0:
378,89,18022,2,0,L|396:177,1,90,10|0,0:0|0:0,0:0:0:0:
170,204,18346,6,0,P|154:245|159:290,1,90,4|0,3:2|0:0,0:0:0:0:
336,277,18671,2,0,L|248:259,1,90,10|0,0:0|0:0,0:0:0:0:
139,114,18995,2,0,P|183:109|225:126,1,90,2|0,3:2|0:0,0:0:0:0:
159,290,19319,2,0,L|71:272,1,90,10|0,0:0|0:0,0:0:0:0:
248,259,19644,6,0,P|252:303|236:344,1,90,2|0,3:2|0:0,0:0:0:0:
170,204,19968,1,10,0:0:0:0:
336,277,20130,1,2,0:0:0:0:
114,299,20292,2,0,L|158:290,1,45,2|0,3:0|0:0,0:0:0:0:
309,186,20454,1,2,0:0:0:0:
82,186,20617,2,0,L|170:204,1,90,10|0,0:0|0:0,0:0:0:0:
398,218,20941,6,0,P|402:173|386:132,1,90,6|0,3:2|0:0,0:0:0:0:
216,55,21265,1,8,0:0:0:0:
309,186,21427,1,0,0:0:0:0:
374,38,21590,1,0,3:0:0:0:
196,169,21752,1,8,0:0:0:0:
398,218,21914,1,8,0:0:0:0:
260,46,22076,2,0,L|216:55,1,45,0|0,0:0|0:0,0:0:0:0:
78,93,22238,5,8,0:0:0:0:
62,115,22319,1,8,0:0:0:0:
54,141,22400,1,8,0:0:0:0:
57,167,22481,1,8,0:0:0:0:
69,192,22563,1,0,3:0:0:0:
80,216,22644,1,0,3:0:0:0:
83,242,22725,1,2,3:2:0:0:
75,268,22806,1,0,3:0:0:0:
59,290,22887,6,0,P|52:317|53:342,3,45,10|8|0|0,0:0|0:0|3:0|3:0,0:0:0:0:
168,282,23211,2,0,L|212:291,1,45,10|8,0:0|0:0,0:0:0:0:
267,368,23373,2,0,L|311:359,1,45,2|0,3:2|3:0,0:0:0:0:
366,282,23536,6,0,L|444:298,1,80.9999975280763,6|0,3:2|0:0,0:0:0:0:
286,230,23860,1,8,0:0:0:0:
311,358,24022,1,2,0:0:0:0:
370,188,24184,2,0,L|353:109,1,80.9999975280763,2|2,3:2|3:2,0:0:0:0:
261,8,24509,1,10,0:0:0:0:
419,40,24671,1,2,0:0:0:0:
249,108,24833,6,0,B|169:76|169:140|89:108,1,161.999995056153,2|8,3:2|0:0,0:0:0:0:
131,21,25319,1,2,0:0:0:0:
209,194,25481,2,0,P|252:203|287:195,1,80.9999975280763,0|0,0:0|3:0,0:0:0:0:
339,27,25806,1,8,0:0:0:0:
249,108,25968,1,2,0:0:0:0:
375,232,26130,6,0,P|382:193|372:153,1,80.9999975280763,2|0,3:2|0:0,0:0:0:0:
236,275,26454,1,10,0:0:0:0:
386,327,26617,2,0,P|423:313|452:284,1,80.9999975280763,2|0,0:0|0:0,0:0:0:0:
287,195,26941,1,2,3:2:0:0:
258,377,27103,2,0,L|179:360,1,80.9999975280763,8|0,0:0|0:0,0:0:0:0:
386,327,27427,6,0,L|464:310,1,80.9999975280763,2|0,3:2|0:0,0:0:0:0:
372,153,27752,1,10,0:0:0:0:
298,290,27914,1,2,0:0:0:0:
294,100,28076,1,0,0:0:0:0:
450,206,28238,2,0,P|420:234|383:248,1,80.9999975280763,8|0,0:0|3:0,0:0:0:0:
204,189,28563,2,0,L|244:181,1,40.4999987640381,2|0,1:2|0:0,0:0:0:0:
372,153,28725,5,6,3:2:0:0:
200,93,28887,1,2,1:2:0:0:
298,290,29049,1,10,0:0:0:0:
294,100,29211,1,2,1:2:0:0:
159,272,29373,2,0,L|80:255,1,80.9999975280763,2|0,3:2|0:0,0:0:0:0:
244,180,29698,1,10,0:0:0:0:
221,345,29860,1,2,1:2:0:0:
150,177,30022,6,0,L|166:98,1,80.9999975280763,2|0,3:2|0:0,0:0:0:0:
294,16,30346,1,10,0:0:0:0:
107,23,30509,1,2,1:2:0:0:
244,180,30671,1,2,3:2:0:0:
201,9,30833,1,2,3:2:0:0:
150,177,30995,2,0,L|166:255,1,80.9999975280763,10|0,0:0|0:0,0:0:0:0:
346,154,31319,5,0,3:0:0:0:
166,97,31481,1,0,0:0:0:0:
314,244,31644,1,10,0:0:0:0:
260,100,31806,2,0,L|243:179,1,80.9999975280763,2|0,1:2|0:0,0:0:0:0:
423,305,32130,2,0,L|407:226,1,80.9999975280763,2|8,3:2|0:0,0:0:0:0:
290,336,32454,1,2,0:0:0:0:
346,154,32617,6,0,L|362:74,1,80.9999975280763,2|0,3:2|0:0,0:0:0:0:
486,209,32941,2,0,L|406:225,1,80.9999975280763,8|0,0:0|0:0,0:0:0:0:
233,144,33265,1,2,3:2:0:0:
314,244,33427,1,0,3:0:0:0:
266,12,33590,2,0,L|258:52,1,40.4999987640381,8|8,0:0|0:0,0:0:0:0:
221,238,33752,1,8,0:0:0:0:
362,74,33914,6,0,L|378:153,1,80.9999975280763,6|0,3:2|0:0,0:0:0:0:
263,323,34238,1,8,0:0:0:0:
233,144,34400,1,2,0:0:0:0:
393,259,34563,2,0,L|313:243,1,80.9999975280763,2|2,3:2|3:2,0:0:0:0:
157,200,34887,1,10,0:0:0:0:
263,323,35049,1,2,0:0:0:0:
344,153,35211,6,0,B|401:145|401:145|441:161|441:161|501:153,1,161.999995056153,2|10,3:2|0:0,0:0:0:0:
453,64,35698,1,2,0:0:0:0:
393,259,35860,2,0,L|313:243,1,80.9999975280763,0|0,0:0|3:0,0:0:0:0:
154,206,36184,1,8,0:0:0:0:
344,153,36346,1,2,0:0:0:0:
201,55,36509,6,0,L|217:135,1,80.9999975280763,2|0,3:2|0:0,0:0:0:0:
201,288,36833,1,10,0:0:0:0:
74,190,36995,2,0,L|154:206,1,80.9999975280763,2|0,0:0|0:0,0:0:0:0:
218,382,37319,1,2,3:2:0:0:
29,326,37481,2,0,L|109:310,1,80.9999975280763,10|0,0:0|0:0,0:0:0:0:
286,246,37806,6,0,P|295:285|288:324,1,80.9999975280763,2|0,3:2|0:0,0:0:0:0:
153,205,38130,1,10,0:0:0:0:
322,158,38292,1,2,0:0:0:0:
201,288,38454,1,0,0:0:0:0:
131,104,38617,2,0,L|211:120,1,80.9999975280763,8|0,0:0|3:0,0:0:0:0:
326,254,38941,2,0,L|286:246,1,40.4999987640381,10|0,0:0|0:0,0:0:0:0:
153,205,39103,5,6,3:2:0:0:
322,158,39265,1,2,0:0:0:0:
305,356,39427,2,0,L|385:340,1,80.9999975280763,8|0,0:0|0:0,0:0:0:0:
201,288,39752,2,0,L|121:272,1,80.9999975280763,2|2,3:2|3:3,0:0:0:0:
210,119,40076,1,10,0:0:0:0:
286,246,40238,1,2,0:0:0:0:
440,104,40400,6,0,L|456:184,1,80.9999975280763,2|0,3:2|0:0,0:0:0:0:
384,340,40725,2,0,L|400:260,1,80.9999975280763,10|0,0:0|0:0,0:0:0:0:
297,122,41049,2,0,L|359:176,1,80.9999975280763,2|0,3:2|0:0,0:0:0:0:
292,361,41373,2,0,P|251:361|214:346,1,80.9999975280763,10|0,0:0|0:0,0:0:0:0:
129,141,41698,6,0,L|113:221,1,80.9999975280763,6|0,3:2|0:0,0:0:0:0:
72,55,42022,2,0,L|152:39,1,80.9999975280763,10|0,0:0|0:0,0:0:0:0:
297,122,42346,2,0,L|217:106,1,80.9999975280763,2|0,3:2|0:0,0:0:0:0:
159,304,42671,2,0,L|239:288,1,80.9999975280763,10|0,0:0|0:0,0:0:0:0:
466,238,42995,5,6,3:2:0:0:
466,238,43157,2,0,L|423:228,1,45,8|8,0:0|0:0,0:0:0:0:
297,122,43319,1,8,3:2:0:0:
272,131,43400,1,8,0:0:0:0:
244,131,43481,1,8,0:0:0:0:
220,122,43563,1,8,0:0:0:0:
196,111,43644,1,10,0:0:0:0:
169,112,43725,1,8,0:0:0:0:
142,123,43806,6,0,P|148:151|147:177,1,45,10|8,0:0|0:0,0:0:0:0:
79,305,43968,2,0,P|95:289|115:278,1,45,10|8,0:0|0:0,0:0:0:0:
269,269,44130,2,0,P|241:260|219:246,1,45,8|8,0:0|0:0,0:0:0:0:
396,95,44292,6,0,P|440:90|482:105,1,90,6|0,3:2|0:0,0:0:0:0:
447,274,44617,2,0,L|429:186,1,90,10|0,0:0|0:0,0:0:0:0:
250,140,44941,2,0,L|336:169,1,90,2|0,3:2|0:0,0:0:0:0:
463,36,45265,2,0,L|395:95,1,90,10|0,0:0|0:0,0:0:0:0:
358,292,45590,6,0,L|446:274,1,90,2|0,3:2|0:0,0:0:0:0:
336,169,45914,1,10,0:0:0:0:
282,347,46076,1,2,0:0:0:0:
201,138,46238,2,0,L|245:147,1,45,2|2,3:0|0:0,0:0:0:0:
429,185,46400,1,2,0:0:0:0:
225,272,46563,1,10,0:0:0:0:
336,169,46725,1,2,0:0:0:0:
123,85,46887,6,0,P|107:126|112:171,1,90,4|0,3:2|0:0,0:0:0:0:
289,156,47211,2,0,L|201:138,1,90,10|0,0:0|0:0,0:0:0:0:
81,262,47536,2,0,P|125:266|167:251,1,90,2|0,3:2|0:0,0:0:0:0:
270,67,47860,2,0,L|288:155,1,90,10|0,3:2|3:0,0:0:0:0:
365,209,48103,1,0,0:0:0:0:
365,209,48184,6,0,P|380:167|375:122,1,90,10|8,3:2|0:0,0:0:0:0:
357,29,48427,1,8,0:0:0:0:
357,29,48509,2,0,L|401:38,1,45,8|0,3:0|0:0,0:0:0:0:
270,67,48671,5,10,0:0:0:0:
243,72,48752,1,8,0:0:0:0:
217,77,48833,1,10,0:0:0:0:
190,83,48914,1,8,0:0:0:0:
164,88,48995,1,0,3:0:0:0:
137,94,49076,1,0,3:0:0:0:
111,99,49157,2,0,P|123:123|127:148,1,45,10|8,0:0|0:0,0:0:0:0:
17,193,49319,2,0,P|22:171|33:152,1,45,10|8,0:0|0:0,0:0:0:0:
156,231,49481,6,0,L|235:214,1,80.9999975280763,6|0,3:2|0:0,0:0:0:0:
310,321,49806,1,8,0:0:0:0:
368,153,49968,2,0,L|289:136,1,80.9999975280763,2|0,0:0|3:0,0:0:0:0:
216,315,50292,1,2,3:2:0:0:
195,125,50454,1,10,0:0:0:0:
122,304,50617,1,2,0:0:0:0:
281,216,50779,6,0,B|383:188|383:188|425:226,1,161.999995056153,2|10,3:2|0:0,0:0:0:0:
491,295,51265,1,2,0:0:0:0:
341,373,51427,2,0,L|358:294,1,80.9999975280763,0|0,0:0|3:0,0:0:0:0:
407,95,51752,1,8,0:0:0:0:
425,226,51914,1,2,0:0:0:0:
194,124,52076,6,0,P|233:112|273:117,1,80.9999975280763,2|0,3:2|0:0,0:0:0:0:
224,286,52400,2,0,L|241:207,1,80.9999975280763,10|0,0:0|0:0,0:0:0:0:
94,106,52725,2,0,L|111:185,1,80.9999975280763,2|0,3:2|0:0,0:0:0:0:
290,37,53049,2,0,L|273:116,1,80.9999975280763,8|0,0:0|0:0,0:0:0:0:
341,268,53373,6,0,P|346:228|334:190,1,80.9999975280763,2|0,3:2|0:0,0:0:0:0:
181,133,53698,1,10,0:0:0:0:
173,254,53860,2,0,L|252:237,1,80.9999975280763,2|0,0:0|0:0,0:0:0:0:
198,54,54184,2,0,L|181:133,1,80.9999975280763,8|0,0:0|3:0,0:0:0:0:
90,321,54509,2,0,L|82:282,1,40.4999987640381,0|0,0:0|0:0,0:0:0:0:
41,119,54671,5,6,3:2:0:0:
173,254,54833,1,2,1:2:0:0:
198,54,54995,1,10,0:2:0:0:
104,189,55157,1,2,1:2:0:0:
260,150,55319,2,0,L|181:133,1,80.9999975280763,2|0,3:2|1:0,0:0:0:0:
267,245,55644,1,10,0:0:0:0:
292,60,55806,1,2,0:0:0:0:
436,197,55968,6,0,L|357:214,1,80.9999975280763,2|0,3:2|0:0,0:0:0:0:
173,254,56292,1,10,0:0:0:0:
339,307,56454,1,2,0:0:0:0:
260,150,56617,1,2,3:2:0:0:
186,348,56779,1,2,0:0:0:0:
69,191,56941,2,0,P|64:151|76:112,1,80.9999975280763,10|0,0:0|0:0,0:0:0:0:
173,254,57265,5,0,3:2:0:0:
5,264,57427,1,0,0:0:0:0:
159,160,57590,1,10,0:0:0:0:
186,348,57752,2,0,L|265:331,1,80.9999975280763,2|0,0:0|3:0,0:0:0:0:
84,281,58076,2,0,L|5:264,1,80.9999975280763,2|8,0:0|0:0,0:0:0:0:
248,196,58400,1,10,0:0:0:0:
59,33,58563,6,0,L|76:112,1,80.9999975280763,2|0,3:2|0:0,0:0:0:0:
288,24,58887,2,0,L|271:103,1,80.9999975280763,8|0,0:0|0:0,0:0:0:0:
140,301,59211,1,2,3:2:0:0:
179,85,59373,1,2,0:0:0:0:
312,301,59536,2,0,L|303:261,1,40.4999987640381,10|8,0:0|0:0,0:0:0:0:
270,103,59698,1,2,0:0:0:0:
117,337,59860,6,0,B|93:372|93:372|102:293|78:233,1,180,6|8,3:2|0:0,0:0:0:0:
0,78,60346,1,2,0:0:0:0:
175,189,60509,2,0,L|195:94,1,90,2|2,3:2|3:2,0:0:0:0:
10,172,60833,1,10,0:0:0:0:
161,283,60995,1,2,0:0:0:0:
194,101,61157,6,0,P|238:97|280:112,1,90,2|0,3:2|0:0,0:0:0:0:
403,269,61481,1,10,0:0:0:0:
430,73,61644,2,0,B|403:20|403:20|375:137,1,180,2|0,0:0|0:0,0:0:0:0:
335,335,62130,1,8,0:0:0:0:
488,231,62292,1,2,0:0:0:0:
300,194,62454,6,0,L|205:214,1,90,2|0,3:2|0:0,0:0:0:0:
97,79,62779,2,0,L|184:97,1,90,10|0,0:0|0:0,0:0:0:0:
133,266,63103,2,0,P|117:225|122:181,1,90,2|0,3:2|0:0,0:0:0:0:
318,106,63427,2,0,L|300:194,1,90,10|0,0:0|0:0,0:0:0:0:
185,98,63752,6,0,L|166:10,1,90,2|0,3:2|0:0,0:0:0:0:
34,148,64076,1,10,0:0:0:0:
212,212,64238,1,2,0:0:0:0:
7,267,64400,1,2,3:3:0:0:
185,98,64563,1,8,0:0:0:0:
239,326,64725,1,8,0:0:0:0:
126,172,64887,2,0,L|116:215,1,45,8|8,0:0|0:0,0:0:0:0:
82,377,65049,5,6,3:2:0:0:
212,212,65211,1,0,1:2:0:0:
7,267,65373,2,0,L|94:285,1,90,10|0,0:0|1:0,0:0:0:0:
247,123,65698,1,2,3:2:0:0:
72,184,65860,1,2,1:2:0:0:
290,265,66022,1,10,0:0:0:0:
154,136,66184,1,2,1:2:0:0:
336,91,66346,6,0,P|340:135|324:176,1,90,2|0,3:2|0:0,0:0:0:0:
116,256,66671,1,10,0:0:0:0:
247,123,66833,1,0,0:0:0:0:
271,352,66995,2,0,L|290:265,1,90,2|0,3:2|0:0,0:0:0:0:
456,142,67319,1,8,0:0:0:0:
470,160,67401,1,8,0:0:0:0:
477,182,67482,1,8,0:0:0:0:
477,204,67563,1,8,0:0:0:0:
471,225,67644,6,0,L|384:244,1,90,14|8,3:2|0:0,0:0:0:0:
247,123,67968,5,10,0:0:0:0:
214,115,68049,1,8,0:0:0:0:
181,108,68130,1,10,0:0:0:0:
148,101,68211,1,8,0:0:0:0:
115,94,68293,5,10,0:0:0:0:
158,84,68374,1,8,0:0:0:0:
202,74,68455,1,8,0:0:0:0:
246,65,68536,1,8,0:0:0:0:
290,55,68617,6,0,L|224:40,1,67.5000025749208,10|8,0:0|0:0,0:0:0:0:
317,258,68779,2,0,L|382:243,1,67.5000025749208,10|8,0:0|0:0,0:0:0:0:
138,235,68941,5,14,3:2:0:0:
138,235,69265,1,12,3:2:0:0:
138,235,69590,1,12,3:2:0:0:
138,235,69752,2,0,L|181:225,1,45,0|0,3:0|3:0,0:0:0:0:
344,327,69914,6,0,L|300:317,1,45,8|0,0:0|0:0,0:0:0:0:
276,211,70238,6,0,L|300:317,1,107.999996704102,6|0,3:0|0:0,0:0:0:0:
340,141,70563,1,10,0:0:0:0:
197,286,70725,1,2,1:2:0:0:
266,82,70887,1,2,3:2:0:0:
382,270,71049,1,2,1:2:0:0:
202,152,71211,1,10,0:0:0:0:
154,371,71373,1,2,1:2:0:0:
276,211,71536,5,2,3:2:0:0:
43,129,71698,1,2,1:2:0:0:
197,286,71860,1,10,0:0:0:0:
266,82,72022,1,2,1:2:0:0:
109,320,72184,2,0,L|85:214,1,107.999996704102,2|0,3:2|0:0,0:0:0:0:
340,141,72509,1,10,0:0:0:0:
139,43,72671,1,2,0:0:0:0:
197,286,72833,6,0,L|221:180,1,107.999996704102,6|0,3:0|0:0,0:0:0:0:
409,28,73157,1,10,0:0:0:0:
223,86,73319,1,2,1:2:0:0:
450,114,73481,1,2,3:2:0:0:
285,14,73644,1,2,1:2:0:0:
396,193,73806,1,10,0:0:0:0:
504,35,73968,1,2,1:2:0:0:
474,247,74130,5,2,3:2:0:0:
409,28,74292,1,2,1:2:0:0:
389,288,74454,1,10,0:0:0:0:
450,114,74617,1,2,1:2:0:0:
493,354,74779,2,0,L|474:247,1,107.999996704102,2|8,3:2|0:0,0:0:0:0:
249,133,75103,1,10,0:0:0:0:
389,288,75265,1,2,0:0:0:0:
409,28,75427,6,0,L|385:134,1,107.999996704102,6|0,3:0|0:0,0:0:0:0:
243,322,75752,1,10,0:0:0:0:
171,79,75914,1,2,1:2:0:0:
153,350,76076,1,2,3:2:0:0:
249,133,76238,1,2,1:2:0:0:
333,350,76400,1,10,0:0:0:0:
164,175,76563,1,2,1:2:0:0:
385,134,76725,5,2,3:2:0:0:
195,265,76887,1,2,1:2:0:0:
421,312,77049,1,10,0:0:0:0:
257,194,77211,1,2,1:2:0:0:
455,71,77373,2,0,P|479:127|471:172,1,107.999996704102,2|0,3:2|0:0,0:0:0:0:
333,350,77698,1,10,0:0:0:0:
385,134,77860,1,2,0:0:0:0:
512,312,78022,6,0,L|407:288,1,107.999996704102,6|0,3:0|0:0,0:0:0:0:
152,218,78346,2,0,L|257:194,1,107.999996704102,10|0,0:0|0:0,0:0:0:0:
470,137,78671,1,2,3:2:0:0:
333,350,78833,2,0,L|280:338,1,53.9999983520508,8|8,0:0|0:0,0:0:0:0:
303,111,78995,5,10,0:0:0:0:
333,137,79076,1,0,3:0:0:0:
350,174,79157,1,0,3:0:0:0:
349,214,79238,1,0,3:0:0:0:
333,251,79319,5,10,0:0:0:0:
306,244,79400,1,8,0:0:0:0:
280,238,79481,1,8,0:0:0:0:
254,232,79562,1,8,0:0:0:0:
237,213,79644,5,8,0:0:0:0:
219,217,79725,1,8,0:0:0:0:
200,221,79806,1,8,0:0:0:0:
182,225,79887,1,8,0:0:0:0:
166,214,79968,5,10,0:0:0:0:
160,223,80049,1,8,0:0:0:0:
156,233,80130,1,0,3:0:0:0:
154,243,80211,1,0,3:0:0:0:
153,254,80292,6,0,L|158:286,1,33.7500012874604,10|8,0:0|0:0,0:0:0:0:
231,364,80454,1,0,3:0:0:0:
231,364,80536,1,0,3:0:0:0:
231,364,80617,6,0,L|336:340,1,107.999996704102,6|0,3:0|0:0,0:0:0:0:
215,157,80941,1,10,0:0:0:0:
132,378,81103,1,2,1:2:0:0:
145,93,81265,1,2,3:2:0:0:
251,267,81427,1,2,1:2:0:0:
205,19,81590,1,10,0:0:0:0:
153,254,81752,1,2,1:2:0:0:
313,110,81914,5,2,3:2:0:0:
113,41,82076,1,2,1:2:0:0:
251,267,82238,1,10,0:0:0:0:
300,16,82400,1,2,1:2:0:0:
153,254,82563,2,0,L|129:149,1,107.999996704102,2|0,3:2|0:0,0:0:0:0:
388,51,82887,1,10,0:0:0:0:
205,19,83049,1,2,0:0:0:0:
376,251,83211,6,0,L|400:146,1,107.999996704102,6|0,3:0|0:0,0:0:0:0:
248,267,83536,1,10,0:0:0:0:
443,318,83698,1,2,1:2:0:0:
295,184,83860,1,2,3:2:0:0:
512,151,84022,1,2,1:2:0:0:
342,266,84184,1,10,0:0:0:0:
281,23,84346,1,2,1:2:0:0:
390,184,84509,5,2,3:2:0:0:
200,147,84671,1,2,1:2:0:0:
398,89,84833,1,8,0:0:0:0:
222,240,84995,1,2,1:2:0:0:
447,290,85157,2,0,L|342:266,1,107.999996704102,2|8,3:2|0:0,0:0:0:0:
132,218,85481,1,10,0:0:0:0:
390,184,85644,1,2,0:0:0:0:
205,340,85806,6,0,P|198:288|222:240,1,107.999996704102,6|0,3:0|0:0,0:0:0:0:
398,89,86130,1,10,0:0:0:0:
293,302,86292,1,2,1:2:0:0:
226,73,86454,1,2,3:2:0:0:
312,208,86617,1,2,1:2:0:0:
133,57,86779,1,10,0:0:0:0:
69,233,86941,1,2,1:2:0:0:
226,73,87103,5,6,3:0:0:0:
293,302,87265,1,0,1:2:0:0:
166,146,87427,1,10,0:0:0:0:
103,371,87590,1,2,1:2:0:0:
259,163,87752,1,2,3:2:0:0:
5,62,87914,1,2,1:2:0:0:
221,250,88076,2,0,P|273:256|321:233,1,107.999996704102,10|0,0:0|0:0,0:0:0:0:
134,56,88400,5,6,3:0:0:0:
51,302,88563,1,0,0:0:0:0:
259,163,88725,2,0,L|235:58,1,107.999996704102,10|0,0:0|0:0,0:0:0:0:
340,237,89049,2,0,L|364:132,1,107.999996704102,2|0,3:2|0:0,0:0:0:0:
193,296,89373,2,0,L|169:191,1,107.999996704102,10|0,0:0|0:0,0:0:0:0:
430,266,89698,5,6,3:0:0:0:
259,163,89860,2,0,L|270:110,1,53.9999983520508,8|8,0:0|0:0,0:0:0:0:
168,190,90022,6,0,L|157:137,1,53.9999983520508,10|8,0:0|0:0,0:0:0:0:
364,131,90184,2,0,L|375:78,1,53.9999983520508,8|8,0:0|0:0,0:0:0:0:
346,274,90346,6,0,L|335:221,1,53.9999983520508,10|8,0:0|0:0,0:0:0:0:
280,57,90509,2,0,L|269:110,1,53.9999983520508,10|8,0:0|0:0,0:0:0:0:
220,291,90671,1,10,0:0:0:0:
193,296,90752,1,8,0:0:0:0:
167,301,90833,1,10,0:0:0:0:
140,307,90914,1,8,0:0:0:0:
114,312,90995,6,0,L|219:336,1,107.999996704102,6|0,3:0|0:0,0:0:0:0:
364,131,91319,2,0,B|252:105|272:199|160:174,1,215.999993408203,10|0,0:0|3:0,0:0:0:0:
345,322,91806,2,0,P|351:269|328:222,1,107.999996704102,2|8,0:0|0:0,0:0:0:0:
196,84,92130,1,2,0:0:0:0:
154,310,92292,6,0,L|259:286,1,107.999996704102,2|0,3:2|0:0,0:0:0:0:
469,155,92617,2,0,L|364:131,1,107.999996704102,10|0,0:0|0:0,0:0:0:0:
116,135,92941,1,2,3:2:0:0:
328,221,93103,1,2,0:0:0:0:
224,26,93265,1,10,0:0:0:0:
165,217,93427,1,2,0:0:0:0:
339,25,93590,6,0,L|363:130,1,107.999996704102,6|0,3:0|0:0,0:0:0:0:
295,309,93914,1,10,0:0:0:0:
211,133,94076,1,2,0:0:0:0:
143,312,94238,1,0,3:0:0:0:
359,239,94400,2,0,P|311:215|258:221,1,107.999996704102,2|8,0:0|0:0,0:0:0:0:
72,374,94725,1,0,0:0:0:0:
140,114,94887,6,0,L|164:219,1,107.999996704102,2|0,3:2|0:0,0:0:0:0:
295,309,95211,1,10,0:0:0:0:
275,76,95373,2,0,L|251:181,1,107.999996704102,2|0,0:0|3:0,0:0:0:0:
121,304,95698,1,2,0:0:0:0:
336,223,95860,1,10,0:0:0:0:
161,151,96022,1,2,0:0:0:0:
295,309,96184,6,0,P|347:317|396:296,1,107.999996704102,6|0,3:0|0:0,0:0:0:0:
498,90,96509,1,10,0:0:0:0:
311,117,96671,2,0,L|335:222,1,107.999996704102,2|0,0:0|3:0,0:0:0:0:
185,45,96995,2,0,L|161:150,1,107.999996704102,2|8,0:0|0:0,0:0:0:0:
404,98,97319,1,2,0:0:0:0:
286,11,97481,6,0,L|310:116,1,107.999996704102,0|0,3:0|0:0,0:0:0:0:
239,328,97806,1,10,0:0:0:0:
160,150,97968,1,2,0:0:0:0:
157,376,98130,1,0,3:0:0:0:
247,188,98292,1,2,0:0:0:0:
318,380,98454,1,10,0:0:0:0:
236,93,98617,1,0,0:0:0:0:
157,376,98779,2,0,L|52:352,1,107.999996704102,6|0,3:0|0:0,0:0:0:0:
247,188,99103,6,0,L|271:293,1,107.999996704102,10|0,0:0|0:0,0:0:0:0:
92,94,99427,2,0,L|68:199,1,107.999996704102,2|0,3:2|0:0,0:0:0:0:
414,101,99752,2,0,L|438:206,1,107.999996704102,10|0,0:0|0:0,0:0:0:0:
259,7,100076,2,0,L|235:112,1,107.999996704102,12|0,3:0|0:0,0:0:0:0:
146,353,100400,5,12,0:0:0:0:
286,193,100563,2,0,L|298:245,1,53.9999983520508,0|0,0:0|0:0,0:0:0:0:
334,370,100725,1,2,3:2:0:0:
200,241,100887,1,10,0:0:0:0:
173,230,100967,1,0,0:0:0:0:
146,229,101048,1,10,0:0:0:0:
122,240,101129,1,0,0:0:0:0:
98,249,101211,1,10,0:0:0:0:
70,249,101292,1,8,0:0:0:0:
45,240,101373,5,6,3:0:0:0:
60,49,101536,2,0,L|84:154,1,107.999996704102,0|8,0:0|0:0,0:0:0:0:
175,346,101860,2,0,L|199:241,1,107.999996704102,2|0,0:0|3:0,0:0:0:0:
290,49,102184,2,0,L|314:154,1,107.999996704102,2|8,0:0|0:0,0:0:0:0:
368,319,102509,1,0,0:0:0:0:
422,93,102671,6,0,L|398:198,1,107.999996704102,2|0,3:2|0:0,0:0:0:0:
199,240,102995,1,10,0:0:0:0:
314,154,103157,1,2,0:0:0:0:
248,321,103319,1,2,3:2:0:0:
220,147,103481,1,2,0:0:0:0:
154,323,103644,1,10,0:0:0:0:
314,154,103806,1,2,0:0:0:0:
103,54,103968,5,2,3:2:0:0:
244,42,104130,2,0,L|220:147,1,107.999996704102,2|8,0:0|0:0,0:0:0:0:
368,342,104454,2,0,P|375:289|351:242,1,107.999996704102,2|0,0:0|0:0,0:0:0:0:
155,218,104779,2,0,P|203:242|256:236,1,107.999996704102,2|8,0:0|0:0,0:0:0:0:
362,67,105103,1,2,0:0:0:0:
456,266,105265,6,0,L|351:242,1,107.999996704102,2|0,3:2|0:0,0:0:0:0:
219,147,105590,1,10,0:0:0:0:
169,372,105752,2,0,L|274:348,1,107.999996704102,2|0,0:0|3:0,0:0:0:0:
314,154,106076,1,8,0:0:0:0:
368,342,106238,1,0,0:0:0:0:
219,147,106400,1,8,0:0:0:0:
473,165,106563,6,0,P|480:218|456:266,1,107.999996704102,6|0,3:0|0:0,0:0:0:0:
274,347,106887,1,10,0:0:0:0:
363,97,107049,2,0,L|387:202,1,107.999996704102,2|0,0:0|3:0,0:0:0:0:
243,41,107373,2,0,L|219:146,1,107.999996704102,2|8,0:0|0:0,0:0:0:0:
163,350,107698,1,2,0:0:0:0:
293,205,107860,6,0,L|317:310,1,107.999996704102,0|0,3:2|0:0,0:0:0:0:
112,170,108184,1,10,0:0:0:0:
70,369,108346,1,2,0:0:0:0:
205,170,108509,1,0,3:0:0:0:
253,380,108671,1,2,0:0:0:0:
159,87,108833,1,8,0:0:0:0:
163,350,108995,1,2,0:0:0:0:
253,88,109157,2,0,P|306:81|354:105,1,107.999996704102,2|0,3:2|0:0,0:0:0:0:
163,350,109481,6,0,L|139:245,1,107.999996704102,10|0,0:0|0:0,0:0:0:0:
346,319,109806,2,0,L|370:214,1,107.999996704102,2|8,3:2|0:0,0:0:0:0:
71,363,110130,2,0,L|47:258,1,107.999996704102,10|0,0:0|3:0,0:0:0:0:
254,332,110455,2,0,L|278:227,1,107.999996704102,10|0,0:0|0:0,0:0:0:0:
189,119,110698,5,8,0:0:0:0:
189,119,110779,2,0,L|201:172,1,53.9999983520508,0|0,3:0|0:0,0:0:0:0:
428,112,110941,1,0,3:0:0:0:
428,112,111022,1,0,3:0:0:0:
428,112,111103,5,10,0:0:0:0:
387,127,111184,1,8,0:0:0:0:
344,124,111265,1,0,3:0:0:0:
307,105,111346,1,0,3:0:0:0:
281,72,111427,1,8,0:0:0:0:
254,38,111508,1,8,0:0:0:0:
216,18,111589,1,0,3:0:0:0:
174,16,111670,1,0,3:0:0:0:
134,31,111752,6,0,L|110:136,1,90,6|0,3:2|0:0,0:0:0:0:
215,255,112076,2,0,L|195:168,1,90,10|0,0:0|0:0,0:0:0:0:
35,173,112400,2,0,P|68:203|112:214,1,90,2|0,3:2|0:0,0:0:0:0:
282,147,112725,2,0,L|195:168,1,90,10|0,0:0|0:0,0:0:0:0:
65,307,113049,6,0,L|153:328,1,90,2|0,3:2|0:0,0:0:0:0:
346,203,113373,1,10,0:0:0:0:
215,255,113536,1,2,0:0:0:0:
362,380,113698,2,0,L|318:371,1,45,2|0,3:3|0:0,0:0:0:0:
153,328,113860,1,2,0:0:0:0:
388,289,114022,1,10,0:0:0:0:
215,255,114184,1,2,0:0:0:0:
400,125,114346,6,0,P|429:158|440:201,1,90,6|0,3:2|0:0,0:0:0:0:
215,255,114671,2,0,L|235:167,1,90,10|0,0:0|0:0,0:0:0:0:
381,340,114995,2,0,L|361:253,1,90,2|0,3:2|0:0,0:0:0:0:
267,87,115319,2,0,P|240:123|234:167,1,90,10|0,0:0|0:0,0:0:0:0:
440,201,115644,6,0,L|460:113,1,90,2|0,3:2|0:0,0:0:0:0:
234,167,115968,1,10,0:0:0:0:
361,253,116130,1,2,0:0:0:0:
184,271,116292,2,0,L|228:262,1,45,2|2,3:0|0:3,0:0:0:0:
440,201,116454,1,10,0:0:0:0:
234,167,116617,2,0,L|146:146,1,90,10|0,0:0|0:0,0:0:0:0:
336,19,116941,6,0,P|362:54|369:98,1,90,4|0,3:2|0:0,0:0:0:0:
146,146,117265,2,0,L|166:58,1,90,10|0,0:0|0:0,0:0:0:0:
301,223,117590,2,0,L|281:135,1,90,2|0,3:2|0:0,0:0:0:0:
74,208,117914,2,0,P|109:234|153:241,1,90,10|0,0:0|0:0,0:0:0:0:
288,40,118238,6,0,P|243:46|208:73,1,90,2|0,3:2|0:0,0:0:0:0:
174,321,118563,1,10,0:0:0:0:
281,135,118725,1,2,0:0:0:0:
269,325,118887,2,0,L|260:281,1,45,2|2,3:0|0:3,0:0:0:0:
208,73,119049,1,2,0:0:0:0:
350,253,119211,2,0,L|370:165,1,90,8|0,0:0|0:0,0:0:0:0:
174,321,119536,6,0,B|86:285|86:357|-2:321,1,180,6|8,3:2|0:0,0:0:0:0:
154,218,120022,1,0,0:0:0:0:
23,148,120184,2,0,L|43:236,1,90,0|8,3:0|0:0,0:0:0:0:
262,166,120509,2,0,L|242:254,1,90,8|0,0:0|0:0,0:0:0:0:
303,327,120752,5,0,0:0:0:0:
303,327,120833,2,0,P|329:291|336:247,1,90,2|0,3:2|0:0,0:0:0:0:
136,122,121157,1,10,0:0:0:0:
242,253,121319,1,0,0:0:0:0:
219,19,121481,2,0,L|210:63,1,45,2|2,3:0|0:3,0:0:0:0:
154,287,121644,1,0,0:0:0:0:
98,35,121806,1,8,0:0:0:0:
146,253,121968,1,0,0:0:0:0:
304,59,122130,6,0,L|324:147,1,90,6|0,3:2|0:0,0:0:0:0:
362,312,122454,2,0,L|382:224,1,90,10|0,0:0|0:0,0:0:0:0:
217,139,122779,2,0,L|237:227,1,90,2|0,3:2|0:0,0:0:0:0:
476,233,123103,2,0,P|469:188|442:153,1,90,10|0,0:0|0:0,0:0:0:0:
274,332,123427,6,0,L|362:312,1,90,2|0,3:2|0:0,0:0:0:0:
357,91,123752,1,10,0:0:0:0:
236,226,123914,1,2,0:0:0:0:
259,12,124076,2,0,L|268:56,1,45,2|2,3:3|0:3,0:0:0:0:
316,277,124238,1,2,0:0:0:0:
179,89,124400,1,10,0:0:0:0:
120,292,124563,1,2,0:0:0:0:
308,181,124725,6,0,P|352:188|387:215,1,90,6|0,3:2|0:0,0:0:0:0:
234,368,125049,2,0,L|214:280,1,90,10|0,0:0|0:0,0:0:0:0:
327,94,125373,2,0,L|307:182,1,90,2|0,3:2|0:0,0:0:0:0:
99,122,125698,2,0,P|134:95|178:88,1,90,10|0,0:0|0:0,0:0:0:0:
301,300,126022,6,0,L|213:280,1,90,2|0,3:2|0:0,0:0:0:0:
327,94,126346,1,10,0:0:0:0:
396,297,126509,1,2,0:0:0:0:
251,151,126671,2,0,L|242:195,1,45,2|2,3:0|0:3,0:0:0:0:
199,381,126833,1,10,0:0:0:0:
373,204,126995,2,0,P|417:203|456:224,1,90,10|0,0:0|0:0,0:0:0:0:
213,280,127319,6,0,L|125:260,1,90,4|0,3:2|0:0,0:0:0:0:
231,63,127644,2,0,L|251:151,1,90,10|0,0:0|0:0,0:0:0:0:
31,267,127968,2,0,P|37:222|64:187,1,90,2|0,3:2|0:0,0:0:0:0:
293,235,128292,2,0,L|273:323,1,90,10|0,0:0|0:0,0:0:0:0:
153,134,128617,6,0,L|173:222,1,90,2|0,3:2|0:0,0:0:0:0:
357,367,128941,1,10,0:0:0:0:
179,317,129103,1,2,0:0:0:0:
424,283,129265,2,0,L|380:274,1,45,2|2,3:0|0:3,0:0:0:0:
172,221,129427,1,2,0:0:0:0:
409,162,129590,2,0,L|321:182,1,90,10|0,0:0|0:0,0:0:0:0:
107,291,129914,6,0,B|59:311|59:311|188:336,1,180,6|8,3:2|0:0,0:0:0:0:
257,112,130400,1,0,0:0:0:0:
306,323,130563,2,0,L|286:235,1,90,0|8,3:0|0:0,0:0:0:0:
175,47,130887,2,0,L|155:135,1,90,8|0,0:0|0:0,0:0:0:0:
82,196,131130,5,0,0:0:0:0:
82,196,131211,2,0,P|118:223|162:230,1,90,8|8,0:0|0:0,0:0:0:0:
195,218,131454,1,8,0:0:0:0:
230,221,131535,1,8,0:0:0:0:
261,238,131616,1,8,0:0:0:0:
283,267,131697,1,8,0:0:0:0:
304,295,131779,1,8,0:0:0:0:
335,313,131860,1,8,0:0:0:0:
370,316,131941,1,8,0:0:0:0:
404,304,132022,6,0,L|420:259,1,45,10|8,0:0|0:0,0:0:0:0:
350,185,132184,2,0,L|334:140,1,45,10|8,0:0|0:0,0:0:0:0:
404,66,132346,2,0,L|420:21,1,45,10|8,0:0|0:0,0:0:0:0:
