osu file format v14

[General]
AudioFilename: audio.mp3
AudioLeadIn: 0
PreviewTime: 78775
Countdown: 0
SampleSet: None
StackLeniency: 0.3
Mode: 0
LetterboxInBreaks: 0
WidescreenStoryboard: 1

[Editor]
Bookmarks: 13186,16534,26445,31802,39838,48543,52963,54302,55240,65418,69302,75664
DistanceSpacing: 1.7
BeatDivisor: 4
GridSize: 16
TimelineZoom: 2.15

[Metadata]
Title:Snow Drive(01.23)
TitleUnicode:スノウドライヴ(01.23)
Artist:Araki
ArtistUnicode:あらき
Creator:Roberthin05
Version:Insane (Old)
Source:
Tags:Omoi Snow drive Vocaloid Roberthin05 Rob Saheki camelopower
BeatmapID:1865750
BeatmapSetID:865568

[Difficulty]
HPDrainRate:5
CircleSize:4
OverallDifficulty:7
ApproachRate:9
SliderMultiplier:0.800000005960464
SliderTickRate:1

[Events]
//Background and Video events
0,0,"BG A.jpg",0,0
//Break Periods
2,74591,91068
2,96154,201425
2,206511,238925
//Storyboard Layer 0 (Background)
//Storyboard Layer 1 (Fail)
//Storyboard Layer 2 (Pass)
//Storyboard Layer 3 (Foreground)
//Storyboard Sound Samples

[TimingPoints]
1703,267.857142857143,4,2,0,70,1,0
1970,-100,4,2,0,5,0,0
2774,-100,4,2,0,70,0,0
4180,-100,4,2,0,5,0,0
4247,-100,4,2,0,70,0,0
5252,-100,4,2,0,5,0,0
5319,-100,4,2,0,70,0,0
6256,-100,4,2,0,5,0,0
7060,-100,4,2,0,60,0,0
8533,-100,4,2,0,60,0,0
8801,-100,4,2,0,5,0,0
8935,-100,4,2,0,55,0,0
9203,-200,4,2,0,55,0,0
9470,-200,4,2,0,5,0,0
10240,267.857142857143,4,2,0,70,1,0
10240,-57.1428571428571,4,2,0,70,0,0
13454,-86.9565217391304,4,2,0,70,0,0
13722,-86.9565217391304,4,2,0,5,0,0
13856,-57.1428571428571,4,2,0,70,0,0
18543,-40,4,2,0,80,0,0
18811,-50,4,2,0,80,0,1
22829,-50,4,2,0,60,0,1
23097,-50,4,2,0,80,0,1
26311,-50,4,2,0,80,0,1
27382,-166.666666666667,4,2,0,70,0,1
31668,-50,4,2,0,80,0,1
35954,-100,4,2,0,60,0,0
40240,-80,4,2,0,70,0,0
47740,-80,4,2,0,50,0,0
48811,-66.6666666666667,4,2,0,70,0,0
52561,-100,4,2,0,70,0,0
52829,-66.6666666666667,4,2,0,70,0,0
55240,-100,4,2,0,70,0,0
55775,-80,4,2,0,70,0,0
56311,-100,4,2,0,70,0,0
56713,-133.333333333333,4,2,0,70,0,0
56847,-133.333333333333,4,2,0,70,0,0
57382,-80,4,2,0,80,0,0
57985,-80,4,2,0,5,0,0
58052,-80,4,2,0,80,0,0
58387,-80,4,2,0,5,0,0
58454,-80,4,2,0,80,0,0
59056,-80,4,2,0,5,0,0
59123,-80,4,2,0,80,0,0
59458,-80,4,2,0,5,0,0
59525,-80,4,2,0,80,0,0
60128,-80,4,2,0,5,0,0
60195,-80,4,2,0,80,0,0
60998,-200,4,2,0,80,0,0
61132,-200,4,2,0,5,0,0
61668,-66.6666666666667,4,2,0,70,0,0
69570,-166.666666666667,4,2,0,70,0,0
69838,-166.666666666667,4,2,0,5,0,0
69905,-166.666666666667,4,2,0,60,0,0
69972,-50,4,2,0,60,0,0
70173,-50,4,2,0,5,0,0
70240,-57.1428571428571,4,2,0,70,0,0
71512,-57.1428571428571,4,2,0,70,0,0
71579,-57.1428571428571,4,2,0,70,0,0
73454,-66.6666666666667,4,2,0,70,0,0
73655,-66.6666666666667,4,2,0,70,0,0
73722,-80,4,2,0,70,0,0
73923,-80,4,2,0,70,0,0
73990,-100,4,2,0,70,0,0
74257,-100,4,2,0,100,0,0
74391,-100,4,2,0,100,0,0
78811,-100,4,2,0,100,0,0
95954,-100,4,2,0,100,0,1
104525,-100,4,2,0,100,0,1
113097,-100,4,2,0,100,0,0
117382,-100,4,2,0,100,0,0
118454,-100,4,2,0,100,0,0
125954,-100,4,2,0,100,0,0
135597,-100,4,2,0,100,0,0
139882,-100,4,2,0,100,0,0
148454,-100,4,2,0,100,0,0
154882,-100,4,2,0,100,0,1
163454,-100,4,2,0,100,0,1
170954,-100,4,2,0,100,0,0
180597,-100,4,2,0,100,0,0
189168,-100,4,2,0,100,0,0
197740,-100,4,2,0,100,0,0
205507,-100,4,2,0,100,0,0
206311,-100,4,2,0,100,0,1
214882,-100,4,2,0,100,0,1
222382,-100,4,2,0,100,0,0
223454,-100,4,2,0,100,0,1
232025,-100,4,2,0,100,0,1
236311,-100,4,2,0,100,0,1
239525,-100,4,2,0,100,0,0
240597,-100,4,2,0,100,0,1
249168,-100,4,2,0,100,0,1
253454,-100,4,2,0,100,0,1
256668,-100,4,2,0,100,0,0
260954,-100,4,2,0,100,0,0

[Colours]
Combo1 : 0,40,240
Combo2 : 255,20,0

[HitObjects]
77,115,1704,6,0,P|32:254|163:321,1,320.000002384186
484,224,3310,5,0,0:0:0:0:
338,361,3578,1,0,0:0:0:0:
290,167,3845,1,0,0:0:0:0:
290,167,3912,2,0,P|278:96|291:70,1,100.000000745058
31,211,4649,1,0,0:0:0:0:
162,163,4783,1,0,0:0:0:0:
152,302,4917,1,0,0:0:0:0:
152,302,4984,2,0,P|208:307|234:344,1,100.000000745058
357,181,5453,5,0,0:0:0:0:
170,182,5720,1,0,0:0:0:0:
89,41,5988,6,0,B|160:169|14:81|59:297|162:281|200:262,1,320.000002384186
422,132,7863,5,0,0:0:0:0:
341,133,7997,1,0,0:0:0:0:
381,202,8131,1,0,0:0:0:0:
381,37,8533,1,0,0:0:0:0:
381,37,8600,2,0,B|319:6|285:52,1,100.000000745058
189,214,9203,6,0,P|229:253|294:247,1,120.00000089407
319,232,10240,6,0,L|371:185,1,70.0000011891126
396,104,10508,1,0,0:0:0:0:
314,126,10642,2,0,L|252:92,1,70.0000011891126
212,18,10910,1,0,0:0:0:0:
162,86,11044,2,0,L|128:147,1,70.0000011891126
65,203,11311,5,0,0:0:0:0:
143,231,11445,2,0,L|182:289,1,70.0000011891126
228,360,11713,1,0,0:0:0:0:
272,288,11847,2,0,L|308:228,1,70.0000011891126
317,144,12115,1,0,0:0:0:0:
241,180,12249,2,0,L|198:124,1,70.0000011891126
184,40,12517,5,0,0:0:0:0:
123,94,12651,2,0,L|88:154,1,70.0000011891126
88,239,12919,1,0,0:0:0:0:
157,193,13052,2,0,L|241:201,1,70.0000011891126
282,136,13320,1,0,0:0:0:0:
322,209,13454,6,0,B|280:241|296:284|296:284|246:298,1,138.000003660321
382,262,13990,5,0,0:0:0:0:
111,335,14258,1,0,0:0:0:0:
35,245,14526,6,0,L|71:184,1,70.0000011891126,8|0,0:0|0:0,0:0:0:0:
210,172,14794,2,0,L|173:231,1,70.0000011891126
314,221,15061,2,0,L|350:160,1,70.0000011891126,8|0,0:0|0:0,0:0:0:0:
488,149,15329,2,0,L|451:209,1,70.0000011891126
312,196,15597,6,0,L|349:135,1,70.0000011891126,8|0,0:0|0:0,0:0:0:0:
206,121,15865,2,0,L|169:181,1,70.0000011891126
30,168,16133,2,0,L|67:107,1,70.0000011891126,8|0,0:0|0:0,0:0:0:0:
190,145,16401,2,0,L|153:205,1,70.0000011891126
236,72,16669,5,8,0:0:0:0:
268,278,16936,1,0,0:0:0:0:
119,128,17204,1,8,0:0:0:0:
326,160,17472,1,0,0:0:0:0:
138,255,17740,5,8,0:0:0:0:
236,72,18008,1,8,0:0:0:0:
256,174,18142,1,8,0:0:0:0:
339,109,18275,1,0,0:0:0:0:
339,109,18342,2,0,L|360:70,2,35.0000005945563
459,153,18544,6,0,P|416:215|343:226,1,110.000001868606,12|0,0:0|0:0,0:0:0:0:
264,238,18811,6,0,L|184:231,1,80.0000005960464,12|0,0:0|0:0,0:0:0:0:
243,125,19079,2,0,L|222:47,1,80.0000005960464,8|0,0:0|0:0,0:0:0:0:
327,108,19347,2,0,L|404:128,1,80.0000005960464,8|0,0:0|0:0,0:0:0:0:
319,214,19615,2,0,L|255:266,1,80.0000005960464,8|0,0:0|0:0,0:0:0:0:
191,162,19883,6,0,L|170:84,1,80.0000005960464,8|0,0:0|0:0,0:0:0:0:
66,143,20151,2,0,L|87:220,1,80.0000005960464,8|0,0:0|0:0,0:0:0:0:
203,252,20419,2,8,L|283:244,1,80.0000005960464,8|0,0:0|0:0,0:0:0:0:
386,296,20686,1,8,0:0:0:0:
387,174,20820,1,8,0:0:0:0:
282,244,20954,6,0,L|275:323,1,80.0000005960464,12|0,0:0|0:0,0:0:0:0:
169,264,21222,2,0,L|111:208,1,80.0000005960464,8|0,0:0|0:0,0:0:0:0:
215,146,21490,2,0,L|292:124,1,80.0000005960464,8|0,0:0|0:0,0:0:0:0:
282,244,21758,2,0,L|204:265,1,80.0000005960464,8|0,0:0|0:0,0:0:0:0:
120,350,22026,6,0,L|148:274,1,80.0000005960464,8|0,0:0|0:0,0:0:0:0:
122,156,22294,2,0,L|95:231,1,80.0000005960464,8|0,0:0|0:0,0:0:0:0:
2,299,22561,2,0,L|30:223,1,80.0000005960464,8|0,0:0|0:0,0:0:0:0:
94,74,22829,5,8,0:0:0:0:
126,56,22896,1,8,0:0:0:0:
164,59,22963,1,8,0:0:0:0:
192,85,23030,1,8,0:0:0:0:
218,138,23097,6,0,L|251:210,1,80.0000005960464,12|0,0:0|0:0,0:0:0:0:
131,212,23365,2,0,L|73:269,1,80.0000005960464,8|0,0:0|0:0,0:0:0:0:
73,149,23633,2,0,L|51:72,1,80.0000005960464,8|0,0:0|0:0,0:0:0:0:
170,102,23901,2,0,L|247:122,1,80.0000005960464,8|0,0:0|0:0,0:0:0:0:
188,228,24169,6,0,L|109:207,1,80.0000005960464,8|0,0:0|0:0,0:0:0:0:
109,326,24436,2,0,L|186:346,1,80.0000005960464,8|0,0:0|0:0,0:0:0:0:
271,262,24704,2,8,L|304:188,1,80.0000005960464,8|0,0:0|0:0,0:0:0:0:
401,126,24972,1,8,0:0:0:0:
296,64,25106,1,8,0:0:0:0:
303,183,25240,6,0,L|367:228,1,80.0000005960464,12|0,0:0|0:0,0:0:0:0:
264,291,25508,2,0,L|186:313,1,80.0000005960464,8|0,0:0|0:0,0:0:0:0:
185,192,25776,2,0,L|204:114,1,80.0000005960464,8|0,0:0|0:0,0:0:0:0:
303,183,26044,2,0,L|282:261,1,80.0000005960464,8|0,0:0|0:0,0:0:0:0:
397,227,26311,6,0,L|453:283,1,80.0000005960464,8|0,0:0|0:0,0:0:0:0:
457,162,26579,2,0,L|400:105,1,80.0000005960464,8|0,0:0|0:0,0:0:0:0:
279,115,26847,2,0,L|335:171,1,80.0000005960464,8|0,0:0|0:0,0:0:0:0:
332,292,27115,2,0,L|275:235,1,80.0000005960464,8|0,0:0|0:0,0:0:0:0:
173,134,27382,5,0,0:0:0:0:
325,287,27650,1,0,0:0:0:0:
226,94,27918,1,0,0:0:0:0:
262,307,28186,1,0,0:0:0:0:
291,92,28454,1,0,0:0:0:0:
199,287,28722,1,0,0:0:0:0:
346,128,28990,1,0,0:0:0:0:
159,234,29257,5,0,0:0:0:0:
371,192,29391,1,0,0:0:0:0:
156,165,29525,1,0,0:0:0:0:
353,253,29793,5,0,0:0:0:0:
191,108,30061,1,0,0:0:0:0:
300,294,30329,1,0,0:0:0:0:
255,82,30597,1,0,0:0:0:0:
231,296,30864,1,0,0:0:0:0:
322,100,31132,1,0,0:0:0:0:
174,257,31400,1,0,0:0:0:0:
23,191,31669,6,0,L|103:191,1,80.0000005960464,8|0,0:0|0:0,0:0:0:0:
164,292,31936,2,0,L|244:292,1,80.0000005960464,8|0,0:0|0:0,0:0:0:0:
334,211,32204,2,0,L|277:154,1,80.0000005960464,8|0,0:0|0:0,0:0:0:0:
188,236,32472,2,8,L|244:292,1,80.0000005960464,8|0,0:0|0:0,0:0:0:0:
334,211,32740,2,0,L|390:154,1,80.0000005960464,8|0,0:0|0:0,0:0:0:0:
277,154,33008,2,0,L|197:154,1,80.0000005960464,8|0,0:0|0:0,0:0:0:0:
76,154,33276,2,0,L|76:234,1,80.0000005960464,8|0,0:0|0:0,0:0:0:0:
172,330,33544,1,8,0:0:0:0:
267,234,33677,1,8,0:0:0:0:
172,330,33811,6,0,L|119:270,1,80.0000005960464,12|0,0:0|0:0,0:0:0:0:
45,173,34079,2,8,L|106:122,1,80.0000005960464,8|0,0:0|0:0,0:0:0:0:
198,43,34347,2,0,L|259:94,1,80.0000005960464,8|0,0:0|0:0,0:0:0:0:
348,176,34615,2,0,L|296:236,1,80.0000005960464,8|0,0:0|0:0,0:0:0:0:
182,236,34883,2,0,L|182:156,1,80.0000005960464,8|0,0:0|0:0,0:0:0:0:
330,156,35151,2,0,L|330:236,1,80.0000005960464,8|0,0:0|0:0,0:0:0:0:
182,236,35419,2,0,L|182:156,1,80.0000005960464,8|0,0:0|0:0,0:0:0:0:
330,156,35686,2,0,L|330:236,1,80.0000005960464,8|0,0:0|0:0,0:0:0:0:
245,320,35954,6,0,L|206:341,1,40.0000002980232
98,222,36222,2,0,L|168:181,1,80.0000005960464
292,273,36624,2,0,L|356:209,1,80.0000005960464
428,99,37026,2,0,L|333:92,1,80.0000005960464
274,212,37427,2,0,L|217:155,1,80.0000005960464
103,71,37829,2,0,L|65:100,1,40.0000002980232
34,234,38097,6,0,L|83:225,1,40.0000002980232
190,305,38365,2,0,L|218:224,1,80.0000005960464
202,88,38767,2,0,L|292:99,1,80.0000005960464
303,224,39169,2,0,L|268:246,1,40.0000002980232
193,127,39436,2,0,L|154:110,1,40.0000002980232
64,229,39704,1,0,0:0:0:0:
69,252,39770,1,0,0:0:0:0:
77,274,39837,1,0,0:0:0:0:
90,295,39904,1,0,0:0:0:0:
105,313,39971,1,0,0:0:0:0:
203,359,40240,6,0,L|283:300,1,100.000000745058,8|0,0:0|0:0,0:0:0:0:
371,348,40642,1,8,0:0:0:0:
106,208,41043,1,8,0:0:0:0:
158,321,41177,1,0,0:0:0:0:
199,202,41311,2,0,L|306:171,1,100.000000745058,8|0,0:0|0:0,0:0:0:0:
306,79,41713,1,8,0:0:0:0:
419,356,42115,1,8,0:0:0:0:
364,244,42248,1,0,0:0:0:0:
461,164,42383,6,0,L|478:52,1,100.000000745058,8|0,0:0|0:0,0:0:0:0:
382,28,42785,1,8,0:0:0:0:
287,258,43052,1,0,0:0:0:0:
226,148,43186,1,8,0:0:0:0:
346,182,43320,1,0,0:0:0:0:
228,115,43454,2,0,L|139:177,1,100.000000745058,8|0,0:0|0:0,0:0:0:0:
145,272,43856,1,8,0:0:0:0:
107,152,43990,1,0,0:0:0:0:
187,55,44124,1,8,0:0:0:0:
223,45,44191,1,8,0:0:0:0:
259,51,44258,1,8,0:0:0:0:
351,228,44526,6,0,L|371:128,1,100.000000745058,8|0,0:0|0:0,0:0:0:0:
439,57,44927,1,8,0:0:0:0:
405,304,45195,1,0,0:0:0:0:
301,233,45329,1,8,0:0:0:0:
355,345,45463,1,0,0:0:0:0:
382,194,45597,2,0,L|362:86,1,100.000000745058,8|0,0:0|0:0,0:0:0:0:
266,69,45999,1,8,0:0:0:0:
209,304,46267,1,8,0:0:0:0:
333,289,46401,1,8,0:0:0:0:
251,194,46534,1,0,0:0:0:0:
366,142,46669,6,0,L|284:63,1,100.000000745058,8|0,0:0|0:0,0:0:0:0:
193,74,47070,2,0,P|194:117|241:172,1,100.000000745058,8|0,0:0|0:0,0:0:0:0:
400,176,47472,1,8,0:0:0:0:
133,313,47740,2,0,P|92:297|66:248,1,100.000000745058
67,74,48142,1,0,0:0:0:0:
260,25,48409,1,0,0:0:0:0:
284,23,48475,1,0,0:0:0:0:
309,26,48542,1,0,0:0:0:0:
333,34,48609,1,0,0:0:0:0:
354,47,48676,1,0,0:0:0:0:
373,64,48743,1,0,0:0:0:0:
438,148,48811,6,0,L|459:231,1,60.0000027358533
346,149,49079,1,0,0:0:0:0:
369,266,49213,1,0,0:0:0:0:
346,149,49347,1,0,0:0:0:0:
345,269,49481,1,0,0:0:0:0:
346,149,49615,1,0,0:0:0:0:
318,264,49748,1,0,0:0:0:0:
109,63,49883,6,8,B|186:52|186:52,1,60.0000027358533,8|0,0:0|0:0,0:0:0:0:
262,66,50151,1,8,0:0:0:0:
287,89,50218,1,8,0:0:0:0:
284,123,50285,2,0,P|258:155|222:162,1,60.0000027358533,8|0,0:0|0:0,0:0:0:0:
140,158,50552,2,0,P|104:133|91:100,2,60.0000027358533,8|8|8,0:0|0:0|0:0,0:0:0:0:
155,255,50954,6,0,L|227:295,1,60.0000027358533,8|0,0:0|0:0,0:0:0:0:
316,279,51222,1,0,0:0:0:0:
221,205,51356,1,0,0:0:0:0:
316,279,51490,1,0,0:0:0:0:
241,185,51623,1,0,0:0:0:0:
316,279,51757,1,0,0:0:0:0:
263,171,51891,1,0,0:0:0:0:
292,35,52026,6,0,L|216:24,1,60.0000027358533,8|0,0:0|0:0,0:0:0:0:
136,54,52293,2,0,P|122:104|141:131,1,60.0000027358533,8|0,0:0|0:0,0:0:0:0:
198,181,52561,2,0,P|219:144|214:105,1,80.0000005960464,8|0,0:0|0:0,0:0:0:0:
298,195,52963,1,0,0:0:0:0:
299,41,53097,6,0,L|341:134,1,70.0000011891126,12|0,0:0|0:0,0:0:0:0:
427,111,53365,1,0,0:0:0:0:
391,224,53498,1,0,0:0:0:0:
454,122,53632,1,0,0:0:0:0:
369,207,53766,1,0,0:0:0:0:
473,148,53900,1,0,0:0:0:0:
356,178,54034,1,0,0:0:0:0:
134,253,54169,6,0,L|185:301,1,60.0000027358533,8|0,0:0|0:0,0:0:0:0:
274,283,54436,1,8,0:0:0:0:
304,267,54503,1,8,0:0:0:0:
311,234,54570,2,0,P|290:190|266:178,1,60.0000027358533,8|0,0:0|0:0,0:0:0:0:
186,148,54838,2,0,P|139:136|110:112,2,60.0000027358533,8|8|8,0:0|0:0|0:0,0:0:0:0:
257,69,55240,6,0,P|305:97|346:101,1,80.0000005960464,8|0,0:0|0:0,0:0:0:0:
277,275,55641,1,8,0:0:0:0:
187,148,55775,2,0,P|171:123|153:106,1,50.000000372529
25,225,56043,2,0,P|38:247|60:268,1,50.000000372529,8|0,0:0|0:0,0:0:0:0:
187,148,56311,2,0,P|219:106|257:88,1,80.0000005960464,8|0,0:0|0:0,0:0:0:0:
32,80,56713,2,0,P|13:118|22:175,1,90.0000041037799,8|0,0:0|0:0,0:0:0:0:
49,256,57383,5,8,0:0:0:0:
110,196,57517,1,8,0:0:0:0:
170,256,57651,1,8,0:0:0:0:
230,195,57785,2,0,L|320:160,1,75.0000005587935,8|0,0:0|0:0,0:0:0:0:
339,153,58052,1,8,0:0:0:0:
339,238,58186,2,0,L|415:271,1,75.0000005587935,8|0,0:0|0:0,0:0:0:0:
448,283,58454,5,8,0:0:0:0:
387,343,58588,1,8,0:0:0:0:
326,282,58722,1,8,0:0:0:0:
265,342,58856,2,0,L|176:352,1,75.0000005587935,8|0,0:0|0:0,0:0:0:0:
147,353,59124,1,8,0:0:0:0:
147,267,59258,2,0,L|73:248,1,75.0000005587935,8|0,0:0|0:0,0:0:0:0:
33,234,59526,5,8,0:0:0:0:
93,173,59660,1,8,0:0:0:0:
32,112,59794,1,8,0:0:0:0:
91,52,59927,2,0,L|176:32,1,75.0000005587935,8|0,0:0|0:0,0:0:0:0:
205,24,60195,5,8,0:0:0:0:
265,84,60329,1,8,0:0:0:0:
325,23,60463,1,8,0:0:0:0:
385,83,60597,1,8,0:0:0:0:
324,143,60731,1,8,0:0:0:0:
384,203,60865,1,8,0:0:0:0:
323,263,60999,6,0,L|336:326,1,60.0000004470348,8|0,0:0|0:0,0:0:0:0:
343,350,61669,6,0,B|288:339|288:339|261:308|261:308|224:302,1,120.000005471707,12|0,0:0|0:0,0:0:0:0:
154,337,62070,1,0,0:0:0:0:
84,280,62204,2,0,B|71:270|71:270|55:220,1,60.0000027358533,8|0,0:0|0:0,0:0:0:0:
84,141,62472,2,8,B|88:125|88:125|133:96,1,60.0000027358533,8|0,0:0|0:0,0:0:0:0:
209,136,62740,2,0,B|168:173|168:173|175:206|175:206|141:247,1,120.000005471707,8|0,0:0|0:0,0:0:0:0:
84,280,63142,1,0,0:0:0:0:
154,337,63276,2,0,B|167:350|167:350|211:350,1,60.0000027358533,8|0,0:0|0:0,0:0:0:0:
248,268,63544,2,0,B|261:254|261:254|305:254,1,60.0000027358533,8|0,0:0|0:0,0:0:0:0:
377,304,63811,6,8,B|419:271|419:271|456:275|456:275|483:233,1,120.000005471707,8|0,0:0|0:0,0:0:0:0:
471,159,64213,1,0,0:0:0:0:
440,74,64347,2,0,B|426:65|426:65|372:66,1,60.0000027358533,8|0,0:0|0:0,0:0:0:0:
296,94,64615,2,0,B|279:135|279:135|283:151,1,60.0000027358533,8|0,0:0|0:0,0:0:0:0:
346,215,64883,2,0,B|321:247|321:247|285:250|285:250|260:297,1,120.000005471707,8|0,0:0|0:0,0:0:0:0:
177,341,65284,1,0,0:0:0:0:
74,342,65418,1,0,0:0:0:0:
175,259,65552,1,0,0:0:0:0:
126,348,65686,1,0,0:0:0:0:
175,259,65820,1,0,0:0:0:0:
282,290,65954,6,0,B|326:277|326:277|371:295|371:295|417:282,1,120.000005471707,12|0,0:0|0:0,0:0:0:0:
463,227,66356,1,8,0:0:0:0:
417,149,66490,2,0,B|429:139|429:139|450:90,1,60.0000027358533,8|0,0:0|0:0,0:0:0:0:
398,22,66758,2,0,B|382:19|382:19|332:39,1,60.0000027358533,8|0,0:0|0:0,0:0:0:0:
291,110,67026,2,0,B|244:99|244:99|223:64|223:64|186:60,1,120.000005471707,8|0,0:0|0:0,0:0:0:0:
103,75,67427,1,8,0:0:0:0:
84,163,67561,2,0,B|94:174|94:174|144:192,1,60.0000027358533,8|0,0:0|0:0,0:0:0:0:
223,163,67829,2,0,B|234:172|234:172|255:221,1,60.0000027358533,8|0,0:0|0:0,0:0:0:0:
323,268,68097,6,0,B|297:295|297:295|243:295|243:295|208:320,1,120.000005471707,8|0,0:0|0:0,0:0:0:0:
143,357,68499,1,0,0:0:0:0:
79,293,68633,2,0,B|65:279|65:279|65:235,1,60.0000027358533,8|0,0:0|0:0,0:0:0:0:
129,174,68901,2,0,B|142:160|142:160|142:116,1,60.0000027358533,8|0,0:0|0:0,0:0:0:0:
129,28,69168,1,8,0:0:0:0:
155,28,69234,1,8,0:0:0:0:
182,28,69301,1,8,0:0:0:0:
209,28,69368,1,8,0:0:0:0:
236,28,69435,1,8,0:0:0:0:
263,28,69502,1,8,0:0:0:0:
290,28,69570,6,0,L|347:28,1,47.9999988927841,8|0,0:0|0:0,0:0:0:0:
382,28,69905,1,0,0:0:0:0:
442,28,69972,2,0,P|482:67|442:106,1,120.00000089407,12|0,0:0|0:0,0:0:0:0:
389,110,70240,6,0,P|339:114|303:130,1,70.0000011891126,12|0,0:0|0:0,0:0:0:0:
262,207,70507,1,8,0:0:0:0:
179,134,70641,1,0,0:0:0:0:
103,207,70775,2,0,P|81:241|93:292,2,70.0000011891126,8|0|8,0:0|0:0|0:0,0:0:0:0:
179,134,71177,1,0,0:0:0:0:
262,207,71311,2,0,P|314:214|349:169,1,105.000001783669,8|0,0:0|0:0,0:0:0:0:
361,129,71579,1,8,0:0:0:0:
269,77,71713,1,0,0:0:0:0:
179,134,71847,2,0,P|151:163|154:215,2,70.0000011891126,8|0|8,0:0|0:0|0:0,0:0:0:0:
269,77,72248,1,0,0:0:0:0:
361,129,72382,6,0,P|371:197|307:237,1,140.000002378225,8|0,0:0|0:0,0:0:0:0:
211,236,72784,1,8,0:0:0:0:
155,130,72918,1,8,0:0:0:0:
274,135,73052,1,8,0:0:0:0:
224,235,73186,1,8,0:0:0:0:
149,141,73320,1,8,0:0:0:0:
274,135,73454,2,0,P|322:146|344:185,1,90.0000041037799,8|0,0:0|0:0,0:0:0:0:
347,218,73722,2,0,P|339:261|300:282,1,75.0000005587935,8|0,0:0|0:0,0:0:0:0:
285,290,73990,2,0,P|236:278|210:209,1,120.00000089407,8|0,0:0|0:0,0:0:0:0:
256,192,91668,12,0,93744,0:0:0:0:
256,192,93811,12,0,94882,0:0:0:0:
432,80,95686,5,0,0:0:0:0:
80,304,95954,5,0,0:0:0:0:
256,192,202025,12,0,203900,0:0:0:0:
256,192,205507,12,0,206311,0:0:0:0:
256,192,239525,12,0,240597,0:0:0:0:
