osu file format v14

[General]
AudioFilename: audio.mp3
AudioLeadIn: 0
PreviewTime: 95667
Countdown: 0
SampleSet: Soft
StackLeniency: 0.7
Mode: 0
LetterboxInBreaks: 0
WidescreenStoryboard: 1

[Editor]
Bookmarks: 91647,93120,147897,186736,192093,231468
DistanceSpacing: 2.8
BeatDivisor: 4
GridSize: 4
TimelineZoom: 2.3

[Metadata]
Title:Snow Drive
TitleUnicode:Snow Drive
Artist:Araki
ArtistUnicode:Araki
Creator:JayD
Version:forbidden memories
Source:
Tags:
BeatmapID:1190945
BeatmapSetID:563210

[Difficulty]
HPDrainRate:4
CircleSize:4
OverallDifficulty:8
ApproachRate:10
SliderMultiplier:1.7
SliderTickRate:1

[Events]
//Background and Video events
0,0,"wallhaven-235679.jpg",0,0
//Break Periods
2,172204,185804
//Storyboard Layer 0 (Background)
//Storyboard Layer 1 (Fail)
//Storyboard Layer 2 (Pass)
//Storyboard Layer 3 (Foreground)
//Storyboard Sound Samples

[TimingPoints]
576,267.857142857143,4,2,0,85,1,0
1580,-200,4,2,0,35,0,0
10017,-100,4,2,0,5,0,0
10151,-100,4,2,0,55,0,0
14671,-100,4,2,0,5,0,0
14738,-100,4,2,0,55,0,0
14939,-100,4,2,0,5,0,0
15006,-100,4,2,0,55,0,0
15207,-100,4,2,0,5,0,0
15274,-100,4,2,0,55,0,0
17651,-100,4,2,0,85,0,0
35029,-100,4,2,0,5,0,0
35096,-100,4,2,0,85,0,0
35296,-100,4,2,0,5,0,0
35363,-100,4,2,0,85,0,0
35564,-100,4,2,0,5,0,0
35631,-100,4,2,0,85,0,0
35832,-100,4,2,0,5,0,0
35899,-100,4,2,0,85,0,0
39951,-133.333333333333,4,2,0,85,0,0
40218,-100,4,2,0,85,0,0
48388,-66.6666666666667,4,2,0,85,0,0
48790,-100,4,2,0,85,0,0
58834,-90.9090909090909,4,2,0,85,0,0
59906,-83.3333333333333,4,2,0,85,0,0
60910,-200,4,2,0,85,0,0
61379,-133.333333333333,4,2,0,85,0,0
61647,-100,4,2,0,85,0,0
69951,-66.6666666666667,4,2,0,85,0,0
70218,-100,4,2,0,85,0,0
78723,-166.666666666667,4,2,0,85,0,0
80296,-166.666666666667,4,2,0,5,0,0
80363,-166.666666666667,4,2,0,85,0,0
80564,-166.666666666667,4,2,0,5,0,0
80631,-166.666666666667,4,2,0,85,0,0
80832,-166.666666666667,4,2,0,5,0,0
80899,-166.666666666667,4,2,0,85,0,0
81636,-166.666666666667,4,2,0,5,0,0
81703,-166.666666666667,4,2,0,85,0,0
86491,-100,4,2,0,85,0,0
91647,-200,4,2,0,85,0,0
91915,-100,4,2,0,55,0,0
93790,-66.6666666666667,4,2,0,85,0,0
94861,-200,4,2,0,85,0,0
95665,-66.6666666666667,4,2,0,5,0,0
95899,-66.6666666666667,4,2,0,85,0,0
95933,-83.3333333333333,4,2,0,85,0,1
113076,-100,4,2,0,85,0,0
118165,-133.333333333333,4,2,0,85,0,0
118433,-100,4,2,0,85,0,0
126468,-66.6666666666667,4,2,0,85,0,0
127004,-100,4,2,0,85,0,0
134370,-200,4,2,0,85,0,0
138321,-100,4,2,0,85,0,0
150576,-200,4,2,0,85,0,0
150843,-100,4,2,0,85,0,0
152718,-66.6666666666667,4,2,0,85,0,0
153790,-200,4,2,0,85,0,0
154593,-66.6666666666667,4,2,0,85,0,0
154861,-83.3333333333333,4,2,0,85,0,1
156937,-66.6666666666667,4,2,0,85,0,1
157875,-83.3333333333333,4,2,0,85,0,1
170933,-200,4,2,0,85,0,0
171201,-50,4,2,0,85,0,0
171468,-100,4,2,0,85,0,0
172004,-90.9090909090909,4,2,0,85,0,0
180576,-71.4285714285714,4,2,0,85,0,0
182451,-90.9090909090909,4,2,0,85,0,0
182718,-71.4285714285714,4,2,0,85,0,0
184593,-90.9090909090909,4,2,0,85,0,0
186736,-200,4,2,0,85,0,0
187004,-100,4,2,0,85,0,0
189080,-200,4,2,0,85,0,0
197317,-66.6666666666667,4,2,0,85,0,0
197718,-100,4,2,0,85,0,0
202004,-200,4,2,0,85,0,0
202272,-100,4,2,0,85,0,0
204147,-58.8235294117647,4,2,0,85,0,0
205486,-200,4,2,0,85,0,0
206290,-71.4285714285714,4,2,0,85,0,1
222361,-200,4,2,0,85,0,0
222629,-50,4,2,0,85,0,0
222897,-100,4,2,0,85,0,0
223433,-66.6666666666667,4,2,0,85,0,1
236457,-66.6666666666667,4,2,0,5,0,1
236524,-66.6666666666667,4,2,0,85,0,1
236725,-66.6666666666667,4,2,0,5,0,1
236792,-66.6666666666667,4,2,0,85,0,1
236993,-66.6666666666667,4,2,0,5,0,1
237060,-66.6666666666667,4,2,0,85,0,1
237261,-66.6666666666667,4,2,0,5,0,1
237328,-66.6666666666667,4,2,0,85,0,1
237529,-66.6666666666667,4,2,0,5,0,1
237596,-66.6666666666667,4,2,0,85,0,1
237796,-66.6666666666667,4,2,0,5,0,1
237863,-66.6666666666667,4,2,0,85,0,1
238064,-66.6666666666667,4,2,0,5,0,1
238131,-66.6666666666667,4,2,0,85,0,1
238332,-66.6666666666667,4,2,0,5,0,1
238399,-66.6666666666667,4,2,0,85,0,1
238600,-66.6666666666667,4,2,0,5,0,1
238667,-66.6666666666667,4,2,0,85,0,1
238868,-66.6666666666667,4,2,0,5,0,1
238935,-66.6666666666667,4,2,0,85,0,1
239136,-66.6666666666667,4,2,0,5,0,1
239203,-66.6666666666667,4,2,0,85,0,1
239504,-100,4,2,0,85,0,0

[Colours]
Combo1 : 91,91,91
Combo2 : 255,255,255
Combo3 : 192,192,192

[HitObjects]
68,96,1647,6,0,B|108:132|108:132|140:96|188:76|232:88|260:104|280:148|280:148|344:88,1,340
400,52,2986,1,0,0:0:0:0:
480,128,3254,1,0,0:0:0:0:
392,204,3522,1,0,0:0:0:0:
316,124,3790,6,0,P|268:104|188:128,2,127.5
256,176,4861,6,0,P|264:208|372:176,1,170
400,108,5665,1,0,0:0:0:0:
308,68,5933,6,0,B|260:64|244:72|232:80|220:92|216:112|212:128|212:148|212:168|228:184|264:204|304:192|308:184|308:184|308:276,1,340
344,288,7808,2,0,L|396:316,1,42.5
432,216,8076,6,0,P|436:176|368:108,2,127.5
368,328,9147,6,0,B|304:304|304:304|232:332|232:332|196:248|196:248|128:248,1,297.5
96,172,10218,5,0,0:0:0:0:
168,68,10352,1,0,0:0:0:0:
216,184,10486,1,0,0:0:0:0:
120,100,10620,1,0,0:0:0:0:
152,224,10754,1,0,0:0:0:0:
216,116,10888,1,0,0:0:0:0:
360,208,11022,5,0,0:0:0:0:
188,296,11156,1,0,0:0:0:0:
360,208,11290,1,0,0:0:0:0:
164,176,11424,1,0,0:0:0:0:
272,308,11558,1,0,0:0:0:0:
104,272,11692,1,0,0:0:0:0:
228,100,11826,5,0,0:0:0:0:
320,288,11959,1,0,0:0:0:0:
336,76,12093,1,0,0:0:0:0:
428,268,12227,1,0,0:0:0:0:
276,120,12361,1,0,0:0:0:0:
216,324,12495,1,0,0:0:0:0:
200,112,12629,5,0,0:0:0:0:
108,304,12763,1,0,0:0:0:0:
312,244,12897,1,0,0:0:0:0:
144,116,13031,1,0,0:0:0:0:
112,328,13165,1,0,0:0:0:0:
296,220,13299,1,0,0:0:0:0:
108,124,13433,6,0,P|160:172|272:132,1,170
452,312,13968,2,0,P|388:332|276:304,1,170
140,304,14504,6,0,P|116:228|152:172,1,127.5
200,240,14772,2,0,P|220:188|168:112,1,127.5
124,88,15040,2,0,B|164:44|164:44|244:52,1,127.5
288,96,15308,2,0,L|344:260,1,170
264,332,15843,1,0,0:0:0:0:
140,276,16111,1,0,0:0:0:0:
252,192,16379,1,0,0:0:0:0:
128,168,16647,6,0,P|128:76|192:36,2,170
148,248,17451,1,0,0:0:0:0:
300,332,17718,6,0,L|400:192,1,170
76,312,18254,2,0,L|136:240,1,85
216,100,18522,1,0,0:0:0:0:
228,144,18589,1,0,0:0:0:0:
248,188,18656,1,0,0:0:0:0:
280,224,18723,1,0,0:0:0:0:
320,244,18790,6,0,P|376:264|432:268,1,85
192,244,19058,2,0,P|136:264|80:268,1,85
128,96,19326,2,0,P|168:168|160:196,1,85
384,288,19593,2,0,P|344:216|352:188,1,85
308,52,19861,5,0,0:0:0:0:
224,200,19995,1,0,0:0:0:0:
372,116,20129,1,0,0:0:0:0:
372,288,20263,1,0,0:0:0:0:
240,120,20397,5,0,0:0:0:0:
436,200,20531,1,0,0:0:0:0:
248,296,20665,2,0,L|280:212,1,85
352,60,20933,5,0,0:0:0:0:
384,228,21067,1,0,0:0:0:0:
268,104,21201,1,0,0:0:0:0:
188,252,21334,1,0,0:0:0:0:
380,164,21468,5,0,0:0:0:0:
172,120,21602,1,0,0:0:0:0:
224,324,21736,1,0,0:0:0:0:
312,132,21870,1,0,0:0:0:0:
392,328,22004,6,0,L|452:256,1,85
120,56,22272,2,0,L|60:128,1,85
392,328,22540,2,0,L|452:256,1,85
120,56,22808,2,0,L|60:128,1,85
100,288,23076,5,0,0:0:0:0:
172,136,23209,1,0,0:0:0:0:
332,196,23343,1,0,0:0:0:0:
268,352,23477,1,0,0:0:0:0:
144,180,23611,5,0,0:0:0:0:
316,56,23745,1,0,0:0:0:0:
436,232,23879,2,0,L|360:292,1,85
252,104,24147,5,0,0:0:0:0:
76,220,24281,1,0,0:0:0:0:
208,384,24415,1,0,0:0:0:0:
368,244,24549,1,0,0:0:0:0:
212,176,24683,5,0,0:0:0:0:
264,336,24817,1,0,0:0:0:0:
360,196,24951,1,0,0:0:0:0:
228,92,25084,1,0,0:0:0:0:
108,216,25218,6,0,L|220:208,1,85
404,168,25486,2,0,L|292:176,1,85
56,220,25754,2,0,L|168:212,1,85
448,160,26022,2,0,L|336:168,1,85
176,80,26290,5,0,0:0:0:0:
180,252,26424,1,0,0:0:0:0:
276,64,26558,1,0,0:0:0:0:
376,252,26692,1,0,0:0:0:0:
132,176,26826,5,0,0:0:0:0:
376,104,26959,1,0,0:0:0:0:
180,268,27093,1,0,0:0:0:0:
320,44,27227,1,0,0:0:0:0:
300,308,27361,6,0,L|232:112,1,170
396,212,27897,2,0,P|424:128|396:48,1,170
120,176,28433,6,0,P|128:264|176:300,1,127.5
168,300,28701,1,0,0:0:0:0:
272,168,28834,1,0,0:0:0:0:
332,328,28968,2,0,L|240:316,1,85
136,188,29236,2,0,L|220:196,1,85
392,208,29504,6,0,P|392:116|336:60,1,170
80,112,30040,2,0,L|136:284,1,170
432,272,30576,6,0,L|384:120,1,127.5
388,136,30843,1,0,0:0:0:0:
216,136,30977,1,0,0:0:0:0:
216,308,31111,1,0,0:0:0:0:
388,308,31245,1,0,0:0:0:0:
296,164,31379,1,0,0:0:0:0:
136,216,31513,1,0,0:0:0:0:
204,372,31647,6,0,L|272:292,1,85
308,12,31915,2,0,L|240:92,1,85
224,328,32183,2,0,L|292:248,1,85
288,56,32451,2,0,L|220:136,1,85
88,276,32718,5,0,0:0:0:0:
128,68,32852,1,0,0:0:0:0:
272,216,32986,1,0,0:0:0:0:
60,192,33120,1,0,0:0:0:0:
272,216,33254,5,0,0:0:0:0:
208,12,33388,1,0,0:0:0:0:
272,216,33522,1,0,0:0:0:0:
92,88,33656,1,0,0:0:0:0:
124,300,33790,5,0,0:0:0:0:
272,144,33924,1,0,0:0:0:0:
60,128,34058,2,0,L|144:208,1,85
292,316,34326,1,0,0:0:0:0:
316,108,34459,1,0,0:0:0:0:
116,184,34593,2,0,L|212:228,1,85
396,288,34861,6,0,L|448:136,1,127.5
328,172,35129,2,0,L|184:224,1,127.5
164,316,35397,2,0,L|80:208,1,127.5
136,120,35665,2,0,L|256:40,1,127.5
276,32,35933,1,0,0:0:0:0:
308,52,36000,1,0,0:0:0:0:
332,84,36067,1,0,0:0:0:0:
344,120,36134,1,0,0:0:0:0:
352,156,36201,1,0,0:0:0:0:
360,192,36267,1,0,0:0:0:0:
360,232,36334,1,0,0:0:0:0:
352,268,36401,1,0,0:0:0:0:
328,272,36468,1,0,0:0:0:0:
304,280,36535,1,0,0:0:0:0:
280,292,36602,1,0,0:0:0:0:
260,308,36669,1,0,0:0:0:0:
240,324,36736,1,0,0:0:0:0:
216,332,36803,1,0,0:0:0:0:
192,332,36870,1,0,0:0:0:0:
168,328,36937,1,0,0:0:0:0:
136,320,37004,5,0,0:0:0:0:
112,296,37071,1,0,0:0:0:0:
108,264,37138,1,0,0:0:0:0:
116,232,37205,1,0,0:0:0:0:
140,208,37272,1,0,0:0:0:0:
172,196,37339,1,0,0:0:0:0:
204,196,37406,1,0,0:0:0:0:
236,212,37473,1,0,0:0:0:0:
256,240,37540,1,0,0:0:0:0:
288,204,37607,1,0,0:0:0:0:
296,156,37674,1,0,0:0:0:0:
276,112,37741,1,0,0:0:0:0:
284,64,37808,1,0,0:0:0:0:
324,40,37875,1,0,0:0:0:0:
372,40,37942,1,0,0:0:0:0:
412,60,38009,1,0,0:0:0:0:
440,96,38076,5,0,0:0:0:0:
452,140,38142,1,0,0:0:0:0:
456,188,38209,1,0,0:0:0:0:
448,232,38276,1,0,0:0:0:0:
420,268,38343,1,0,0:0:0:0:
380,296,38410,1,0,0:0:0:0:
332,304,38477,1,0,0:0:0:0:
284,304,38544,1,0,0:0:0:0:
244,280,38611,1,0,0:0:0:0:
228,236,38678,1,0,0:0:0:0:
228,188,38745,1,0,0:0:0:0:
252,148,38812,1,0,0:0:0:0:
280,112,38879,1,0,0:0:0:0:
324,100,38946,1,0,0:0:0:0:
372,100,39013,1,0,0:0:0:0:
408,132,39080,1,0,0:0:0:0:
432,172,39147,5,0,0:0:0:0:
448,200,39214,1,0,0:0:0:0:
468,228,39281,1,0,0:0:0:0:
444,252,39348,1,0,0:0:0:0:
416,272,39415,1,0,0:0:0:0:
388,288,39482,1,0,0:0:0:0:
356,296,39549,1,0,0:0:0:0:
320,296,39616,1,0,0:0:0:0:
288,284,39683,1,0,0:0:0:0:
264,260,39750,1,0,0:0:0:0:
248,232,39817,1,0,0:0:0:0:
240,200,39884,1,0,0:0:0:0:
240,176,39951,6,0,L|284:88,1,95.6250036478044
344,32,40218,5,0,0:0:0:0:
400,192,40352,1,0,0:0:0:0:
248,116,40486,1,0,0:0:0:0:
400,192,40620,1,0,0:0:0:0:
284,280,40754,2,0,L|300:188,1,85
364,36,41022,1,0,0:0:0:0:
200,76,41156,1,0,0:0:0:0:
324,196,41290,6,0,L|128:152,1,170
256,348,41692,1,0,0:0:0:0:
158,158,41826,1,0,0:0:0:0:
84,340,41959,1,0,0:0:0:0:
252,220,42093,1,0,0:0:0:0:
84,340,42227,1,0,0:0:0:0:
76,104,42361,6,0,P|108:200|160:248,1,170
224,44,42763,1,0,0:0:0:0:
256,256,42897,1,0,0:0:0:0:
424,128,43031,1,0,0:0:0:0:
316,44,43165,1,0,0:0:0:0:
156,184,43299,1,0,0:0:0:0:
368,200,43433,6,0,L|212:112,1,170
120,304,43834,1,0,0:0:0:0:
220,112,43968,1,0,0:0:0:0:
252,308,44102,1,0,0:0:0:0:
220,112,44236,1,0,0:0:0:0:
28,200,44370,1,0,0:0:0:0:
220,292,44504,6,0,L|360:192,1,170
144,172,44906,1,0,0:0:0:0:
358,193,45040,1,0,0:0:0:0:
256,20,45174,1,0,0:0:0:0:
244,232,45308,1,0,0:0:0:0:
124,56,45442,1,0,0:0:0:0:
336,76,45576,6,0,L|200:192,1,170
408,252,45977,1,0,0:0:0:0:
316,60,46111,1,0,0:0:0:0:
204,240,46245,1,0,0:0:0:0:
412,196,46379,1,0,0:0:0:0:
252,56,46513,1,0,0:0:0:0:
260,268,46647,6,0,B|184:212|184:212|168:140|168:140|96:64,2,255
404,280,48388,5,0,0:0:0:0:
424,232,48455,1,0,0:0:0:0:
436,184,48522,1,0,0:0:0:0:
424,136,48589,1,0,0:0:0:0:
404,88,48656,1,0,0:0:0:0:
368,60,48723,1,0,0:0:0:0:
328,44,48790,6,0,P|256:56|216:80,1,85
144,200,49058,1,0,0:0:0:0:
152,32,49192,1,0,0:0:0:0:
232,184,49326,5,0,0:0:0:0:
68,136,49459,1,0,0:0:0:0:
220,64,49593,1,0,0:0:0:0:
160,224,49727,1,0,0:0:0:0:
68,52,49861,5,0,0:0:0:0:
232,156,49995,1,0,0:0:0:0:
40,184,50129,1,0,0:0:0:0:
188,56,50263,1,0,0:0:0:0:
328,192,50397,5,0,0:0:0:0:
220,308,50531,1,0,0:0:0:0:
188,116,50665,1,0,0:0:0:0:
76,276,50799,1,0,0:0:0:0:
288,208,50933,5,0,0:0:0:0:
72,156,51067,1,0,0:0:0:0:
264,268,51201,1,0,0:0:0:0:
128,96,51334,1,0,0:0:0:0:
348,92,51468,5,0,0:0:0:0:
156,200,51602,1,0,0:0:0:0:
376,196,51736,1,0,0:0:0:0:
228,32,51870,1,0,0:0:0:0:
424,92,52004,5,0,0:0:0:0:
244,328,52138,1,0,0:0:0:0:
112,60,52272,2,0,L|288:168,1,170
96,208,52674,1,0,0:0:0:0:
264,244,52808,1,0,0:0:0:0:
212,72,52942,1,0,0:0:0:0:
340,196,53076,6,0,L|252:152,1,85
116,76,53343,1,0,0:0:0:0:
136,244,53477,1,0,0:0:0:0:
276,144,53611,2,0,L|192:104,2,85
64,176,54013,1,0,0:0:0:0:
204,300,54147,5,0,0:0:0:0:
240,92,54281,1,0,0:0:0:0:
92,248,54415,2,0,L|184:240,1,85
312,232,54683,2,0,L|372:156,2,85
236,144,55084,1,0,0:0:0:0:
204,336,55218,2,0,B|196:248|196:248|128:160|128:160|128:84,2,255
208,132,56290,2,0,P|296:124|460:208,2,255
260,208,57361,6,0,L|256:300,1,85
112,200,57629,2,0,L|120:96,1,85
252,4,57897,2,0,L|244:104,1,85
232,260,58165,1,0,0:0:0:0:
252,176,58433,6,0,L|256:84,1,85
400,184,58701,2,0,L|392:288,1,85
260,380,58969,2,0,L|268:280,1,85
280,124,59237,1,0,0:0:0:0:
56,248,59504,6,0,L|176:248,1,93.5000028533936
316,160,59772,2,0,L|216:160,1,93.5000028533936
48,52,60040,2,0,L|160:52,1,101.999996887207
228,64,60241,5,0,0:0:0:0:
264,84,60308,1,0,0:0:0:0:
288,116,60375,1,0,0:0:0:0:
300,156,60442,1,0,0:0:0:0:
304,196,60509,1,0,0:0:0:0:
304,236,60576,1,0,0:0:0:0:
120,152,60709,1,0,0:0:0:0:
212,332,60843,1,0,0:0:0:0:
300,156,60977,2,0,B|260:178|260:178|232:208,1,85
140,296,61379,1,0,0:0:0:0:
100,56,61647,6,0,L|176:132,1,85
412,328,61915,2,0,L|336:252,1,85
120,96,62183,2,0,L|196:172,1,85
392,288,62451,2,0,L|316:212,1,85
412,56,62718,6,0,L|336:132,1,85
100,328,62986,2,0,L|176:252,1,85
392,96,63254,2,0,L|316:172,1,85
120,288,63522,2,0,L|196:212,1,85
304,104,63790,5,0,0:0:0:0:
316,316,63924,1,0,0:0:0:0:
204,136,64058,1,0,0:0:0:0:
184,340,64192,1,0,0:0:0:0:
308,180,64326,5,0,0:0:0:0:
108,160,64459,1,0,0:0:0:0:
208,340,64593,2,0,L|232:216,1,85
288,24,64861,5,0,0:0:0:0:
396,236,64995,1,0,0:0:0:0:
180,140,65129,1,0,0:0:0:0:
412,88,65263,1,0,0:0:0:0:
272,280,65397,5,0,0:0:0:0:
320,48,65531,1,0,0:0:0:0:
440,252,65665,1,0,0:0:0:0:
212,180,65799,1,0,0:0:0:0:
420,64,65933,6,0,L|332:236,1,170
288,56,66334,1,0,0:0:0:0:
200,204,66468,1,0,0:0:0:0:
368,172,66602,1,0,0:0:0:0:
216,96,66736,2,0,L|272:164,1,85
316,328,67004,6,0,L|196:200,1,170
372,220,67406,1,0,0:0:0:0:
336,52,67540,1,0,0:0:0:0:
304,220,67674,1,0,0:0:0:0:
396,76,67808,2,0,L|376:160,1,85
260,284,68076,6,0,L|316:92,1,170
396,264,68477,1,0,0:0:0:0:
412,96,68611,1,0,0:0:0:0:
244,68,68745,1,0,0:0:0:0:
212,236,68879,1,0,0:0:0:0:
372,180,69013,1,0,0:0:0:0:
320,340,69147,5,0,0:0:0:0:
310,298,69213,1,0,0:0:0:0:
300,257,69280,1,0,0:0:0:0:
290,215,69347,1,0,0:0:0:0:
280,174,69415,2,0,L|252:92,1,85
148,112,69683,1,0,0:0:0:0:
440,28,69817,1,0,0:0:0:0:
292,48,69951,6,0,P|352:72|416:204,1,191.250007295609
416,204,70218,5,0,0:0:0:0:
304,332,70352,1,0,0:0:0:0:
300,164,70486,1,0,0:0:0:0:
168,256,70620,1,0,0:0:0:0:
328,256,70754,5,0,0:0:0:0:
384,104,70888,1,0,0:0:0:0:
432,240,71022,1,0,0:0:0:0:
292,160,71156,1,0,0:0:0:0:
196,332,71290,5,0,0:0:0:0:
388,296,71424,1,0,0:0:0:0:
284,132,71558,1,0,0:0:0:0:
388,296,71692,1,0,0:0:0:0:
184,216,71826,5,0,0:0:0:0:
364,144,71959,1,0,0:0:0:0:
308,332,72093,1,0,0:0:0:0:
224,100,72227,1,0,0:0:0:0:
104,200,72361,5,0,0:0:0:0:
312,272,72495,1,0,0:0:0:0:
152,120,72629,1,0,0:0:0:0:
252,316,72763,1,0,0:0:0:0:
236,96,72897,5,0,0:0:0:0:
164,304,73031,1,0,0:0:0:0:
308,136,73165,1,0,0:0:0:0:
112,240,73299,1,0,0:0:0:0:
332,212,73433,5,0,0:0:0:0:
176,20,73567,1,0,0:0:0:0:
108,256,73701,6,0,L|232:132,1,170
272,300,74102,1,0,0:0:0:0:
356,152,74236,2,0,L|264:188,1,85
112,236,74504,5,0,0:0:0:0:
156,72,74638,1,0,0:0:0:0:
220,232,74772,1,0,0:0:0:0:
308,88,74906,1,0,0:0:0:0:
148,148,75040,5,0,0:0:0:0:
228,296,75174,1,0,0:0:0:0:
380,216,75308,1,0,0:0:0:0:
240,120,75442,1,0,0:0:0:0:
100,308,75709,5,0,0:0:0:0:
120,96,75843,2,0,L|164:192,1,85
280,348,76111,2,0,L|328:144,1,170
120,264,76513,1,0,0:0:0:0:
224,80,76647,6,0,L|224:176,1,85
428,228,76915,2,0,L|332:232,1,85
172,360,77183,2,0,L|212:264,1,85
72,116,77451,2,0,L|176:168,1,85
224,188,77718,5,0,0:0:0:0:
256,200,77785,1,0,0:0:0:0:
280,224,77852,1,0,0:0:0:0:
300,252,77919,1,0,0:0:0:0:
320,280,77986,1,0,0:0:0:0:
336,308,78053,1,0,0:0:0:0:
352,260,78120,1,0,0:0:0:0:
356,208,78187,1,0,0:0:0:0:
356,156,78254,1,0,0:0:0:0:
336,108,78321,1,0,0:0:0:0:
300,72,78388,1,0,0:0:0:0:
252,52,78455,1,0,0:0:0:0:
200,52,78522,1,0,0:0:0:0:
196,104,78589,1,0,0:0:0:0:
196,156,78656,1,0,0:0:0:0:
200,208,78723,1,0,0:0:0:0:
200,260,78790,6,0,P|224:312|392:224,1,305.999990661621
304,256,80129,2,0,L|268:180,1,76.4999976654053
240,64,80397,2,0,L|180:120,1,76.4999976654053
104,208,80665,2,0,L|200:208,1,76.4999976654053
236,116,80933,6,0,P|264:160|140:320,1,280.49999143982
236,116,81736,2,0,P|232:232|464:232,1,407.999987548829
344,208,83076,6,0,L|360:152,1,50.9999984436036
168,208,83343,2,0,L|152:152,1,50.9999984436036
336,144,83611,2,0,L|352:88,1,50.9999984436036
176,144,83879,2,0,L|161:94,1,50.9999984436036
256,48,84147,6,0,L|256:168,1,101.999996887207
256,236,84549,2,0,P|248:292|112:288,1,203.999993774414
176,240,85218,6,0,L|176:188,1,50.9999984436036
376,80,85486,2,0,L|336:136,1,50.9999984436036
336,312,85754,2,0,L|312:264,1,50.9999984436036
276,144,86022,2,0,B|248:200|248:200|200:232,1,101.999996887207
116,300,86424,5,0,0:0:0:0:
116,300,86491,1,0,0:0:0:0:
116,300,86558,2,0,P|112:200|152:104,1,170
256,248,87093,1,0,0:0:0:0:
380,96,87361,6,0,L|208:120,1,170
132,288,87897,2,0,L|304:264,1,170
420,88,88299,1,0,0:0:0:0:
448,300,88433,5,0,0:0:0:0:
360,140,88567,1,0,0:0:0:0:
208,252,88701,2,0,L|216:152,1,85
296,56,88968,2,0,P|352:128|356:228,1,170
144,316,89504,6,0,L|72:148,1,170
368,68,90040,2,0,L|440:236,1,170
284,144,90442,1,0,0:0:0:0:
232,304,90576,5,0,0:0:0:0:
400,272,90709,1,0,0:0:0:0:
240,216,90843,2,0,L|272:128,1,85
320,44,91111,2,0,P|360:104|360:220,1,170
152,296,91647,2,0,L|96:252,1,63.75
84,232,91915,5,0,0:0:0:0:
88,204,91982,1,0,0:0:0:0:
104,180,92049,1,0,0:0:0:0:
124,160,92116,1,0,0:0:0:0:
144,140,92183,1,0,0:0:0:0:
168,124,92250,1,0,0:0:0:0:
196,116,92317,1,0,0:0:0:0:
224,112,92384,1,0,0:0:0:0:
232,152,92451,1,0,0:0:0:0:
240,192,92517,1,0,0:0:0:0:
268,224,92584,1,0,0:0:0:0:
304,248,92651,1,0,0:0:0:0:
344,248,92718,1,0,0:0:0:0:
376,224,92785,1,0,0:0:0:0:
396,192,92852,1,0,0:0:0:0:
404,152,92919,1,0,0:0:0:0:
400,116,92986,1,0,0:0:0:0:
388,80,93053,1,0,0:0:0:0:
364,52,93120,1,0,0:0:0:0:
328,40,93187,1,0,0:0:0:0:
288,40,93254,1,0,0:0:0:0:
252,52,93321,1,0,0:0:0:0:
220,72,93388,1,0,0:0:0:0:
196,104,93455,1,0,0:0:0:0:
180,136,93522,1,0,0:0:0:0:
176,176,93589,1,0,0:0:0:0:
188,212,93656,1,0,0:0:0:0:
216,236,93723,1,0,0:0:0:0:
272,244,93790,5,2,0:0:0:0:
316,208,93857,1,2,0:0:0:0:
352,164,93924,1,2,0:0:0:0:
360,108,93991,1,2,0:0:0:0:
364,52,94058,1,2,0:0:0:0:
388,104,94125,1,2,0:0:0:0:
412,156,94192,1,2,0:0:0:0:
432,212,94259,1,2,0:0:0:0:
440,268,94326,1,2,0:0:0:0:
432,324,94392,1,2,0:0:0:0:
384,356,94459,1,2,0:0:0:0:
324,344,94526,1,2,0:0:0:0:
312,288,94593,1,2,0:0:0:0:
292,236,94660,1,2,0:0:0:0:
252,196,94727,1,2,0:0:0:0:
200,176,94794,1,2,0:0:0:0:
144,200,94861,6,0,P|204:284|308:232,1,233.75
300,152,95665,2,0,P|320:80|408:148,1,191.250007295609
416,144,95933,5,0,0:0:0:0:
220,308,96067,1,0,0:0:0:0:
164,60,96201,2,0,L|256:124,1,101.999996887207
468,244,96468,1,0,0:0:0:0:
212,240,96602,1,0,0:0:0:0:
348,24,96736,1,0,0:0:0:0:
372,280,96870,1,0,0:0:0:0:
168,124,97004,6,0,L|388:112,1,203.999993774414
220,320,97406,1,0,0:0:0:0:
232,64,97540,1,0,0:0:0:0:
220,320,97674,1,0,0:0:0:0:
96,120,97808,1,0,0:0:0:0:
340,192,97942,1,0,0:0:0:0:
148,272,98076,6,0,B|176:172|176:172|260:128|260:128|277:83|277:83|340:28,2,305.999990661621
364,136,99013,1,0,0:0:0:0:
120,60,99147,5,0,0:0:0:0:
180,308,99281,1,0,0:0:0:0:
292,80,99415,1,0,0:0:0:0:
64,196,99549,1,0,0:0:0:0:
264,356,99683,5,0,0:0:0:0:
216,104,99817,1,0,0:0:0:0:
116,340,99951,1,0,0:0:0:0:
36,100,100084,1,0,0:0:0:0:
280,300,100218,6,0,L|152:220,1,101.999996887207
336,32,100486,2,0,L|444:96,1,101.999996887207
172,36,100754,2,0,L|92:116,1,101.999996887207
316,136,101022,2,0,L|424:200,1,101.999996887207
200,344,101290,6,0,P|176:260|232:152,2,203.999993774414
124,100,101959,1,0,0:0:0:0:
348,220,102093,2,0,L|252:168,1,101.999996887207
60,336,102361,6,0,B|80:208|80:208|136:136|136:136|232:76,2,305.999990661621
300,248,103299,1,0,0:0:0:0:
160,36,103433,1,0,0:0:0:0:
64,272,103567,1,0,0:0:0:0:
296,160,103701,1,0,0:0:0:0:
60,68,103834,1,0,0:0:0:0:
296,160,103968,1,0,0:0:0:0:
64,264,104102,1,0,0:0:0:0:
208,8,104236,1,0,0:0:0:0:
256,52,104303,1,0,0:0:0:0:
292,108,104370,1,0,0:0:0:0:
312,172,104437,1,0,0:0:0:0:
316,240,104504,6,0,L|252:320,1,101.999996887207
196,120,104772,1,0,0:0:0:0:
80,288,104906,1,0,0:0:0:0:
280,316,105040,1,0,0:0:0:0:
176,140,105174,1,0,0:0:0:0:
32,352,105308,6,0,L|72:224,1,101.999996887207
180,24,105576,1,0,0:0:0:0:
328,232,105709,1,0,0:0:0:0:
72,220,105843,1,0,0:0:0:0:
252,40,105977,1,0,0:0:0:0:
296,344,106111,6,0,L|220:264,1,101.999996887207
64,8,106379,1,0,0:0:0:0:
16,312,106513,1,0,0:0:0:0:
296,188,106647,1,0,0:0:0:0:
24,48,106781,1,0,0:0:0:0:
96,344,106915,6,0,L|176:268,1,101.999996887207
364,36,107183,1,0,0:0:0:0:
464,324,107317,1,0,0:0:0:0:
164,224,107451,1,0,0:0:0:0:
452,96,107584,1,0,0:0:0:0:
424,376,107718,2,0,L|284:192,1,203.999993774414
88,8,108254,2,0,L|228:192,1,203.999993774414
68,324,108790,6,0,L|136:220,1,101.999996887207
444,60,109058,2,0,L|376:164,1,101.999996887207
88,80,109326,2,0,L|200:112,1,101.999996887207
424,304,109593,2,0,L|312:272,1,101.999996887207
436,28,109861,6,0,L|344:104,1,101.999996887207
76,356,110129,2,0,L|168:280,1,101.999996887207
60,56,110397,2,0,L|176:132,1,101.999996887207
452,328,110665,2,0,L|336:252,1,101.999996887207
168,108,110933,5,0,0:0:0:0:
64,340,111067,1,0,0:0:0:0:
228,144,111201,1,0,0:0:0:0:
256,332,111334,1,0,0:0:0:0:
88,140,111468,5,0,0:0:0:0:
316,28,111602,1,0,0:0:0:0:
388,272,111736,1,0,0:0:0:0:
160,160,111870,1,0,0:0:0:0:
376,24,112004,5,0,0:0:0:0:
380,124,112138,5,0,0:0:0:0:
356,224,112272,5,0,0:0:0:0:
288,300,112406,5,0,0:0:0:0:
188,320,112540,5,0,0:0:0:0:
92,280,112674,5,0,0:0:0:0:
44,188,112808,5,0,0:0:0:0:
72,88,112942,5,0,0:0:0:0:
148,48,113076,5,0,0:0:0:0:
340,284,118031,5,0,0:0:0:0:
340,284,118098,1,0,0:0:0:0:
340,284,118165,2,0,P|264:260|236:232,1,95.6250036478044
236,144,118433,6,0,P|292:84|336:56,1,127.5
368,40,118701,1,0,0:0:0:0:
460,232,118834,1,0,0:0:0:0:
460,232,118968,2,0,P|348:200|268:228,1,170
148,292,119370,1,0,0:0:0:0:
148,80,119504,6,0,L|240:184,1,127.5
248,196,119772,1,0,0:0:0:0:
408,56,119906,1,0,0:0:0:0:
408,56,120040,2,0,L|408:228,1,170
244,88,120442,1,0,0:0:0:0:
148,276,120576,6,0,P|264:252|284:224,1,127.5
288,224,120843,1,0,0:0:0:0:
176,44,120977,1,0,0:0:0:0:
176,44,121111,2,0,P|284:60|336:104,1,170
464,264,121513,1,0,0:0:0:0:
260,324,121647,5,0,0:0:0:0:
292,112,121781,1,0,0:0:0:0:
212,308,121915,5,0,0:0:0:0:
116,116,122049,1,0,0:0:0:0:
252,280,122183,5,0,0:0:0:0:
352,92,122317,1,0,0:0:0:0:
220,260,122451,5,0,0:0:0:0:
116,76,122584,1,0,0:0:0:0:
280,212,122718,6,0,P|352:196|416:144,1,127.5
416,148,122986,1,0,0:0:0:0:
232,24,123120,1,0,0:0:0:0:
232,24,123254,2,0,P|196:120|128:152,1,170
352,116,123656,1,0,0:0:0:0:
296,320,123790,6,0,L|204:216,1,127.5
196,200,124058,1,0,0:0:0:0:
48,352,124192,1,0,0:0:0:0:
48,352,124326,2,0,P|108:308|216:308,1,170
412,332,124727,1,0,0:0:0:0:
344,132,124861,6,0,P|296:204|148:136,1,255
152,148,125330,1,0,0:0:0:0:
152,148,125397,1,0,0:0:0:0:
256,116,125933,6,0,P|308:64|376:52,3,127.5
444,152,126803,1,0,0:0:0:0:
204,328,127004,5,0,0:0:0:0:
164,164,127138,1,0,0:0:0:0:
332,196,127272,1,0,0:0:0:0:
176,260,127406,1,0,0:0:0:0:
232,100,127540,5,0,0:0:0:0:
292,260,127674,1,0,0:0:0:0:
144,172,127808,1,0,0:0:0:0:
280,68,127942,1,0,0:0:0:0:
288,280,128076,5,0,0:0:0:0:
108,172,128209,1,0,0:0:0:0:
304,92,128343,1,0,0:0:0:0:
348,300,128477,1,0,0:0:0:0:
208,140,128611,5,0,0:0:0:0:
112,328,128745,1,0,0:0:0:0:
304,236,128879,1,0,0:0:0:0:
108,152,129013,1,0,0:0:0:0:
244,368,129147,5,0,0:0:0:0:
304,92,129281,1,0,0:0:0:0:
76,208,129415,1,0,0:0:0:0:
304,324,129549,1,0,0:0:0:0:
284,68,129683,5,0,0:0:0:0:
84,228,129817,1,0,0:0:0:0:
332,288,129951,1,0,0:0:0:0:
248,48,130084,1,0,0:0:0:0:
28,180,130218,6,0,L|144:212,1,85
484,204,130486,2,0,L|368:172,1,85
28,180,130754,6,0,L|308:276,1,255
396,144,131290,1,0,0:0:0:0:
412,312,131424,1,0,0:0:0:0:
284,200,131558,1,0,0:0:0:0:
456,200,131692,1,0,0:0:0:0:
324,308,131826,5,0,0:0:0:0:
348,140,131959,1,0,0:0:0:0:
448,280,132093,1,0,0:0:0:0:
296,204,132227,1,0,0:0:0:0:
244,320,132361,5,0,0:0:0:0:
64,148,132495,1,0,0:0:0:0:
112,356,132629,1,0,0:0:0:0:
212,168,132763,1,0,0:0:0:0:
12,236,132897,5,0,0:0:0:0:
196,340,133031,1,0,0:0:0:0:
132,156,133165,1,0,0:0:0:0:
12,332,133299,1,0,0:0:0:0:
308,80,133433,5,0,0:0:0:0:
276,332,133567,1,0,0:0:0:0:
108,140,133701,1,0,0:0:0:0:
352,168,133834,1,0,0:0:0:0:
152,316,133968,5,0,0:0:0:0:
228,80,134102,1,0,0:0:0:0:
324,308,134236,1,0,0:0:0:0:
100,208,134370,1,0,0:0:0:0:
332,128,134504,6,0,L|312:156,1,21.25
376,156,134638,6,0,L|352:172,1,21.25
404,200,134772,6,0,L|368:208,1,21.25
420,252,134906,6,0,L|392:232,1,21.25
376,296,135040,6,0,L|368:264,1,21.25
324,308,135174,6,0,L|328:280,1,21.25
268,308,135308,6,0,L|280:276,1,21.25
220,280,135442,6,0,L|244:256,1,21.25
216,176,135576,2,0,L|176:220,1,42.5
112,304,135977,2,0,B|112:244|132:208|132:208|76:132|76:132|192:116|224:148|232:192|232:192|284:76|284:76|304:68,1,510
392,112,137718,6,0,L|368:168,1,42.5
372,304,138120,2,0,P|344:276|332:216,1,85
332,64,138522,5,0,0:0:0:0:
244,208,138656,1,0,0:0:0:0:
148,56,138790,1,0,0:0:0:0:
320,96,138924,1,0,0:0:0:0:
212,236,139058,1,0,0:0:0:0:
184,60,139192,1,0,0:0:0:0:
340,144,139326,5,0,0:0:0:0:
184,228,139459,1,0,0:0:0:0:
224,52,139593,1,0,0:0:0:0:
352,176,139727,1,0,0:0:0:0:
196,308,139861,5,0,0:0:0:0:
196,308,140129,1,0,0:0:0:0:
116,104,140397,1,0,0:0:0:0:
116,104,140665,1,0,0:0:0:0:
116,104,140933,5,0,0:0:0:0:
336,100,141201,1,0,0:0:0:0:
236,284,141334,1,0,0:0:0:0:
76,108,141736,1,0,0:0:0:0:
368,220,142004,5,0,0:0:0:0:
144,336,142272,1,0,0:0:0:0:
220,72,142540,1,0,0:0:0:0:
376,308,142808,2,0,B|288:284|288:284|244:187|244:187|268:120,1,255
272,112,143276,1,0,0:0:0:0:
272,112,143343,1,0,0:0:0:0:
152,288,143477,1,0,0:0:0:0:
104,80,143611,2,0,B|144:132|176:128|176:128|212:168|212:176|212:192|212:192|224:236|224:236|296:248,1,255
300,152,144147,6,0,B|312:80|400:60|400:60|440:256,2,340
256,340,145754,1,0,0:0:0:0:
212,152,146290,2,0,B|200:80|112:60|112:60|72:256,2,340
320,320,147897,2,0,B|288:276|272:236|280:200|304:160|336:128|400:120|400:120|352:80,1,297.5
292,76,148433,6,0,L|248:72,1,42.5
256,84,148567,6,0,L|204:84,1,42.5
232,112,148701,6,0,L|184:116,1,42.5
220,144,148834,6,0,L|176:172,1,42.5
220,308,148968,6,0,L|264:312,1,42.5
256,300,149102,6,0,L|308:300,1,42.5
280,272,149236,6,0,L|328:268,1,42.5
292,240,149369,6,0,L|336:212,1,42.5
192,156,149504,6,0,L|148:176,1,42.5
184,116,149638,6,0,L|124:124,1,42.5
188,68,149772,6,0,L|144:48,1,42.5
216,36,149906,6,0,L|184:0,1,42.5
276,100,150040,6,0,L|320:84,1,42.5
292,152,150174,6,0,L|360:144,1,42.5
284,200,150308,6,0,L|320:244,1,42.5
248,216,150442,6,0,L|248:268,1,42.5
196,252,150576,5,0,0:0:0:0:
168,272,150642,1,0,0:0:0:0:
132,272,150709,1,0,0:0:0:0:
104,252,150776,1,0,0:0:0:0:
84,224,150843,1,0,0:0:0:0:
72,192,150910,1,0,0:0:0:0:
72,156,150977,1,0,0:0:0:0:
84,124,151044,1,0,0:0:0:0:
104,96,151111,1,0,0:0:0:0:
132,80,151178,1,0,0:0:0:0:
164,68,151245,1,0,0:0:0:0:
200,68,151312,1,0,0:0:0:0:
228,84,151379,1,0,0:0:0:0:
252,108,151446,1,0,0:0:0:0:
260,140,151513,1,0,0:0:0:0:
268,172,151580,1,0,0:0:0:0:
272,216,151647,5,0,0:0:0:0:
284,256,151714,1,0,0:0:0:0:
320,276,151781,1,0,0:0:0:0:
360,268,151848,1,0,0:0:0:0:
392,240,151915,1,0,0:0:0:0:
408,200,151982,1,0,0:0:0:0:
412,156,152049,1,0,0:0:0:0:
396,116,152116,1,0,0:0:0:0:
364,88,152183,1,0,0:0:0:0:
324,76,152250,1,0,0:0:0:0:
280,72,152317,1,0,0:0:0:0:
228,84,152384,1,0,0:0:0:0:
192,108,152451,1,0,0:0:0:0:
180,148,152517,1,0,0:0:0:0:
188,192,152584,1,0,0:0:0:0:
220,220,152651,1,0,0:0:0:0:
264,280,152718,5,2,0:0:0:0:
280,348,152785,1,2,0:0:0:0:
344,308,152852,1,2,0:0:0:0:
396,252,152919,1,2,0:0:0:0:
444,192,152986,1,2,0:0:0:0:
480,124,153053,1,2,0:0:0:0:
452,52,153120,1,2,0:0:0:0:
376,44,153187,1,2,0:0:0:0:
312,88,153254,1,2,0:0:0:0:
284,160,153321,1,2,0:0:0:0:
240,220,153388,1,2,0:0:0:0:
168,248,153455,1,2,0:0:0:0:
96,224,153522,1,2,0:0:0:0:
64,156,153589,1,2,0:0:0:0:
96,88,153656,1,2,0:0:0:0:
172,96,153723,1,2,0:0:0:0:
212,164,153790,6,0,B|248:248|248:248|320:180|320:180|352:200,1,212.5
332,276,154593,2,0,P|412:264|384:132,1,191.250007295609
344,68,154861,5,0,0:0:0:0:
232,296,154995,1,0,0:0:0:0:
132,60,155129,2,0,L|244:128,1,101.999996887207
152,360,155397,1,0,0:0:0:0:
16,144,155531,1,0,0:0:0:0:
252,244,155665,2,0,L|148:196,1,101.999996887207
376,60,155933,5,0,0:0:0:0:
296,300,156067,1,0,0:0:0:0:
168,80,156201,1,0,0:0:0:0:
296,300,156334,1,0,0:0:0:0:
376,60,156468,2,0,P|408:152|408:204,1,101.999996887207
204,312,156736,2,0,P|168:212|168:192,1,101.999996887207
300,116,157004,6,0,B|232:80|232:80|172:88|120:104|120:104|56:304,2,382.500014591218
488,292,157942,1,0,0:0:0:0:
208,164,158076,6,0,P|232:280|308:340,1,203.999993774414
368,200,158611,2,0,L|396:80,1,101.999996887207
140,52,158879,2,0,L|112:160,1,101.999996887207
264,360,159147,6,0,L|264:128,3,203.999993774414
360,92,160084,1,0,0:0:0:0:
140,240,160218,6,0,P|108:160|184:64,1,203.999993774414
428,84,160620,5,0,0:0:0:0:
364,332,160754,1,0,0:0:0:0:
312,84,160888,5,0,0:0:0:0:
208,316,161022,1,0,0:0:0:0:
212,60,161156,5,0,0:0:0:0:
80,280,161290,1,0,0:0:0:0:
212,60,161424,5,0,0:0:0:0:
208,316,161558,1,0,0:0:0:0:
312,84,161692,5,0,0:0:0:0:
364,332,161826,1,0,0:0:0:0:
428,84,161960,5,0,0:0:0:0:
184,156,162093,1,0,0:0:0:0:
388,312,162227,1,0,0:0:0:0:
368,56,162361,2,0,L|280:140,1,101.999996887207
144,328,162629,2,0,L|232:244,1,101.999996887207
368,56,162897,2,0,L|280:140,1,101.999996887207
144,328,163165,2,0,L|232:244,1,101.999996887207
236,52,163433,6,0,L|288:168,1,101.999996887207
340,288,163701,1,0,0:0:0:0:
208,212,163834,1,0,0:0:0:0:
340,288,163968,1,0,0:0:0:0:
388,144,164102,1,0,0:0:0:0:
220,28,164236,6,0,L|256:132,1,101.999996887207
316,320,164504,1,0,0:0:0:0:
140,216,164638,1,0,0:0:0:0:
316,320,164772,1,0,0:0:0:0:
428,148,164906,1,0,0:0:0:0:
208,20,165040,6,0,L|248:148,1,101.999996887207
336,356,165308,1,0,0:0:0:0:
116,224,165442,1,0,0:0:0:0:
336,356,165576,1,0,0:0:0:0:
460,136,165709,1,0,0:0:0:0:
236,12,165843,6,0,L|264:112,1,101.999996887207
404,324,166111,1,0,0:0:0:0:
112,232,166245,1,0,0:0:0:0:
368,68,166379,1,0,0:0:0:0:
308,368,166513,1,0,0:0:0:0:
124,124,166647,6,0,L|252:152,1,101.999996887207
388,260,166915,2,0,L|260:232,1,101.999996887207
92,88,167183,2,0,L|220:116,1,101.999996887207
420,296,167451,2,0,L|292:268,1,101.999996887207
104,140,167718,5,0,0:0:0:0:
340,40,167852,1,0,0:0:0:0:
308,292,167986,2,0,L|252:200,1,101.999996887207
148,24,168254,1,0,0:0:0:0:
400,48,168388,1,0,0:0:0:0:
240,244,168522,2,0,L|264:120,1,101.999996887207
424,340,168790,5,0,0:0:0:0:
440,84,168924,1,0,0:0:0:0:
204,180,169058,1,0,0:0:0:0:
416,324,169192,1,0,0:0:0:0:
344,80,169326,1,0,0:0:0:0:
164,260,169459,1,0,0:0:0:0:
416,220,169593,1,0,0:0:0:0:
228,48,169727,1,0,0:0:0:0:
236,304,169861,6,0,P|332:220|364:104,3,203.999993774414
256,192,170933,12,0,172004,0:0:0:0:
256,192,187004,12,0,189013,0:0:0:0:
260,64,189147,6,0,B|148:64|148:64|132:112|136:128|172:196|172:196|116:184|96:228|128:300|128:300|188:272|216:284|260:320|268:352|268:352|292:276|324:260|388:272|416:300|416:300|384:204|432:168|472:168|464:120,1,956.25
140,292,193433,2,0,P|96:288|60:248,2,85
208,224,194236,1,0,0:0:0:0:
236,299,194504,6,0,P|216:231|192:215,1,85
136,132,194906,1,0,0:0:0:0:
280,264,195576,6,0,P|336:224|340:212,2,85
176,296,196379,2,0,P|112:232|112:192,1,127.5
120,112,196915,1,0,0:0:0:0:
212,128,197183,2,0,B|268:172|268:172|272:244,1,127.5
256,308,197718,5,0,0:0:0:0:
228,328,197785,1,0,0:0:0:0:
204,336,197852,5,0,0:0:0:0:
176,336,197919,1,0,0:0:0:0:
148,324,197986,1,0,0:0:0:0:
128,300,198053,1,0,0:0:0:0:
116,272,198120,1,0,0:0:0:0:
112,244,198187,1,0,0:0:0:0:
112,216,198254,1,0,0:0:0:0:
120,188,198321,1,0,0:0:0:0:
132,160,198388,1,0,0:0:0:0:
148,136,198455,1,0,0:0:0:0:
168,112,198522,1,0,0:0:0:0:
196,96,198589,1,0,0:0:0:0:
224,88,198656,1,0,0:0:0:0:
252,84,198723,1,0,0:0:0:0:
280,92,198790,6,2,L|336:120,1,42.5
256,160,198924,1,0,0:0:0:0:
256,188,198991,1,0,0:0:0:0:
256,216,199058,2,2,L|288:256,1,42.5
340,192,199192,1,0,0:0:0:0:
340,164,199259,1,0,0:0:0:0:
340,136,199326,2,2,L|372:96,1,42.5
284,84,199459,1,0,0:0:0:0:
244,76,199526,1,0,0:0:0:0:
204,84,199593,1,0,0:0:0:0:
168,108,199660,1,0,0:0:0:0:
148,144,199727,1,0,0:0:0:0:
144,188,199794,1,0,0:0:0:0:
148,236,199861,6,2,L|152:304,1,42.5
228,284,199995,1,0,0:0:0:0:
260,316,200062,1,0,0:0:0:0:
288,348,200129,1,2,0:0:0:0:
312,312,200196,1,0,0:0:0:0:
324,272,200263,1,0,0:0:0:0:
312,232,200330,1,0,0:0:0:0:
284,200,200397,1,2,0:0:0:0:
260,168,200464,1,0,0:0:0:0:
244,128,200531,1,0,0:0:0:0:
248,84,200598,1,0,0:0:0:0:
280,56,200665,1,2,0:0:0:0:
320,44,200732,1,0,0:0:0:0:
364,48,200799,1,0,0:0:0:0:
404,64,200866,1,0,0:0:0:0:
424,112,200933,5,2,0:0:0:0:
432,164,201000,1,0,0:0:0:0:
420,212,201067,1,0,0:0:0:0:
396,256,201134,1,0,0:0:0:0:
352,280,201201,1,2,0:0:0:0:
304,288,201267,1,0,0:0:0:0:
256,268,201334,1,0,0:0:0:0:
240,220,201401,1,0,0:0:0:0:
260,168,201468,1,2,0:0:0:0:
304,144,201535,1,0,0:0:0:0:
352,124,201602,1,0,0:0:0:0:
308,100,201669,1,0,0:0:0:0:
256,96,201736,1,2,0:0:0:0:
212,72,201803,1,0,0:0:0:0:
176,36,201870,1,0,0:0:0:0:
124,36,201937,1,0,0:0:0:0:
124,64,202004,5,8,0:0:0:0:
124,92,202071,1,8,0:0:0:0:
124,120,202138,1,8,0:0:0:0:
124,148,202205,1,8,0:0:0:0:
124,172,202272,1,8,0:0:0:0:
124,196,202339,1,8,0:0:0:0:
128,220,202406,1,8,0:0:0:0:
140,244,202473,1,8,0:0:0:0:
156,264,202540,1,8,0:0:0:0:
176,280,202607,1,8,0:0:0:0:
200,288,202674,1,8,0:0:0:0:
224,292,202741,1,8,0:0:0:0:
248,288,202808,1,8,0:0:0:0:
272,280,202875,1,8,0:0:0:0:
292,268,202942,1,8,0:0:0:0:
312,252,203009,1,8,0:0:0:0:
336,228,203076,5,8,0:0:0:0:
356,200,203142,1,8,0:0:0:0:
372,172,203209,1,8,0:0:0:0:
384,140,203276,1,8,0:0:0:0:
388,108,203343,1,8,0:0:0:0:
396,76,203410,1,8,0:0:0:0:
400,44,203477,1,8,0:0:0:0:
372,64,203544,1,8,0:0:0:0:
340,80,203611,1,8,0:0:0:0:
308,92,203678,1,8,0:0:0:0:
272,92,203745,1,8,0:0:0:0:
240,88,203812,1,8,0:0:0:0:
208,76,203879,1,8,0:0:0:0:
180,60,203946,1,8,0:0:0:0:
144,60,204013,1,8,0:0:0:0:
112,72,204080,1,8,0:0:0:0:
68,136,204147,5,10,0:0:0:0:
96,212,204214,1,10,0:0:0:0:
156,264,204281,1,10,0:0:0:0:
236,268,204348,1,10,0:0:0:0:
312,296,204415,1,10,0:0:0:0:
384,332,204482,1,10,0:0:0:0:
448,300,204549,1,10,0:0:0:0:
484,240,204616,1,10,0:0:0:0:
484,160,204683,1,10,0:0:0:0:
464,84,204750,1,10,0:0:0:0:
388,60,204817,1,10,0:0:0:0:
308,72,204884,1,10,0:0:0:0:
244,116,204951,1,10,0:0:0:0:
200,180,205017,1,10,0:0:0:0:
208,260,205084,1,10,0:0:0:0:
164,328,205151,1,10,0:0:0:0:
84,316,205218,6,0,P|72:184|136:56,1,216.750004134178
164,68,205486,2,0,B|208:96|216:164|216:164|288:152|312:228,1,233.75
320,244,206290,5,0,0:0:0:0:
36,340,206424,1,0,0:0:0:0:
160,68,206558,2,0,L|196:196,1,118.999996368408
460,44,206826,1,0,0:0:0:0:
408,336,206959,1,0,0:0:0:0:
224,104,207093,1,0,0:0:0:0:
496,128,207227,1,0,0:0:0:0:
252,300,207361,5,0,0:0:0:0:
364,24,207495,1,0,0:0:0:0:
468,304,207629,1,0,0:0:0:0:
196,188,207763,1,0,0:0:0:0:
472,72,207897,2,0,L|376:196,1,118.999996368408
40,312,208165,2,0,L|136:188,1,118.999996368408
180,92,208433,6,0,B|192:32|200:28|200:28|272:88|248:316,2,356.999989105225
408,280,209370,1,0,0:0:0:0:
116,228,209504,6,0,P|232:136|352:112,1,237.999992736817
256,360,209906,1,0,0:0:0:0:
148,84,210040,1,0,0:0:0:0:
436,156,210174,1,0,0:0:0:0:
144,208,210308,1,0,0:0:0:0:
396,48,210442,1,0,0:0:0:0:
308,332,210576,6,0,P|272:244|272:208,1,118.999996368408
36,36,210843,2,0,P|116:84|160:116,1,118.999996368408
476,36,211111,2,0,P|396:84|352:116,1,118.999996368408
256,376,211379,2,0,L|256:244,1,118.999996368408
340,324,211647,6,0,P|344:192|204:344,2,475.999985473633
448,168,212852,1,0,0:0:0:0:
72,172,212986,2,0,L|144:280,1,118.999996368408
324,36,213254,1,0,0:0:0:0:
368,332,213388,1,0,0:0:0:0:
156,124,213522,1,0,0:0:0:0:
452,112,213656,1,0,0:0:0:0:
248,328,213790,2,0,L|268:196,1,118.999996368408
264,56,214058,2,0,L|244:188,1,118.999996368408
248,328,214326,2,0,L|268:196,1,118.999996368408
264,56,214594,2,0,L|244:188,1,118.999996368408
440,336,214861,5,0,0:0:0:0:
108,208,214995,1,0,0:0:0:0:
420,32,215129,1,0,0:0:0:0:
272,356,215263,1,0,0:0:0:0:
80,56,215397,1,0,0:0:0:0:
428,136,215531,1,0,0:0:0:0:
132,336,215665,1,0,0:0:0:0:
256,0,215799,1,0,0:0:0:0:
404,324,215933,5,0,0:0:0:0:
76,184,216067,1,0,0:0:0:0:
412,60,216201,1,0,0:0:0:0:
236,368,216334,1,0,0:0:0:0:
120,28,216468,1,0,0:0:0:0:
436,196,216602,1,0,0:0:0:0:
108,340,216736,1,0,0:0:0:0:
240,8,216870,1,0,0:0:0:0:
412,320,217004,5,0,0:0:0:0:
92,164,217138,1,0,0:0:0:0:
432,52,217272,1,0,0:0:0:0:
256,364,217406,1,0,0:0:0:0:
88,48,217540,1,0,0:0:0:0:
436,136,217674,1,0,0:0:0:0:
140,336,217808,1,0,0:0:0:0:
248,8,217942,1,0,0:0:0:0:
444,308,218076,6,0,P|332:260|220:152,3,237.999992736817
52,312,219147,6,0,L|144:168,1,118.999996368408
428,36,219415,2,0,L|340:160,1,118.999996368408
52,312,219683,2,0,L|144:168,1,118.999996368408
428,36,219951,2,0,L|340:160,1,118.999996368408
152,133,220218,6,0,L|84:36,1,118.999996368408
395,211,220486,2,0,L|460:312,1,118.999996368408
152,133,220754,2,0,L|84:36,1,118.999996368408
395,211,221022,2,0,L|460:312,1,118.999996368408
100,284,221290,5,0,0:0:0:0:
448,208,221424,1,0,0:0:0:0:
92,184,221558,5,0,0:0:0:0:
444,124,221692,1,0,0:0:0:0:
92,56,221826,5,0,0:0:0:0:
444,28,221959,1,0,0:0:0:0:
100,120,222093,5,0,0:0:0:0:
456,168,222227,1,0,0:0:0:0:
100,200,222361,6,0,L|124:228,1,21.25
384,292,222629,6,0,L|348:192,1,85
264,36,222897,6,0,L|248:116,1,42.5
124,312,223165,6,0,L|176:248,1,42.5
392,56,223433,2,0,P|392:192|84:320,2,510.000019454957
96,176,224638,1,0,0:0:0:0:
380,316,224772,2,0,L|304:212,1,127.500004863739
340,60,225040,1,0,0:0:0:0:
132,300,225174,1,0,0:0:0:0:
168,56,225308,2,0,L|236:188,1,127.500004863739
432,136,225576,6,0,B|392:248|388:292|292:288|292:288|156:184,2,382.500014591218
312,200,226647,6,0,P|304:112|104:256,1,510.000019454957
196,144,227317,1,0,0:0:0:0:
208,304,227451,2,0,L|372:272,1,127.500004863739
204,216,227718,6,0,B|68:172|68:172|332:40|332:40|392:88,2,510.000019454957
452,276,228924,1,0,0:0:0:0:
404,24,229058,2,0,L|344:144,1,127.500004863739
148,304,229326,2,0,L|268:220,1,127.500004863739
476,356,229593,2,0,L|376:236,1,127.500004863739
192,100,229861,6,0,B|96:144|116:256|116:256|344:168,2,382.500014591218
344,112,230933,5,0,0:0:0:0:
372,148,231000,1,0,0:0:0:0:
396,184,231067,1,0,0:0:0:0:
408,228,231134,1,0,0:0:0:0:
400,272,231201,1,0,0:0:0:0:
368,300,231267,1,0,0:0:0:0:
324,312,231334,1,0,0:0:0:0:
280,308,231401,1,0,0:0:0:0:
240,292,231468,1,0,0:0:0:0:
208,256,231535,1,0,0:0:0:0:
184,216,231602,1,0,0:0:0:0:
164,180,231669,1,0,0:0:0:0:
152,136,231736,1,0,0:0:0:0:
148,92,231803,1,0,0:0:0:0:
172,56,231870,1,0,0:0:0:0:
216,48,231937,1,0,0:0:0:0:
260,56,232004,6,0,L|340:188,1,127.500004863739
52,336,232272,1,0,0:0:0:0:
168,40,232406,1,0,0:0:0:0:
360,296,232540,1,0,0:0:0:0:
44,240,232674,1,0,0:0:0:0:
312,68,232808,6,0,L|244:192,1,127.500004863739
56,356,233076,1,0,0:0:0:0:
180,64,233209,1,0,0:0:0:0:
244,376,233343,1,0,0:0:0:0:
324,68,233477,1,0,0:0:0:0:
44,240,233611,6,0,L|224:268,1,127.500004863739
448,100,233879,1,0,0:0:0:0:
140,24,234013,1,0,0:0:0:0:
336,276,234147,1,0,0:0:0:0:
312,24,234281,1,0,0:0:0:0:
116,276,234415,6,0,L|236:188,1,127.500004863739
484,20,234683,1,0,0:0:0:0:
408,332,234817,1,0,0:0:0:0:
276,40,234951,1,0,0:0:0:0:
136,324,235084,1,0,0:0:0:0:
488,168,235218,5,0,0:0:0:0:
128,40,235352,1,0,0:0:0:0:
328,368,235486,1,0,0:0:0:0:
348,32,235620,1,0,0:0:0:0:
144,356,235754,1,0,0:0:0:0:
152,24,235888,1,0,0:0:0:0:
328,368,236022,1,0,0:0:0:0:
348,32,236156,1,0,0:0:0:0:
144,356,236290,6,0,P|136:232|184:144,1,191.250007295609
220,112,236558,6,0,L|376:232,1,191.250007295609
320,296,236826,6,0,P|252:268|120:296,1,191.250007295609
84,224,237093,6,0,P|120:108|208:40,1,191.250007295609
252,48,237361,6,0,P|328:152|316:228,1,191.250007295609
312,292,237629,6,0,P|412:272|412:176,1,191.250007295609
412,112,237897,6,0,P|376:40|252:52,1,191.250007295609
320,104,238165,6,0,P|296:196|184:224,1,191.250007295609
236,148,238433,6,0,P|168:84|40:84,1,191.250007295609
112,148,238701,6,0,P|212:256|256:252,1,191.250007295609
308,208,238968,6,0,P|352:112|440:112,1,191.250007295609
396,184,239236,6,0,P|388:300|240:308,1,255.000009727478
256,192,239638,12,0,240576,0:0:0:0:
