osu file format v14

[General]
AudioFilename: audio.mp3
AudioLeadIn: 0
PreviewTime: 95536
Countdown: 0
SampleSet: Soft
StackLeniency: 0.7
Mode: 2
LetterboxInBreaks: 0
WidescreenStoryboard: 1

[Editor]
Bookmarks: 40224,172010
DistanceSpacing: 1
BeatDivisor: 4
GridSize: 32
TimelineZoom: 2.899999

[Metadata]
Title:Snow Drive (01.23)
TitleUnicode:スノウドライヴ (01.23)
Artist:Araki
ArtistUnicode:あらき
Creator:Du5t
Version:Rain
Source:
Tags:Omoi cover utaite Nyalettowo x3 male vocal vocals vocalist synth rock japanese j-rock jrock electronic daletto dust idust idu5t
BeatmapID:1919592
BeatmapSetID:918947

[Difficulty]
HPDrainRate:5
CircleSize:3.8
OverallDifficulty:9.1
ApproachRate:9.1
SliderMultiplier:1.6
SliderTickRate:2

[Events]
//Background and Video events
0,0,"bg.jpg",0,0
//Break Periods
//Storyboard Layer 0 (Background)
//Storyboard Layer 1 (Fail)
//Storyboard Layer 2 (Pass)
//Storyboard Layer 3 (Foreground)
//Storyboard Layer 4 (Overlay)
//Storyboard Sound Samples

[TimingPoints]
1700,267.857142857143,4,2,11,45,1,0
10271,-100,4,2,11,50,0,0
11878,-100,4,2,11,55,0,0
12682,-100,4,2,11,60,0,0
13485,-100,4,2,11,65,0,0
14557,-100,4,2,11,45,0,0
17771,-100,4,2,11,50,0,0
18039,-100,4,2,11,55,0,0
18307,-100,4,2,11,60,0,0
18441,-100,4,2,11,65,0,0
18575,-100,4,2,11,70,0,0
18842,-100,4,2,11,75,0,0
27414,-100,4,2,11,55,0,0
31700,-100,4,2,11,75,0,0
35985,-100,4,2,11,70,0,0
40271,-100,4,2,11,60,0,0
47771,-100,4,2,11,65,0,0
48842,-100,4,2,11,70,0,0
56342,-100,4,2,11,65,0,0
57414,-100,4,2,11,70,0,0
61700,-100,4,2,11,60,0,0
69200,-100,4,2,11,75,0,0
70271,-100,4,2,11,70,0,0
78842,-100,4,2,11,75,0,0
91700,-100,4,2,11,65,0,0
93842,-100,4,2,11,55,0,0
95985,-100,4,2,11,80,0,1
104423,-100,4,2,11,80,0,0
104557,-100,4,2,11,80,0,1
108842,-100,4,2,11,80,0,1
113128,-100,4,2,11,60,0,0
118485,-100,4,2,11,70,0,0
125985,-100,4,2,11,50,0,0
126342,-100,4,2,11,60,0,0
126700,-100,4,2,11,70,0,0
135628,-100,4,2,11,65,0,0
139914,-100,4,2,11,75,0,0
144200,-100,4,2,11,70,0,0
148485,-100,4,2,11,55,0,0
150628,-100,4,2,11,65,0,0
152771,-100,4,2,11,70,0,0
153039,-100,4,2,11,75,0,0
153307,-100,4,2,11,80,0,0
153575,-100,4,2,11,80,0,0
154378,-100,4,2,11,55,0,0
154914,-100,4,2,11,80,0,1
163351,-100,4,2,11,80,0,0
163485,-100,4,2,11,80,0,1
167771,-100,4,2,11,80,0,1
170985,-100,4,2,11,60,0,0
171789,-100,4,2,11,65,0,0
171923,-100,4,2,11,70,0,0
172057,-100,4,2,11,75,0,0
180628,-100,4,2,11,80,0,1
184914,-100,4,2,11,70,0,1
187057,-100,4,2,11,65,0,1
187592,-100,4,2,11,70,0,1
188128,-100,4,2,11,75,0,1
188664,-100,4,2,11,80,0,1
189200,-100,4,2,11,50,0,0
197369,-100,4,2,11,55,0,0
197503,-100,4,2,11,60,0,0
197637,-100,4,2,11,70,0,0
197771,-100,4,2,11,75,0,0
202057,-100,4,2,11,80,0,0
204200,-100,4,2,11,85,0,0
205271,-100,4,2,11,60,0,0
206342,-83.3333333333333,4,2,11,80,0,1
214780,-83.3333333333333,4,2,11,80,0,0
214914,-83.3333333333333,4,2,11,80,0,1
219200,-83.3333333333333,4,2,11,80,0,1
222414,-100,4,2,11,80,0,1
223485,-83.3333333333333,4,2,11,80,0,1
231923,-83.3333333333333,4,2,11,80,0,0
232057,-83.3333333333333,4,2,11,80,0,1
236342,-83.3333333333333,4,2,11,80,0,1
239557,-83.3333333333333,4,2,11,60,0,0
240628,-100,4,2,11,75,0,0
249200,-100,4,2,11,65,0,0
253485,-100,4,2,11,80,0,0
256700,-100,4,2,11,50,0,0
257771,-100,4,2,11,60,0,0
258307,-100,4,2,11,65,0,0
258842,-100,4,2,11,70,0,1
259914,-100,4,2,11,75,0,1
260450,-100,4,2,11,80,0,1
260985,-100,4,2,11,90,0,0
261119,-100,4,2,11,50,0,0
261789,-100,4,2,11,40,0,0
262458,-100,4,2,11,30,0,0
263128,-100,4,2,11,20,0,0
263798,-100,4,2,11,10,0,0
264200,-100,4,2,11,5,0,0

[Colours]
Combo1 : 60,60,255
Combo2 : 0,88,176
Combo3 : 2,153,210

[HitObjects]
310,320,1699,6,0,P|315:137|315:137,1,160,0|0,0:0|0:0,0:0:0:0:
172,238,2235,2,0,P|164:64|164:64,1,160,0|0,0:0|0:0,0:0:0:0:
407,271,2771,6,0,P|448:245|332:83,1,320,2|2,0:0|0:0,0:0:0:0:
180,88,3575,1,0,0:0:0:0:
412,314,3842,6,0,L|220:303,1,160,2|0,0:0|0:0,0:0:0:0:
171,298,4244,1,2,0:0:0:0:
389,181,4646,1,2,0:0:0:0:
163,240,4914,6,0,P|155:45|155:45,1,160,2|0,0:0|0:0,0:0:0:0:
310,51,5450,2,0,L|473:50,1,160,2|0,0:0|0:0,0:0:0:0:
244,309,5985,6,0,P|230:126|230:126,1,160,2|0,0:0|0:0,0:0:0:0:
376,229,6521,2,0,L|395:35,1,160,0|0,0:0|0:0,0:0:0:0:
152,285,7057,6,0,P|107:257|215:84,1,320,2|0,0:0|0:0,0:0:0:0:
364,90,7860,1,0,0:0:0:0:
142,305,8128,6,0,P|135:128|135:128,1,160,2|0,0:0|0:0,0:0:0:0:
216,140,8530,1,2,0:0:0:0:
423,140,8932,1,2,0:0:0:0:
194,296,9200,6,0,L|38:240,3,160,2|0|0|0,0:0|0:0|0:0|0:0,0:0:0:0:
272,235,10271,6,0,P|338:218|275:162,1,160,2|0,0:0|0:0,0:0:0:0:
219,160,10673,2,0,P|173:156|225:83,1,160,2|0,0:0|0:0,0:0:0:0:
291,281,11075,6,0,P|337:268|331:169,1,160,2|0,0:0|0:0,0:0:0:0:
247,166,11476,2,0,P|201:153|207:54,1,160,2|0,0:0|0:0,0:0:0:0:
356,275,11878,6,0,P|412:269|460:173,1,160,2|0,0:0|0:0,0:0:0:0:
307,177,12280,2,0,P|239:173|203:74,1,160,2|0,0:0|0:0,0:0:0:0:
352,106,12682,6,0,P|343:55|237:22,1,160,2|0,0:0|0:0,0:0:0:0:
97,293,13083,2,0,P|102:234|212:191,1,160,2|0,0:0|0:0,0:0:0:0:
337,286,13485,6,0,P|349:112|349:112,1,160,2|0,0:0|0:0,0:0:0:0:
212,67,14021,2,0,P|391:65|391:65,1,160,2|0,0:0|0:0,0:0:0:0:
149,307,14557,6,0,P|137:133|137:133,1,160,2|0,0:0|0:0,0:0:0:0:
279,226,15092,2,0,P|305:47|305:47,1,160,2|0,0:0|0:0,0:0:0:0:
77,267,15628,6,0,L|246:276,1,160,2|0,0:0|0:0,0:0:0:0:
372,224,16164,1,2,0:0:0:0:
238,157,16432,1,0,0:0:0:0:
463,314,16700,6,0,P|470:126|470:126,1,160,2|0,0:0|0:0,0:0:0:0:
241,150,17235,2,0,P|58:144|58:144,1,160,2|2,0:0|0:0,0:0:0:0:
414,285,17771,5,0,0:0:0:0:
285,282,18039,1,0,0:0:0:0:
157,275,18307,1,0,0:0:0:0:
93,270,18441,1,0,0:0:0:0:
297,177,18575,2,0,L|348:178,1,40,8|8,0:0|0:0,0:0:0:0:
297,177,18708,2,0,P|231:175|231:175,1,40,8|8,0:0|0:0,0:0:0:0:
422,322,18842,6,0,P|464:297|408:226,1,160,6|8,0:0|0:0,0:0:0:0:
332,226,19244,1,0,0:0:0:0:
179,191,19378,2,0,P|170:92|170:92,1,80,2|0,0:0|0:0,0:0:0:0:
264,122,19646,2,0,P|282:23|282:23,1,80,8|0,0:0|0:0,0:0:0:0:
71,308,19914,6,0,P|36:283|97:217,1,160,2|8,0:0|0:0,0:0:0:0:
175,213,20316,1,0,0:0:0:0:
319,184,20450,2,0,P|328:83|328:83,1,80,2|0,0:0|0:0,0:0:0:0:
177,88,20717,2,0,P|90:83|90:83,1,80,10|2,0:0|0:0,0:0:0:0:
301,299,20985,6,0,P|351:297|371:185,1,160,2|8,0:0|0:0,0:0:0:0:
305,198,21387,1,0,0:0:0:0:
153,168,21521,2,0,P|146:80|146:80,1,80,2|0,0:0|0:0,0:0:0:0:
244,71,21789,2,0,P|337:63|337:63,1,80,8|0,0:0|0:0,0:0:0:0:
110,317,22057,6,0,P|106:220|106:220,1,80,10|0,0:0|0:0,0:0:0:0:
259,246,22325,2,0,P|269:148|269:148,1,80,10|0,0:0|0:0,0:0:0:0:
63,125,22592,2,0,L|54:31,1,80,10|0,0:0|0:0,0:0:0:0:
210,114,22860,2,0,L|226:23,1,80,10|0,0:0|0:0,0:0:0:0:
19,319,23128,6,0,P|24:255|119:207,1,160,2|8,0:0|0:0,0:0:0:0:
179,201,23530,1,0,0:0:0:0:
331,170,23664,2,0,P|421:175|421:175,1,80,2|0,0:0|0:0,0:0:0:0:
316,85,23932,2,0,P|216:77|216:77,1,80,8|0,0:0|0:0,0:0:0:0:
431,315,24200,6,0,P|462:274|386:211,1,160,2|8,0:0|0:0,0:0:0:0:
318,206,24601,1,0,0:0:0:0:
166,171,24735,2,0,L|160:81,1,80,2|0,0:0|0:0,0:0:0:0:
313,67,25003,2,0,P|404:66|404:66,1,80,10|2,0:0|0:0,0:0:0:0:
188,296,25271,6,0,P|128:262|173:193,1,160,2|8,0:0|0:0,0:0:0:0:
243,200,25673,1,0,0:0:0:0:
392,171,25807,2,0,P|384:75|384:75,1,80,2|0,0:0|0:0,0:0:0:0:
237,60,26075,2,0,L|136:57,1,80,8|0,0:0|0:0,0:0:0:0:
361,318,26342,6,0,P|370:227|370:227,1,80,10|0,0:0|0:0,0:0:0:0:
215,252,26610,2,0,P|201:153|201:153,1,80,10|0,0:0|0:0,0:0:0:0:
398,57,26878,2,0,P|492:64|492:64,1,80,10|0,0:0|0:0,0:0:0:0:
325,141,27146,2,0,P|236:132|236:132,1,80,10|0,0:0|0:0,0:0:0:0:
449,318,27414,6,0,P|477:281|402:186,1,160,6|0,0:0|0:0,0:0:0:0:
286,196,27950,2,0,P|298:137|388:97,1,160,8|0,0:0|0:0,0:0:0:0:
150,309,28485,6,0,P|109:283|166:200,1,160,2|0,0:0|0:0,0:0:0:0:
297,199,29021,2,0,P|289:152|183:113,1,160,8|2,0:0|0:0,0:0:0:0:
50,108,29423,1,10,0:0:0:0:
246,303,29557,6,0,P|295:290|241:214,1,160,2|0,0:0|0:0,0:0:0:0:
119,214,30092,2,0,P|73:197|129:131,1,160,8|0,0:0|0:0,0:0:0:0:
347,292,30628,6,0,P|356:197|356:197,1,80,10|0,0:0|0:0,0:0:0:0:
253,208,30896,2,0,P|240:115|240:115,1,80,10|0,0:0|0:0,0:0:0:0:
395,69,31164,2,0,L|401:156,1,80,10|0,0:0|0:0,0:0:0:0:
248,273,31432,2,0,L|152:265,1,80,10|0,0:0|0:0,0:0:0:0:
372,259,31700,6,0,P|420:244|363:170,1,160,6|8,0:0|0:0,0:0:0:0:
305,161,32101,1,0,0:0:0:0:
154,69,32235,2,0,P|139:159|139:159,1,80,2|0,0:0|0:0,0:0:0:0:
240,150,32503,2,0,L|257:237,1,80,8|0,0:0|0:0,0:0:0:0:
56,310,32771,6,0,P|25:268|95:206,1,160,2|8,0:0|0:0,0:0:0:0:
170,205,33173,1,0,0:0:0:0:
320,176,33307,2,0,P|326:83|326:83,1,80,2|0,0:0|0:0,0:0:0:0:
172,83,33575,2,0,L|89:80,1,80,10|2,0:0|0:0,0:0:0:0:
292,308,33842,6,0,P|343:299|292:227,1,160,2|8,0:0|0:0,0:0:0:0:
230,227,34244,1,0,0:0:0:0:
72,163,34378,2,0,P|63:68|63:68,1,80,2|0,0:0|0:0,0:0:0:0:
162,39,34646,2,0,P|65:31|65:31,1,80,8|0,0:0|0:0,0:0:0:0:
291,305,34914,6,0,P|384:313|384:313,1,80,8|0,0:0|0:0,0:0:0:0:
162,232,35182,2,0,P|73:224|73:224,1,80,8|0,0:0|0:0,0:0:0:0:
306,161,35450,2,0,P|322:67|322:67,1,80,8|0,0:0|0:0,0:0:0:0:
182,127,35717,2,0,P|164:37|164:37,1,80,8|0,0:0|0:0,0:0:0:0:
392,312,35985,6,0,P|398:221|398:221,1,80,8|0,0:0|0:0,0:0:0:0:
244,208,36253,2,0,P|153:202|153:202,2,80,8|0|0,0:0|0:0|0:0,0:0:0:0:
395,123,36655,2,0,P|480:127|480:127,2,80,8|0|0,0:0|0:0|0:0,0:0:0:0:
192,271,37057,6,0,L|89:265,2,80,8|0|0,0:0|0:0|0:0,0:0:0:0:
342,189,37458,2,0,P|439:192|439:192,2,80,8|0|0,0:0|0:0|0:0,0:0:0:0:
191,142,37860,2,0,L|186:226,1,80,8|0,0:0|0:0,0:0:0:0:
394,129,38128,6,0,L|398:225,1,80,8|0,0:0|0:0,0:0:0:0:
245,285,38396,1,8,0:0:0:0:
165,281,38530,2,0,B|158:183,1,80,0|0,0:0|0:0,0:0:0:0:
315,200,38798,1,8,0:0:0:0:
395,200,38932,2,0,P|405:102|405:102,1,80,0|0,0:0|0:0,0:0:0:0:
205,231,39200,6,0,P|118:224|118:224,1,80,8|0,0:0|0:0,0:0:0:0:
328,150,39467,2,0,P|428:158|428:158,1,80,8|0,0:0|0:0,0:0:0:0:
170,301,39735,2,0,L|112:300,1,40,8|8,0:0|0:0,0:0:0:0:
89,294,39869,2,0,P|63:252|63:252,1,40,8|8,0:0|0:0,0:0:0:0:
62,219,40003,2,0,P|75:163|75:163,1,40,8|8,0:0|0:0,0:0:0:0:
106,160,40137,2,0,P|160:153|160:153,1,40,8|8,0:0|0:0,0:0:0:0:
339,195,40271,6,0,L|431:194,2,80,6|0|8,0:0|0:0|0:0,0:0:0:0:
194,268,40673,2,0,P|156:253|211:174,1,160,2|0,0:0|0:0,0:0:0:0:
342,68,41075,2,0,L|346:186,1,80,10|0,0:0|0:0,0:0:0:0:
148,126,41342,6,0,L|53:126,2,80,2|0|8,0:0|0:0|0:0,0:0:0:0:
292,291,41744,2,0,P|328:264|270:180,1,160,2|0,0:0|0:0,0:0:0:0:
140,179,42146,2,0,L|34:177,1,80,10|0,0:0|0:0,0:0:0:0:
262,84,42414,2,0,L|363:77,2,80,2|0|8,0:0|0:0|0:0,0:0:0:0:
121,202,42816,6,0,P|82:229|141:311,1,160,2|0,0:0|0:0,0:0:0:0:
270,291,43217,2,0,L|369:285,1,80,10|0,0:0|0:0,0:0:0:0:
115,80,43485,5,2,0:0:0:0:
26,81,43619,2,0,L|24:170,1,80,0|8,0:0|0:0,0:0:0:0:
165,164,43887,2,0,L|169:336,1,160,2|0,0:0|0:0,0:0:0:0:
300,148,44289,1,10,0:0:0:0:
217,144,44423,1,0,0:0:0:0:
411,64,44557,5,2,0:0:0:0:
496,63,44691,2,0,L|496:153,1,80,0|8,0:0|0:0,0:0:0:0:
351,297,44958,2,0,P|315:274|367:177,1,160,2|0,0:0|0:0,0:0:0:0:
486,119,45360,2,0,L|397:113,1,80,10|0,0:0|0:0,0:0:0:0:
211,58,45628,5,2,0:0:0:0:
117,58,45762,2,0,L|111:172,1,80,0|8,0:0|0:0,0:0:0:0:
258,287,46030,2,0,P|296:259|243:173,1,160,2|0,0:0|0:0,0:0:0:0:
112,186,46432,2,0,L|111:85,1,80,10|0,0:0|0:0,0:0:0:0:
307,50,46700,6,0,L|395:48,2,80,2|0|8,0:0|0:0|0:0,0:0:0:0:
161,182,47101,2,0,L|336:176,1,160,2|0,0:0|0:0,0:0:0:0:
463,136,47503,2,0,L|346:126,1,80,10|0,0:0|0:0,0:0:0:0:
176,67,47771,5,2,0:0:0:0:
170,136,47905,1,0,0:0:0:0:
330,133,48173,2,0,L|336:309,1,160,2|8,0:0|0:0,0:0:0:0:
203,291,48575,1,8,0:0:0:0:
335,292,48708,1,8,0:0:0:0:
124,80,48842,6,0,L|116:176,1,80,2|0,0:0|0:0,0:0:0:0:
256,163,49110,2,0,L|263:265,1,80,8|0,0:0|0:0,0:0:0:0:
406,103,49378,1,2,0:0:0:0:
291,96,49512,1,0,0:0:0:0:
417,151,49646,2,0,L|421:250,1,80,8|0,0:0|0:0,0:0:0:0:
222,240,49914,6,0,L|123:226,2,80,2|0|8,0:0|0:0|0:0,0:0:0:0:
358,240,50316,2,0,P|353:191|261:126,1,160,0|0,0:0|0:0,0:0:0:0:
133,98,50717,2,0,L|216:89,1,80,8|0,0:0|0:0,0:0:0:0:
426,89,50985,6,0,L|439:186,1,80,2|0,0:0|0:0,0:0:0:0:
291,179,51253,2,0,L|285:275,1,80,8|0,0:0|0:0,0:0:0:0:
144,149,51521,1,2,0:0:0:0:
277,123,51655,1,0,0:0:0:0:
143,84,51789,2,0,L|62:79,1,80,8|0,0:0|0:0,0:0:0:0:
272,249,52057,6,0,L|381:239,1,80,2|0,0:0|0:0,0:0:0:0:
216,191,52325,2,0,L|110:183,1,80,8|0,0:0|0:0,0:0:0:0:
272,127,52592,2,0,L|455:118,1,160,2|8,0:0|0:0,0:0:0:0:
348,72,52994,1,0,0:0:0:0:
150,110,53128,6,0,L|143:212,1,80,2|0,0:0|0:0,0:0:0:0:
294,224,53396,2,0,L|393:221,1,80,8|0,0:0|0:0,0:0:0:0:
512,157,53664,2,0,L|396:147,1,80,2|0,0:0|0:0,0:0:0:0:
290,130,53932,1,8,0:0:0:0:
414,108,54066,1,0,0:0:0:0:
206,62,54200,6,0,L|196:169,1,80,2|0,0:0|0:0,0:0:0:0:
64,303,54467,2,0,L|60:133,1,160,8|2,0:0|0:0,0:0:0:0:
206,243,54869,2,0,L|308:239,2,80,0|8|0,0:0|0:0|0:0,0:0:0:0:
406,106,55271,5,2,0:0:0:0:
495,101,55405,2,0,L|500:192,1,80,0|8,0:0|0:0,0:0:0:0:
366,292,55673,2,0,P|321:276|373:201,1,160,2|0,0:0|0:0,0:0:0:0:
500,145,56075,2,0,L|502:243,1,80,10|0,0:0|0:0,0:0:0:0:
247,67,56342,5,10,0:0:0:0:
181,112,56476,1,0,0:0:0:0:
165,190,56610,1,0,0:0:0:0:
201,261,56744,1,2,0:0:0:0:
330,273,56878,1,8,0:0:0:0:
202,317,57012,1,0,0:0:0:0:
330,273,57146,2,0,L|335:170,1,80,0|0,0:0|0:0,0:0:0:0:
130,106,57414,6,0,L|232:101,2,80,10|0|0,0:0|0:0|0:0,0:0:0:0:
258,141,57816,2,0,L|267:237,1,80,10|0,0:0|0:0,0:0:0:0:
144,238,58083,1,10,0:0:0:0:
27,155,58217,2,0,L|20:260,1,80,10|0,0:0|0:0,0:0:0:0:
226,72,58485,6,0,L|124:67,2,80,10|0|0,0:0|0:0|0:0,0:0:0:0:
98,107,58887,2,0,L|89:203,1,80,10|0,0:0|0:0,0:0:0:0:
212,204,59154,1,10,0:0:0:0:
329,121,59288,2,0,L|336:226,1,80,10|0,0:0|0:0,0:0:0:0:
124,310,59557,5,10,0:0:0:0:
229,298,59691,1,0,0:0:0:0:
334,287,59825,1,0,0:0:0:0:
188,132,59958,1,10,0:0:0:0:
271,65,60092,1,8,0:0:0:0:
289,100,60159,1,0,0:0:0:0:
277,138,60226,1,0,0:0:0:0:
245,162,60293,1,0,0:0:0:0:
206,172,60360,1,8,0:0:0:0:
170,190,60427,1,0,0:0:0:0:
155,227,60494,1,8,0:0:0:0:
173,262,60561,1,0,0:0:0:0:
340,218,60628,5,10,0:0:0:0:
349,142,60762,1,10,0:0:0:0:
264,118,60896,1,10,0:0:0:0:
68,67,61030,2,0,P|36:106|89:209,1,160,10|0,0:0|0:0,0:0:0:0:
149,262,61432,2,0,L|48:254,1,80,0|0,0:0|0:0,0:0:0:0:
276,155,61700,6,0,L|370:144,2,80,6|0|8,0:0|0:0|0:0,0:0:0:0:
135,93,62101,2,0,P|129:161|223:222,1,160,2|0,0:0|0:0,0:0:0:0:
338,219,62503,2,0,L|447:212,1,80,10|0,0:0|0:0,0:0:0:0:
216,88,62771,6,0,L|112:82,2,80,2|0|8,0:0|0:0|0:0,0:0:0:0:
362,91,63173,2,0,P|371:161|289:205,1,160,2|0,0:0|0:0,0:0:0:0:
168,192,63575,2,0,L|161:303,1,80,10|0,0:0|0:0,0:0:0:0:
361,65,63842,5,2,0:0:0:0:
458,60,63976,2,0,L|463:172,1,80,0|8,0:0|0:0,0:0:0:0:
315,277,64244,2,0,P|271:259|339:182,1,160,2|0,0:0|0:0,0:0:0:0:
448,137,64646,2,0,L|332:133,1,80,10|0,0:0|0:0,0:0:0:0:
170,56,64914,5,2,0:0:0:0:
72,78,65048,2,0,L|65:179,1,80,0|8,0:0|0:0,0:0:0:0:
215,268,65316,2,0,L|218:159,1,80,2|0,0:0|0:0,0:0:0:0:
85,167,65583,2,0,L|174:161,2,80,0|10|0,0:0|0:0|0:0,0:0:0:0:
284,178,65985,6,0,L|385:179,2,80,2|0|8,0:0|0:0|0:0,0:0:0:0:
150,192,66387,2,0,P|122:140|204:78,1,160,2|0,0:0|0:0,0:0:0:0:
317,49,66789,2,0,L|324:141,1,80,10|0,0:0|0:0,0:0:0:0:
126,295,67057,5,2,0:0:0:0:
39,300,67191,2,0,L|38:208,1,80,0|8,0:0|0:0,0:0:0:0:
171,59,67458,2,0,L|172:225,1,160,2|0,0:0|0:0,0:0:0:0:
301,263,67860,2,0,L|312:160,1,80,10|0,0:0|0:0,0:0:0:0:
104,128,68128,6,0,L|97:232,1,80,2|0,0:0|0:0,0:0:0:0:
178,214,68396,1,8,0:0:0:0:
320,133,68530,2,0,L|145:123,1,160,2|0,0:0|0:0,0:0:0:0:
297,68,68932,2,0,L|412:58,1,80,10|0,0:0|0:0,0:0:0:0:
148,179,69200,5,10,0:0:0:0:
114,199,69266,1,8,0:0:0:0:
100,236,69333,1,8,0:0:0:0:
114,273,69400,1,8,0:0:0:0:
149,302,69467,1,8,0:0:0:0:
351,267,69601,2,0,L|456:264,2,80,2|0|0,0:0|0:0|0:0,0:0:0:0:
91,63,70003,2,0,P|57:97|108:145,1,120,8|0,0:0|0:0,0:0:0:0:
268,144,70271,6,0,L|370:143,1,80,6|0,0:0|0:0,0:0:0:0:
216,223,70539,2,0,L|210:337,1,80,8|0,0:0|0:0,0:0:0:0:
87,248,70807,2,0,L|87:80,1,160,2|8,0:0|0:0,0:0:0:0:
194,78,71208,1,0,0:0:0:0:
391,243,71342,6,0,L|398:144,1,80,2|0,0:0|0:0,0:0:0:0:
256,282,71610,2,0,L|251:174,1,80,8|0,0:0|0:0,0:0:0:0:
396,315,71878,2,0,L|408:128,1,160,2|8,0:0|0:0,0:0:0:0:
295,148,72280,1,0,0:0:0:0:
63,92,72414,6,0,P|61:151|148:191,1,160,2|8,0:0|0:0,0:0:0:0:
266,195,72816,1,0,0:0:0:0:
118,302,72950,2,0,L|22:289,1,80,2|0,0:0|0:0,0:0:0:0:
190,230,73217,2,0,L|301:228,1,80,8|0,0:0|0:0,0:0:0:0:
50,108,73485,6,0,L|42:206,1,80,2|0,0:0|0:0,0:0:0:0:
183,164,73753,2,0,L|186:255,1,80,8|0,0:0|0:0,0:0:0:0:
54,256,74021,1,2,0:0:0:0:
184,237,74155,1,0,0:0:0:0:
60,150,74289,2,0,L|52:252,1,80,8|0,0:0|0:0,0:0:0:0:
262,44,74557,6,0,L|269:150,1,80,2|0,0:0|0:0,0:0:0:0:
403,149,74825,2,0,L|403:245,1,80,8|0,0:0|0:0,0:0:0:0:
257,227,75092,2,0,L|367:224,1,80,2|0,0:0|0:0,0:0:0:0:
196,231,75360,2,0,L|190:339,1,80,8|0,0:0|0:0,0:0:0:0:
419,68,75628,6,0,L|421:172,1,80,2|0,0:0|0:0,0:0:0:0:
278,124,75896,2,0,L|269:308,1,160,8|2,0:0|0:0,0:0:0:0:
187,287,76298,1,0,0:0:0:0:
333,222,76432,2,0,L|448:224,1,80,8|0,0:0|0:0,0:0:0:0:
198,82,76700,5,2,0:0:0:0:
292,77,76833,2,0,L|297:175,1,80,0|8,0:0|0:0,0:0:0:0:
149,174,77101,2,0,P|106:189|165:261,1,160,2|0,0:0|0:0,0:0:0:0:
346,257,77503,2,0,L|439:256,1,80,10|0,0:0|0:0,0:0:0:0:
212,93,77771,6,0,L|117:93,2,80,2|0|8,0:0|0:0|0:0,0:0:0:0:
416,195,78173,1,2,0:0:0:0:
286,148,78307,1,8,0:0:0:0:
421,98,78441,1,0,0:0:0:0:
217,265,78575,1,8,0:0:0:0:
131,259,78708,1,0,0:0:0:0:
394,66,78842,6,0,L|399:165,1,80,6|0,0:0|0:0,0:0:0:0:
257,152,79110,2,0,L|252:248,1,80,8|0,0:0|0:0,0:0:0:0:
340,231,79378,2,0,L|348:331,1,80,2|0,0:0|0:0,0:0:0:0:
128,332,79646,6,0,L|126:243,1,80,10|0,0:0|0:0,0:0:0:0:
208,246,79914,2,0,L|296:246,1,80
151,142,80182,2,0,L|47:136,1,80,10|0,0:0|0:0,0:0:0:0:
212,69,80450,2,0,L|316:65,1,80,2|0,0:0|0:0,0:0:0:0:
95,236,80717,2,0,L|4:228,1,80,10|0,0:0|0:0,0:0:0:0:
236,136,80985,6,0,L|238:224,1,80,2|0,0:0|0:0,0:0:0:0:
101,82,81253,2,0,L|96:177,1,80,8|0,0:0|0:0,0:0:0:0:
177,59,81521,2,0,L|268:58,1,80
56,266,81789,6,0,L|163:259,1,80,10|0,0:0|0:0,0:0:0:0:
214,263,82057,2,0,L|222:153,1,80
81,145,82325,2,0,L|78:51,1,80,8|0,0:0|0:0,0:0:0:0:
160,98,82592,2,0,L|166:1,1,80
28,266,82860,2,0,L|131:265,1,80,8|0,0:0|0:0,0:0:0:0:
357,306,83128,6,0,L|350:217,1,80,6|0,0:0|0:0,0:0:0:0:
211,236,83396,2,0,L|203:131,1,80,8|0,0:0|0:0,0:0:0:0:
68,162,83664,2,0,L|56:54,1,80,2|0,0:0|0:0,0:0:0:0:
301,133,83932,2,0,L|312:33,1,80,8|0,0:0|0:0,0:0:0:0:
86,262,84200,6,0,L|200:258,1,80,2|0,0:0|0:0,0:0:0:0:
309,253,84467,1,10,0:0:0:0:
87,89,84601,2,0,P|85:148|187:199,1,160,2|0,0:0|0:0,0:0:0:0:
313,173,85003,2,0,L|407:172,1,80,8|0,0:0|0:0,0:0:0:0:
188,71,85271,6,0,L|100:64,1,80,2|0,0:0|0:0,0:0:0:0:
255,219,85539,2,0,L|348:214,1,80,8|0,0:0|0:0,0:0:0:0:
491,134,85807,2,0,L|382:120,1,80,2|0,0:0|0:0,0:0:0:0:
182,115,86075,5,10,0:0:0:0:
310,104,86208,1,0,0:0:0:0:
182,115,86342,2,0,L|177:212,1,80,0|0,0:0|0:0,0:0:0:0:
321,200,86610,2,0,L|326:286,1,80,10|0,0:0|0:0,0:0:0:0:
92,85,86878,2,0,P|48:127|106:205,1,160,2|8,0:0|0:0,0:0:0:0:
169,200,87280,1,0,0:0:0:0:
364,76,87414,6,0,L|462:86,1,80,6|0,0:0|0:0,0:0:0:0:
311,149,87682,2,0,L|224:154,1,80,8|0,0:0|0:0,0:0:0:0:
389,204,87950,2,0,L|393:306,1,80,2|0,0:0|0:0,0:0:0:0:
257,280,88217,1,10,0:0:0:0:
458,104,88351,6,0,L|460:207,1,80,2|0,0:0|0:0,0:0:0:0:
377,186,88619,1,0,0:0:0:0:
184,120,88753,2,0,L|75:118,1,80,10|0,0:0|0:0,0:0:0:0:
306,70,89021,2,0,L|395:71,1,80,2|0,0:0|0:0,0:0:0:0:
238,165,89289,2,0,L|147:160,1,80,8|0,0:0|0:0,0:0:0:0:
365,188,89557,6,0,L|376:290,1,80,2|0,0:0|0:0,0:0:0:0:
236,76,89825,2,0,L|231:170,1,80,8|0,0:0|0:0,0:0:0:0:
453,54,90092,2,0,L|458:150,1,80,2|0,0:0|0:0,0:0:0:0:
334,149,90360,1,10,0:0:0:0:
124,257,90494,6,0,L|30:259,2,80,2|0|0,0:0|0:0|0:0,0:0:0:0:
352,262,90896,2,0,L|360:164,1,80,10|0,0:0|0:0,0:0:0:0:
130,63,91164,2,0,P|80:80|130:166,1,160,2|8,0:0|0:0,0:0:0:0:
245,173,91566,1,0,0:0:0:0:
42,307,91700,6,0,P|36:257|101:194,1,120,6|0,0:0|0:0,0:0:0:0:
210,214,91967,1,10,0:0:0:0:
249,206,92034,1,0,0:0:0:0:
265,169,92101,1,0,0:0:0:0:
252,130,92168,1,0,0:0:0:0:
123,55,92235,5,10,0:0:0:0:
85,69,92302,1,0,0:0:0:0:
72,106,92369,1,0,0:0:0:0:
87,142,92436,1,0,0:0:0:0:
216,272,92503,2,0,L|272:273,1,40,10|0,0:0|0:0,0:0:0:0:
216,272,92637,2,0,L|156:270,1,40,0|0,0:0|0:0,0:0:0:0:
306,74,92771,5,10,0:0:0:0:
329,110,92838,1,0,0:0:0:0:
311,148,92905,1,0,0:0:0:0:
271,154,92972,1,0,0:0:0:0:
142,151,93039,1,10,0:0:0:0:
119,185,93106,1,0,0:0:0:0:
137,225,93173,1,0,0:0:0:0:
177,231,93240,1,0,0:0:0:0:
308,314,93307,6,0,L|370:315,1,40,10|0,0:0|0:0,0:0:0:0:
388,314,93441,2,0,L|336:309,1,40,0|0,0:0|0:0,0:0:0:0:
214,214,93575,2,0,L|159:218,1,40,10|0,0:0|0:0,0:0:0:0:
214,214,93708,2,0,L|284:212,1,40,0|0,0:0|0:0,0:0:0:0:
122,94,93842,6,0,L|72:90,1,40,10|0,0:0|0:0,0:0:0:0:
213,19,93976,1,10,0:0:0:0:
250,33,94043,1,0,0:0:0:0:
279,60,94110,1,10,0:0:0:0:
293,97,94177,1,0,0:0:0:0:
281,135,94244,1,10,0:0:0:0:
244,152,94311,1,0,0:0:0:0:
115,281,94378,6,0,L|55:277,1,40,10|0,0:0|0:0,0:0:0:0:
115,281,94512,2,0,L|177:285,1,40,10|0,0:0|0:0,0:0:0:0:
288,214,94646,2,0,L|352:214,1,40,10|8,0:0|0:0,0:0:0:0:
194,156,94780,2,0,L|144:155,1,40,10|8,0:0|0:0,0:0:0:0:
297,84,94914,1,14,0:0:0:0:
298,226,95583,5,0,0:0:0:0:
102,237,95717,2,0,P|60:207|106:154,1,120,10|0,0:0|0:0,0:0:0:0:
272,151,95985,6,0,P|325:127|259:69,1,160,6|8,0:0|0:0,0:0:0:0:
198,64,96387,1,0,0:0:0:0:
47,227,96521,2,0,L|133:230,1,80,0|0,0:0|0:0,0:0:0:0:
271,237,96789,2,0,L|377:242,1,80,10|0,0:0|0:0,0:0:0:0:
126,61,97057,6,0,P|86:87|142:169,1,160,2|8,0:0|0:0,0:0:0:0:
217,174,97458,1,0,0:0:0:0:
352,107,97592,2,0,L|243:103,1,80,2|0,0:0|0:0,0:0:0:0:
124,270,97860,2,0,L|233:266,1,80,10|0,0:0|0:0,0:0:0:0:
420,245,98128,6,0,P|421:193|336:134,1,160,2|8,0:0|0:0,0:0:0:0:
113,234,98530,1,2,0:0:0:0:
29,230,98664,2,0,L|25:135,1,80,0|0,0:0|0:0,0:0:0:0:
259,32,98932,2,0,L|265:147,1,80,10|0,0:0|0:0,0:0:0:0:
36,310,99200,6,0,L|224:285,1,160,2|8,0:0|0:0,0:0:0:0:
113,237,99601,1,0,0:0:0:0:
322,170,99735,2,0,L|421:155,1,80,10|0,0:0|0:0,0:0:0:0:
197,109,100003,2,0,L|92:97,1,80,10|0,0:0|0:0,0:0:0:0:
343,262,100271,6,0,L|452:260,1,80,2|0,0:0|0:0,0:0:0:0:
292,188,100539,2,0,L|196:176,1,80,8|0,0:0|0:0,0:0:0:0:
361,112,100807,2,0,L|263:100,1,80,0|0,0:0|0:0,0:0:0:0:
129,126,101075,2,0,L|120:213,1,80,10|0,0:0|0:0,0:0:0:0:
352,328,101342,6,0,L|363:155,1,160,2|8,0:0|0:0,0:0:0:0:
267,163,101744,1,0,0:0:0:0:
123,270,101878,2,0,L|118:163,1,80,0|0,0:0|0:0,0:0:0:0:
211,124,102146,2,0,L|126:125,1,80,10|0,0:0|0:0,0:0:0:0:
351,287,102414,6,0,P|410:286|437:188,1,160,2|8,0:0|0:0,0:0:0:0:
290,209,102816,2,0,P|232:201|229:98,1,160,2|0,0:0|0:0,0:0:0:0:
356,95,103217,2,0,L|461:94,1,80,10|0,0:0|0:0,0:0:0:0:
172,172,103485,6,0,L|166:273,1,80,2|0,0:0|0:0,0:0:0:0:
307,41,103753,2,0,L|202:33,1,80,8|0,0:0|0:0,0:0:0:0:
435,336,104021,2,0,L|326:320,1,80,8|8,0:0|0:0,0:0:0:0:
151,315,104289,2,0,L|55:306,1,80,8|8,0:0|0:0,0:0:0:0:
302,127,104557,5,6,0:0:0:0:
170,129,104691,2,0,L|165:229,1,80,0|8,0:0|0:0,0:0:0:0:
370,252,104958,2,0,L|457:246,2,80,2|0|0,0:0|0:0|0:0,0:0:0:0:
173,101,105360,5,10,0:0:0:0:
305,103,105494,2,0,L|310:203,1,80,0|0,0:0|0:0,0:0:0:0:
105,226,105761,2,0,L|18:220,2,80,2|8|0,0:0|0:0|0:0,0:0:0:0:
302,127,106164,5,2,0:0:0:0:
170,129,106298,2,0,L|165:229,1,80,0|8,0:0|0:0,0:0:0:0:
370,252,106565,2,0,L|457:246,2,80,2|0|0,0:0|0:0|0:0,0:0:0:0:
173,101,106967,5,10,0:0:0:0:
305,103,107101,2,0,L|310:203,1,80,0|0,0:0|0:0,0:0:0:0:
105,226,107368,2,0,L|18:220,2,80,2|8|0,0:0|0:0|0:0,0:0:0:0:
342,36,107771,6,0,L|436:40,1,80,10|0,0:0|0:0,0:0:0:0:
192,198,108039,2,0,L|92:192,1,80,10|0,0:0|0:0,0:0:0:0:
353,181,108307,2,0,L|362:290,1,80,10|0,0:0|0:0,0:0:0:0:
124,41,108575,2,0,L|113:127,1,80,10|0,0:0|0:0,0:0:0:0:
343,77,108842,6,0,L|445:74,1,80,6|0,0:0|0:0,0:0:0:0:
267,174,109110,2,0,L|161:167,1,80,8|0,0:0|0:0,0:0:0:0:
406,179,109378,2,0,L|413:290,1,80,2|0,0:0|0:0,0:0:0:0:
268,318,109646,2,0,L|361:313,1,80,8|0,0:0|0:0,0:0:0:0:
122,208,109914,6,0,L|116:297,1,80,2|0,0:0|0:0,0:0:0:0:
262,233,110182,2,0,L|272:54,1,160,10|0,0:0|0:0,0:0:0:0:
362,70,110583,1,0,0:0:0:0:
215,42,110717,2,0,L|209:154,1,80,10|0,0:0|0:0,0:0:0:0:
416,303,110985,6,0,L|305:294,1,80,2|0,0:0|0:0,0:0:0:0:
196,227,111253,2,0,L|299:221,1,80,8|0,0:0|0:0,0:0:0:0:
483,133,111521,2,0,L|371:121,1,80,2|0,0:0|0:0,0:0:0:0:
189,116,111789,2,0,L|100:109,1,80,8|0,0:0|0:0,0:0:0:0:
342,306,112057,5,2,0:0:0:0:
229,303,112191,1,8,0:0:0:0:
117,297,112325,1,0,0:0:0:0:
339,203,112458,1,10,0:0:0:0:
226,200,112592,1,0,0:0:0:0:
114,194,112726,1,8,0:0:0:0:
331,119,112860,2,0,L|434:111,1,80,2|8,0:0|0:0,0:0:0:0:
173,120,113128,6,0,L|66:113,2,80,6|0|8,0:0|0:0|0:0,0:0:0:0:
366,201,113664,2,0,L|371:300,1,80,2|0,0:0|0:0,0:0:0:0:
289,276,113932,1,8,0:0:0:0:
46,88,114200,6,0,L|148:95,2,80,2|0|8,0:0|0:0|0:0,0:0:0:0:
216,178,114735,2,0,L|222:273,1,80,2|0,0:0|0:0,0:0:0:0:
141,263,115003,1,8,0:0:0:0:
355,89,115271,6,0,L|455:94,2,80,2|0|8,0:0|0:0|0:0,0:0:0:0:
180,182,115807,2,0,L|174:277,1,80,2|0,0:0|0:0,0:0:0:0:
255,267,116075,1,8,0:0:0:0:
476,84,116342,6,0,L|389:81,2,80,2|0|8,0:0|0:0|0:0,0:0:0:0:
253,213,116744,1,2,0:0:0:0:
470,207,117012,1,2,0:0:0:0:
179,164,118083,6,0,L|174:228,1,40,0|0,0:0|0:0,0:0:0:0:
339,168,118217,2,0,L|444:167,1,80,10|0,0:0|0:0,0:0:0:0:
159,85,118485,6,0,L|71:81,2,80,6|0|8,0:0|0:0|0:0,0:0:0:0:
305,89,118887,1,10,0:0:0:0:
159,252,119021,2,0,P|113:228|185:170,1,160,0|8,0:0|0:0,0:0:0:0:
242,161,119423,1,0,0:0:0:0:
444,277,119557,6,0,L|451:171,1,80,2|0,0:0|0:0,0:0:0:0:
368,190,119825,1,8,0:0:0:0:
224,188,119958,1,10,0:0:0:0:
368,143,120092,2,0,P|409:123|351:42,1,160,0|8,0:0|0:0,0:0:0:0:
290,40,120494,1,0,0:0:0:0:
66,285,120628,6,0,L|65:183,1,80,2|0,0:0|0:0,0:0:0:0:
145,204,120896,1,8,0:0:0:0:
287,203,121030,1,10,0:0:0:0:
143,143,121164,2,0,P|139:95|228:41,1,160,0|8,0:0|0:0,0:0:0:0:
303,47,121566,1,0,0:0:0:0:
101,266,121700,6,0,L|101:162,1,80,2|0,0:0|0:0,0:0:0:0:
227,176,121967,1,8,0:0:0:0:
354,167,122101,1,10,0:0:0:0:
147,55,122235,2,0,L|138:143,1,80,0|0,0:0|0:0,0:0:0:0:
354,290,122503,2,0,L|362:197,1,80,8|0,0:0|0:0,0:0:0:0:
134,214,122771,6,0,L|40:206,2,80,2|0|8,0:0|0:0|0:0,0:0:0:0:
279,226,123173,1,10,0:0:0:0:
141,169,123307,2,0,P|89:149|79:39,1,160,0|8,0:0|0:0,0:0:0:0:
149,49,123708,1,0,0:0:0:0:
356,265,123842,6,0,L|448:259,2,80,2|0|8,0:0|0:0|0:0,0:0:0:0:
213,271,124244,1,10,0:0:0:0:
356,207,124378,2,0,P|408:196|427:84,1,160,0|8,0:0|0:0,0:0:0:0:
357,102,124780,1,0,0:0:0:0:
154,180,124914,6,0,L|56:173,2,80,2|0|8,0:0|0:0|0:0,0:0:0:0:
207,183,125271,1,0,0:0:0:0:
260,186,125360,1,0,0:0:0:0:
313,189,125450,1,2,0:0:0:0:
121,88,125717,1,2,0:0:0:0:
465,158,125985,6,0,L|466:219,1,53.3333333333333,10|0,0:0|0:0,0:0:0:0:
396,249,126164,2,0,L|322:245,1,53.3333333333333,8|0,0:0|0:0,0:0:0:0:
187,151,126342,2,0,L|84:143,1,53.3333333333333,10|0,0:0|0:0,0:0:0:0:
200,87,126521,2,0,L|264:92,1,53.3333333333333,8|0,0:0|0:0,0:0:0:0:
88,30,126700,2,0,L|25:28,1,53.3333333333333,8|0,0:0|0:0,0:0:0:0:
204,226,126878,2,0,L|269:229,1,53.3333333333333,8|0,0:0|0:0,0:0:0:0:
90,309,127057,6,0,L|85:212,1,80,6|0,0:0|0:0,0:0:0:0:
223,228,127325,2,0,L|230:127,1,80,8|0,0:0|0:0,0:0:0:0:
365,94,127592,2,0,L|276:87,3,80,2|0|8|0,0:0|0:0|0:0|0:0,0:0:0:0:
90,280,128128,6,0,L|190:274,1,80,2|0,0:0|0:0,0:0:0:0:
307,271,128396,2,0,L|415:266,1,80,8|0,0:0|0:0,0:0:0:0:
250,180,128664,2,0,L|360:167,1,80,2|0,0:0|0:0,0:0:0:0:
250,180,128932,2,0,L|145:191,1,80,8|0,0:0|0:0,0:0:0:0:
370,42,129200,6,0,L|381:153,1,80,2|0,0:0|0:0,0:0:0:0:
242,196,129467,2,0,L|349:203,1,80,8|0,0:0|0:0,0:0:0:0:
185,159,129735,2,0,L|177:261,1,80,2|0,0:0|0:0,0:0:0:0:
303,89,130003,2,0,L|192:88,1,80,8|0,0:0|0:0,0:0:0:0:
467,316,130271,6,0,L|476:210,1,80,2|0,0:0|0:0,0:0:0:0:
336,240,130539,2,0,L|231:245,1,80,8|0,0:0|0:0,0:0:0:0:
393,182,130807,2,0,P|441:161|376:107,1,160,2|8,0:0|0:0,0:0:0:0:
309,102,131208,1,0,0:0:0:0:
102,282,131342,6,0,L|5:278,1,80,2|0,0:0|0:0,0:0:0:0:
160,210,131610,2,0,L|50:204,1,80,8|0,0:0|0:0,0:0:0:0:
218,203,131878,2,0,L|314:194,1,80,2|0,0:0|0:0,0:0:0:0:
172,122,132146,2,0,L|284:112,1,80,8|0,0:0|0:0,0:0:0:0:
54,50,132414,6,0,L|43:138,1,80,2|0,0:0|0:0,0:0:0:0:
182,196,132682,2,0,L|185:296,1,80,8|0,0:0|0:0,0:0:0:0:
320,105,132950,2,0,L|211:99,1,80,2|0,0:0|0:0,0:0:0:0:
363,185,133217,2,0,L|372:274,1,80,8|0,0:0|0:0,0:0:0:0:
134,69,133485,5,2,0:0:0:0:
53,69,133619,2,0,L|45:157,1,80,0|8,0:0|0:0,0:0:0:0:
183,261,133887,2,0,L|13:251,1,160,2|0,0:0|0:0,0:0:0:0:
279,133,134289,2,0,L|395:131,1,80,10|0,0:0|0:0,0:0:0:0:
139,60,134557,5,2,0:0:0:0:
57,120,134691,2,0,L|111:121,1,40,8|8,0:0|0:0,0:0:0:0:
269,233,134825,2,0,L|362:226,1,80,8|10,0:0|0:0,0:0:0:0:
144,313,135092,1,0,0:0:0:0:
28,227,135226,1,8,0:0:0:0:
143,140,135360,1,8,0:0:0:0:
27,82,135494,1,8,0:0:0:0:
246,83,135628,6,0,P|297:98|247:187,1,160,6|0,0:0|0:0,0:0:0:0:
132,191,136030,1,0,0:0:0:0:
328,253,137771,2,0,L|158:237,1,160,6|0,0:0|0:0,0:0:0:0:
313,186,138173,2,0,L|319:92,1,80,2|0,0:0|0:0,0:0:0:0:
238,105,138441,2,0,L|237:50,1,40,0|0,0:0|0:0,0:0:0:0:
392,178,138575,6,0,L|401:283,1,80,10|0,0:0|0:0,0:0:0:0:
251,218,138842,2,0,L|243:313,1,80,0|0,0:0|0:0,0:0:0:0:
94,131,139110,2,0,L|177:129,1,80,8|0,0:0|0:0,0:0:0:0:
314,87,139378,2,0,L|227:82,1,80,0|0,0:0|0:0,0:0:0:0:
99,39,139646,2,0,L|148:37,1,40,8|8,0:0|0:0,0:0:0:0:
276,32,139780,2,0,L|327:27,1,40,8|8,0:0|0:0,0:0:0:0:
153,246,139914,6,0,L|67:245,1,80,6|0,0:0|0:0,0:0:0:0:
227,63,140182,2,0,L|230:157,1,80,8|0,0:0|0:0,0:0:0:0:
83,152,140450,2,0,L|76:246,1,80,2|0,0:0|0:0,0:0:0:0:
232,236,140717,2,0,L|239:338,1,80,8|0,0:0|0:0,0:0:0:0:
32,79,140985,6,0,L|127:75,1,80,2|0,0:0|0:0,0:0:0:0:
246,68,141253,1,8,0:0:0:0:
111,75,141387,2,0,P|72:115|127:198,1,160,2|0,0:0|0:0,0:0:0:0:
252,255,141789,2,0,L|156:248,1,80,8|0,0:0|0:0,0:0:0:0:
393,34,142057,6,0,L|401:128,1,80,2|0,0:0|0:0,0:0:0:0:
257,140,142325,2,0,L|251:246,1,80,8|0,0:0|0:0,0:0:0:0:
109,43,142592,2,0,L|110:129,1,80,2|0,0:0|0:0,0:0:0:0:
320,272,142860,6,0,L|128:255,1,160,8|10,0:0|0:0,0:0:0:0:
244,207,143262,1,0,0:0:0:0:
455,108,143396,2,0,L|346:105,1,80,10|0,0:0|0:0,0:0:0:0:
148,170,143664,2,0,L|247:162,1,80,10|0,0:0|0:0,0:0:0:0:
464,312,143932,2,0,L|474:211,1,80,8|0,0:0|0:0,0:0:0:0:
215,57,144200,6,0,P|171:69|223:143,1,160,6|0,0:0|0:0,0:0:0:0:
404,310,144735,2,0,L|411:213,1,80,10|0,0:0|0:0,0:0:0:0:
268,227,145003,1,0,0:0:0:0:
472,130,145137,6,0,L|277:120,1,160,2|8,0:0|0:0,0:0:0:0:
169,164,145539,2,0,L|163:253,1,80,0|0,0:0|0:0,0:0:0:0:
310,165,145807,2,0,L|314:69,1,80,10|0,0:0|0:0,0:0:0:0:
170,65,146075,2,0,L|262:58,1,80,0|0,0:0|0:0,0:0:0:0:
45,137,146342,6,0,L|38:320,1,160,6|0,0:0|0:0,0:0:0:0:
244,226,146878,2,0,L|248:127,1,80,10|0,0:0|0:0,0:0:0:0:
155,137,147146,1,0,0:0:0:0:
369,43,147280,6,0,P|408:77|355:157,1,160,2|0,0:0|0:0,0:0:0:0:
135,280,147682,2,0,L|37:284,1,80,2|0,0:0|0:0,0:0:0:0:
277,204,147950,2,0,L|374:203,1,80,10|0,0:0|0:0,0:0:0:0:
132,108,148217,2,0,L|30:104,1,80,8|0,0:0|0:0,0:0:0:0:
313,21,148485,5,14,0:0:0:0:
352,29,148552,1,0,0:0:0:0:
387,48,148619,1,0,0:0:0:0:
409,80,148686,1,0,0:0:0:0:
415,119,148753,1,0,0:0:0:0:
406,158,148820,1,0,0:0:0:0:
378,187,148887,1,0,0:0:0:0:
245,100,149021,5,10,0:0:0:0:
206,108,149088,1,0,0:0:0:0:
171,127,149155,1,0,0:0:0:0:
149,159,149222,1,0,0:0:0:0:
143,198,149289,1,0,0:0:0:0:
152,237,149356,1,0,0:0:0:0:
179,266,149423,1,0,0:0:0:0:
313,318,149557,5,10,0:0:0:0:
332,282,149624,1,0,0:0:0:0:
315,245,149691,1,0,0:0:0:0:
277,230,149758,1,0,0:0:0:0:
237,224,149825,1,0,0:0:0:0:
201,207,149891,1,0,0:0:0:0:
185,170,149958,1,0,0:0:0:0:
322,54,150092,5,10,0:0:0:0:
361,57,150159,1,0,0:0:0:0:
321,60,150226,1,0,0:0:0:0:
281,62,150293,1,0,0:0:0:0:
263,97,150360,1,0,0:0:0:0:
279,133,150427,1,0,0:0:0:0:
316,147,150494,1,0,0:0:0:0:
355,153,150561,1,0,0:0:0:0:
225,306,150628,5,14,0:0:0:0:
185,302,150695,1,0,0:0:0:0:
166,266,150762,1,0,0:0:0:0:
178,227,150829,1,0,0:0:0:0:
318,221,150896,1,10,0:0:0:0:
334,184,150963,1,0,0:0:0:0:
316,147,151030,1,0,0:0:0:0:
278,133,151097,1,0,0:0:0:0:
148,157,151164,5,10,0:0:0:0:
132,120,151231,1,0,0:0:0:0:
150,83,151298,1,0,0:0:0:0:
188,69,151365,1,0,0:0:0:0:
318,103,151432,2,0,L|382:102,1,40,10|0,0:0|0:0,0:0:0:0:
318,103,151566,2,0,L|254:101,1,40,0|0,0:0|0:0,0:0:0:0:
410,319,151700,5,10,0:0:0:0:
447,306,151766,1,0,0:0:0:0:
458,267,151833,1,0,0:0:0:0:
441,230,151900,1,0,0:0:0:0:
310,225,151967,2,0,L|263:223,1,40,10|0,0:0|0:0,0:0:0:0:
229,220,152101,2,0,L|277:217,1,40,0|0,0:0|0:0,0:0:0:0:
402,139,152235,6,0,L|449:137,1,40,10|0,0:0|0:0,0:0:0:0:
483,134,152369,2,0,L|435:131,1,40,0|0,0:0|0:0,0:0:0:0:
312,86,152503,2,0,L|258:84,1,40,10|0,0:0|0:0,0:0:0:0:
312,86,152637,2,0,L|381:88,1,40,0|0,0:0|0:0,0:0:0:0:
220,161,152771,6,0,L|168:158,1,40,10|0,0:0|0:0,0:0:0:0:
313,320,152905,1,10,0:0:0:0:
350,305,152972,1,0,0:0:0:0:
368,269,153039,1,10,0:0:0:0:
356,230,153106,1,0,0:0:0:0:
323,206,153173,1,10,0:0:0:0:
283,200,153240,1,0,0:0:0:0:
153,125,153307,6,0,L|149:181,1,40,10|0,0:0|0:0,0:0:0:0:
283,75,153441,2,0,L|344:71,1,40,10|0,0:0|0:0,0:0:0:0:
283,75,153575,2,0,L|206:78,1,40,10|8,0:0|0:0,0:0:0:0:
377,158,153708,2,0,L|431:159,1,40,10|8,0:0|0:0,0:0:0:0:
272,298,153842,1,14,0:0:0:0:
323,226,154512,5,0,0:0:0:0:
106,246,154646,2,0,P|106:187|173:160,1,120,10|0,0:0|0:0,0:0:0:0:
315,59,154914,6,0,P|361:79|306:164,1,160,6|8,0:0|0:0,0:0:0:0:
248,173,155316,1,0,0:0:0:0:
99,252,155450,2,0,L|184:254,1,80,0|0,0:0|0:0,0:0:0:0:
328,312,155717,2,0,L|226:310,1,80,10|0,0:0|0:0,0:0:0:0:
29,150,155985,6,0,L|210:143,1,160,2|8,0:0|0:0,0:0:0:0:
267,142,156387,1,0,0:0:0:0:
135,61,156521,2,0,L|130:156,1,80,2|0,0:0|0:0,0:0:0:0:
356,276,156789,2,0,L|362:190,1,80,10|0,0:0|0:0,0:0:0:0:
155,303,157057,6,0,P|106:296|78:185,1,160,2|8,0:0|0:0,0:0:0:0:
271,197,157458,2,0,L|366:188,2,80,2|0|0,0:0|0:0|0:0,0:0:0:0:
68,96,157860,2,0,L|167:88,1,80,10|0,0:0|0:0,0:0:0:0:
371,309,158128,6,0,L|203:295,1,160,2|8,0:0|0:0,0:0:0:0:
290,239,158530,1,0,0:0:0:0:
485,176,158664,2,0,L|380:169,1,80,10|0,0:0|0:0,0:0:0:0:
208,165,158932,2,0,L|118:161,1,80,10|0,0:0|0:0,0:0:0:0:
340,37,159200,6,0,L|346:132,1,80,2|0,0:0|0:0,0:0:0:0:
204,149,159467,2,0,L|196:253,1,80,8|0,0:0|0:0,0:0:0:0:
341,213,159735,2,0,L|348:328,1,80,0|0,0:0|0:0,0:0:0:0:
209,318,160003,2,0,L|305:328,1,80,10|0,0:0|0:0,0:0:0:0:
77,78,160271,6,0,P|32:103|81:189,1,160,2|8,0:0|0:0,0:0:0:0:
146,199,160673,1,0,0:0:0:0:
282,208,160807,2,0,L|392:205,1,80,0|0,0:0|0:0,0:0:0:0:
212,137,161075,2,0,L|106:128,1,80,10|0,0:0|0:0,0:0:0:0:
343,303,161342,6,0,P|407:295|417:205,1,160,2|8,0:0|0:0,0:0:0:0:
273,218,161744,2,0,P|228:213|202:96,1,160,2|0,0:0|0:0,0:0:0:0:
335,115,162146,2,0,L|437:110,1,80,10|0,0:0|0:0,0:0:0:0:
165,41,162414,6,0,L|157:129,1,80,2|0,0:0|0:0,0:0:0:0:
359,218,162682,2,0,L|272:214,1,80,8|0,0:0|0:0,0:0:0:0:
485,71,162950,2,0,L|489:172,1,80,8|8,0:0|0:0,0:0:0:0:
283,250,163217,2,0,L|389:250,1,80,8|8,0:0|0:0,0:0:0:0:
157,79,163485,6,0,L|172:171,1,80,14|0,0:0|0:0,0:0:0:0:
317,159,163753,1,8,0:0:0:0:
97,285,163887,2,0,L|-10:277,2,80,2|0|0,0:0|0:0|0:0,0:0:0:0:
302,63,164289,6,0,L|287:155,1,80,10|0,0:0|0:0,0:0:0:0:
142,143,164557,1,0,0:0:0:0:
362,269,164691,2,0,L|469:261,2,80,2|8|0,0:0|0:0|0:0,0:0:0:0:
157,79,165092,6,0,L|172:171,1,80,2|0,0:0|0:0,0:0:0:0:
317,159,165360,1,8,0:0:0:0:
97,285,165494,2,0,L|-10:277,2,80,2|0|0,0:0|0:0|0:0,0:0:0:0:
302,63,165896,6,0,L|287:155,1,80,10|0,0:0|0:0,0:0:0:0:
142,143,166164,1,0,0:0:0:0:
362,269,166298,2,0,L|469:261,2,80,2|8|0,0:0|0:0|0:0,0:0:0:0:
143,87,166700,6,0,L|133:197,1,80,10|0,0:0|0:0,0:0:0:0:
356,113,166967,2,0,L|361:13,1,80,10|0,0:0|0:0,0:0:0:0:
155,237,167235,2,0,L|65:237,1,80,10|0,0:0|0:0,0:0:0:0:
291,294,167503,2,0,L|400:290,1,80,10|0,0:0|0:0,0:0:0:0:
151,73,167771,6,0,L|142:162,1,80,6|0,0:0|0:0,0:0:0:0:
291,226,168039,2,0,L|299:134,1,80,8|0,0:0|0:0,0:0:0:0:
151,306,168307,2,0,L|247:299,1,80,2|0,0:0|0:0,0:0:0:0:
92,168,168575,2,0,L|86:253,1,80,8|0,0:0|0:0,0:0:0:0:
321,93,168842,6,0,L|214:85,1,80,2|0,0:0|0:0,0:0:0:0:
379,164,169110,2,0,L|387:265,1,80,8|0,0:0|0:0,0:0:0:0:
245,307,169378,2,0,L|240:211,1,80,2|0,0:0|0:0,0:0:0:0:
377,134,169646,2,0,L|382:42,1,80,8|0,0:0|0:0,0:0:0:0:
169,150,169914,6,0,L|73:144,1,80,2|0,0:0|0:0,0:0:0:0:
223,93,170182,2,0,L|316:87,1,80,8|0,0:0|0:0,0:0:0:0:
42,278,170450,2,0,L|36:171,1,80,2|0,0:0|0:0,0:0:0:0:
278,190,170717,2,0,L|286:97,1,80,8|0,0:0|0:0,0:0:0:0:
41,72,170985,6,0,L|37:129,3,40,8|0|0|0,0:0|0:0|0:0|0:0,0:0:0:0:
170,255,171253,6,0,L|241:257,1,40,8|0,0:0|0:0,0:0:0:0:
170,255,171387,2,0,L|107:254,1,40
267,84,171521,5,8,0:0:0:0:
310,109,171588,1,0,0:0:0:0:
311,158,171655,1,0,0:0:0:0:
268,182,171722,1,0,0:0:0:0:
136,124,171789,2,0,L|86:120,1,40,10|8,0:0|0:0,0:0:0:0:
230,227,171923,2,0,L|283:223,1,40,10|8,0:0|0:0,0:0:0:0:
120,298,172057,6,0,P|63:286|111:223,1,160,6|8,0:0|0:0,0:0:0:0:
182,215,172458,1,0,0:0:0:0:
334,177,172592,2,0,P|341:86|341:86,1,80,0|0,0:0|0:0,0:0:0:0:
243,83,172860,2,0,P|150:75|150:75,1,80,8|0,0:0|0:0,0:0:0:0:
364,316,173128,6,0,P|412:306|362:233,1,160,2|8,0:0|0:0,0:0:0:0:
297,232,173530,1,0,0:0:0:0:
145,213,173664,2,0,P|137:125|137:125,1,80,2|0,0:0|0:0,0:0:0:0:
347,128,173932,2,0,L|433:125,1,80,10|0,0:0|0:0,0:0:0:0:
217,324,174200,6,0,P|154:311|114:219,1,160,2|8,0:0|0:0,0:0:0:0:
264,221,174601,2,0,P|317:214|359:104,1,160,2|0,0:0|0:0,0:0:0:0:
155,116,175003,2,0,P|64:106|64:106,1,80,10|0,0:0|0:0,0:0:0:0:
282,327,175271,6,0,L|291:237,1,80,2|0,0:0|0:0,0:0:0:0:
140,245,175539,2,0,P|129:154|129:154,1,80,8|0,0:0|0:0,0:0:0:0:
336,113,175807,2,0,P|350:25|350:25,1,80,10|0,0:0|0:0,0:0:0:0:
144,54,176075,2,0,L|39:48,1,80,10|2,0:0|0:0,0:0:0:0:
267,305,176342,6,0,P|318:300|277:225,1,160,6|8,0:0|0:0,0:0:0:0:
208,222,176744,1,0,0:0:0:0:
55,183,176878,2,0,L|52:89,1,80,0|0,0:0|0:0,0:0:0:0:
258,75,177146,2,0,P|346:70|346:70,1,80,10|2,0:0|0:0,0:0:0:0:
131,300,177414,6,0,P|86:278|149:216,1,160,2|8,0:0|0:0,0:0:0:0:
217,209,177816,1,0,0:0:0:0:
368,181,177950,2,0,P|373:92|373:92,1,80,0|0,0:0|0:0,0:0:0:0:
169,77,178217,2,0,P|76:72|76:72,1,80,10|2,0:0|0:0,0:0:0:0:
293,317,178485,6,0,P|346:305|379:185,1,160,2|10,0:0|0:0,0:0:0:0:
235,217,178887,2,0,P|174:210|142:104,1,160,0|0,0:0|0:0,0:0:0:0:
340,36,179289,2,0,P|349:124|349:124,1,80,10|0,0:0|0:0,0:0:0:0:
142,303,179557,6,0,P|91:287|153:223,1,160,2|8,0:0|0:0,0:0:0:0:
210,209,179958,1,0,0:0:0:0:
410,68,180092,2,0,P|425:171|425:171,1,80,10|8,0:0|0:0,0:0:0:0:
216,53,180360,2,0,P|191:136|191:136,1,80,10|8,0:0|0:0,0:0:0:0:
398,309,180628,6,0,P|442:292|381:227,1,160,6|10,0:0|0:0,0:0:0:0:
243,240,181030,2,0,P|191:225|230:150,1,160,2|2,0:0|0:0,0:0:0:0:
427,152,181432,6,0,P|476:131|426:59,1,160,10|2,0:0|0:0,0:0:0:0:
282,330,181833,2,0,P|287:267|381:237,1,160,2|2,0:0|0:0,0:0:0:0:
161,107,182235,6,0,P|151:207|151:207,1,80,2|0,0:0|0:0,0:0:0:0:
357,91,182503,2,0,P|444:96|444:96,1,80,10|0,0:0|0:0,0:0:0:0:
223,304,182771,6,0,P|166:293|130:193,1,160,2|10,0:0|0:0,0:0:0:0:
277,198,183173,2,0,P|338:196|383:93,1,160,2|2,0:0|0:0,0:0:0:0:
186,152,183575,6,0,P|132:137|178:69,1,160,10|2,0:0|0:0,0:0:0:0:
375,313,183976,2,0,P|362:262|251:230,1,160,2|0,0:0|0:0,0:0:0:0:
478,57,184378,6,0,P|466:152|466:152,1,80,2|0,0:0|0:0,0:0:0:0:
267,64,184646,2,0,P|163:56|163:56,1,80,10|0,0:0|0:0,0:0:0:0:
394,298,184914,6,0,B|479:303|480:303|480:303,2,80,6|0|8,0:0|0:0|0:0,0:0:0:0:
242,265,185316,2,0,P|193:255|144:158,1,160,2|2,0:0|0:0,0:0:0:0:
346,73,185717,2,0,P|354:169|354:169,1,80,10|0,0:0|0:0,0:0:0:0:
149,288,185985,6,0,P|50:282|50:282,2,80,2|2|8,0:0|0:0|0:0,0:0:0:0:
229,287,186387,1,0,0:0:0:0:
79,193,186521,2,0,P|71:106|71:106,1,80,2|0,0:0|0:0,0:0:0:0:
227,83,186789,2,0,P|322:82|322:82,1,80,10|0,0:0|0:0,0:0:0:0:
104,319,187057,5,10,0:0:0:0:
67,303,187124,1,0,0:0:0:0:
52,265,187191,1,0,0:0:0:0:
64,226,187258,1,0,0:0:0:0:
98,205,187325,1,0,0:0:0:0:
136,197,187391,1,0,0:0:0:0:
266,189,187458,2,0,L|331:183,1,40,8|0,0:0|0:0,0:0:0:0:
173,213,187592,5,2,0:0:0:0:
136,197,187659,1,0,0:0:0:0:
121,159,187726,1,0,0:0:0:0:
133,120,187793,1,0,0:0:0:0:
167,99,187860,1,8,0:0:0:0:
205,91,187926,1,0,0:0:0:0:
335,83,187993,2,0,L|400:77,1,40,0|0,0:0|0:0,0:0:0:0:
240,272,188128,6,0,L|178:270,1,40,2|0,0:0|0:0,0:0:0:0:
334,329,188262,1,8,0:0:0:0:
372,319,188329,1,0,0:0:0:0:
385,281,188396,1,0,0:0:0:0:
370,243,188463,1,0,0:0:0:0:
338,217,188530,1,8,0:0:0:0:
299,207,188597,1,0,0:0:0:0:
169,142,188664,6,0,L|122:138,1,40,10|8,0:0|0:0,0:0:0:0:
261,96,188798,2,0,L|308:89,1,40,8|8,0:0|0:0,0:0:0:0:
165,59,188932,2,0,L|116:56,1,40,10|8,0:0|0:0,0:0:0:0:
258,37,189066,2,0,L|311:29,1,40,8|8,0:0|0:0,0:0:0:0:
141,338,189200,6,0,P|89:321|241:113,1,480,6|2,0:0|0:0,0:0:0:0:
378,149,190539,2,0,L|226:247,2,160,2|0|0,0:0|0:0|0:0,0:0:0:0:
152,314,191342,6,0,P|75:277|168:113,1,320,2|0,0:0|0:0,0:0:0:0:
398,322,192146,2,0,P|437:294|243:67,1,480,2|0,0:0|0:0,0:0:0:0:
131,312,193485,6,0,P|121:146|121:146,1,160,2|0,0:0|0:0,0:0:0:0:
263,99,194021,2,0,P|85:80|85:80,1,160,2|0,0:0|0:0,0:0:0:0:
343,306,194557,6,0,P|391:290|326:215,1,160,2|0,0:0|0:0,0:0:0:0:
269,148,194958,2,0,L|500:57,1,240,2|0,0:0|0:0,0:0:0:0:
265,299,195628,6,0,P|72:264|72:264,2,160,2|0|0,0:0|0:0|0:0,0:0:0:0:
38,213,196432,6,0,P|28:168|167:66,1,240,2|2,0:0|0:0,0:0:0:0:
248,278,196967,2,0,B|75:254|76:254|76:254,1,160,2|2,0:0|0:0,0:0:0:0:
244,180,197369,1,2,0:0:0:0:
211,106,197503,1,2,0:0:0:0:
137,74,197637,1,2,0:0:0:0:
346,308,197771,6,0,P|358:215|358:215,1,80,6|0,0:0|0:0,0:0:0:0:
202,235,198039,2,0,P|190:139|190:139,1,80,10|0,0:0|0:0,0:0:0:0:
344,96,198307,2,0,P|437:100|437:100,2,80,10|0|10,0:0|0:0|0:0,0:0:0:0:
134,301,198708,6,0,P|88:276|162:208,1,160,2|0,0:0|0:0,0:0:0:0:
281,217,199110,2,0,P|290:127|290:127,1,80,10|0,0:0|0:0,0:0:0:0:
79,147,199378,2,0,P|46:110|134:49,1,160,10|8,0:0|0:0,0:0:0:0:
189,45,199780,1,0,0:0:0:0:
406,313,199914,6,0,L|412:221,1,80,10|0,0:0|0:0,0:0:0:0:
259,218,200182,2,0,P|161:210|161:210,1,80,10|0,0:0|0:0,0:0:0:0:
386,113,200450,2,0,L|470:119|470:119,2,80,10|0|10,0:0|0:0|0:0,0:0:0:0:
180,294,200851,6,0,P|128:274|181:214,1,160,2|0,0:0|0:0,0:0:0:0:
379,216,201253,2,0,L|386:118,1,80,10|0,0:0|0:0,0:0:0:0:
167,144,201521,2,0,P|75:136|75:136,1,80,10|0,0:0|0:0,0:0:0:0:
131,137,201722,1,0,0:0:0:0:
148,177,201789,1,8,0:0:0:0:
141,220,201856,1,0,0:0:0:0:
112,253,201923,1,0,0:0:0:0:
72,271,201990,1,0,0:0:0:0:
243,292,202057,6,0,L|342:298,1,80,10|0,0:0|0:0,0:0:0:0:
172,219,202325,2,0,P|69:216|69:216,1,80,8|0,0:0|0:0,0:0:0:0:
243,132,202592,2,0,P|354:135|354:135,1,80,10|0,0:0|0:0,0:0:0:0:
176,52,202860,2,0,L|71:49,1,80,8|0,0:0|0:0,0:0:0:0:
296,269,203128,6,0,P|391:271|391:271,1,80,10|0,0:0|0:0,0:0:0:0:
174,193,203396,2,0,P|68:191|68:191,1,80,8|0,0:0|0:0,0:0:0:0:
301,102,203664,2,0,P|392:104|392:104,1,80,10|0,0:0|0:0,0:0:0:0:
169,42,203932,2,0,P|57:40|57:40,1,80,8|8,0:0|0:0,0:0:0:0:
297,309,204200,6,0,P|347:303|347:303,1,40,10|0,0:0|0:0,0:0:0:0:
380,300,204333,2,0,L|422:258,1,40,8|0,0:0|0:0,0:0:0:0:
432,234,204467,2,0,L|438:174,1,40,10|0,0:0|0:0,0:0:0:0:
426,150,204601,2,0,L|393:86,1,40,8|0,0:0|0:0,0:0:0:0:
364,102,204735,2,0,P|304:89|304:89,1,40,10|0,0:0|0:0,0:0:0:0:
174,198,204869,6,0,L|159:254,1,40,8|0,0:0|0:0,0:0:0:0:
306,155,205003,2,0,P|354:155|354:155,1,40,10|8,0:0|0:0,0:0:0:0:
306,155,205137,2,0,L|251:154,1,40,8|8,0:0|0:0,0:0:0:0:
99,156,205271,1,12,0:0:0:0:
228,306,205539,6,0,P|266:266|93:69,1,400,10|0,0:0|0:0,0:0:0:0:
318,293,206342,6,0,P|379:283|305:220,1,191.999994140625,6|8,0:0|0:0,0:0:0:0:
232,200,206744,1,0,0:0:0:0:
78,158,206878,2,0,L|71:58,1,95.9999970703126,0|0,0:0|0:0,0:0:0:0:
225,48,207146,2,0,P|324:51|324:51,1,95.9999970703126,10|0,0:0|0:0,0:0:0:0:
115,302,207414,6,0,P|66:282|145:206,1,191.999994140625,2|8,0:0|0:0,0:0:0:0:
218,196,207816,1,0,0:0:0:0:
374,197,207950,2,0,L|380:96,1,95.9999970703126,2|0,0:0|0:0,0:0:0:0:
160,78,208217,2,0,P|47:74|47:74,1,95.9999970703126,10|0,0:0|0:0,0:0:0:0:
282,310,208485,6,0,P|343:315|415:201,1,191.999994140625,2|8,0:0|0:0,0:0:0:0:
261,215,208887,2,0,P|199:209|134:100,1,191.999994140625,2|0,0:0|0:0,0:0:0:0:
350,80,209289,2,0,P|456:74|456:74,1,95.9999970703126,10|0,0:0|0:0,0:0:0:0:
201,308,209557,6,0,L|194:207,1,95.9999970703126,2|0,0:0|0:0,0:0:0:0:
347,245,209825,2,0,P|366:133|366:133,1,95.9999970703126,8|0,0:0|0:0,0:0:0:0:
161,68,210092,2,0,P|51:64|51:64,1,95.9999970703126,10|0,0:0|0:0,0:0:0:0:
288,52,210360,2,0,P|394:59|394:59,1,95.9999970703126,10|0,0:0|0:0,0:0:0:0:
134,301,210628,6,0,P|78:288|142:208,1,191.999994140625,6|8,0:0|0:0,0:0:0:0:
223,208,211030,1,0,0:0:0:0:
381,218,211164,2,0,P|389:111|389:111,1,95.9999970703126,0|0,0:0|0:0,0:0:0:0:
235,117,211432,2,0,P|218:19|218:19,1,95.9999970703126,8|0,0:0|0:0,0:0:0:0:
415,314,211700,6,0,P|473:302|403:232,1,191.999994140625,2|8,0:0|0:0,0:0:0:0:
325,223,212101,1,0,0:0:0:0:
162,179,212235,2,0,P|150:77|150:77,1,95.9999970703126,0|0,0:0|0:0,0:0:0:0:
360,64,212503,2,0,L|466:64,1,95.9999970703126,10|0,0:0|0:0,0:0:0:0:
224,296,212771,6,0,P|159:285|131:168,1,191.999994140625,2|8,0:0|0:0,0:0:0:0:
283,180,213173,2,0,P|369:173|401:59,1,191.999994140625,2|0,0:0|0:0,0:0:0:0:
196,75,213575,2,0,P|83:69|83:69,1,95.9999970703126,10|0,0:0|0:0,0:0:0:0:
308,298,213842,6,0,P|424:304|424:304,1,95.9999970703126,2|0,0:0|0:0,0:0:0:0:
249,207,214110,2,0,P|145:198|145:198,1,95.9999970703126,8|0,0:0|0:0,0:0:0:0:
354,145,214378,2,0,L|461:151,1,95.9999970703126,8|8,0:0|0:0,0:0:0:0:
232,61,214646,2,0,P|115:54|115:54,1,95.9999970703126,8|8,0:0|0:0,0:0:0:0:
353,313,214914,6,0,P|360:217|360:217,1,95.9999970703126,6|0,0:0|0:0,0:0:0:0:
205,199,215182,1,8,0:0:0:0:
403,129,215316,2,0,L|500:134,2,95.9999970703126,2|0|0,0:0|0:0|0:0,0:0:0:0:
192,312,215717,6,0,P|183:210|183:210,1,95.9999970703126,10|0,0:0|0:0,0:0:0:0:
339,207,215985,1,0,0:0:0:0:
137,140,216119,2,0,P|30:132|30:132,2,95.9999970703126,2|8|0,0:0|0:0|0:0,0:0:0:0:
348,316,216521,6,0,P|356:205|356:205,1,95.9999970703126,2|0,0:0|0:0,0:0:0:0:
197,209,216789,1,8,0:0:0:0:
405,136,216923,2,0,P|507:144|507:144,2,95.9999970703126,2|0|0,0:0|0:0|0:0,0:0:0:0:
189,307,217325,6,0,P|182:191|182:191,1,95.9999970703126,10|0,0:0|0:0,0:0:0:0:
338,213,217592,1,0,0:0:0:0:
125,102,217726,2,0,P|8:95|8:95,2,95.9999970703126,2|8|0,0:0|0:0|0:0,0:0:0:0:
337,310,218128,6,0,P|343:199|343:199,1,95.9999970703126,10|0,0:0|0:0,0:0:0:0:
187,222,218396,2,0,P|173:106|173:106,1,95.9999970703126,10|0,0:0|0:0,0:0:0:0:
380,59,218664,2,0,P|480:63|480:63,1,95.9999970703126,10|0,0:0|0:0,0:0:0:0:
255,282,218932,2,0,P|122:274|122:274,1,95.9999970703126,10|0,0:0|0:0,0:0:0:0:
393,254,219200,6,0,P|445:240|381:157,1,191.999994140625,6|8,0:0|0:0,0:0:0:0:
299,145,219601,1,0,0:0:0:0:
144,160,219735,2,0,P|139:59|139:59,1,95.9999970703126,2|0,0:0|0:0,0:0:0:0:
294,47,220003,2,0,P|401:54|401:54,1,95.9999970703126,8|0,0:0|0:0,0:0:0:0:
163,317,220271,6,0,P|160:201|160:201,1,95.9999970703126,2|0,0:0|0:0,0:0:0:0:
314,224,220539,2,0,P|367:210|294:142,1,191.999994140625,10|0,0:0|0:0,0:0:0:0:
214,130,220941,1,0,0:0:0:0:
425,43,221075,2,0,B|433:161|433:161|434:161,1,95.9999970703126,10|0,0:0|0:0,0:0:0:0:
191,287,221342,6,0,P|132:260|207:200,1,191.999994140625,2|8,0:0|0:0,0:0:0:0:
295,201,221744,1,0,0:0:0:0:
152,121,221878,2,0,B|141:239,1,95.9999970703126,2|0,0:0|0:0,0:0:0:0:
386,57,222146,2,0,P|486:63|486:63,1,95.9999970703126,10|0,0:0|0:0,0:0:0:0:
283,310,222414,6,0,L|111:301,3,160
223,255,223351,1,0,0:0:0:0:
11,295,223485,6,0,P|8:237|126:144,1,191.999994140625,6|8,0:0|0:0,0:0:0:0:
193,211,223887,1,0,0:0:0:0:
349,195,224021,2,0,P|356:88|356:88,1,95.9999970703126,0|0,0:0|0:0,0:0:0:0:
198,44,224289,2,0,P|189:151|189:151,1,95.9999970703126,10|0,0:0|0:0,0:0:0:0:
390,325,224557,6,0,P|453:309|454:185,1,191.999994140625,2|8,0:0|0:0,0:0:0:0:
369,194,224958,1,0,0:0:0:0:
213,160,225092,2,0,P|112:155|112:155,1,95.9999970703126,2|0,0:0|0:0,0:0:0:0:
320,65,225360,2,0,P|430:69|430:69,1,95.9999970703126,10|0,0:0|0:0,0:0:0:0:
197,312,225628,6,0,P|131:285|210:223,1,191.999994140625,2|8,0:0|0:0,0:0:0:0:
343,212,226030,2,0,P|326:150|199:105,1,191.999994140625,2|0,0:0|0:0,0:0:0:0:
433,35,226432,2,0,L|444:142,1,95.9999970703126,10|0,0:0|0:0,0:0:0:0:
231,279,226700,6,0,B|127:272|127:272|126:271,1,95.9999970703126,2|0,0:0|0:0,0:0:0:0:
284,204,226967,2,0,L|384:211,1,95.9999970703126,8|0,0:0|0:0,0:0:0:0:
171,73,227235,2,0,P|61:69|61:69,1,95.9999970703126,10|0,0:0|0:0,0:0:0:0:
304,37,227503,2,0,P|418:41|418:41,1,95.9999970703126,10|0,0:0|0:0,0:0:0:0:
167,308,227771,6,0,P|119:274|198:211,1,191.999994140625,2|8,0:0|0:0,0:0:0:0:
351,216,228173,2,0,P|420:211|440:86,1,191.999994140625,2|0,0:0|0:0,0:0:0:0:
232,81,228575,2,0,P|119:69|119:69,1,95.9999970703126,10|0,0:0|0:0,0:0:0:0:
361,319,228842,6,0,P|378:258|276:202,1,191.999994140625,2|8,0:0|0:0,0:0:0:0:
185,199,229244,1,0,0:0:0:0:
338,73,229378,2,0,P|350:177|350:177,1,95.9999970703126,0|0,0:0|0:0,0:0:0:0:
196,75,229646,2,0,P|89:62|89:62,1,95.9999970703126,10|0,0:0|0:0,0:0:0:0:
330,314,229914,6,0,P|391:295|314:228,1,191.999994140625,2|8,0:0|0:0,0:0:0:0:
178,217,230316,2,0,P|120:193|187:118,1,191.999994140625,2|0,0:0|0:0,0:0:0:0:
394,93,230717,2,0,L|413:197,1,95.9999970703126,10|0,0:0|0:0,0:0:0:0:
207,281,230985,6,0,P|89:268|89:268,1,95.9999970703126,10|0,0:0|0:0,0:0:0:0:
323,217,231253,2,0,L|433:224,1,95.9999970703126,10|0,0:0|0:0,0:0:0:0:
187,127,231521,2,0,P|79:119|79:119,1,95.9999970703126,8|8,0:0|0:0,0:0:0:0:
354,44,231789,2,0,P|459:50|459:50,1,95.9999970703126,8|8,0:0|0:0,0:0:0:0:
176,283,232057,6,0,L|302:281,2,95.9999970703126,6|0|8,0:0|0:0|0:0,0:0:0:0:
412,267,232458,2,0,P|470:251|395:180,1,191.999994140625,2|0,0:0|0:0,0:0:0:0:
181,160,232860,6,0,P|289:155|289:155,2,95.9999970703126,10|0|0,0:0|0:0|0:0,0:0:0:0:
406,137,233262,2,0,P|380:80|244:46,1,191.999994140625,2|0,0:0|0:0,0:0:0:0:
490,328,233664,6,0,P|477:217|477:217,1,95.9999970703126,2|0,0:0|0:0,0:0:0:0:
383,241,233932,1,8,0:0:0:0:
175,248,234066,2,0,P|112:224|183:154,1,191.999994140625,2|0,0:0|0:0,0:0:0:0:
421,173,234467,6,0,L|408:69,1,95.9999970703126,10|0,0:0|0:0,0:0:0:0:
312,78,234735,1,0,0:0:0:0:
80,305,234869,2,0,P|40:264|126:179,1,191.999994140625,2|0,0:0|0:0,0:0:0:0:
330,195,235271,6,0,P|228:189|228:189,2,95.9999970703126,2|0|8,0:0|0:0|0:0,0:0:0:0:
124,98,235673,2,0,P|334:82|334:82,1,191.999994140625,2|0,0:0|0:0,0:0:0:0:
82,217,236075,2,0,L|72:326,1,95.9999970703126,10|0,0:0|0:0,0:0:0:0:
316,268,236342,6,0,L|324:158,1,95.9999970703126,6|0,0:0|0:0,0:0:0:0:
217,190,236610,2,0,P|198:89|198:89,1,95.9999970703126,8|0,0:0|0:0,0:0:0:0:
355,108,236878,2,0,L|365:6,1,95.9999970703126,2|0,0:0|0:0,0:0:0:0:
250,261,237146,2,0,P|137:252|137:252,1,95.9999970703126,8|0,0:0|0:0,0:0:0:0:
382,272,237414,6,0,P|390:163|390:163,1,95.9999970703126,2|0,0:0|0:0,0:0:0:0:
169,178,237682,2,0,P|151:68|151:68,1,95.9999970703126,8|0,0:0|0:0,0:0:0:0:
371,67,237950,2,0,L|381:174,1,95.9999970703126,2|0,0:0|0:0,0:0:0:0:
166,276,238217,2,0,B|36:269|37:269|37:270,1,95.9999970703126,8|0,0:0|0:0,0:0:0:0:
296,261,238485,6,0,B|305:162,1,95.9999970703126,2|0,0:0|0:0,0:0:0:0:
204,178,238753,2,0,P|192:63|192:63,1,95.9999970703126,8|0,0:0|0:0,0:0:0:0:
399,41,239021,2,0,P|407:152|407:152,1,95.9999970703126,2|0,0:0|0:0,0:0:0:0:
183,308,239289,2,0,L|74:312,1,95.9999970703126,8|0,0:0|0:0,0:0:0:0:
317,334,239557,6,0,P|364:310|181:94,1,479.999985351563,2|0,0:0|0:0,0:0:0:0:
170,307,240628,6,0,P|115:287|181:225,1,160,6|8,0:0|0:0,0:0:0:0:
234,216,241030,1,0,0:0:0:0:
383,185,241164,2,0,P|386:85|386:85,1,80,2|0,0:0|0:0,0:0:0:0:
289,91,241432,2,0,P|182:83|182:83,1,80,8|0,0:0|0:0,0:0:0:0:
414,312,241700,6,0,P|464:299|401:234,1,160,2|8,0:0|0:0,0:0:0:0:
347,227,242101,1,0,0:0:0:0:
189,181,242235,2,0,B|181:85,1,80,2|0,0:0|0:0,0:0:0:0:
334,78,242503,2,0,L|430:82,1,80,10|2,0:0|0:0,0:0:0:0:
205,311,242771,6,0,P|139:302|94:207,1,160,2|8,0:0|0:0,0:0:0:0:
172,216,243173,1,0,0:0:0:0:
324,156,243307,2,0,L|421:161,1,80,2|0,0:0|0:0,0:0:0:0:
314,70,243575,2,0,P|205:65|205:65,1,80,8|0,0:0|0:0,0:0:0:0:
434,329,243842,6,0,P|422:239|422:239,1,80,10|0,0:0|0:0,0:0:0:0:
270,248,244110,2,0,P|252:149|252:149,1,80,10|0,0:0|0:0,0:0:0:0:
458,198,244378,2,0,P|446:113|446:113,1,80,10|0,0:0|0:0,0:0:0:0:
293,117,244646,2,0,P|281:28|281:28,1,80,10|0,0:0|0:0,0:0:0:0:
485,327,244914,6,0,P|494:277|409:215,1,160,6|8,0:0|0:0,0:0:0:0:
328,211,245316,1,0,0:0:0:0:
175,178,245450,2,0,P|166:79|166:79,1,80,2|0,0:0|0:0,0:0:0:0:
253,84,245717,2,0,L|335:80,1,80,8|0,0:0|0:0,0:0:0:0:
130,317,245985,6,0,P|130:261|221:211,1,160,2|8,0:0|0:0,0:0:0:0:
293,201,246387,1,0,0:0:0:0:
142,70,246521,2,0,L|135:166,1,80,2|0,0:0|0:0,0:0:0:0:
293,109,246789,2,0,L|299:21,1,80,10|2,0:0|0:0,0:0:0:0:
92,295,247057,6,0,P|58:259|135:193,1,160,2|8,0:0|0:0,0:0:0:0:
196,186,247458,1,0,0:0:0:0:
347,130,247592,2,0,L|341:224,1,80,2|0,0:0|0:0,0:0:0:0:
248,88,247860,2,0,L|144:77,1,80,8|0,0:0|0:0,0:0:0:0:
371,332,248128,6,0,P|381:236|381:236,1,80,2|0,0:0|0:0,0:0:0:0:
225,265,248396,2,0,P|210:168|210:168,1,80,10|0,0:0|0:0,0:0:0:0:
409,38,248664,2,0,P|312:35|312:35,1,80,10|8,0:0|0:0,0:0:0:0:
124,97,248932,2,0,P|214:93|214:93,1,80,10|8,0:0|0:0,0:0:0:0:
398,307,249200,6,0,P|439:285|374:207,1,160,6|0,0:0|0:0,0:0:0:0:
250,193,249735,2,0,P|270:135|376:111,1,160,8|0,0:0|0:0,0:0:0:0:
128,285,250271,6,0,P|91:258|146:178,1,160,2|0,0:0|0:0,0:0:0:0:
285,182,250807,2,0,P|276:126|167:89,1,160,8|2,0:0|0:0,0:0:0:0:
45,80,251208,1,10,0:0:0:0:
245,295,251342,6,0,P|308:294|361:206,1,160,2|0,0:0|0:0,0:0:0:0:
221,195,251878,2,0,P|152:183|114:87,1,160,10|0,0:0|0:0,0:0:0:0:
339,315,252414,6,0,P|350:224|350:224,1,80,2|0,0:0|0:0,0:0:0:0:
250,236,252682,2,0,P|232:145|232:145,1,80,10|8,0:0|0:0,0:0:0:0:
387,64,252950,2,0,P|399:152|399:152,1,80,10|0,0:0|0:0,0:0:0:0:
245,67,253217,2,0,P|164:65|164:65,1,80,10|0,0:0|0:0,0:0:0:0:
368,317,253485,6,0,P|370:270|265:207,1,160,6|8,0:0|0:0,0:0:0:0:
208,200,253887,1,0,0:0:0:0:
356,59,254021,2,0,P|364:159|364:159,1,80,2|0,0:0|0:0,0:0:0:0:
270,60,254289,2,0,P|168:53|168:53,1,80,8|0,0:0|0:0,0:0:0:0:
394,334,254557,6,0,P|425:302|351:243,1,160,2|8,0:0|0:0,0:0:0:0:
275,230,254958,1,0,0:0:0:0:
124,199,255092,2,0,P|120:104|120:104,1,80,2|0,0:0|0:0,0:0:0:0:
276,108,255360,2,0,P|376:105|376:105,1,80,10|2,0:0|0:0,0:0:0:0:
155,317,255628,6,0,P|114:294|166:222,1,160,2|8,0:0|0:0,0:0:0:0:
244,220,256030,1,0,0:0:0:0:
92,160,256164,2,0,P|83:64|83:64,1,80,2|0,0:0|0:0,0:0:0:0:
181,49,256432,2,0,P|91:42|91:42,1,80,8|0,0:0|0:0,0:0:0:0:
297,291,256700,5,4,0:0:0:0:
169,290,256967,1,0,0:0:0:0:
395,161,257235,1,0,0:0:0:0:
157,169,257503,1,0,0:0:0:0:
495,325,257771,6,0,P|493:154|493:154,1,160,4|0,0:0|0:0,0:0:0:0:
151,232,258307,2,0,P|76:233|76:233,1,40,10|8,0:0|0:0,0:0:0:0:
108,192,258441,2,0,P|161:190|161:190,1,40,8|8,0:0|0:0,0:0:0:0:
285,94,258575,2,0,P|345:92|345:92,1,40,10|0,0:0|0:0,0:0:0:0:
285,94,258708,2,0,L|216:95,1,40,0|0,0:0|0:0,0:0:0:0:
398,309,258842,6,0,L|486:308,1,80,14|0,0:0|0:0,0:0:0:0:
326,241,259110,2,0,P|316:139|316:139,1,80,10|0,0:0|0:0,0:0:0:0:
466,120,259378,2,0,P|471:19|471:19,1,80,10|0,0:0|0:0,0:0:0:0:
326,57,259646,2,0,P|217:51|217:51,1,80,10|0,0:0|0:0,0:0:0:0:
445,289,259914,6,0,B|352:286|352:287,1,80,14|8,0:0|0:0,0:0:0:0:
170,278,260182,2,0,P|70:274|70:274,1,80,14|8,0:0|0:0,0:0:0:0:
311,182,260450,2,0,P|407:186|407:186,1,80,14|8,0:0|0:0,0:0:0:0:
152,88,260717,2,0,P|55:84|55:84,1,80,14|8,0:0|0:0,0:0:0:0:
356,86,260985,5,12,0:0:0:0:
256,192,261119,12,0,264200,0:0:0:0:
