osu file format v14

[General]
AudioFilename: audio.mp3
AudioLeadIn: 0
PreviewTime: 95536
Countdown: 0
SampleSet: Soft
StackLeniency: 0.7
Mode: 2
LetterboxInBreaks: 0
WidescreenStoryboard: 1

[Editor]
DistanceSpacing: 1
BeatDivisor: 4
GridSize: 8
TimelineZoom: 3.199998

[Metadata]
Title:Snow Drive (01.23)
TitleUnicode:スノウドライヴ (01.23)
Artist:Araki
ArtistUnicode:あらき
Creator:Du5t
Version:Point Zero
Source:
Tags:Omoi cover utaite Nyalettowo x3 male vocal vocals vocalist synth rock japanese j-rock jrock electronic daletto dust idust idu5t
BeatmapID:1918814
BeatmapSetID:918947

[Difficulty]
HPDrainRate:6
CircleSize:4.2
OverallDifficulty:9.6
ApproachRate:9.6
SliderMultiplier:2
SliderTickRate:2

[Events]
//Background and Video events
0,0,"bg.jpg",0,0
//Break Periods
//Storyboard Layer 0 (Background)
//Storyboard Layer 1 (Fail)
//Storyboard Layer 2 (Pass)
//Storyboard Layer 3 (Foreground)
//Storyboard Layer 4 (Overlay)
//Storyboard Sound Samples

[TimingPoints]
1700,267.857142857143,4,2,11,45,1,0
10271,-100,4,2,11,50,0,0
11878,-100,4,2,11,55,0,0
12682,-100,4,2,11,60,0,0
13485,-100,4,2,11,65,0,0
14557,-100,4,2,11,45,0,0
17771,-100,4,2,11,50,0,0
18039,-100,4,2,11,55,0,0
18307,-100,4,2,11,60,0,0
18441,-100,4,2,11,65,0,0
18575,-100,4,2,11,70,0,0
18842,-100,4,2,11,75,0,0
27414,-100,4,2,11,55,0,0
31700,-100,4,2,11,75,0,0
35985,-100,4,2,11,70,0,0
40271,-100,4,2,11,60,0,0
47771,-100,4,2,11,65,0,0
48842,-100,4,2,11,70,0,0
56342,-100,4,2,11,65,0,0
57414,-100,4,2,11,70,0,0
61700,-100,4,2,11,60,0,0
69200,-100,4,2,11,75,0,0
70271,-100,4,2,11,70,0,0
78842,-100,4,2,11,75,0,0
91700,-100,4,2,11,65,0,0
93842,-100,4,2,11,55,0,0
95985,-100,4,2,11,80,0,1
104423,-100,4,2,11,80,0,0
104557,-100,4,2,11,80,0,1
108842,-100,4,2,11,80,0,1
113128,-100,4,2,11,60,0,0
118485,-100,4,2,11,70,0,0
125985,-100,4,2,11,50,0,0
126342,-100,4,2,11,60,0,0
126700,-100,4,2,11,70,0,0
135628,-100,4,2,11,65,0,0
139914,-100,4,2,11,75,0,0
144200,-100,4,2,11,70,0,0
148485,-100,4,2,11,55,0,0
150628,-100,4,2,11,65,0,0
152771,-100,4,2,11,70,0,0
153039,-100,4,2,11,75,0,0
153307,-100,4,2,11,80,0,0
153575,-100,4,2,11,80,0,0
154378,-100,4,2,11,55,0,0
154914,-100,4,2,11,80,0,1
163351,-100,4,2,11,80,0,0
163485,-100,4,2,11,80,0,1
167771,-100,4,2,11,80,0,1
170985,-100,4,2,11,60,0,0
171789,-100,4,2,11,65,0,0
171923,-100,4,2,11,70,0,0
172057,-100,4,2,11,75,0,0
180628,-100,4,2,11,80,0,1
184914,-100,4,2,11,70,0,1
187057,-100,4,2,11,65,0,1
187592,-90.9090909090909,4,2,11,70,0,1
188128,-83.3333333333333,4,2,11,75,0,1
188664,-100,4,2,11,80,0,1
189200,-100,4,2,11,50,0,0
197369,-100,4,2,11,55,0,0
197503,-100,4,2,11,60,0,0
197637,-100,4,2,11,70,0,0
197771,-100,4,2,11,75,0,0
202057,-100,4,2,11,80,0,0
204200,-100,4,2,11,85,0,0
205271,-100,4,2,11,60,0,0
206342,-83.3333333333333,4,2,11,80,0,1
214780,-83.3333333333333,4,2,11,80,0,0
214914,-83.3333333333333,4,2,11,80,0,1
219200,-83.3333333333333,4,2,11,80,0,1
222414,-111.111111111111,4,2,11,40,0,0
222648,-90.9090909090909,4,2,11,5,0,0
222682,-90.9090909090909,4,2,11,50,0,0
222916,-83.3333333333333,4,2,11,5,0,0
222950,-76.9230769230769,4,2,11,60,0,0
223184,-76.9230769230769,4,2,11,5,0,0
223217,-66.6666666666667,4,2,11,70,0,0
223418,-76.9230769230769,4,2,11,5,0,0
223485,-83.3333333333333,4,2,11,80,0,1
231923,-83.3333333333333,4,2,11,80,0,0
232057,-83.3333333333333,4,2,11,80,0,1
236342,-83.3333333333333,4,2,11,80,0,1
239557,-83.3333333333333,4,2,11,60,0,0
240628,-100,4,2,11,75,0,0
249200,-100,4,2,11,65,0,0
253485,-100,4,2,11,80,0,0
256700,-100,4,2,11,50,0,0
257771,-100,4,2,11,60,0,0
258307,-100,4,2,11,65,0,0
258842,-100,4,2,11,70,0,1
259914,-100,4,2,11,75,0,1
260450,-100,4,2,11,80,0,1
260985,-100,4,2,11,90,0,0
261119,-100,4,2,11,50,0,0
261789,-100,4,2,11,40,0,0
262458,-100,4,2,11,30,0,0
263128,-100,4,2,11,20,0,0
263798,-100,4,2,11,10,0,0
264200,-100,4,2,11,5,0,0

[Colours]
Combo1 : 60,60,255
Combo2 : 0,88,176
Combo3 : 2,153,210

[HitObjects]
330,261,1699,6,0,L|165:112,3,200,0|0|0|0,0:0|0:0|0:0|0:0,0:0:0:0:
442,284,2771,6,0,L|448:79,1,200,2|0,0:0|0:0,0:0:0:0:
285,92,3307,2,0,L|437:232,1,200,2|0,0:0|0:0,0:0:0:0:
172,296,3842,6,0,P|116:263|200:192,1,200,2|0,0:0|0:0,0:0:0:0:
330,187,4244,2,0,P|408:192|407:87,1,200,2|0,0:0|0:0,0:0:0:0:
331,91,4646,1,2,0:0:0:0:
72,308,4914,6,0,B|64:95,1,200,2|0,0:0|0:0,0:0:0:0:
217,86,5450,2,0,P|70:234|70:234,1,200,2|0,0:0|0:0,0:0:0:0:
336,281,5985,6,0,P|184:123|184:123,3,200,2|0|0|0,0:0|0:0|0:0|0:0,0:0:0:0:
458,314,7057,6,0,L|467:109,1,200,2|0,0:0|0:0,0:0:0:0:
334,118,7592,1,0,0:0:0:0:
483,65,7860,1,0,0:0:0:0:
221,312,8128,6,0,P|164:281|254:210,1,200,2|0,0:0|0:0,0:0:0:0:
378,191,8530,2,0,P|455:174|412:73,1,200,2|0,0:0|0:0,0:0:0:0:
342,74,8932,1,2,0:0:0:0:
85,324,9200,6,0,L|243:182,3,200,2|0|0|0,0:0|0:0|0:0|0:0,0:0:0:0:
486,269,10271,6,0,P|483:180|386:149,1,200,2|0,0:0|0:0,0:0:0:0:
292,166,10673,2,0,P|305:109|443:76,1,200,2|0,0:0|0:0,0:0:0:0:
319,320,11075,6,0,P|258:310|192:180,1,200,2|0,0:0|0:0,0:0:0:0:
290,190,11476,2,0,P|357:188|403:68,1,200,2|0,0:0|0:0,0:0:0:0:
247,289,11878,6,0,P|188:267|262:189,1,200,2|0,0:0|0:0,0:0:0:0:
406,174,12280,2,0,P|460:166|384:90,1,200,2|0,0:0|0:0,0:0:0:0:
256,281,12682,6,0,P|181:267|152:139,1,200,2|0,0:0|0:0,0:0:0:0:
301,135,13083,2,0,P|365:135|432:20,1,200,2|0,0:0|0:0,0:0:0:0:
284,259,13485,6,0,L|434:116,1,200,2|0,0:0|0:0,0:0:0:0:
171,211,14021,2,0,P|105:191|189:126,1,200,2|0,0:0|0:0,0:0:0:0:
401,297,14557,6,0,P|418:241|296:162,1,200,2|0,0:0|0:0,0:0:0:0:
165,167,15092,2,0,P|171:108|292:66,1,200,2|0,0:0|0:0,0:0:0:0:
48,329,15628,6,0,P|49:251|160:218,1,200,2|0,0:0|0:0,0:0:0:0:
282,222,16164,2,0,P|126:63|126:63,1,200,2|0,0:0|0:0,0:0:0:0:
402,317,16700,6,0,P|411:99|411:99,1,200,2|0,0:0|0:0,0:0:0:0:
162,121,17235,1,2,0:0:0:0:
412,120,17503,1,2,0:0:0:0:
51,294,17771,5,0,0:0:0:0:
211,295,18039,1,0,0:0:0:0:
371,296,18307,1,0,0:0:0:0:
451,295,18441,1,0,0:0:0:0:
236,120,18575,2,0,L|172:118,1,50,8|8,0:0|0:0,0:0:0:0:
392,78,18708,2,0,P|453:78|453:78,1,50,8|8,0:0|0:0,0:0:0:0:
201,297,18842,6,0,L|177:180,1,100,6|0,0:0|0:0,0:0:0:0:
327,220,19110,2,0,P|342:104|342:104,1,100,8|0,0:0|0:0,0:0:0:0:
197,92,19378,2,0,L|85:83,1,100,2|0,0:0|0:0,0:0:0:0:
241,288,19646,2,0,P|360:297|360:297,1,100,8|0,0:0|0:0,0:0:0:0:
116,336,19914,6,0,P|124:225|124:225,1,100,2|0,0:0|0:0,0:0:0:0:
277,250,20182,2,0,L|285:134,1,100,8|0,0:0|0:0,0:0:0:0:
435,168,20450,2,0,P|443:53|443:53,1,100,2|0,0:0|0:0,0:0:0:0:
313,61,20717,1,10,0:0:0:0:
442,58,20851,1,2,0:0:0:0:
238,286,20985,6,0,P|125:280|125:280,1,100,2|0,0:0|0:0,0:0:0:0:
277,210,21253,2,0,L|377:215,1,100,8|0,0:0|0:0,0:0:0:0:
236,134,21521,2,0,P|126:127|126:127,1,100,2|0,0:0|0:0,0:0:0:0:
276,65,21789,2,0,P|385:71|385:71,1,100,8|0,0:0|0:0,0:0:0:0:
110,348,22057,6,0,L|121:240,1,100,10|0,0:0|0:0,0:0:0:0:
392,267,22325,2,0,P|377:147|377:147,1,100,10|0,0:0|0:0,0:0:0:0:
126,161,22592,2,0,P|138:52|138:52,1,100,10|0,0:0|0:0,0:0:0:0:
398,138,22860,2,0,P|386:22|386:22,1,100,10|0,0:0|0:0,0:0:0:0:
169,305,23128,6,0,L|276:293,1,100,2|0,0:0|0:0,0:0:0:0:
126,235,23396,2,0,P|115:129|115:129,1,100,8|0,0:0|0:0,0:0:0:0:
257,195,23664,2,0,P|275:91|275:91,1,100,2|0,0:0|0:0,0:0:0:0:
129,69,23932,2,0,L|8:60,1,100,8|0,0:0|0:0,0:0:0:0:
244,329,24200,6,0,L|268:221,1,100,2|0,0:0|0:0,0:0:0:0:
128,224,24467,2,0,L|254:213,1,100,8|0,0:0|0:0,0:0:0:0:
90,157,24735,2,0,L|82:49,1,100,2|0,0:0|0:0,0:0:0:0:
213,50,25003,1,10,0:0:0:0:
82,57,25137,1,2,0:0:0:0:
281,284,25271,6,0,L|385:266,1,100,2|0,0:0|0:0,0:0:0:0:
238,200,25539,2,0,P|132:212|132:212,1,100,8|0,0:0|0:0,0:0:0:0:
279,117,25807,2,0,P|383:105|383:105,1,100,2|0,0:0|0:0,0:0:0:0:
236,47,26075,2,0,P|104:64|104:64,1,100,8|0,0:0|0:0,0:0:0:0:
394,334,26342,6,0,L|405:231,1,100,10|0,0:0|0:0,0:0:0:0:
141,270,26610,2,0,P|152:165|152:165,1,100,10|0,0:0|0:0,0:0:0:0:
424,113,26878,2,0,B|306:106|306:106|305:106,1,100,10|0,0:0|0:0,0:0:0:0:
66,57,27146,2,0,P|168:62|168:62,1,100,10|0,0:0|0:0,0:0:0:0:
427,324,27414,6,0,P|460:292|361:222,1,200,6|0,0:0|0:0,0:0:0:0:
95,205,27950,2,0,P|36:195|103:113,1,200,8|0,0:0|0:0,0:0:0:0:
463,280,28485,6,0,P|457:219|338:170,1,200,2|0,0:0|0:0,0:0:0:0:
63,175,29021,2,0,P|285:159|285:159,1,200,8|2,0:0|0:0,0:0:0:0:
127,82,29423,1,10,0:0:0:0:
326,294,29557,6,0,P|385:287|436:159,1,200,2|0,0:0|0:0,0:0:0:0:
160,239,30092,2,0,P|101:232|50:104,1,200,8|0,0:0|0:0,0:0:0:0:
332,198,30628,6,0,P|341:89|341:89,1,100,10|0,0:0|0:0,0:0:0:0:
241,144,30896,2,0,P|231:38|231:38,1,100,10|0,0:0|0:0,0:0:0:0:
374,310,31164,2,0,L|258:298,1,100,10|0,0:0|0:0,0:0:0:0:
416,218,31432,2,0,P|310:207|310:207,1,100,10|0,0:0|0:0,0:0:0:0:
99,218,31700,6,0,P|87:109|87:109,1,100,6|0,0:0|0:0,0:0:0:0:
231,109,31967,2,0,P|347:105|347:105,1,100,8|0,0:0|0:0,0:0:0:0:
191,285,32235,2,0,P|75:289|75:289,1,100,2|0,0:0|0:0,0:0:0:0:
234,206,32503,2,0,L|340:202,1,100,8|0,0:0|0:0,0:0:0:0:
116,83,32771,6,0,P|223:80|223:80,1,100,2|0,0:0|0:0,0:0:0:0:
353,73,33039,2,0,L|356:181,1,100,8|0,0:0|0:0,0:0:0:0:
212,321,33307,2,0,P|208:214|208:214,1,100,2|0,0:0|0:0,0:0:0:0:
347,199,33575,1,10,0:0:0:0:
210,142,33708,1,2,0:0:0:0:
412,317,33842,6,0,P|420:194|420:194,1,100,2|0,0:0|0:0,0:0:0:0:
277,213,34110,2,0,P|269:322|269:322,1,100,8|0,0:0|0:0,0:0:0:0:
409,135,34378,2,0,L|404:244,1,100,2|0,0:0|0:0,0:0:0:0:
264,63,34646,2,0,P|369:66|369:66,1,100,8|0,0:0|0:0,0:0:0:0:
114,293,34914,6,0,B|95:187,1,100,8|0,0:0|0:0,0:0:0:0:
344,264,35182,2,0,L|361:147,1,100,8|0,0:0|0:0,0:0:0:0:
98,52,35450,2,0,P|119:181|119:181,1,100,8|0,0:0|0:0,0:0:0:0:
359,55,35717,2,0,L|476:64,1,100,8|0,0:0|0:0,0:0:0:0:
202,303,35985,6,0,P|135:303|135:303,1,50,8|0,0:0|0:0,0:0:0:0:
151,252,36119,2,0,L|206:250,1,50,0|0,0:0|0:0,0:0:0:0:
381,220,36253,2,0,P|388:276|388:276,1,50,8|0,0:0|0:0,0:0:0:0:
225,107,36387,2,0,L|158:107,1,50,0|0,0:0|0:0,0:0:0:0:
225,107,36521,2,0,L|300:107,1,50,0|0,0:0|0:0,0:0:0:0:
100,164,36655,2,0,P|106:225|106:225,1,50,8|0,0:0|0:0,0:0:0:0:
290,226,36789,2,0,P|351:226|351:226,1,50,0|0,0:0|0:0,0:0:0:0:
340,175,36923,2,0,P|264:175|264:175,1,50,0|0,0:0|0:0,0:0:0:0:
113,57,37057,6,0,P|106:119|106:119,1,50,8|0,0:0|0:0,0:0:0:0:
287,297,37191,2,0,B|347:297|348:297|348:297,1,50,0|0,0:0|0:0,0:0:0:0:
287,297,37325,2,0,P|226:298|226:298,1,50,0|0,0:0|0:0,0:0:0:0:
417,231,37458,2,0,P|428:161|428:161,1,50,8|0,0:0|0:0,0:0:0:0:
246,194,37592,2,0,P|186:194|186:194,1,50,0|0,0:0|0:0,0:0:0:0:
145,192,37726,2,0,L|119:132,1,50,0|0,0:0|0:0,0:0:0:0:
319,115,37860,2,0,L|371:114,1,50,8|0,0:0|0:0,0:0:0:0:
419,114,37994,2,0,L|447:54,1,50,0|0,0:0|0:0,0:0:0:0:
244,283,38128,6,0,P|177:283|177:283,1,50,8|0,0:0|0:0,0:0:0:0:
244,283,38262,2,0,P|308:283|308:283,1,50,0|0,0:0|0:0,0:0:0:0:
113,115,38396,2,0,P|106:177|106:177,1,50,8|0,0:0|0:0,0:0:0:0:
292,171,38530,2,0,P|359:170|359:170,1,50,0|0,0:0|0:0,0:0:0:0:
340,119,38664,2,0,B|267:118|268:118|268:118,1,50,0|0,0:0|0:0,0:0:0:0:
106,223,38798,2,0,P|120:160|120:160,1,50,8|0,0:0|0:0,0:0:0:0:
295,213,38932,2,0,P|349:214|349:214,1,50,0|0,0:0|0:0,0:0:0:0:
295,213,39066,2,0,P|238:212|238:212,1,50,0|0,0:0|0:0,0:0:0:0:
428,69,39200,6,0,L|485:70,1,50,8|0,0:0|0:0,0:0:0:0:
472,119,39333,2,0,L|408:117,1,50,0|0,0:0|0:0,0:0:0:0:
244,120,39467,2,0,P|177:120|177:120,1,50,8|0,0:0|0:0,0:0:0:0:
143,120,39601,2,0,L|106:62,1,50,0|0,0:0|0:0,0:0:0:0:
274,287,39735,2,0,L|332:286,1,50,8|8,0:0|0:0,0:0:0:0:
127,239,39869,2,0,L|68:239,1,50,8|8,0:0|0:0,0:0:0:0:
311,168,40003,2,0,P|390:169|390:169,1,50,8|8,0:0|0:0,0:0:0:0:
106,72,40137,2,0,P|41:72|41:72,1,50,8|8,0:0|0:0,0:0:0:0:
330,330,40271,6,0,L|435:327,2,100,6|0|8,0:0|0:0|0:0,0:0:0:0:
199,221,40673,2,0,P|403:217|403:217,1,200,2|0,0:0|0:0,0:0:0:0:
257,142,41075,2,0,L|136:143,1,100,10|0,0:0|0:0,0:0:0:0:
368,281,41342,6,0,P|474:285|474:285,2,100,2|0|8,0:0|0:0|0:0,0:0:0:0:
227,253,41744,2,0,P|173:244|235:155,1,200,2|0,0:0|0:0,0:0:0:0:
359,165,42146,2,0,L|371:51,1,100,10|0,0:0|0:0,0:0:0:0:
147,310,42414,6,0,P|44:303|44:303,2,100,2|0|8,0:0|0:0|0:0,0:0:0:0:
286,288,42816,2,0,P|343:282|276:193,1,200,2|0,0:0|0:0,0:0:0:0:
168,183,43217,2,0,L|62:173,1,100,10|0,0:0|0:0,0:0:0:0:
288,128,43485,6,0,L|397:135,2,100,2|0|0,0:0|0:0|0:0,0:0:0:0:
148,336,43887,2,0,P|103:308|182:222,1,200,2|0,0:0|0:0,0:0:0:0:
311,209,44289,2,0,P|414:204|414:204,1,100,0|0,0:0|0:0,0:0:0:0:
200,148,44557,5,2,0:0:0:0:
99,145,44691,2,0,P|94:39|94:39,1,100,0|8,0:0|0:0,0:0:0:0:
231,325,44958,2,0,P|294:319|340:187,1,200,2|0,0:0|0:0,0:0:0:0:
204,204,45360,2,0,L|191:90,1,100,10|0,0:0|0:0,0:0:0:0:
396,212,45628,5,2,0:0:0:0:
496,214,45762,2,0,P|488:102|488:102,1,100,0|8,0:0|0:0,0:0:0:0:
346,335,46030,2,0,P|271:328|326:245,1,200,2|0,0:0|0:0,0:0:0:0:
452,137,46432,2,0,L|338:133,1,100,10|0,0:0|0:0,0:0:0:0:
136,231,46700,6,0,P|21:227|21:227,2,100,2|0|8,0:0|0:0|0:0,0:0:0:0:
271,152,47101,2,0,L|65:144,1,200,2|0,0:0|0:0,0:0:0:0:
209,69,47503,2,0,L|97:65,1,100,10|0,0:0|0:0,0:0:0:0:
322,308,47771,6,0,P|328:190|328:190,1,100,2|0,0:0|0:0,0:0:0:0:
182,223,48173,2,0,P|178:109|178:109,1,100,2|0,0:0|0:0,0:0:0:0:
320,113,48441,1,8,0:0:0:0:
126,216,48575,1,8,0:0:0:0:
344,346,48708,1,8,0:0:0:0:
125,318,48842,6,0,P|116:202|116:202,1,100,2|0,0:0|0:0,0:0:0:0:
256,159,49110,2,0,P|149:152|149:152,1,100,8|0,0:0|0:0,0:0:0:0:
364,215,49378,2,0,B|370:324,1,100,2|0,0:0|0:0,0:0:0:0:
227,221,49646,2,0,L|125:222,1,100,8|0,0:0|0:0,0:0:0:0:
372,134,49914,6,0,P|272:127|272:127,1,100,2|0,0:0|0:0,0:0:0:0:
411,313,50182,2,0,P|476:296|404:219,1,200,8|0,0:0|0:0,0:0:0:0:
283,129,50583,2,0,P|401:133|401:133,2,100,0|8|0,0:0|0:0|0:0,0:0:0:0:
85,315,50985,6,0,P|78:204|78:204,1,100,2|0,0:0|0:0,0:0:0:0:
217,153,51253,1,8,0:0:0:0:
76,114,51387,1,0,0:0:0:0:
283,239,51521,2,0,L|290:345,1,100,2|0,0:0|0:0,0:0:0:0:
153,245,51789,2,0,L|42:244,1,100,8|0,0:0|0:0,0:0:0:0:
297,171,52057,6,0,P|187:167|187:167,1,100,2|0,0:0|0:0,0:0:0:0:
335,48,52325,2,0,P|341:165|341:165,1,100,8|0,0:0|0:0,0:0:0:0:
146,312,52592,2,0,P|108:279|210:209,1,200,2|8,0:0|0:0,0:0:0:0:
291,211,52994,1,0,0:0:0:0:
90,121,53128,6,0,P|206:118|206:118,1,100,2|0,0:0|0:0,0:0:0:0:
51,193,53396,2,0,P|46:307|46:307,1,100,8|0,0:0|0:0,0:0:0:0:
291,211,53664,2,0,L|300:102,1,100,2|0,0:0|0:0,0:0:0:0:
151,104,53932,2,0,P|43:91|43:91,1,100,8|0,0:0|0:0,0:0:0:0:
271,274,54200,6,0,P|385:286|385:286,1,100,2|0,0:0|0:0,0:0:0:0:
230,206,54467,2,0,P|226:98|226:98,1,100,8|0,0:0|0:0,0:0:0:0:
366,101,54735,1,2,0:0:0:0:
160,303,54869,2,0,P|42:299|42:299,2,100,0|0|0,0:0|0:0|0:0,0:0:0:0:
378,261,55271,6,0,P|451:217|384:164,1,200,2|8,0:0|0:0,0:0:0:0:
241,228,55673,2,0,P|171:219|149:96,1,200,2|0,0:0|0:0,0:0:0:0:
286,56,56075,2,0,P|167:45|167:45,1,100,10|0,0:0|0:0,0:0:0:0:
384,293,56342,6,0,B|498:304|498:304|497:304,2,100,10|0|0,0:0|0:0|0:0,0:0:0:0:
161,350,56744,1,2,0:0:0:0:
261,306,56878,1,8,0:0:0:0:
291,200,57012,1,0,0:0:0:0:
250,97,57146,1,0,0:0:0:0:
146,59,57280,1,0,0:0:0:0:
355,260,57414,6,0,P|240:251|240:251,2,100,10|0|0,0:0|0:0|0:0,0:0:0:0:
150,195,57816,2,0,L|273:202,1,100,10|0,0:0|0:0,0:0:0:0:
37,104,58083,1,10,0:0:0:0:
257,153,58217,2,0,L|264:33,1,100,10|0,0:0|0:0,0:0:0:0:
56,267,58485,6,0,P|163:275|163:275,2,100,10|0|0,0:0|0:0|0:0,0:0:0:0:
271,216,58887,2,0,P|158:207|158:207,1,100,10|0,0:0|0:0,0:0:0:0:
378,109,59155,1,10,0:0:0:0:
179,302,59289,2,0,P|171:173|171:173,1,100,10|0,0:0|0:0,0:0:0:0:
388,148,59557,6,0,P|286:142|286:142,2,100,10|0|0,0:0|0:0|0:0,0:0:0:0:
168,88,59958,1,10,0:0:0:0:
371,300,60092,2,0,B|433:303,1,50,8|0,0:0|0:0,0:0:0:0:
423,246,60226,2,0,P|347:243|347:243,1,50,0|0,0:0|0:0,0:0:0:0:
220,165,60360,2,0,L|153:164,1,50,8|0,0:0|0:0,0:0:0:0:
329,115,60494,2,0,L|391:117,1,50,8|0,0:0|0:0,0:0:0:0:
203,267,60628,5,10,0:0:0:0:
312,266,60762,1,10,0:0:0:0:
423,265,60896,1,10,0:0:0:0:
181,217,61030,2,0,P|82:168|85:72,1,200,10|0,0:0|0:0,0:0:0:0:
205,52,61432,2,0,B|91:41|91:41|92:41,1,100,0|0,0:0|0:0,0:0:0:0:
347,316,61700,6,0,P|402:305|330:234,1,200,6|8,0:0|0:0,0:0:0:0:
205,235,62101,2,0,P|147:227|205:148,1,200,2|0,0:0|0:0,0:0:0:0:
344,141,62503,2,0,P|449:132|449:132,1,100,10|0,0:0|0:0,0:0:0:0:
230,325,62771,6,0,P|165:313|116:180,1,200,2|8,0:0|0:0,0:0:0:0:
248,203,63173,2,0,P|323:201|359:72,1,200,2|0,0:0|0:0,0:0:0:0:
228,83,63575,2,0,P|124:74|124:74,1,100,10|0,0:0|0:0,0:0:0:0:
336,308,63842,6,0,P|366:261|265:193,1,200,2|8,0:0|0:0,0:0:0:0:
133,202,64244,2,0,P|122:139|247:91,1,200,2|0,0:0|0:0,0:0:0:0:
370,75,64646,2,0,L|372:176,1,100,10|0,0:0|0:0,0:0:0:0:
161,302,64914,6,0,P|273:298|273:298,1,100,2|0,0:0|0:0,0:0:0:0:
131,219,65182,1,8,0:0:0:0:
341,203,65316,2,0,P|407:173|326:119,1,200,2|0,0:0|0:0,0:0:0:0:
178,65,65717,2,0,P|301:51|301:51,1,100,10|0,0:0|0:0,0:0:0:0:
68,303,65985,6,0,P|36:256|138:201,1,200,2|8,0:0|0:0,0:0:0:0:
273,214,66387,2,0,P|324:178|235:100,1,200,2|0,0:0|0:0,0:0:0:0:
113,103,66789,2,0,P|100:216|100:216,1,100,10|0,0:0|0:0,0:0:0:0:
313,333,67057,6,0,P|383:318|355:203,1,200,2|8,0:0|0:0,0:0:0:0:
233,225,67458,2,0,P|166:213|197:99,1,200,2|0,0:0|0:0,0:0:0:0:
321,51,67860,2,0,P|204:42|204:42,1,100,10|0,0:0|0:0,0:0:0:0:
427,317,68128,6,0,P|426:260|303:197,1,200,2|8,0:0|0:0,0:0:0:0:
171,195,68530,2,0,P|147:135|264:80,1,200,2|0,0:0|0:0,0:0:0:0:
101,295,68932,2,0,P|86:178|86:178,1,100,10|0,0:0|0:0,0:0:0:0:
346,184,69200,5,10,0:0:0:0:
296,183,69266,1,0,0:0:0:0:
246,180,69333,1,8,0:0:0:0:
196,176,69400,1,8,0:0:0:0:
146,174,69467,1,8,0:0:0:0:
282,104,69601,2,0,L|163:97,1,100,2|0,0:0|0:0,0:0:0:0:
54,255,69869,2,0,P|49:189|49:189,1,50,0|0,0:0|0:0,0:0:0:0:
259,150,70003,2,0,L|360:139,1,100,8|0,0:0|0:0,0:0:0:0:
125,329,70271,6,0,L|115:219,1,100,6|0,0:0|0:0,0:0:0:0:
251,242,70539,2,0,L|271:132,1,100,8|0,0:0|0:0,0:0:0:0:
67,184,70807,2,0,P|62:73|62:73,1,100,2|0,0:0|0:0,0:0:0:0:
206,50,71075,2,0,P|94:42|94:42,1,100,8|0,0:0|0:0,0:0:0:0:
316,286,71342,6,0,L|307:181,1,100,2|0,0:0|0:0,0:0:0:0:
167,194,71610,2,0,P|185:80|185:80,1,100,8|0,0:0|0:0,0:0:0:0:
396,112,71878,2,0,P|405:237|405:237,1,100,2|0,0:0|0:0,0:0:0:0:
266,290,72146,2,0,L|372:285,1,100,8|0,0:0|0:0,0:0:0:0:
147,212,72414,6,0,P|121:152|232:91,1,200,2|8,0:0|0:0,0:0:0:0:
355,91,72816,1,0,0:0:0:0:
142,323,72950,2,0,L|136:202,1,100,2|0,0:0|0:0,0:0:0:0:
276,206,73217,2,0,L|283:313,1,100,8|0,0:0|0:0,0:0:0:0:
75,130,73485,6,0,P|181:125|181:125,1,100,2|0,0:0|0:0,0:0:0:0:
36,34,73753,2,0,P|40:150|40:150,1,100,8|0,0:0|0:0,0:0:0:0:
255,288,74021,2,0,P|287:223|175:166,1,200,2|8,0:0|0:0,0:0:0:0:
119,156,74423,1,0,0:0:0:0:
337,247,74557,6,0,L|443:237,1,100,2|0,0:0|0:0,0:0:0:0:
296,157,74825,2,0,P|187:164|187:164,1,100,8|0,0:0|0:0,0:0:0:0:
411,167,75092,2,0,P|407:56|407:56,1,100,2|0,0:0|0:0,0:0:0:0:
308,73,75360,1,8,0:0:0:0:
446,33,75494,1,0,0:0:0:0:
224,302,75628,6,0,L|220:194,1,100,2|0,0:0|0:0,0:0:0:0:
361,197,75896,2,0,P|372:87|372:87,1,100,8|0,0:0|0:0,0:0:0:0:
158,207,76164,2,0,P|90:195|71:70,1,200,2|8,0:0|0:0,0:0:0:0:
164,86,76566,1,0,0:0:0:0:
376,294,76700,6,0,P|385:182|385:182,1,100,2|0,0:0|0:0,0:0:0:0:
246,184,76967,1,8,0:0:0:0:
450,166,77101,2,0,P|493:133|406:60,1,200,2|0,0:0|0:0,0:0:0:0:
217,271,77503,2,0,P|341:277|341:277,1,100,10|0,0:0|0:0,0:0:0:0:
111,113,77771,6,0,P|325:107|325:107,1,200,2|8,0:0|0:0,0:0:0:0:
169,113,78173,1,2,0:0:0:0:
427,291,78307,2,0,P|325:280|325:280,1,100,8|0,0:0|0:0,0:0:0:0:
79,145,78575,2,0,P|205:136|205:136,1,100,8|0,0:0|0:0,0:0:0:0:
445,205,78842,6,0,P|458:95|458:95,1,100,6|0,0:0|0:0,0:0:0:0:
317,254,79110,2,0,P|306:145|306:145,1,100,8|0,0:0|0:0,0:0:0:0:
438,144,79378,2,0,P|448:37|448:37,1,100,2|0,0:0|0:0,0:0:0:0:
230,296,79646,6,0,P|168:285|219:194,1,200,10|0,0:0|0:0,0:0:0:0:
313,192,80048,1,0,0:0:0:0:
173,157,80182,2,0,P|165:48|165:48,1,100,10|0,0:0|0:0,0:0:0:0:
391,292,80450,2,0,P|278:300|278:300,1,100,2|0,0:0|0:0,0:0:0:0:
72,240,80717,2,0,L|184:233,1,100,10|0,0:0|0:0,0:0:0:0:
378,191,80985,6,0,P|363:79|363:79,1,100,2|0,0:0|0:0,0:0:0:0:
223,146,81253,2,0,P|253:41|253:41,1,100,8|0,0:0|0:0,0:0:0:0:
396,320,81521,2,0,P|385:200|385:200,1,100,0|0,0:0|0:0,0:0:0:0:
175,180,81789,6,0,P|388:171|388:171,1,200,10|0,0:0|0:0,0:0:0:0:
233,175,82191,1,0,0:0:0:0:
371,271,82325,2,0,P|384:158|384:158,1,100,8|0,0:0|0:0,0:0:0:0:
242,208,82592,2,0,P|232:94|232:94,1,100,0|0,0:0|0:0,0:0:0:0:
374,128,82860,2,0,P|387:22|387:22,1,100,8|0,0:0|0:0,0:0:0:0:
184,297,83128,6,0,P|75:293|75:293,1,100,6|0,0:0|0:0,0:0:0:0:
226,209,83396,2,0,P|342:216|342:216,1,100,8|0,0:0|0:0,0:0:0:0:
116,88,83664,2,0,B|7:83|7:83|6:83,1,100,2|0,0:0|0:0,0:0:0:0:
148,155,83932,2,0,L|25:150,1,100,8|0,0:0|0:0,0:0:0:0:
277,317,84200,6,0,P|285:206|285:206,1,100,2|0,0:0|0:0,0:0:0:0:
142,209,84467,1,10,0:0:0:0:
353,177,84601,2,0,P|409:170|394:49,1,200,2|0,0:0|0:0,0:0:0:0:
264,78,85003,2,0,P|150:70|150:70,1,100,8|0,0:0|0:0,0:0:0:0:
378,316,85271,6,0,L|358:209,1,100,2|0,0:0|0:0,0:0:0:0:
216,231,85539,2,0,P|195:126|195:126,1,100,8|0,0:0|0:0,0:0:0:0:
56,151,85807,2,0,B|37:42|37:42|36:42,1,100,2|0,0:0|0:0,0:0:0:0:
255,288,86075,6,0,P|49:274|49:274,1,200,10|0,0:0|0:0,0:0:0:0:
196,197,86476,2,0,P|83:189|83:189,2,100,0|10|0,0:0|0:0|0:0,0:0:0:0:
401,222,86878,2,0,P|462:234|435:127,1,200,2|8,0:0|0:0,0:0:0:0:
378,130,87280,1,0,0:0:0:0:
152,295,87414,6,0,P|142:175|142:175,1,100,6|0,0:0|0:0,0:0:0:0:
275,214,87682,2,0,L|391:208,1,100,8|0,0:0|0:0,0:0:0:0:
153,39,87950,2,0,P|147:151|147:151,1,100,2|0,0:0|0:0,0:0:0:0:
281,146,88217,1,10,0:0:0:0:
73,299,88351,6,0,P|308:317|308:317,1,200,2|0,0:0|0:0,0:0:0:0:
54,222,88753,2,0,P|68:109|68:109,1,100,10|0,0:0|0:0,0:0:0:0:
301,188,89021,2,0,L|317:67,1,100,2|0,0:0|0:0,0:0:0:0:
179,57,89289,2,0,L|297:48,1,100,8|0,0:0|0:0,0:0:0:0:
70,322,89557,6,0,B|66:218|66:218,1,100,2|0,0:0|0:0,0:0:0:0:
195,213,89825,2,0,P|303:215|303:215,1,100,8|0,0:0|0:0,0:0:0:0:
79,107,90092,2,0,P|206:110|206:110,1,100,2|0,0:0|0:0,0:0:0:0:
64,27,90360,1,10,0:0:0:0:
283,297,90494,6,0,P|340:295|293:202,1,200,2|0,0:0|0:0,0:0:0:0:
87,98,90896,2,0,P|200:89|200:89,1,100,10|0,0:0|0:0,0:0:0:0:
408,198,91164,2,0,P|198:188|198:188,1,200,2|8,0:0|0:0,0:0:0:0:
347,129,91566,1,0,0:0:0:0:
104,290,91700,6,0,P|41:274|78:207,1,150,6|0,0:0|0:0,0:0:0:0:
256,203,91967,1,10,0:0:0:0:
286,157,92034,1,0,0:0:0:0:
274,103,92101,1,0,0:0:0:0:
224,79,92168,1,0,0:0:0:0:
443,293,92235,6,0,L|501:296,1,50,10|0,0:0|0:0,0:0:0:0:
492,295,92369,2,0,L|439:290,1,50,0|0,0:0|0:0,0:0:0:0:
250,189,92503,2,0,L|181:196,1,50,10|0,0:0|0:0,0:0:0:0:
250,189,92637,2,0,L|313:192,1,50,0|0,0:0|0:0,0:0:0:0:
92,172,92771,5,10,0:0:0:0:
41,150,92838,1,0,0:0:0:0:
20,98,92905,1,0,0:0:0:0:
32,44,92972,1,0,0:0:0:0:
230,67,93039,2,0,L|285:71,1,50,10|0,0:0|0:0,0:0:0:0:
230,67,93173,2,0,L|168:68,1,50,0|0,0:0|0:0,0:0:0:0:
399,280,93307,5,10,0:0:0:0:
451,265,93374,1,0,0:0:0:0:
488,224,93441,1,0,0:0:0:0:
473,170,93508,1,0,0:0:0:0:
267,202,93575,1,10,0:0:0:0:
285,150,93641,1,0,0:0:0:0:
320,107,93708,1,0,0:0:0:0:
372,88,93775,1,0,0:0:0:0:
141,241,93842,6,0,L|69:235,1,50,10|0,0:0|0:0,0:0:0:0:
270,275,93976,2,0,L|325:271,1,50,10|0,0:0|0:0,0:0:0:0:
488,206,94110,2,0,L|429:200,1,50,10|0,0:0|0:0,0:0:0:0:
267,169,94244,2,0,L|207:164,1,50,10|0,0:0|0:0,0:0:0:0:
393,101,94378,6,0,L|331:94,1,50,10|0,0:0|0:0,0:0:0:0:
177,67,94512,2,0,L|110:62,1,50,10|0,0:0|0:0,0:0:0:0:
286,206,94646,1,10,0:0:0:0:
443,173,94713,1,8,0:0:0:0:
286,206,94780,1,10,0:0:0:0:
125,230,94847,1,8,0:0:0:0:
376,303,94914,1,14,0:0:0:0:
371,197,95583,5,0,0:0:0:0:
167,158,95717,2,0,P|163:219|251:271,1,150,10|0,0:0|0:0,0:0:0:0:
444,61,95985,6,0,L|243:56,1,200,6|8,0:0|0:0,0:0:0:0:
387,165,96387,2,0,L|267:157,2,100,0|0|0,0:0|0:0|0:0,0:0:0:0:
158,181,96789,2,0,L|147:305,1,100,10|0,0:0|0:0,0:0:0:0:
372,295,97057,6,0,P|420:275|351:190,1,200,2|8,0:0|0:0,0:0:0:0:
257,191,97458,1,0,0:0:0:0:
477,153,97592,2,0,L|484:43,1,100,2|0,0:0|0:0,0:0:0:0:
234,38,97860,2,0,L|354:33,1,100,10|0,0:0|0:0,0:0:0:0:
93,246,98128,5,2,0:0:0:0:
193,242,98262,1,0,0:0:0:0:
292,234,98396,1,8,0:0:0:0:
66,155,98530,2,0,L|170:147,2,100,2|0|0,0:0|0:0|0:0,0:0:0:0:
303,65,98932,2,0,L|186:70,1,100,10|0,0:0|0:0,0:0:0:0:
432,275,99200,6,0,L|195:289,1,200,2|8,0:0|0:0,0:0:0:0:
331,224,99601,1,0,0:0:0:0:
105,182,99735,2,0,L|103:66,1,100,10|0,0:0|0:0,0:0:0:0:
358,47,100003,2,0,L|362:167,1,100,10|0,0:0|0:0,0:0:0:0:
85,302,100271,6,0,P|32:273|122:212,1,200,2|8,0:0|0:0,0:0:0:0:
256,142,100673,2,0,L|134:137,2,100,0|0|0,0:0|0:0|0:0,0:0:0:0:
36,55,101075,2,0,L|139:62,1,100,10|0,0:0|0:0,0:0:0:0:
361,300,101342,6,0,P|416:287|351:217,1,200,2|8,0:0|0:0,0:0:0:0:
251,229,101744,1,0,0:0:0:0:
386,158,101878,2,0,L|396:44,1,100,0|0,0:0|0:0,0:0:0:0:
174,54,102146,2,0,L|56:45,1,100,10|0,0:0|0:0,0:0:0:0:
331,301,102414,6,0,P|386:290|319:211,1,200,2|8,0:0|0:0,0:0:0:0:
107,201,102816,2,0,P|84:142|193:79,1,200,2|0,0:0|0:0,0:0:0:0:
404,47,103217,2,0,L|412:158,1,100,10|0,0:0|0:0,0:0:0:0:
193,259,103485,6,0,L|331:252,1,100,2|0,0:0|0:0,0:0:0:0:
61,267,103753,2,0,L|56:162,1,100,8|0,0:0|0:0,0:0:0:0:
276,132,104021,1,8,0:0:0:0:
51,37,104155,1,8,0:0:0:0:
276,132,104289,1,8,0:0:0:0:
51,37,104423,1,8,0:0:0:0:
309,68,104557,6,0,P|189:56|189:56,1,100,6|0,0:0|0:0,0:0:0:0:
466,258,104825,1,8,0:0:0:0:
209,217,104958,2,0,P|312:224|312:224,2,100,2|0|0,0:0|0:0|0:0,0:0:0:0:
444,74,105360,6,0,P|433:183|433:183,1,100,10|0,0:0|0:0,0:0:0:0:
182,74,105628,1,0,0:0:0:0:
437,298,105762,2,0,L|323:288,2,100,2|8|0,0:0|0:0|0:0,0:0:0:0:
187,178,106164,6,0,L|329:182,1,100,2|0,0:0|0:0,0:0:0:0:
42,88,106432,1,8,0:0:0:0:
306,291,106566,2,0,P|190:287|190:287,2,100,2|0|0,0:0|0:0|0:0,0:0:0:0:
56,146,106967,6,0,L|63:259,1,100,10|0,0:0|0:0,0:0:0:0:
308,222,107235,1,0,0:0:0:0:
51,317,107369,2,0,P|166:308|166:308,2,100,2|8|0,0:0|0:0|0:0,0:0:0:0:
316,169,107771,6,0,P|327:61|327:61,1,100,10|0,0:0|0:0,0:0:0:0:
71,169,108039,2,0,P|57:49|57:49,1,100,10|0,0:0|0:0,0:0:0:0:
318,318,108307,2,0,P|423:307|423:307,1,100,10|0,0:0|0:0,0:0:0:0:
163,271,108575,2,0,P|57:279|57:279,1,100,10|0,0:0|0:0,0:0:0:0:
311,218,108842,6,0,P|323:114|323:114,1,100,6|0,0:0|0:0,0:0:0:0:
182,149,109110,2,0,P|161:44|161:44,1,100,8|0,0:0|0:0,0:0:0:0:
382,297,109378,2,0,P|272:292|272:292,1,100,2|0,0:0|0:0,0:0:0:0:
423,232,109646,2,0,L|432:116,1,100,8|0,0:0|0:0,0:0:0:0:
209,172,109914,6,0,P|191:58|191:58,1,100,2|0,0:0|0:0,0:0:0:0:
406,316,110182,2,0,P|444:282|354:201,1,200,10|0,0:0|0:0,0:0:0:0:
265,203,110583,1,0,0:0:0:0:
485,110,110717,2,0,B|357:97,1,100,10|0,0:0|0:0,0:0:0:0:
185,301,110985,6,0,P|177:187|177:187,1,100,2|0,0:0|0:0,0:0:0:0:
330,230,111253,2,0,P|434:224|434:224,1,100,8|0,0:0|0:0,0:0:0:0:
188,97,111521,2,0,L|195:222,1,100,2|0,0:0|0:0,0:0:0:0:
425,57,111789,2,0,P|436:193|436:193,1,100,8|0,0:0|0:0,0:0:0:0:
153,281,112057,5,2,0:0:0:0:
377,245,112191,1,8,0:0:0:0:
252,237,112325,1,0,0:0:0:0:
465,181,112458,1,10,0:0:0:0:
244,152,112592,1,0,0:0:0:0:
365,144,112726,1,8,0:0:0:0:
134,77,112860,1,2,0:0:0:0:
390,52,112994,1,8,0:0:0:0:
129,315,113128,6,0,L|51:235,2,100,6|0|8,0:0|0:0|0:0,0:0:0:0:
299,224,113664,2,0,L|372:299,2,100,2|0|8,0:0|0:0|0:0,0:0:0:0:
38,191,114200,6,0,P|45:84|45:84,1,100,2|0,0:0|0:0,0:0:0:0:
124,89,114467,1,8,0:0:0:0:
266,309,114735,2,0,P|259:202|259:202,1,100,2|0,0:0|0:0,0:0:0:0:
177,210,115002,1,8,0:0:0:0:
443,195,115271,6,0,L|494:109,2,100,2|0|8,0:0|0:0|0:0,0:0:0:0:
280,183,115807,2,0,L|218:276,2,100,2|0|8,0:0|0:0|0:0,0:0:0:0:
37,230,116342,6,0,P|46:117|46:117,1,100,2|0,0:0|0:0,0:0:0:0:
142,137,116610,1,8,0:0:0:0:
284,137,116744,1,2,0:0:0:0:
20,314,117012,1,2,0:0:0:0:
315,313,118083,6,0,L|309:254,1,50,0|0,0:0|0:0,0:0:0:0:
144,234,118217,2,0,L|133:117,1,100,10|0,0:0|0:0,0:0:0:0:
396,165,118485,6,0,P|519:159|519:159,2,100,6|0|8,0:0|0:0|0:0,0:0:0:0:
252,174,118887,1,10,0:0:0:0:
395,327,119021,2,0,P|450:318|380:234,1,200,0|8,0:0|0:0,0:0:0:0:
327,223,119423,1,0,0:0:0:0:
110,177,119557,6,0,P|1:170|1:170,2,100,2|0|8,0:0|0:0|0:0,0:0:0:0:
249,178,119958,1,10,0:0:0:0:
106,323,120092,2,0,P|59:301|129:216,1,200,0|8,0:0|0:0,0:0:0:0:
204,218,120494,1,0,0:0:0:0:
444,228,120628,6,0,P|443:122|443:122,1,100,2|0,0:0|0:0,0:0:0:0:
362,125,120896,1,8,0:0:0:0:
223,127,121030,1,10,0:0:0:0:
362,338,121164,2,0,P|421:336|465:203,1,200,0|8,0:0|0:0,0:0:0:0:
393,223,121566,1,0,0:0:0:0:
152,257,121700,6,0,L|149:142,1,100,2|0,0:0|0:0,0:0:0:0:
229,154,121967,1,8,0:0:0:0:
369,152,122101,1,10,0:0:0:0:
229,328,122235,2,0,L|241:217,1,100,0|0,0:0|0:0,0:0:0:0:
388,249,122503,2,0,B|402:133,1,100,8|0,0:0|0:0,0:0:0:0:
155,190,122771,5,2,0:0:0:0:
54,184,122905,2,0,L|53:72,1,100,0|8,0:0|0:0,0:0:0:0:
209,121,123173,1,10,0:0:0:0:
57,319,123307,2,0,P|17:258|75:134,1,200,0|8,0:0|0:0,0:0:0:0:
162,204,123708,1,0,0:0:0:0:
382,179,123842,5,2,0:0:0:0:
486,183,123976,2,0,L|490:80,1,100,0|8,0:0|0:0,0:0:0:0:
337,221,124244,1,10,0:0:0:0:
483,319,124378,2,0,P|504:265|402:170,1,200,0|8,0:0|0:0,0:0:0:0:
316,202,124780,1,0,0:0:0:0:
99,189,124914,6,0,P|20:125|20:125,2,100,2|0|8,0:0|0:0|0:0,0:0:0:0:
241,200,125316,2,0,L|301:201,1,50,2|0,0:0|0:0,0:0:0:0:
241,200,125450,1,2,0:0:0:0:
30,82,125717,1,2,0:0:0:0:
442,328,125985,6,0,L|456:243,1,66.6666666666667,10|0,0:0|0:0,0:0:0:0:
356,258,126164,2,0,P|334:194|334:194,1,66.6666666666667,8|0,0:0|0:0,0:0:0:0:
489,93,126342,2,0,P|400:84|400:84,1,66.6666666666667,10|0,0:0|0:0,0:0:0:0:
239,273,126521,2,0,P|154:266|154:266,1,66.6666666666667,8|0,0:0|0:0,0:0:0:0:
378,180,126700,2,0,P|455:185|455:185,1,66.6666666666667,8|0,0:0|0:0,0:0:0:0:
224,91,126878,2,0,P|150:85|150:85,1,66.6666666666667,8|0,0:0|0:0,0:0:0:0:
411,327,127057,6,0,L|302:313,1,100,6|0,0:0|0:0,0:0:0:0:
454,244,127325,2,0,L|469:128,1,100,8|0,0:0|0:0,0:0:0:0:
257,224,127592,2,0,B|368:230|369:230,1,100,2|0,0:0|0:0,0:0:0:0:
213,149,127860,2,0,P|196:36|196:36,1,100,8|0,0:0|0:0,0:0:0:0:
397,314,128128,6,0,P|288:308|288:308,1,100,2|0,0:0|0:0,0:0:0:0:
154,303,128396,2,0,P|25:295|25:295,1,100,8|0,0:0|0:0,0:0:0:0:
275,208,128664,2,0,P|393:214|393:214,1,100,2|0,0:0|0:0,0:0:0:0:
231,125,128932,2,0,L|350:129,1,100,8|0,0:0|0:0,0:0:0:0:
119,292,129200,6,0,P|109:176|109:176,1,100,2|0,0:0|0:0,0:0:0:0:
247,150,129467,2,0,B|136:145|136:145|137:145,1,100,8|0,0:0|0:0,0:0:0:0:
355,304,129735,2,0,P|428:288|356:224,1,200,2|8,0:0|0:0,0:0:0:0:
290,216,130137,1,0,0:0:0:0:
70,156,130271,6,0,P|183:154|183:154,1,100,2|0,0:0|0:0,0:0:0:0:
35,227,130539,2,0,P|42:336|42:336,1,100,8|0,0:0|0:0,0:0:0:0:
255,304,130807,2,0,P|284:256|179:180,1,200,2|8,0:0|0:0,0:0:0:0:
114,172,131208,1,0,0:0:0:0:
321,132,131342,6,0,P|326:244|326:244,1,100,2|0,0:0|0:0,0:0:0:0:
448,200,131610,2,0,P|441:320|441:320,1,100,8|0,0:0|0:0,0:0:0:0:
191,120,131878,2,0,P|182:236|182:236,1,100,2|0,0:0|0:0,0:0:0:0:
60,218,132146,2,0,P|70:326|70:326,1,100,8|0,0:0|0:0,0:0:0:0:
317,298,132414,6,0,P|203:290|203:290,1,100,2|0,0:0|0:0,0:0:0:0:
359,233,132682,2,0,P|368:122|368:122,1,100,8|0,0:0|0:0,0:0:0:0:
148,217,132950,2,0,P|86:205|153:119,1,200,2|8,0:0|0:0,0:0:0:0:
209,108,133351,1,0,0:0:0:0:
422,325,133485,6,0,P|416:220|416:220,1,100,2|0,0:0|0:0,0:0:0:0:
293,229,133753,1,8,0:0:0:0:
81,124,133887,2,0,P|65:201|179:254,1,200,2|0,0:0|0:0,0:0:0:0:
289,152,134289,2,0,P|182:139|182:139,1,100,10|0,0:0|0:0,0:0:0:0:
407,299,134557,5,2,0:0:0:0:
272,264,134691,1,8,0:0:0:0:
321,257,134758,1,8,0:0:0:0:
370,249,134825,1,8,0:0:0:0:
136,188,134958,2,0,L|239:196,2,100,10|0|8,0:0|0:0|0:0,0:0:0:0:
360,168,135360,2,0,L|374:57,1,100,8|8,0:0|0:0,0:0:0:0:
81,246,135628,6,0,P|77:131|77:131,1,100,6|0,0:0|0:0,0:0:0:0:
239,128,136030,1,0,0:0:0:0:
78,173,136432,6,0,P|50:256|152:300,1,200,2|0,0:0|0:0,0:0:0:0:
289,306,136967,1,2,0:0:0:0:
20,114,137235,1,2,0:0:0:0:
457,121,137503,1,2,0:0:0:0:
81,308,137771,6,0,P|77:189|77:189,1,100,6|0,0:0|0:0,0:0:0:0:
242,195,138173,2,0,P|255:76|255:76,1,100,2|0,0:0|0:0,0:0:0:0:
119,88,138441,1,0,0:0:0:0:
341,308,138575,6,0,P|396:289|321:223,1,200,10|0,0:0|0:0,0:0:0:0:
246,212,138976,1,0,0:0:0:0:
385,174,139110,2,0,P|453:156|379:83,1,200,8|0,0:0|0:0,0:0:0:0:
319,74,139512,1,0,0:0:0:0:
115,263,139646,2,0,L|58:263,1,50,8|8,0:0|0:0,0:0:0:0:
277,254,139780,2,0,B|333:254|334:254|334:254,1,50,8|8,0:0|0:0,0:0:0:0:
103,176,139914,6,0,P|91:64|91:64,1,100,6|0,0:0|0:0,0:0:0:0:
232,157,140182,2,0,L|336:146,1,100,8|0,0:0|0:0,0:0:0:0:
93,325,140450,2,0,P|85:226|85:226,1,100,2|0,0:0|0:0,0:0:0:0:
223,158,140717,2,0,P|113:152|113:152,1,100,8|0,0:0|0:0,0:0:0:0:
329,296,140985,6,0,P|391:275|318:187,1,200,2|8,0:0|0:0,0:0:0:0:
138,253,141387,2,0,P|83:229|166:127,1,200,2|0,0:0|0:0,0:0:0:0:
264,65,141789,2,0,L|383:58,1,100,8|0,0:0|0:0,0:0:0:0:
151,315,142057,6,0,P|144:203|144:203,1,100,2|0,0:0|0:0,0:0:0:0:
291,199,142325,2,0,L|298:321,1,100,8|0,0:0|0:0,0:0:0:0:
88,100,142592,2,0,L|204:91,1,100,2|0,0:0|0:0,0:0:0:0:
411,232,142860,1,8,0:0:0:0:
189,226,142994,1,0,0:0:0:0:
396,160,143128,6,0,L|407:61,1,100,10|0,0:0|0:0,0:0:0:0:
169,298,143396,2,0,L|146:182,1,100,10|0,0:0|0:0,0:0:0:0:
382,76,143664,2,0,P|177:66|177:66,1,200,10|8,0:0|0:0,0:0:0:0:
317,170,144066,1,0,0:0:0:0:
109,318,144200,6,0,P|77:283|179:200,1,200,6|0,0:0|0:0,0:0:0:0:
397,260,144735,2,0,P|451:242|376:174,1,200,10|0,0:0|0:0,0:0:0:0:
242,226,145137,6,0,P|176:217|171:92,1,200,2|8,0:0|0:0,0:0:0:0:
300,88,145539,2,0,P|401:82|401:82,1,100,0|0,0:0|0:0,0:0:0:0:
260,323,145807,2,0,P|285:258|415:222,1,200,10|0,0:0|0:0,0:0:0:0:
47,246,146342,6,0,P|26:187|137:122,1,200,6|0,0:0|0:0,0:0:0:0:
390,127,146878,2,0,L|493:97,1,100,10|0,0:0|0:0,0:0:0:0:
111,267,147280,6,0,L|11:264,2,100,2|8|0,0:0|0:0|0:0,0:0:0:0:
249,196,147682,2,0,P|126:185|126:185,1,100,2|0,0:0|0:0,0:0:0:0:
354,118,147950,2,0,P|240:109|240:109,1,100,10|0,0:0|0:0,0:0:0:0:
448,300,148217,2,0,P|339:289|339:289,1,100,8|0,0:0|0:0,0:0:0:0:
113,255,148485,6,0,L|110:196,1,50,14|0,0:0|0:0,0:0:0:0:
194,207,148619,1,0,0:0:0:0:
251,189,148686,1,0,0:0:0:0:
270,132,148753,1,0,0:0:0:0:
237,81,148820,1,0,0:0:0:0:
158,63,148887,2,0,L|153:117,1,50,0|0,0:0|0:0,0:0:0:0:
366,230,149021,5,10,0:0:0:0:
420,204,149088,1,0,0:0:0:0:
438,146,149155,1,0,0:0:0:0:
398,100,149222,1,0,0:0:0:0:
318,75,149289,2,0,L|315:138,1,50,0|0,0:0|0:0,0:0:0:0:
397,64,149423,2,0,L|404:8,1,50,0|0,0:0|0:0,0:0:0:0:
167,297,149557,5,10,0:0:0:0:
108,282,149624,1,0,0:0:0:0:
68,236,149691,1,0,0:0:0:0:
69,175,149758,1,0,0:0:0:0:
101,124,149825,1,0,0:0:0:0:
156,103,149891,1,0,0:0:0:0:
103,87,149958,1,0,0:0:0:0:
50,70,150025,1,0,0:0:0:0:
267,212,150092,6,0,L|324:206,1,50,10|0,0:0|0:0,0:0:0:0:
240,274,150226,1,0,0:0:0:0:
189,251,150293,1,0,0:0:0:0:
159,204,150360,1,0,0:0:0:0:
159,148,150427,1,0,0:0:0:0:
188,101,150494,1,0,0:0:0:0:
242,90,150561,1,0,0:0:0:0:
468,286,150628,5,14,0:0:0:0:
495,238,150695,1,0,0:0:0:0:
480,184,150762,1,0,0:0:0:0:
431,157,150829,1,0,0:0:0:0:
253,182,150896,1,10,0:0:0:0:
232,131,150963,1,0,0:0:0:0:
254,80,151030,1,0,0:0:0:0:
302,54,151097,1,0,0:0:0:0:
127,269,151164,5,10,0:0:0:0:
74,251,151231,1,0,0:0:0:0:
51,200,151298,1,0,0:0:0:0:
78,152,151365,1,0,0:0:0:0:
251,112,151432,2,0,L|316:119,1,50,10|0,0:0|0:0,0:0:0:0:
251,112,151566,2,0,L|179:102,1,50,0|0,0:0|0:0,0:0:0:0:
417,262,151700,6,0,L|483:261,1,50,10|0,0:0|0:0,0:0:0:0:
466,261,151833,2,0,L|406:263,1,50,0|0,0:0|0:0,0:0:0:0:
209,190,151967,2,0,L|276:187,1,50,10|0,0:0|0:0,0:0:0:0:
434,136,152101,2,0,L|371:130,1,50,0|0,0:0|0:0,0:0:0:0:
199,70,152235,6,0,L|140:74,1,50,10|0,0:0|0:0,0:0:0:0:
199,70,152369,2,0,L|254:75,1,50,0|0,0:0|0:0,0:0:0:0:
49,276,152503,1,10,0:0:0:0:
19,229,152570,1,0,0:0:0:0:
29,180,152637,1,0,0:0:0:0:
72,155,152704,1,0,0:0:0:0:
283,153,152771,6,0,L|352:151,1,50,10|0,0:0|0:0,0:0:0:0:
127,105,152905,2,0,L|117:177,1,50,10|0,0:0|0:0,0:0:0:0:
319,229,153039,2,0,L|252:235,1,50,10|0,0:0|0:0,0:0:0:0:
85,258,153173,2,0,L|150:266,1,50,10|0,0:0|0:0,0:0:0:0:
291,281,153307,2,0,L|353:279,1,50,10|0,0:0|0:0,0:0:0:0:
500,165,153441,2,0,L|434:168,1,50,10|0,0:0|0:0,0:0:0:0:
288,178,153575,1,10,0:0:0:0:
137,173,153641,1,8,0:0:0:0:
288,178,153708,1,10,0:0:0:0:
447,191,153775,1,8,0:0:0:0:
204,296,153842,1,14,0:0:0:0:
331,250,154512,5,0,0:0:0:0:
130,254,154646,2,0,P|73:249|117:187,1,150,10|0,0:0|0:0,0:0:0:0:
327,184,154914,6,0,P|385:173|316:101,1,200,6|8,0:0|0:0,0:0:0:0:
191,76,155316,2,0,L|299:80,2,100,0|0|0,0:0|0:0|0:0,0:0:0:0:
422,287,155717,2,0,L|316:278,1,100,10|0,0:0|0:0,0:0:0:0:
99,259,155985,6,0,P|71:216|177:158,1,200,2|8,0:0|0:0,0:0:0:0:
268,160,156387,1,0,0:0:0:0:
51,136,156521,2,0,L|46:32,1,100,2|0,0:0|0:0,0:0:0:0:
276,30,156789,2,0,L|161:22,1,100,10|0,0:0|0:0,0:0:0:0:
412,265,157057,6,0,L|305:268,2,100,2|0|8,0:0|0:0|0:0,0:0:0:0:
159,171,157458,2,0,L|263:166,2,100,2|0|0,0:0|0:0|0:0,0:0:0:0:
443,169,157860,2,0,L|450:60,1,100,10|0,0:0|0:0,0:0:0:0:
163,53,158128,6,0,L|370:49,1,200,2|8,0:0|0:0,0:0:0:0:
260,73,158530,1,0,0:0:0:0:
487,253,158664,2,0,L|380:245,1,100,10|0,0:0|0:0,0:0:0:0:
141,200,158932,2,0,L|28:192,1,100,10|0,0:0|0:0,0:0:0:0:
304,192,159200,6,0,P|364:179|296:103,1,200,2|8,0:0|0:0,0:0:0:0:
167,67,159601,2,0,L|271:74,2,100,0|0|0,0:0|0:0|0:0,0:0:0:0:
411,60,160003,2,0,L|423:165,1,100,10|0,0:0|0:0,0:0:0:0:
195,301,160271,6,0,P|142:287|216:216,1,200,2|8,0:0|0:0,0:0:0:0:
302,213,160673,1,0,0:0:0:0:
169,162,160807,2,0,L|163:52,1,100,0|0,0:0|0:0,0:0:0:0:
407,46,161075,2,0,L|410:165,1,100,10|0,0:0|0:0,0:0:0:0:
165,274,161342,6,0,L|369:263,1,200,2|8,0:0|0:0,0:0:0:0:
134,217,161744,2,0,P|71:204|138:131,1,200,2|0,0:0|0:0,0:0:0:0:
356,116,162146,2,0,L|463:120,1,100,10|0,0:0|0:0,0:0:0:0:
221,193,162414,6,0,L|106:198,1,100,2|0,0:0|0:0,0:0:0:0:
361,284,162682,2,0,L|465:278,1,100,8|0,0:0|0:0,0:0:0:0:
244,113,162950,1,8,0:0:0:0:
458,60,163083,1,8,0:0:0:0:
244,113,163217,1,8,0:0:0:0:
458,60,163351,1,8,0:0:0:0:
206,188,163485,6,0,P|319:182|319:182,1,100,14|0,0:0|0:0,0:0:0:0:
62,69,163753,1,8,0:0:0:0:
300,283,163887,1,2,0:0:0:0:
188,275,164021,1,0,0:0:0:0:
78,265,164155,1,0,0:0:0:0:
331,186,164289,6,0,L|280:95,1,100,10|0,0:0|0:0,0:0:0:0:
56,87,164557,1,0,0:0:0:0:
309,312,164691,1,2,0:0:0:0:
200,306,164825,1,8,0:0:0:0:
90,300,164958,1,0,0:0:0:0:
331,186,165092,6,0,P|215:179|215:179,1,100,2|0,0:0|0:0,0:0:0:0:
472,83,165360,1,8,0:0:0:0:
235,280,165494,1,2,0:0:0:0:
346,286,165628,1,0,0:0:0:0:
456,292,165762,1,0,0:0:0:0:
207,180,165896,6,0,L|253:87,1,100,10|0,0:0|0:0,0:0:0:0:
475,76,166164,1,0,0:0:0:0:
238,329,166298,1,2,0:0:0:0:
347,334,166432,1,8,0:0:0:0:
456,338,166566,1,0,0:0:0:0:
194,200,166700,6,0,P|76:194|76:194,1,100,10|0,0:0|0:0,0:0:0:0:
341,106,166967,2,0,P|452:112|452:112,1,100,10|0,0:0|0:0,0:0:0:0:
175,43,167235,2,0,L|184:154,1,100,10|0,0:0|0:0,0:0:0:0:
448,41,167503,2,0,L|457:151,1,100,10|0,0:0|0:0,0:0:0:0:
206,313,167771,6,0,P|199:204|199:204,1,100,6|0,0:0|0:0,0:0:0:0:
338,227,168039,2,0,P|352:114|352:114,1,100,8|0,0:0|0:0,0:0:0:0:
138,167,168307,2,0,P|126:63|126:63,1,100,2|0,0:0|0:0,0:0:0:0:
269,37,168575,2,0,P|163:35|163:35,1,100,8|0,0:0|0:0,0:0:0:0:
381,304,168842,6,0,P|259:298|259:298,1,100,2|0,0:0|0:0,0:0:0:0:
421,232,169110,2,0,P|427:122|427:122,1,100,8|0,0:0|0:0,0:0:0:0:
214,139,169378,2,0,P|99:133|99:133,1,100,2|0,0:0|0:0,0:0:0:0:
257,57,169646,2,0,P|374:62|374:62,1,100,8|0,0:0|0:0,0:0:0:0:
136,311,169914,6,0,P|155:199|155:199,1,100,2|0,0:0|0:0,0:0:0:0:
297,228,170182,2,0,P|281:110|281:110,1,100,8|0,0:0|0:0,0:0:0:0:
70,126,170450,2,0,P|89:12|89:12,1,100,2|0,0:0|0:0,0:0:0:0:
301,317,170717,2,0,P|287:190|287:190,1,100,8|0,0:0|0:0,0:0:0:0:
51,221,170985,6,0,P|20:186|20:186,6,25,8|0|0|0|0|0|0,0:0|0:0|0:0|0:0|0:0|0:0|0:0,0:0:0:0:
253,106,171253,5,8,0:0:0:0:
227,103,171287,1,0,0:0:0:0:
202,99,171320,1,0,0:0:0:0:
176,95,171354,1,0,0:0:0:0:
151,91,171387,1,0,0:0:0:0:
126,86,171420,1,0,0:0:0:0:
100,83,171454,1,0,0:0:0:0:
289,299,171521,5,8,0:0:0:0:
313,294,171554,1,0,0:0:0:0:
336,285,171588,1,0,0:0:0:0:
356,271,171621,1,0,0:0:0:0:
373,252,171655,1,0,0:0:0:0:
384,230,171688,1,0,0:0:0:0:
387,204,171722,1,0,0:0:0:0:
128,152,171789,6,0,P|63:150|63:150,1,50,10|8,0:0|0:0,0:0:0:0:
326,143,171923,2,0,B|392:142|393:142|393:142,1,50,10|8,0:0|0:0,0:0:0:0:
99,248,172057,6,0,P|46:233|125:176,1,200,6|8,0:0|0:0,0:0:0:0:
212,157,172458,1,0,0:0:0:0:
354,177,172592,2,0,L|359:73,1,100,0|0,0:0|0:0,0:0:0:0:
222,57,172860,2,0,L|215:171,1,100,8|0,0:0|0:0,0:0:0:0:
442,325,173128,6,0,P|489:304|409:227,1,200,2|8,0:0|0:0,0:0:0:0:
323,223,173530,1,0,0:0:0:0:
467,143,173664,2,0,L|351:137,1,100,2|0,0:0|0:0,0:0:0:0:
86,106,173932,2,0,L|196:95,1,100,10|0,0:0|0:0,0:0:0:0:
393,298,174200,6,0,L|492:304,2,100,2|0|8,0:0|0:0|0:0,0:0:0:0:
191,200,174601,1,2,0:0:0:0:
291,197,174735,1,0,0:0:0:0:
390,183,174869,1,0,0:0:0:0:
187,101,175003,2,0,L|303:91,1,100,10|0,0:0|0:0,0:0:0:0:
47,276,175271,6,0,L|39:165,1,100,2|0,0:0|0:0,0:0:0:0:
248,193,175539,2,0,L|126:188,1,100,8|0,0:0|0:0,0:0:0:0:
360,143,175807,2,0,L|222:132,1,100,10|0,0:0|0:0,0:0:0:0:
472,68,176075,1,10,0:0:0:0:
247,42,176208,1,2,0:0:0:0:
469,316,176342,6,0,L|250:302,1,200,6|8,0:0|0:0,0:0:0:0:
395,236,176744,2,0,L|506:232,2,100
185,116,177146,2,0,L|304:111,1,100,10|2,0:0|0:0,0:0:0:0:
51,270,177414,6,0,P|12:235|106:158,1,200,2|8,0:0|0:0,0:0:0:0:
190,157,177816,1,0,0:0:0:0:
330,161,177950,2,0,L|322:57,1,100,0|0,0:0|0:0,0:0:0:0:
85,45,178217,2,0,L|199:37,1,100,10|2,0:0|0:0,0:0:0:0:
442,299,178485,6,0,L|452:181,1,100,2|0,0:0|0:0,0:0:0:0:
350,185,178753,1,10,0:0:0:0:
132,111,178887,1,0,0:0:0:0:
232,111,179021,1,0,0:0:0:0:
332,111,179155,1,0,0:0:0:0:
112,222,179289,2,0,L|105:122,1,100,10|0,0:0|0:0,0:0:0:0:
332,277,179557,6,0,L|346:172,1,100,2|0,0:0|0:0,0:0:0:0:
201,177,179825,2,0,L|86:171,1,100,8|0,0:0|0:0,0:0:0:0:
313,67,180092,1,10,0:0:0:0:
98,34,180226,1,8,0:0:0:0:
313,67,180360,1,10,0:0:0:0:
98,34,180494,1,8,0:0:0:0:
342,155,180628,6,0,P|401:155|401:155,1,50,6|0,0:0|0:0,0:0:0:0:
342,155,180762,2,0,L|262:154,1,50,0|0,0:0|0:0,0:0:0:0:
65,89,180896,2,0,L|57:156,1,50,10|0,0:0|0:0,0:0:0:0:
261,316,181030,2,0,L|320:316,1,50,2|0,0:0|0:0,0:0:0:0:
261,316,181164,2,0,L|185:316,1,50,0|0,0:0|0:0,0:0:0:0:
412,245,181298,2,0,P|418:180|418:180,1,50,2|0,0:0|0:0,0:0:0:0:
212,172,181432,6,0,P|139:172|139:172,1,50,10|0,0:0|0:0,0:0:0:0:
163,121,181566,2,0,L|229:121,1,50,0|0,0:0|0:0,0:0:0:0:
410,103,181700,2,0,P|400:40|400:40,1,50,2|0,0:0|0:0,0:0:0:0:
198,259,181833,2,0,P|131:259|131:259,1,50,2|0,0:0|0:0,0:0:0:0:
198,259,181967,2,0,L|258:259,1,50,8|0,0:0|0:0,0:0:0:0:
51,111,182101,2,0,P|40:179|40:179,1,50,2|0,0:0|0:0,0:0:0:0:
287,131,182235,6,0,L|342:131,1,50,2|0,0:0|0:0,0:0:0:0:
388,127,182369,2,0,L|410:73,1,50,0|0,0:0|0:0,0:0:0:0:
171,319,182503,2,0,L|116:319,1,50,10|0,0:0|0:0,0:0:0:0:
71,316,182637,2,0,L|42:260,1,50,0|0,0:0|0:0,0:0:0:0:
282,239,182771,6,0,L|346:239,1,50,2|0,0:0|0:0,0:0:0:0:
382,241,182905,2,0,B|312:238,1,50,0|0,0:0|0:0,0:0:0:0:
125,102,183039,2,0,P|135:173|135:173,1,50,10|0,0:0|0:0,0:0:0:0:
336,103,183173,2,0,P|403:103|403:103,1,50,2|0,0:0|0:0,0:0:0:0:
436,100,183307,2,0,L|382:98,1,50,0|0,0:0|0:0,0:0:0:0:
178,220,183441,2,0,P|186:284|186:284,1,50,2|0,0:0|0:0,0:0:0:0:
379,180,183575,6,0,L|441:180,1,50,10|0,0:0|0:0,0:0:0:0:
379,180,183708,2,0,P|306:179|306:179,1,50,0|0,0:0|0:0,0:0:0:0:
495,54,183842,2,0,P|489:110|489:110,1,50,2|0,0:0|0:0,0:0:0:0:
249,298,183976,2,0,L|193:265,1,50,2|0,0:0|0:0,0:0:0:0:
161,248,184110,2,0,P|136:171|136:171,1,50,8|0,0:0|0:0,0:0:0:0:
139,150,184244,2,0,L|157:65,1,50,0|0,0:0|0:0,0:0:0:0:
378,86,184378,6,0,P|442:85|442:85,1,50,2|0,0:0|0:0,0:0:0:0:
378,86,184512,2,0,L|319:86,1,50,0|0,0:0|0:0,0:0:0:0:
92,280,184646,2,0,L|20:279,1,50,10|0,0:0|0:0,0:0:0:0:
92,280,184780,2,0,L|155:279,1,50,0|0,0:0|0:0,0:0:0:0:
372,202,184914,5,6,0:0:0:0:
262,194,185048,1,0,0:0:0:0:
152,185,185182,1,8,0:0:0:0:
371,308,185316,2,0,L|268:304,1,100,2|0,0:0|0:0,0:0:0:0:
401,242,185583,1,2,0:0:0:0:
194,198,185717,2,0,B|185:87|185:86|185:86,1,100,10|0,0:0|0:0,0:0:0:0:
414,68,185985,5,2,0:0:0:0:
185,303,186119,2,0,P|75:296|75:296,2,100,2|8|0,0:0|0:0|0:0,0:0:0:0:
384,212,186521,2,0,P|257:205|257:205,1,100,2|0,0:0|0:0,0:0:0:0:
495,65,186789,2,0,L|377:62,1,100,10|0,0:0|0:0,0:0:0:0:
151,197,187057,6,0,L|78:201,1,50,10|0,0:0|0:0,0:0:0:0:
151,197,187191,2,0,L|209:192,1,50,0|0,0:0|0:0,0:0:0:0:
149,135,187325,2,0,L|95:139,1,50,0|0,0:0|0:0,0:0:0:0:
149,135,187458,2,0,L|201:132,1,50,8|0,0:0|0:0,0:0:0:0:
384,222,187592,6,0,L|447:219,1,55.0000016784668,2|0,0:0|0:0,0:0:0:0:
384,222,187726,2,0,L|317:225,1,55.0000016784668,0|0,0:0|0:0,0:0:0:0:
386,163,187860,2,0,L|441:161,1,55.0000016784668,8|0,0:0|0:0,0:0:0:0:
386,163,187994,2,0,L|323:165,1,55.0000016784668,0|0,0:0|0:0,0:0:0:0:
92,177,188128,6,0,L|10:179,1,59.9999981689454,2|0,0:0|0:0,0:0:0:0:
92,177,188262,2,0,L|160:175,1,59.9999981689454,8|0,0:0|0:0,0:0:0:0:
91,123,188396,2,0,L|21:124,1,59.9999981689454,0|0,0:0|0:0,0:0:0:0:
91,123,188530,2,0,L|157:122,1,59.9999981689454,8|0,0:0|0:0,0:0:0:0:
369,103,188664,6,0,L|440:101,1,50,10|8,0:0|0:0,0:0:0:0:
191,204,188798,2,0,L|129:204,1,50,8|8,0:0|0:0,0:0:0:0:
339,258,188932,2,0,L|407:255,1,50,10|8,0:0|0:0,0:0:0:0:
125,296,189066,2,0,L|60:293,1,50,8|8,0:0|0:0,0:0:0:0:
310,44,189200,6,0,P|383:44|244:312,1,600,6|0,0:0|0:0,0:0:0:0:
104,212,190539,2,0,L|244:62,2,200,0|0|0,0:0|0:0|0:0,0:0:0:0:
366,312,191342,6,0,P|420:287|280:121,1,400,2|0,0:0|0:0,0:0:0:0:
9,364,192146,2,0,L|508:13,1,600,0|0,0:0|0:0,0:0:0:0:
166,293,193485,6,0,P|117:268|185:178,1,200,2|0,0:0|0:0,0:0:0:0:
319,182,194021,1,2,0:0:0:0:
459,182,194289,1,0,0:0:0:0:
298,336,194557,6,0,P|279:286|392:237,1,200,2|0,0:0|0:0,0:0:0:0:
251,182,194958,2,0,P|193:176|285:66,1,300,2|0,0:0|0:0,0:0:0:0:
166,283,195628,5,2,0:0:0:0:
306,285,195896,1,0,0:0:0:0:
446,283,196164,1,0,0:0:0:0:
186,220,196432,6,0,P|124:203|192:115,1,200,2|0,0:0|0:0,0:0:0:0:
249,107,196833,1,2,0:0:0:0:
386,270,196967,2,0,P|439:258|365:182,1,200,2|2,0:0|0:0,0:0:0:0:
242,172,197369,1,2,0:0:0:0:
443,83,197503,1,2,0:0:0:0:
224,26,197637,2,0,L|213:77,1,50,2|0,0:0|0:0,0:0:0:0:
443,326,197771,6,0,P|499:325|499:325,1,50,6|0,0:0|0:0,0:0:0:0:
443,326,197905,2,0,P|375:324|375:324,1,50,0|0,0:0|0:0,0:0:0:0:
223,224,198039,2,0,P|158:223|158:223,1,50,10|0,0:0|0:0,0:0:0:0:
223,224,198173,2,0,L|287:223,1,50,0|0,0:0|0:0,0:0:0:0:
87,142,198307,6,0,P|23:141|23:141,1,50,10|0,0:0|0:0,0:0:0:0:
36,100,198441,2,0,P|92:100|92:100,1,50,0|0,0:0|0:0,0:0:0:0:
302,77,198575,2,0,L|318:136,1,50,10|0,0:0|0:0,0:0:0:0:
116,293,198708,6,0,P|65:283|65:283,1,50,2|0,0:0|0:0,0:0:0:0:
24,246,198842,2,0,B|18:187|18:186|18:186,1,50,8|0,0:0|0:0,0:0:0:0:
50,150,198976,2,0,P|105:127|105:127,1,50,0|0,0:0|0:0,0:0:0:0:
300,196,199110,2,0,P|362:195|362:195,1,50,10|0,0:0|0:0,0:0:0:0:
400,195,199244,2,0,P|344:195|344:195,1,50,0|0,0:0|0:0,0:0:0:0:
139,93,199378,6,0,P|74:92|74:92,1,50,10|0,0:0|0:0,0:0:0:0:
139,93,199512,2,0,P|201:94|201:94,1,50,0|0,0:0|0:0,0:0:0:0:
111,157,199646,2,0,L|55:157,1,50,8|0,0:0|0:0,0:0:0:0:
61,157,199780,2,0,L|114:156,1,50,0|0,0:0|0:0,0:0:0:0:
346,319,199914,5,10,0:0:0:0:
409,303,199981,1,0,0:0:0:0:
446,249,200048,1,0,0:0:0:0:
427,186,200115,1,0,0:0:0:0:
234,223,200182,1,10,0:0:0:0:
212,161,200249,1,0,0:0:0:0:
240,102,200316,1,0,0:0:0:0:
300,78,200383,1,0,0:0:0:0:
60,69,200450,2,0,P|-1:69|-1:69,1,50,10|0,0:0|0:0,0:0:0:0:
60,69,200583,2,0,P|126:70|126:70,1,50,0|0,0:0|0:0,0:0:0:0:
323,44,200717,2,0,B|329:111,1,50,10|0,0:0|0:0,0:0:0:0:
125,291,200851,6,0,P|117:237|117:237,1,50,2|0,0:0|0:0,0:0:0:0:
175,197,200985,2,0,P|231:198|231:198,1,50,8|0,0:0|0:0,0:0:0:0:
175,197,201119,2,0,P|104:196|104:196,1,50,0|0,0:0|0:0,0:0:0:0:
345,188,201253,2,0,P|402:188|402:188,1,50,10|0,0:0|0:0,0:0:0:0:
397,137,201387,2,0,P|320:137|320:137,1,50,0|0,0:0|0:0,0:0:0:0:
144,256,201521,6,0,P|70:245|70:245,1,50,10|0,0:0|0:0,0:0:0:0:
48,227,201655,2,0,P|43:168|43:168,1,50,0|0,0:0|0:0,0:0:0:0:
50,126,201789,2,0,P|81:73|81:73,1,50,8|0,0:0|0:0,0:0:0:0:
124,71,201923,2,0,L|189:67,1,50,0|0,0:0|0:0,0:0:0:0:
420,333,202057,6,0,L|429:227,1,100,10|0,0:0|0:0,0:0:0:0:
234,143,202325,2,0,P|356:137|356:137,1,100,8|0,0:0|0:0,0:0:0:0:
124,71,202592,2,0,P|232:63|232:63,1,100,10|0,0:0|0:0,0:0:0:0:
17,307,202860,2,0,P|133:298|133:298,1,100,8|0,0:0|0:0,0:0:0:0:
320,231,203128,6,0,P|200:223|200:223,1,100,10|0,0:0|0:0,0:0:0:0:
411,157,203396,2,0,P|285:148|285:148,1,100,8|0,0:0|0:0,0:0:0:0:
504,72,203664,2,0,P|377:66|377:66,1,100,10|0,0:0|0:0,0:0:0:0:
186,256,203932,1,8,0:0:0:0:
307,255,204066,1,8,0:0:0:0:
71,90,204200,6,0,L|62:156,1,50,10|0,0:0|0:0,0:0:0:0:
227,157,204333,2,0,L|285:154,1,50,0|0,0:0|0:0,0:0:0:0:
75,270,204467,2,0,L|0:265,1,50,10|0,0:0|0:0,0:0:0:0:
198,305,204601,2,0,L|262:301,1,50,8|0,0:0|0:0,0:0:0:0:
421,282,204735,2,0,L|425:212,1,50,10|0,0:0|0:0,0:0:0:0:
241,201,204869,6,0,L|298:197,1,50,8|0,0:0|0:0,0:0:0:0:
447,104,205003,1,10,0:0:0:0:
288,99,205070,1,8,0:0:0:0:
128,96,205137,1,8,0:0:0:0:
288,99,205204,1,8,0:0:0:0:
496,306,205271,1,12,0:0:0:0:
344,319,205539,6,0,P|261:247|495:109,1,500,10|0,0:0|0:0,0:0:0:0:
46,318,206342,6,0,P|300:302|300:302,1,239.999992675781,6|8,0:0|0:0,0:0:0:0:
138,234,206744,1,0,0:0:0:0:
283,189,206878,2,0,L|294:54,1,119.999996337891,0|0,0:0|0:0,0:0:0:0:
151,52,207146,2,0,L|23:45,1,119.999996337891,10|0,0:0|0:0,0:0:0:0:
304,305,207414,6,0,P|377:298|302:203,1,239.999992675781,2|8,0:0|0:0,0:0:0:0:
224,196,207816,1,0,0:0:0:0:
369,139,207950,2,0,P|499:129|499:129,1,119.999996337891,2|0,0:0|0:0,0:0:0:0:
242,60,208217,2,0,P|113:72|113:72,1,119.999996337891,10|0,0:0|0:0,0:0:0:0:
380,329,208485,6,0,P|376:256|230:211,1,239.999992675781,2|8,0:0|0:0,0:0:0:0:
20,209,208887,2,0,P|32:127|205:84,1,239.999992675781,2|0,0:0|0:0,0:0:0:0:
401,218,209289,1,10,0:0:0:0:
185,219,209423,1,0,0:0:0:0:
420,280,209557,6,0,P|473:239|366:166,1,239.999992675781,2|8,0:0|0:0,0:0:0:0:
278,159,209958,1,0,0:0:0:0:
498,47,210092,2,0,L|374:52,1,119.999996337891,10|0,0:0|0:0,0:0:0:0:
144,58,210360,2,0,L|8:63,1,119.999996337891,10|0,0:0|0:0,0:0:0:0:
279,289,210628,6,0,P|414:279|414:279,1,119.999996337891,6|0,0:0|0:0,0:0:0:0:
251,201,210896,2,0,L|119:208,1,119.999996337891,8|0,0:0|0:0,0:0:0:0:
279,102,211164,2,0,P|418:93|418:93,1,119.999996337891,0|0,0:0|0:0,0:0:0:0:
146,73,211432,2,0,P|136:196|136:196,1,119.999996337891,8|0,0:0|0:0,0:0:0:0:
376,319,211700,6,0,P|447:301|363:198,1,239.999992675781,2|8,0:0|0:0,0:0:0:0:
295,188,212101,1,0,0:0:0:0:
148,209,212235,2,0,B|142:68|142:68|141:68,1,119.999996337891,0|0,0:0|0:0,0:0:0:0:
289,73,212503,2,0,P|427:66|427:66,1,119.999996337891,10|0,0:0|0:0,0:0:0:0:
142,318,212771,6,0,P|90:273|205:202,1,239.999992675781,2|8,0:0|0:0,0:0:0:0:
434,218,213173,2,0,P|457:130|332:86,1,239.999992675781,2|0,0:0|0:0,0:0:0:0:
119,62,213575,2,0,P|97:197|97:197,1,119.999996337891,10|0,0:0|0:0,0:0:0:0:
340,302,213842,6,0,L|493:292,1,119.999996337891,2|0,0:0|0:0,0:0:0:0:
221,197,214110,2,0,P|89:206|89:206,1,119.999996337891,8|0,0:0|0:0,0:0:0:0:
358,91,214378,1,8,0:0:0:0:
121,72,214512,1,8,0:0:0:0:
351,183,214646,1,8,0:0:0:0:
107,174,214780,1,8,0:0:0:0:
344,315,214914,6,0,L|205:306|205:306,1,119.999996337891,6|0,0:0|0:0,0:0:0:0:
453,209,215182,1,8,0:0:0:0:
218,147,215316,2,0,P|354:140|354:140,2,119.999996337891,2|0|0,0:0|0:0|0:0,0:0:0:0:
450,38,215717,6,0,P|445:180|445:180,1,119.999996337891,10|0,0:0|0:0,0:0:0:0:
211,177,215985,1,0,0:0:0:0:
457,294,216119,2,0,P|331:288|331:288,2,119.999996337891,2|8|0,0:0|0:0|0:0,0:0:0:0:
214,216,216521,6,0,P|349:207|349:207,1,119.999996337891,2|0,0:0|0:0,0:0:0:0:
96,91,216789,1,8,0:0:0:0:
326,89,216923,2,0,P|200:95|200:95,2,119.999996337891,2|0|0,0:0|0:0|0:0,0:0:0:0:
66,217,217325,6,0,P|75:343|75:343,1,119.999996337891,10|0,0:0|0:0,0:0:0:0:
304,307,217592,1,0,0:0:0:0:
71,134,217726,2,0,P|213:122|213:122,2,119.999996337891,2|8|0,0:0|0:0|0:0,0:0:0:0:
313,227,218128,6,0,P|454:220|454:220,1,119.999996337891,10|0,0:0|0:0,0:0:0:0:
196,160,218396,2,0,L|62:166,1,119.999996337891,10|0,0:0|0:0,0:0:0:0:
350,78,218664,2,0,P|487:72|487:72,1,119.999996337891,10|0,0:0|0:0,0:0:0:0:
169,292,218932,2,0,P|43:299|43:299,1,119.999996337891,10|0,0:0|0:0,0:0:0:0:
289,258,219200,6,0,L|302:124,1,119.999996337891,6|0,0:0|0:0,0:0:0:0:
152,162,219467,2,0,P|137:37|137:37,1,119.999996337891,8|0,0:0|0:0,0:0:0:0:
355,305,219735,2,0,P|485:295|485:295,1,119.999996337891,2|0,0:0|0:0,0:0:0:0:
329,235,220003,2,0,P|185:245|185:245,1,119.999996337891,8|0,0:0|0:0,0:0:0:0:
433,178,220271,6,0,B|437:45|437:44|437:44,1,119.999996337891,2|0,0:0|0:0,0:0:0:0:
202,41,220539,2,0,P|135:67|214:174,1,239.999992675781,10|0,0:0|0:0,0:0:0:0:
298,177,220941,1,0,0:0:0:0:
151,312,221075,2,0,P|19:297|19:297,1,119.999996337891,10|0,0:0|0:0,0:0:0:0:
283,253,221342,6,0,P|303:129|303:129,1,119.999996337891,2|0,0:0|0:0,0:0:0:0:
156,112,221610,2,0,L|138:240,1,119.999996337891,8|0,0:0|0:0,0:0:0:0:
377,314,221878,2,0,P|507:316|507:316,1,119.999996337891,2|0,0:0|0:0,0:0:0:0:
219,227,222146,2,0,P|96:225|96:225,1,119.999996337891,10|0,0:0|0:0,0:0:0:0:
335,149,222414,6,0,P|175:136|175:136,1,157.499995193482,0|0,0:0|0:0,0:0:0:0:
178,136,222682,6,0,L|375:118,1,192.500005874634,0|0,0:0|0:0,0:0:0:0:
369,118,222950,6,0,L|140:100,1,227.499989585877,0|0,0:0|0:0,0:0:0:0:
142,100,223217,6,0,P|377:84|377:84,1,225.000008583069,0|0,0:0|0:0,0:0:0:0:
111,334,223485,6,0,P|48:307|63:148,1,239.999992675781,6|8,0:0|0:0,0:0:0:0:
198,157,223887,1,0,0:0:0:0:
343,220,224021,2,0,P|349:94|349:94,1,119.999996337891,0|0,0:0|0:0,0:0:0:0:
201,83,224289,2,0,P|65:79|65:79,1,119.999996337891,10|0,0:0|0:0,0:0:0:0:
318,317,224557,6,0,P|351:260|227:197,1,239.999992675781,2|8,0:0|0:0,0:0:0:0:
136,198,224958,1,0,0:0:0:0:
286,113,225092,2,0,P|428:104|428:104,1,119.999996337891,2|0,0:0|0:0,0:0:0:0:
178,295,225360,2,0,P|54:303|54:303,1,119.999996337891,10|0,0:0|0:0,0:0:0:0:
305,245,225628,6,0,P|320:174|175:124,1,239.999992675781,2|8,0:0|0:0,0:0:0:0:
447,276,226030,2,0,P|479:211|358:137,1,239.999992675781,2|0,0:0|0:0,0:0:0:0:
116,78,226432,2,0,L|89:201,1,119.999996337891,10|0,0:0|0:0,0:0:0:0:
329,301,226700,6,0,B|82:285|82:285|84:285,1,239.999992675781,2|8,0:0|0:0,0:0:0:0:
233,227,227101,1,0,0:0:0:0:
19,58,227235,2,0,P|38:178|38:178,1,119.999996337891,10|0,0:0|0:0,0:0:0:0:
290,85,227503,2,0,P|440:76|440:76,1,119.999996337891,10|0,0:0|0:0,0:0:0:0:
154,312,227771,6,0,P|84:273|181:193,1,239.999992675781,2|8,0:0|0:0,0:0:0:0:
396,203,228173,2,0,P|448:165|344:95,1,239.999992675781,2|0,0:0|0:0,0:0:0:0:
111,48,228575,2,0,L|88:169,1,119.999996337891,10|0,0:0|0:0,0:0:0:0:
344,313,228842,6,0,P|364:255|224:171,1,239.999992675781,2|8,0:0|0:0,0:0:0:0:
145,161,229244,1,0,0:0:0:0:
293,83,229378,2,0,P|305:209|305:209,1,119.999996337891,0|0,0:0|0:0,0:0:0:0:
151,227,229646,2,0,L|21:233,1,119.999996337891,10|0,0:0|0:0,0:0:0:0:
303,303,229914,6,0,P|379:289|434:137,1,239.999992675781,2|8,0:0|0:0,0:0:0:0:
206,170,230316,2,0,P|121:172|85:21,1,239.999992675781,2|0,0:0|0:0,0:0:0:0:
301,49,230717,2,0,P|173:45|173:45,1,119.999996337891,10|0,0:0|0:0,0:0:0:0:
453,247,230985,6,0,L|324:243,1,119.999996337891,10|0,0:0|0:0,0:0:0:0:
87,254,231253,2,0,L|222:241,1,119.999996337891,10|0,0:0|0:0,0:0:0:0:
428,80,231521,1,8,0:0:0:0:
189,36,231655,1,8,0:0:0:0:
427,141,231789,1,8,0:0:0:0:
190,95,231923,1,8,0:0:0:0:
440,284,232057,6,0,P|316:290|316:290,2,119.999996337891,6|0|8,0:0|0:0|0:0,0:0:0:0:
151,160,232458,1,2,0:0:0:0:
272,156,232592,1,0,0:0:0:0:
392,149,232726,1,0,0:0:0:0:
101,309,232860,6,0,L|246:301,2,119.999996337891,10|0|0,0:0|0:0|0:0,0:0:0:0:
407,211,233262,1,2,0:0:0:0:
288,206,233396,1,0,0:0:0:0:
169,199,233530,1,0,0:0:0:0:
472,94,233664,6,0,B|336:100,2,119.999996337891,2|0|8,0:0|0:0|0:0,0:0:0:0:
165,287,234066,1,2,0:0:0:0:
285,281,234200,1,0,0:0:0:0:
404,271,234333,1,0,0:0:0:0:
103,147,234467,6,0,L|233:142,2,119.999996337891,10|0|0,0:0|0:0|0:0,0:0:0:0:
411,65,234869,1,2,0:0:0:0:
291,64,235003,1,0,0:0:0:0:
171,60,235137,1,0,0:0:0:0:
430,252,235271,6,0,P|304:258|304:258,2,119.999996337891,2|0|8,0:0|0:0|0:0,0:0:0:0:
138,176,235673,1,2,0:0:0:0:
258,168,235807,1,0,0:0:0:0:
378,158,235941,1,0,0:0:0:0:
88,227,236075,2,0,L|91:354,1,119.999996337891,10|0,0:0|0:0,0:0:0:0:
345,233,236342,6,0,B|481:223|481:223|480:220,1,119.999996337891,6|0,0:0|0:0,0:0:0:0:
317,144,236610,2,0,P|174:152|174:152,1,119.999996337891,8|0,0:0|0:0,0:0:0:0:
452,68,236878,2,0,L|457:201,1,119.999996337891,2|0,0:0|0:0,0:0:0:0:
311,39,237146,2,0,P|448:32|448:32,1,119.999996337891,8|0,0:0|0:0,0:0:0:0:
181,271,237414,6,0,P|318:264|318:264,1,119.999996337891,2|0,0:0|0:0,0:0:0:0:
154,202,237682,2,0,P|146:63|146:63,1,119.999996337891,8|0,0:0|0:0,0:0:0:0:
400,185,237950,2,0,P|268:189|268:189,1,119.999996337891,2|0,0:0|0:0,0:0:0:0:
425,26,238217,2,0,L|434:157,1,119.999996337891,8|0,0:0|0:0,0:0:0:0:
176,288,238485,6,0,P|170:155|170:155,1,119.999996337891,2|0,0:0|0:0,0:0:0:0:
317,196,238753,2,0,L|466:190,1,119.999996337891,8|0,0:0|0:0,0:0:0:0:
203,98,239021,2,0,P|74:103|74:103,1,119.999996337891,2|0,0:0|0:0,0:0:0:0:
360,278,239289,2,0,L|500:274,1,119.999996337891,8|0,0:0|0:0,0:0:0:0:
239,330,239557,6,0,P|140:324|309:79,1,599.999981689454,2|0,0:0|0:0,0:0:0:0:
244,272,240628,6,0,P|351:263|351:263,1,100,6|0,0:0|0:0,0:0:0:0:
202,196,240896,2,0,L|94:202,1,100,8|0,0:0|0:0,0:0:0:0:
313,177,241164,2,0,L|296:67,1,100,2|0,0:0|0:0,0:0:0:0:
156,134,241432,2,0,P|170:20|170:20,1,100,8|0,0:0|0:0,0:0:0:0:
387,283,241700,6,0,P|503:273|503:273,1,100,2|0,0:0|0:0,0:0:0:0:
348,210,241967,2,0,P|227:219|227:219,1,100,8|0,0:0|0:0,0:0:0:0:
455,56,242235,2,0,P|462:169|462:169,1,100,2|0,0:0|0:0,0:0:0:0:
329,154,242503,1,10,0:0:0:0:
461,163,242637,1,2,0:0:0:0:
248,271,242771,6,0,B|124:275|124:275|125:275,1,100,2|0,0:0|0:0,0:0:0:0:
289,127,243039,2,0,L|297:248,1,100,8|0,0:0|0:0,0:0:0:0:
86,172,243307,2,0,B|78:51|78:51|76:52,1,100,2|0,0:0|0:0,0:0:0:0:
216,39,243575,2,0,P|101:45|101:45,1,100,8|0,0:0|0:0,0:0:0:0:
357,279,243842,6,0,P|218:282|218:282,1,100,10|0,0:0|0:0,0:0:0:0:
17,193,244110,2,0,L|143:189,1,100,10|0,0:0|0:0,0:0:0:0:
397,123,244378,2,0,L|270:127,1,100,10|0,0:0|0:0,0:0:0:0:
18,55,244646,2,0,L|129:54,1,100,10|0,0:0|0:0,0:0:0:0:
346,312,244914,6,0,L|350:198,1,100,6|0,0:0|0:0,0:0:0:0:
210,224,245182,2,0,P|197:113|197:113,1,100,8|0,0:0|0:0,0:0:0:0:
402,164,245450,2,0,P|406:43|406:43,1,100,2|0,0:0|0:0,0:0:0:0:
265,43,245717,2,0,P|376:38|376:38,1,100,8|0,0:0|0:0,0:0:0:0:
154,290,245985,6,0,P|148:177|148:177,1,100,2|0,0:0|0:0,0:0:0:0:
288,174,246253,2,0,P|407:165|407:165,1,100,8|0,0:0|0:0,0:0:0:0:
175,82,246521,2,0,P|56:87|56:87,1,100,2|0,0:0|0:0,0:0:0:0:
207,175,246789,1,10,0:0:0:0:
78,182,246923,1,2,0:0:0:0:
294,298,247057,6,0,P|302:182|302:182,1,100,2|0,0:0|0:0,0:0:0:0:
160,201,247325,2,0,P|144:83|144:83,1,100,8|0,0:0|0:0,0:0:0:0:
355,165,247592,2,0,P|367:58|367:58,1,100,2|0,0:0|0:0,0:0:0:0:
226,50,247860,2,0,L|217:162,1,100,8|0,0:0|0:0,0:0:0:0:
466,330,248128,6,0,P|469:210|469:210,1,100,2|0,0:0|0:0,0:0:0:0:
242,155,248396,2,0,B|106:159,1,100,10|0,0:0|0:0,0:0:0:0:
334,72,248664,1,10,0:0:0:0:
202,66,248798,1,8,0:0:0:0:
397,278,248932,1,10,0:0:0:0:
179,268,249066,1,8,0:0:0:0:
413,216,249200,6,0,P|463:186|372:113,1,200,6|0,0:0|0:0,0:0:0:0:
132,199,249735,2,0,P|66:161|145:103,1,200,8|0,0:0|0:0,0:0:0:0:
494,309,250271,6,0,P|487:232|351:196,1,200,2|0,0:0|0:0,0:0:0:0:
124,215,250807,2,0,P|131:135|265:117,1,200,8|2,0:0|0:0,0:0:0:0:
31,66,251208,1,10,0:0:0:0:
241,301,251342,6,0,P|303:293|366:159,1,200,2|0,0:0|0:0,0:0:0:0:
111,187,251878,2,0,P|47:178|43:51,1,200,10|0,0:0|0:0,0:0:0:0:
417,292,252414,6,0,P|446:235|330:164,1,200,2|10,0:0|0:0,0:0:0:0:
280,158,252816,1,8,0:0:0:0:
492,52,252950,2,0,P|382:49|382:49,1,100,10|0,0:0|0:0,0:0:0:0:
153,65,253217,2,0,L|42:64,1,100,10|0,0:0|0:0,0:0:0:0:
274,285,253485,6,0,B|392:277|392:277|392:278,1,100,6|0,0:0|0:0,0:0:0:0:
235,208,253753,2,0,P|120:216|120:216,1,100,8|0,0:0|0:0,0:0:0:0:
343,173,254021,2,0,P|364:62|364:62,1,100,2|0,0:0|0:0,0:0:0:0:
224,118,254289,2,0,P|193:-3|193:-3,1,100,8|0,0:0|0:0,0:0:0:0:
416,273,254557,6,0,L|304:277,1,100,2|0,0:0|0:0,0:0:0:0:
448,201,254825,2,0,P|451:83|451:83,1,100,8|0,0:0|0:0,0:0:0:0:
236,96,255092,2,0,L|127:100,1,100,2|0,0:0|0:0,0:0:0:0:
269,194,255360,1,10,0:0:0:0:
131,197,255494,1,2,0:0:0:0:
347,318,255628,6,0,L|469:309,1,100,2|0,0:0|0:0,0:0:0:0:
306,246,255896,2,0,B|191:254|191:254|192:254,1,100,8|0,0:0|0:0,0:0:0:0:
425,64,256164,2,0,P|323:69|323:69,1,100,2|0,0:0|0:0,0:0:0:0:
86,152,256432,2,0,L|81:268,1,100,8|0,0:0|0:0,0:0:0:0:
329,294,256700,5,4,0:0:0:0:
170,299,256967,1,0,0:0:0:0:
394,137,257235,1,0,0:0:0:0:
143,134,257503,1,0,0:0:0:0:
496,286,257771,5,4,0:0:0:0:
98,302,258039,1,0,0:0:0:0:
480,156,258307,2,0,P|421:155|421:155,1,50,10|8,0:0|0:0,0:0:0:0:
235,153,258441,2,0,P|158:155|158:155,1,50,8|8,0:0|0:0,0:0:0:0:
411,72,258575,2,0,P|477:71|477:71,1,50,10|0,0:0|0:0,0:0:0:0:
411,72,258708,2,0,L|346:74,1,50,0|0,0:0|0:0,0:0:0:0:
155,272,258842,5,14,0:0:0:0:
100,249,258909,1,0,0:0:0:0:
66,199,258976,1,0,0:0:0:0:
93,145,259043,1,0,0:0:0:0:
278,185,259110,1,10,0:0:0:0:
302,129,259177,1,0,0:0:0:0:
278,74,259244,1,0,0:0:0:0:
223,50,259311,1,0,0:0:0:0:
432,280,259378,5,10,0:0:0:0:
485,251,259445,1,0,0:0:0:0:
504,193,259512,1,0,0:0:0:0:
466,146,259579,1,0,0:0:0:0:
264,201,259646,2,0,L|199:196,1,50,10|0,0:0|0:0,0:0:0:0:
281,239,259780,2,0,L|340:232,1,50,0|0,0:0|0:0,0:0:0:0:
96,268,259914,6,0,L|164:262,1,50,14|0,0:0|0:0,0:0:0:0:
344,235,260048,2,0,L|358:295,1,50,8|0,0:0|0:0,0:0:0:0:
115,177,260182,2,0,L|180:170,1,50,14|0,0:0|0:0,0:0:0:0:
369,135,260316,2,0,L|383:199,1,50,8|0,0:0|0:0,0:0:0:0:
146,88,260450,2,0,L|202:83,1,50,14|0,0:0|0:0,0:0:0:0:
401,57,260583,2,0,L|414:120,1,50,8|0,0:0|0:0,0:0:0:0:
177,220,260717,2,0,L|120:216,1,50,14|0,0:0|0:0,0:0:0:0:
402,288,260851,2,0,L|458:293,1,50,8|0,0:0|0:0,0:0:0:0:
81,290,260985,5,12,0:0:0:0:
256,192,261119,12,0,264200,0:0:0:0:
