osu file format v14

[General]
AudioFilename: audio.mp3
AudioLeadIn: 0
PreviewTime: 95536
Countdown: 0
SampleSet: Soft
StackLeniency: 0.7
Mode: 2
LetterboxInBreaks: 0
WidescreenStoryboard: 1

[Editor]
Bookmarks: 40271,113128,189200,240628
DistanceSpacing: 0.8
BeatDivisor: 4
GridSize: 8
TimelineZoom: 1.5

[Metadata]
Title:Snow Drive (01.23)
TitleUnicode:スノウドライヴ (01.23)
Artist:Araki
ArtistUnicode:あらき
Creator:Du5t
Version:Daletto & Du5t's Overdose
Source:
Tags:Omoi cover utaite Nyalettowo x3 male vocal vocals vocalist synth rock japanese j-rock jrock electronic daletto dust idust idu5t
BeatmapID:2225760
BeatmapSetID:918947

[Difficulty]
HPDrainRate:6
CircleSize:4
OverallDifficulty:9.4
ApproachRate:9.4
SliderMultiplier:1.8
SliderTickRate:2

[Events]
//Background and Video events
0,0,"bg.jpg",0,0
//Break Periods
//Storyboard Layer 0 (Background)
//Storyboard Layer 1 (Fail)
//Storyboard Layer 2 (Pass)
//Storyboard Layer 3 (Foreground)
//Storyboard Layer 4 (Overlay)
//Storyboard Sound Samples

[TimingPoints]
1700,267.857142857143,4,2,11,45,1,0
10271,-100,4,2,11,50,0,0
11878,-100,4,2,11,55,0,0
12682,-100,4,2,11,60,0,0
13485,-100,4,2,11,65,0,0
14557,-100,4,2,11,45,0,0
17771,-100,4,2,11,50,0,0
18039,-100,4,2,11,55,0,0
18307,-100,4,2,11,60,0,0
18441,-100,4,2,11,65,0,0
18575,-100,4,2,11,70,0,0
18842,-100,4,2,11,75,0,0
27414,-100,4,2,11,55,0,0
31700,-100,4,2,11,75,0,0
35985,-100,4,2,11,70,0,0
40271,-100,4,2,11,60,0,0
47771,-100,4,2,11,65,0,0
48842,-100,4,2,11,70,0,0
56342,-100,4,2,11,65,0,0
57414,-100,4,2,11,70,0,0
61700,-100,4,2,11,60,0,0
69200,-100,4,2,11,75,0,0
70204,-100,4,2,11,5,0,0
70271,-100,4,2,11,70,0,0
78842,-100,4,2,11,75,0,0
91700,-100,4,2,11,65,0,0
93842,-100,4,2,11,55,0,0
95918,-100,4,2,11,5,0,0
95985,-90.9090909090909,4,2,11,80,0,1
104423,-90.9090909090909,4,2,11,80,0,0
104557,-90.9090909090909,4,2,11,80,0,1
108842,-90.9090909090909,4,2,11,80,0,1
113128,-100,4,2,11,60,0,0
118485,-100,4,2,11,70,0,0
125985,-100,4,2,11,50,0,0
126342,-100,4,2,11,60,0,0
126700,-100,4,2,11,70,0,0
135628,-100,4,2,11,65,0,0
139914,-100,4,2,11,75,0,0
144200,-100,4,2,11,70,0,0
148485,-100,4,2,11,55,0,0
150628,-100,4,2,11,65,0,0
152771,-100,4,2,11,70,0,0
153039,-100,4,2,11,75,0,0
153307,-100,4,2,11,80,0,0
153575,-100,4,2,11,80,0,0
154378,-100,4,2,11,55,0,0
154914,-100,4,2,11,80,0,1
163351,-100,4,2,11,80,0,0
163485,-100,4,2,11,80,0,1
167771,-100,4,2,11,80,0,1
170985,-100,4,2,11,60,0,0
171789,-100,4,2,11,65,0,0
171923,-100,4,2,11,70,0,0
172057,-100,4,2,11,75,0,0
180628,-100,4,2,11,80,0,1
184914,-100,4,2,11,70,0,1
187057,-100,4,2,11,65,0,1
187592,-100,4,2,11,70,0,1
188128,-100,4,2,11,75,0,1
188664,-100,4,2,11,80,0,1
189200,-142.857142857143,4,2,11,50,0,0
194557,-100,4,2,11,50,0,0
197369,-100,4,2,11,55,0,0
197503,-100,4,2,11,60,0,0
197637,-100,4,2,11,70,0,0
197771,-100,4,2,11,75,0,0
202057,-100,4,2,11,80,0,0
204200,-100,4,2,11,85,0,0
205271,-100,4,2,11,60,0,0
206342,-83.3333333333333,4,2,11,80,0,1
214780,-83.3333333333333,4,2,11,80,0,0
214914,-83.3333333333333,4,2,11,80,0,1
219200,-83.3333333333333,4,2,11,80,0,1
222414,-100,4,2,11,40,0,0
222648,-90.9090909090909,4,2,11,5,0,0
222682,-90.9090909090909,4,2,11,50,0,0
222916,-83.3333333333333,4,2,11,5,0,0
222950,-83.3333333333333,4,2,11,60,0,0
223184,-76.9230769230769,4,2,11,5,0,0
223217,-76.9230769230769,4,2,11,70,0,0
223418,-76.9230769230769,4,2,11,5,0,0
223485,-83.3333333333333,4,2,11,80,0,1
231923,-83.3333333333333,4,2,11,80,0,0
232057,-83.3333333333333,4,2,11,80,0,1
236342,-83.3333333333333,4,2,11,80,0,1
239557,-83.3333333333333,4,2,11,60,0,0
240628,-100,4,2,11,75,0,0
249200,-100,4,2,11,65,0,0
253485,-100,4,2,11,80,0,0
256700,-100,4,2,11,50,0,0
257771,-100,4,2,11,60,0,0
258307,-100,4,2,11,65,0,0
258842,-100,4,2,11,70,0,1
259914,-100,4,2,11,75,0,1
260450,-100,4,2,11,80,0,1
260985,-100,4,2,11,90,0,0
261119,-100,4,2,11,50,0,0
261789,-100,4,2,11,40,0,0
262458,-100,4,2,11,30,0,0
263128,-100,4,2,11,20,0,0
263798,-100,4,2,11,10,0,0
264200,-100,4,2,11,5,0,0

[Colours]
Combo1 : 60,60,255
Combo2 : 0,88,176
Combo3 : 2,153,210

[HitObjects]
438,327,1699,6,0,L|448:133,1,180,0|0,0:0|0:0,0:0:0:0:
302,185,2235,2,0,L|313:-20,1,180,0|0,0:0|0:0,0:0:0:0:
77,297,2771,6,0,L|68:96,1,180,2|0,0:0|0:0,0:0:0:0:
211,106,3307,1,2,0:0:0:0:
69,52,3575,1,0,0:0:0:0:
306,295,3842,6,0,P|376:280|362:178,1,180,2|0,0:0|0:0,0:0:0:0:
237,190,4244,2,0,P|161:178|130:78,1,180,2|0,0:0|0:0,0:0:0:0:
217,85,4646,1,2,0:0:0:0:
454,291,4914,6,0,L|292:183,1,180,2|0,0:0|0:0,0:0:0:0:
452,217,5450,2,0,L|464:34,1,180,2|0,0:0|0:0,0:0:0:0:
227,127,5985,6,0,L|373:234,3,180,2|0|0|0,0:0|0:0|0:0|0:0,0:0:0:0:
144,294,7057,6,0,P|64:264|95:167,1,180,2|0,0:0|0:0,0:0:0:0:
222,115,7592,2,0,P|214:63|94:28,1,180,0|0,0:0|0:0,0:0:0:0:
341,299,8128,6,0,P|417:288|376:206,1,180,2|0,0:0|0:0,0:0:0:0:
255,218,8530,2,0,P|254:177|381:113,1,180,2|0,0:0|0:0,0:0:0:0:
447,113,8932,1,2,0:0:0:0:
210,281,9200,6,0,L|63:157,3,180,2|0|0|0,0:0|0:0|0:0|0:0,0:0:0:0:
312,225,10271,6,0,P|376:212|337:125,1,180,2|0,0:0|0:0,0:0:0:0:
213,137,10673,2,0,P|163:114|241:45,1,180,2|0,0:0|0:0,0:0:0:0:
351,180,11075,2,0,P|331:230|194:240,1,180,2|0,0:0|0:0,0:0:0:0:
353,134,11476,2,0,P|398:114|329:40,1,180,2|0,0:0|0:0,0:0:0:0:
205,249,11878,6,0,L|392:232,1,180,2|0,0:0|0:0,0:0:0:0:
248,185,12280,2,0,P|181:167|243:95,1,180,2|0,0:0|0:0,0:0:0:0:
356,267,12682,2,0,L|154:248,1,180,2|0,0:0|0:0,0:0:0:0:
312,202,13083,2,0,P|370:182|299:108,1,180,2|0,0:0|0:0,0:0:0:0:
184,128,13485,2,0,P|132:122|98:6,1,180,2|0,0:0|0:0,0:0:0:0:
259,33,14021,1,2,0:0:0:0:
44,31,14289,1,0,0:0:0:0:
278,290,14557,6,0,P|337:279|396:175,1,180,2|0,0:0|0:0,0:0:0:0:
264,171,15092,2,0,L|425:61,1,180,2|0,0:0|0:0,0:0:0:0:
174,262,15628,6,0,P|126:243|192:160,1,180,2|0,0:0|0:0,0:0:0:0:
324,157,16164,2,0,L|485:60,1,180,2|0,0:0|0:0,0:0:0:0:
238,266,16700,6,0,P|174:263|210:107,1,270,2|0,0:0|0:0,0:0:0:0:
327,163,17235,2,0,P|386:165|349:57,1,180,2|2,0:0|0:0,0:0:0:0:
156,46,17771,5,0,0:0:0:0:
325,42,18039,1,0,0:0:0:0:
151,109,18307,2,0,L|179:209,1,90,0|0,0:0|0:0,0:0:0:0:
371,231,18575,2,0,L|400:188,1,45,8|8,0:0|0:0,0:0:0:0:
219,229,18708,2,0,L|187:276,1,45,8|8,0:0|0:0,0:0:0:0:
432,320,18842,6,0,L|444:218,1,90,6|0,0:0|0:0,0:0:0:0:
306,215,19110,2,0,L|319:96,1,90,8|0,0:0|0:0,0:0:0:0:
179,79,19378,2,0,L|86:82,1,90,2|0,0:0|0:0,0:0:0:0:
224,24,19646,2,0,L|341:22,1,90,8|0,0:0|0:0,0:0:0:0:
105,283,19914,6,0,L|95:171,1,90,2|0,0:0|0:0,0:0:0:0:
234,181,20182,2,0,L|226:76,1,90,8|0,0:0|0:0,0:0:0:0:
368,108,20450,2,0,L|363:4,1,90,2|0,0:0|0:0,0:0:0:0:
239,16,20717,1,10,0:0:0:0:
440,20,20851,1,2,0:0:0:0:
216,294,20985,6,0,P|162:279|225:209,1,180,2|8,0:0|0:0,0:0:0:0:
304,202,21387,1,0,0:0:0:0:
169,159,21521,2,0,L|161:63,1,90,2|0,0:0|0:0,0:0:0:0:
297,53,21789,2,0,L|306:166,1,90,8|0,0:0|0:0,0:0:0:0:
108,265,22057,6,0,L|2:261,1,90,10|0,0:0|0:0,0:0:0:0:
216,228,22325,2,0,L|324:237,1,90,10|0,0:0|0:0,0:0:0:0:
109,109,22592,2,0,L|216:119,1,90,10|0,0:0|0:0,0:0:0:0:
394,137,22860,2,0,L|488:147,1,90,10|0,0:0|0:0,0:0:0:0:
256,293,23128,6,0,L|150:285,1,90,2|0,0:0|0:0,0:0:0:0:
304,238,23396,2,0,L|317:130,1,90,8|0,0:0|0:0,0:0:0:0:
179,61,23664,2,0,L|273:69,1,90,2|0,0:0|0:0,0:0:0:0:
407,36,23932,2,0,L|306:26,1,90,8|0,0:0|0:0,0:0:0:0:
113,218,24200,6,0,L|11:210,1,90,2|0,0:0|0:0,0:0:0:0:
161,175,24467,2,0,L|268:185,1,90,8|0,0:0|0:0,0:0:0:0:
114,47,24735,2,0,L|104:143,1,90,2|0,0:0|0:0,0:0:0:0:
231,142,25003,1,10,0:0:0:0:
23,182,25137,1,2,0:0:0:0:
261,320,25271,6,0,P|313:303|248:231,1,180,2|8,0:0|0:0,0:0:0:0:
171,226,25673,1,0,0:0:0:0:
307,164,25807,2,0,L|316:61,1,90,2|0,0:0|0:0,0:0:0:0:
181,55,26075,2,0,L|168:164,1,90,8|0,0:0|0:0,0:0:0:0:
362,280,26342,6,0,L|463:276,1,90,10|0,0:0|0:0,0:0:0:0:
244,166,26610,2,0,L|231:266,1,90,10|0,0:0|0:0,0:0:0:0:
432,74,26878,2,0,L|329:81,1,90,10|0,0:0|0:0,0:0:0:0:
133,53,27146,2,0,L|250:71,1,90,10|0,0:0|0:0,0:0:0:0:
434,315,27414,6,0,P|479:302|424:221,1,180,6|0,0:0|0:0,0:0:0:0:
268,146,27950,2,0,L|437:37,1,180,8|0,0:0|0:0,0:0:0:0:
183,288,28485,6,0,P|126:275|187:200,1,180,2|0,0:0|0:0,0:0:0:0:
313,174,29021,2,0,L|156:74,1,180,8|2,0:0|0:0,0:0:0:0:
268,55,29423,1,10,0:0:0:0:
72,269,29557,6,0,P|16:247|84:177,1,180,2|0,0:0|0:0,0:0:0:0:
212,183,30092,2,0,P|233:132|129:82,1,180,8|0,0:0|0:0,0:0:0:0:
386,288,30628,6,0,L|491:295,1,90,10|0,0:0|0:0,0:0:0:0:
330,219,30896,2,0,L|217:209,1,90,10|0,0:0|0:0,0:0:0:0:
451,121,31164,2,0,L|333:109,1,90,10|0,0:0|0:0,0:0:0:0:
160,96,31432,2,0,L|43:87,1,90,10|0,0:0|0:0,0:0:0:0:
302,292,31700,6,0,L|311:187,1,90,6|0,0:0|0:0,0:0:0:0:
176,190,31967,2,0,L|186:89,1,90,8|0,0:0|0:0,0:0:0:0:
320,69,32235,2,0,L|424:69,1,90,2|0,0:0|0:0,0:0:0:0:
276,132,32503,2,0,L|157:131,1,90,8|0,0:0|0:0,0:0:0:0:
389,290,32771,6,0,L|277:287,1,90,2|0,0:0|0:0,0:0:0:0:
161,278,33039,2,0,L|46:274,1,90,8|0,0:0|0:0,0:0:0:0:
208,213,33307,2,0,L|312:215,1,90,2|0,0:0|0:0,0:0:0:0:
171,126,33575,1,10,0:0:0:0:
388,118,33708,1,2,0:0:0:0:
182,239,33842,6,0,P|120:226|179:160,1,180,2|8,0:0|0:0,0:0:0:0:
259,154,34244,1,0,0:0:0:0:
396,78,34378,2,0,L|292:72,1,90,2|0,0:0|0:0,0:0:0:0:
169,36,34646,2,0,L|272:42,1,90,8|0,0:0|0:0,0:0:0:0:
469,319,34914,6,0,L|474:221,1,90,8|0,0:0|0:0,0:0:0:0:
255,158,35182,2,0,L|357:152,1,90,8|0,0:0|0:0,0:0:0:0:
136,297,35450,2,0,L|128:196,1,90,8|0,0:0|0:0,0:0:0:0:
335,89,35717,2,0,L|230:80,1,90,8|0,0:0|0:0,0:0:0:0:
482,298,35985,6,0,L|491:190,1,90,8|0,0:0|0:0,0:0:0:0:
275,167,36253,2,0,L|168:170,2,90,8|0|0,0:0|0:0|0:0,0:0:0:0:
476,80,36655,2,0,L|370:71,2,90,8|0|0,0:0|0:0|0:0,0:0:0:0:
260,256,37057,5,8,0:0:0:0:
349,252,37191,1,0,0:0:0:0:
438,246,37325,1,0,0:0:0:0:
234,167,37458,1,8,0:0:0:0:
323,170,37592,2,0,L|334:71,1,90,0|0,0:0|0:0,0:0:0:0:
113,65,37860,2,0,L|102:163,1,90,8|0,0:0|0:0,0:0:0:0:
316,255,38128,6,0,L|406:250,1,90,8|0,0:0|0:0,0:0:0:0:
183,274,38396,2,0,L|76:269,2,90,8|0|0,0:0|0:0|0:0,0:0:0:0:
394,137,38798,2,0,L|287:141,2,90,8|0|0,0:0|0:0|0:0,0:0:0:0:
183,106,39200,6,0,L|77:108,1,90,8|0,0:0|0:0,0:0:0:0:
311,43,39467,2,0,L|414:38,1,90,8|0,0:0|0:0,0:0:0:0:
189,211,39735,2,0,L|126:214,1,45,8|8,0:0|0:0,0:0:0:0:
144,213,39869,2,0,L|191:212,1,45,8|8,0:0|0:0,0:0:0:0:
346,172,40003,2,0,L|283:154,1,45,8|8,0:0|0:0,0:0:0:0:
143,141,40137,2,0,L|72:125,1,45,8|8,0:0|0:0,0:0:0:0:
359,232,40271,6,0,P|408:184|336:112,1,180,6|8,0:0|0:0,0:0:0:0:
216,248,40673,2,0,L|224:64,1,180,2|0,0:0|0:0,0:0:0:0:
352,104,41075,2,0,L|360:8,1,90,10|0,0:0|0:0,0:0:0:0:
152,272,41342,6,0,P|104:272|104:168,1,180,2|8,0:0|0:0,0:0:0:0:
240,152,41744,2,0,L|48:152,1,180,2|0,0:0|0:0,0:0:0:0:
192,112,42146,2,0,L|88:112,1,90,10|0,0:0|0:0,0:0:0:0:
312,224,42414,6,0,P|312:176|224:88,1,180,2|8,0:0|0:0,0:0:0:0:
88,152,42816,2,0,L|288:152,1,180,2|0,0:0|0:0,0:0:0:0:
136,96,43217,2,0,L|240:96,1,90,10|0,0:0|0:0,0:0:0:0:
440,144,43485,5,2,0:0:0:0:
311,257,43619,2,0,P|311:209|415:105,1,180,0|2,0:0|0:0,0:0:0:0:
264,96,44021,1,0,0:0:0:0:
392,112,44155,2,0,L|400:16,1,90,0|0,0:0|0:0,0:0:0:0:
32,288,44557,6,0,P|32:240|128:144,1,180,2|8,0:0|0:0,0:0:0:0:
248,208,44958,2,0,L|64:208,1,180,2|0,0:0|0:0,0:0:0:0:
200,200,45360,2,0,L|208:104,1,90,10|0,0:0|0:0,0:0:0:0:
416,216,45628,6,0,P|448:184|368:104,1,180,2|8,0:0|0:0,0:0:0:0:
248,168,46030,2,0,L|240:72,1,90,2|0,0:0|0:0,0:0:0:0:
336,80,46298,1,0,0:0:0:0:
200,80,46432,2,0,L|80:80,1,90,10|0,0:0|0:0,0:0:0:0:
320,224,46700,6,0,P|368:224|368:120,1,180,2|8,0:0|0:0,0:0:0:0:
160,136,47101,2,0,L|368:136,1,180,2|0,0:0|0:0,0:0:0:0:
128,128,47503,2,0,L|16:128,1,90,10|0,0:0|0:0,0:0:0:0:
312,232,47771,6,0,L|320:136,1,90,2|0,0:0|0:0,0:0:0:0:
144,160,48173,2,0,P|176:128|304:128,1,180,2|8,0:0|0:0,0:0:0:0:
264,128,48508,1,0,0:0:0:0:
216,128,48575,1,8,0:0:0:0:
160,128,48641,1,0,0:0:0:0:
344,128,48708,1,8,0:0:0:0:
400,128,48774,1,0,0:0:0:0:
216,280,48842,6,0,L|208:184,1,90,2|0,0:0|0:0,0:0:0:0:
336,224,49110,2,0,L|272:160,1,90,8|0,0:0|0:0,0:0:0:0:
144,176,49378,2,0,L|248:176,1,90,2|0,0:0|0:0,0:0:0:0:
104,160,49646,2,0,L|208:160,1,90,8|0,0:0|0:0,0:0:0:0:
416,208,49914,6,0,L|424:112,1,90,2|0,0:0|0:0,0:0:0:0:
288,168,50182,1,8,0:0:0:0:
416,176,50316,2,0,P|384:144|256:144,1,180,0|0,0:0|0:0,0:0:0:0:
384,176,50717,2,0,L|376:80,1,90,8|0,0:0|0:0,0:0:0:0:
184,168,50985,6,0,L|88:168,1,90,2|0,0:0|0:0,0:0:0:0:
224,160,51253,2,0,L|160:96,1,90,8|0,0:0|0:0,0:0:0:0:
32,120,51521,2,0,L|96:56,1,90,2|0,0:0|0:0,0:0:0:0:
232,56,51789,2,0,L|336:56,1,90,8|0,0:0|0:0,0:0:0:0:
120,272,52057,6,0,L|216:272,1,90,2|0,0:0|0:0,0:0:0:0:
80,256,52325,2,0,L|72:160,1,90,8|0,0:0|0:0,0:0:0:0:
208,208,52592,2,0,P|248:168|176:96,1,180,2|8,0:0|0:0,0:0:0:0:
48,96,52994,1,0,0:0:0:0:
256,232,53128,6,0,L|360:232,1,90,2|0,0:0|0:0,0:0:0:0:
216,216,53396,2,0,L|288:144,1,90,8|0,0:0|0:0,0:0:0:0:
152,160,53664,2,0,L|160:64,1,90,2|0,0:0|0:0,0:0:0:0:
32,144,53932,2,0,L|24:48,1,90,8|0,0:0|0:0,0:0:0:0:
240,152,54200,6,0,L|144:152,1,90,2|0,0:0|0:0,0:0:0:0:
280,176,54467,2,0,L|288:-8,1,180,8|2,0:0|0:0,0:0:0:0:
160,112,54869,2,0,L|272:112,1,90,0|0,0:0|0:0,0:0:0:0:
152,104,55137,1,0,0:0:0:0:
368,288,55271,6,0,P|416:288|416:184,1,180,2|8,0:0|0:0,0:0:0:0:
200,200,55673,2,0,L|312:200,1,90,2|0,0:0|0:0,0:0:0:0:
192,192,55941,1,0,0:0:0:0:
416,176,56075,2,0,L|320:176,1,90,10|0,0:0|0:0,0:0:0:0:
112,224,56342,6,0,P|152:184|272:184,1,180,10|0,0:0|0:0,0:0:0:0:
144,144,56744,1,2,0:0:0:0:
272,160,56878,2,0,L|208:96,1,90,8|0,0:0|0:0,0:0:0:0:
80,144,57146,2,0,L|144:80,1,90,0|0,0:0|0:0,0:0:0:0:
352,168,57414,5,10,0:0:0:0:
232,176,57548,2,0,L|240:80,1,90,0|0,0:0|0:0,0:0:0:0:
448,264,57816,2,0,P|408:224|288:224,1,180,10|10,0:0|0:0,0:0:0:0:
424,216,58217,2,0,L|432:120,1,90,10|0,0:0|0:0,0:0:0:0:
216,168,58485,5,10,0:0:0:0:
336,176,58619,2,0,L|328:80,1,90,0|0,0:0|0:0,0:0:0:0:
120,280,58887,2,0,P|88:248|168:168,1,180,10|10,0:0|0:0,0:0:0:0:
40,128,59289,2,0,L|136:128,1,90,10|0,0:0|0:0,0:0:0:0:
336,144,59557,5,10,0:0:0:0:
216,144,59691,2,0,L|336:144,1,90,0|0,0:0|0:0,0:0:0:0:
96,192,59958,1,10,0:0:0:0:
216,200,60092,2,0,L|224:152,1,45,8|0,0:0|0:0,0:0:0:0:
160,144,60226,1,0,0:0:0:0:
136,128,60293,1,0,0:0:0:0:
160,144,60360,1,8,0:0:0:0:
216,144,60427,1,0,0:0:0:0:
352,144,60494,1,8,0:0:0:0:
408,144,60561,1,0,0:0:0:0:
224,280,60628,6,0,L|104:280,1,90,10|10,0:0|0:0,0:0:0:0:
344,184,60896,1,10,0:0:0:0:
72,184,61030,2,0,P|72:136|160:48,1,180,10|0,0:0|0:0,0:0:0:0:
288,128,61432,2,0,L|296:32,1,90,0|0,0:0|0:0,0:0:0:0:
40,312,61700,6,0,P|40:264|128:176,1,180,6|8,0:0|0:0,0:0:0:0:
256,232,62101,2,0,P|224:200|96:200,1,180,2|0,0:0|0:0,0:0:0:0:
224,176,62503,2,0,L|128:176,1,90,10|0,0:0|0:0,0:0:0:0:
344,272,62771,6,0,P|376:240|296:160,1,180,2|8,0:0|0:0,0:0:0:0:
176,272,63173,2,0,P|144:240|224:160,1,180,2|0,0:0|0:0,0:0:0:0:
344,144,63575,2,0,L|448:144,1,90,10|0,0:0|0:0,0:0:0:0:
224,304,63842,6,0,L|232:112,1,180,2|8,0:0|0:0,0:0:0:0:
360,232,64244,2,0,P|328:200|200:200,1,180,2|0,0:0|0:0,0:0:0:0:
328,192,64646,2,0,L|336:96,1,90,10|0,0:0|0:0,0:0:0:0:
120,312,64914,5,2,0:0:0:0:
248,304,65048,2,0,P|248:256|160:168,1,180,0|2,0:0|0:0,0:0:0:0:
32,168,65450,1,0,0:0:0:0:
160,136,65583,2,0,L|64:136,1,90,0|10,0:0|0:0,0:0:0:0:
448,272,65985,6,0,L|456:88,1,180,2|8,0:0|0:0,0:0:0:0:
328,232,66387,2,0,P|280:232|192:144,1,180,2|0,0:0|0:0,0:0:0:0:
320,160,66789,2,0,L|416:160,1,90,10|0,0:0|0:0,0:0:0:0:
200,288,67057,6,0,P|200:240|288:152,1,180,2|8,0:0|0:0,0:0:0:0:
160,160,67458,2,0,L|64:160,1,90,2|0,0:0|0:0,0:0:0:0:
168,120,67726,1,0,0:0:0:0:
40,160,67860,2,0,L|48:64,1,90,10|0,0:0|0:0,0:0:0:0:
256,224,68128,6,0,P|304:224|304:120,1,180,2|8,0:0|0:0,0:0:0:0:
88,216,68530,2,0,P|120:184|248:184,1,180,2|0,0:0|0:0,0:0:0:0:
464,208,68932,2,0,L|456:112,1,90,10|0,0:0|0:0,0:0:0:0:
240,272,69200,5,10,0:0:0:0:
360,280,69333,1,8,0:0:0:0:
352,272,69400,1,8,0:0:0:0:
344,264,69467,1,8,0:0:0:0:
224,256,69601,1,2,0:0:0:0:
352,232,69735,1,0,0:0:0:0:
216,240,69869,2,0,L|208:192,1,45,0|0,0:0|0:0,0:0:0:0:
368,192,70003,2,0,P|416:192|480:128,1,135,8|0,0:0|0:0,0:0:0:0:
288,256,70271,6,0,L|192:256,1,90,6|0,0:0|0:0,0:0:0:0:
328,232,70539,2,0,L|264:168,1,90,8|0,0:0|0:0,0:0:0:0:
136,184,70807,2,0,L|128:0,1,180,2|8,0:0|0:0,0:0:0:0:
256,144,71208,1,0,0:0:0:0:
48,304,71342,6,0,L|56:208,1,90,2|0,0:0|0:0,0:0:0:0:
184,272,71610,2,0,L|88:272,1,90,8|0,0:0|0:0,0:0:0:0:
224,296,71878,2,0,P|256:264|176:184,1,180,2|8,0:0|0:0,0:0:0:0:
56,192,72280,1,0,0:0:0:0:
264,272,72414,6,0,P|224:232|104:232,1,180,2|8,0:0|0:0,0:0:0:0:
240,184,72816,1,0,0:0:0:0:
112,176,72950,2,0,L|120:80,1,90,2|0,0:0|0:0,0:0:0:0:
248,112,73217,2,0,L|144:112,1,90,8|0,0:0|0:0,0:0:0:0:
368,232,73485,6,0,L|464:232,1,90,2|0,0:0|0:0,0:0:0:0:
328,216,73753,2,0,L|232:216,1,90,8|0,0:0|0:0,0:0:0:0:
368,280,74021,2,0,P|368:232|280:144,1,180,2|8,0:0|0:0,0:0:0:0:
152,160,74423,1,0,0:0:0:0:
360,192,74557,6,0,L|248:192,1,90,2|0,0:0|0:0,0:0:0:0:
400,184,74825,2,0,L|336:120,1,90,8|0,0:0|0:0,0:0:0:0:
208,168,75092,2,0,L|320:168,1,90,2|0,0:0|0:0,0:0:0:0:
168,160,75360,2,0,L|232:96,1,90,8|0,0:0|0:0,0:0:0:0:
440,248,75628,6,0,P|472:216|392:136,1,180,2|8,0:0|0:0,0:0:0:0:
272,160,76030,1,0,0:0:0:0:
400,208,76164,2,0,P|368:176|240:176,1,180,2|8,0:0|0:0,0:0:0:0:
368,128,76566,1,0,0:0:0:0:
152,224,76700,6,0,L|160:128,1,90,2|0,0:0|0:0,0:0:0:0:
288,152,76967,1,8,0:0:0:0:
160,128,77101,2,0,P|192:96|320:96,1,180,2|0,0:0|0:0,0:0:0:0:
112,240,77503,2,0,L|216:240,1,90,10|0,0:0|0:0,0:0:0:0:
432,280,77771,6,0,L|440:184,1,90,2|0,0:0|0:0,0:0:0:0:
304,232,78039,2,0,L|368:168,1,90,8|2,0:0|0:0,0:0:0:0:
232,160,78307,2,0,L|336:160,1,90,8|0,0:0|0:0,0:0:0:0:
112,144,78575,1,8,0:0:0:0:
352,136,78708,1,0,0:0:0:0:
80,296,78842,6,0,P|48:264|128:184,1,180,6|8,0:0|0:0,0:0:0:0:
248,168,79244,1,0,0:0:0:0:
120,160,79378,2,0,L|112:64,1,90,2|0,0:0|0:0,0:0:0:0:
328,256,79646,6,0,P|296:224|168:224,1,180,10|0,0:0|0:0,0:0:0:0:
296,184,80048,1,0,0:0:0:0:
168,176,80182,2,0,L|280:176,1,90,10|0,0:0|0:0,0:0:0:0:
128,160,80450,2,0,L|120:64,1,90,2|0,0:0|0:0,0:0:0:0:
248,96,80717,2,0,L|152:96,1,90,10|0,0:0|0:0,0:0:0:0:
368,240,80985,6,0,L|376:56,1,180,2|8,0:0|0:0,0:0:0:0:
248,144,81387,1,0,0:0:0:0:
376,136,81521,2,0,L|480:136,1,90,0|0,0:0|0:0,0:0:0:0:
240,256,81789,6,0,P|272:224|400:224,1,180,10|0,0:0|0:0,0:0:0:0:
272,184,82191,1,0,0:0:0:0:
400,192,82325,2,0,L|336:128,1,90,8|0,0:0|0:0,0:0:0:0:
208,160,82592,2,0,L|288:80,1,90,0|0,0:0|0:0,0:0:0:0:
144,248,82860,2,0,L|80:184,1,90,8|0,0:0|0:0,0:0:0:0:
304,216,83128,6,0,L|312:120,1,90,6|0,0:0|0:0,0:0:0:0:
176,160,83396,2,0,L|184:64,1,90,8|0,0:0|0:0,0:0:0:0:
304,216,83664,2,0,L|312:120,1,90,2|0,0:0|0:0,0:0:0:0:
448,160,83932,2,0,L|456:64,1,90,8|0,0:0|0:0,0:0:0:0:
240,296,84200,6,0,P|192:296|104:208,1,180,2|10,0:0|0:0,0:0:0:0:
232,240,84601,2,0,P|200:208|72:208,1,180,2|0,0:0|0:0,0:0:0:0:
208,184,85003,2,0,L|216:88,1,90,8|0,0:0|0:0,0:0:0:0:
424,200,85271,6,0,L|312:200,1,90,2|0,0:0|0:0,0:0:0:0:
200,192,85539,2,0,L|264:128,1,90,8|0,0:0|0:0,0:0:0:0:
400,160,85807,2,0,L|392:64,1,90,2|0,0:0|0:0,0:0:0:0:
176,272,86075,6,0,P|144:240|224:160,1,180,10|0,0:0|0:0,0:0:0:0:
424,224,86476,1,0,0:0:0:0:
296,208,86610,2,0,L|400:208,1,90,10|0,0:0|0:0,0:0:0:0:
176,168,86878,2,0,L|184:72,1,90,2|0,0:0|0:0,0:0:0:0:
312,136,87146,2,0,L|304:40,1,90,8|0,0:0|0:0,0:0:0:0:
96,272,87414,6,0,L|32:208,1,90,6|0,0:0|0:0,0:0:0:0:
168,232,87682,2,0,L|232:168,1,90,8|0,0:0|0:0,0:0:0:0:
368,224,87950,2,0,L|304:160,1,90,2|0,0:0|0:0,0:0:0:0:
168,144,88217,1,10,0:0:0:0:
376,264,88351,6,0,P|424:264|424:160,1,180,2|0,0:0|0:0,0:0:0:0:
288,176,88753,2,0,L|280:80,1,90,10|0,0:0|0:0,0:0:0:0:
416,184,89021,1,2,0:0:0:0:
464,160,89155,1,0,0:0:0:0:
416,184,89289,1,8,0:0:0:0:
328,184,89423,1,0,0:0:0:0:
120,208,89557,6,0,L|24:208,1,90,2|0,0:0|0:0,0:0:0:0:
168,200,89825,2,0,L|232:136,1,90,8|0,0:0|0:0,0:0:0:0:
96,152,90092,2,0,L|168:80,1,90,2|0,0:0|0:0,0:0:0:0:
296,96,90360,1,10,0:0:0:0:
88,272,90494,6,0,P|120:240|248:240,1,180,2|0,0:0|0:0,0:0:0:0:
120,192,90896,2,0,L|192:120,1,90,10|0,0:0|0:0,0:0:0:0:
312,176,91164,2,0,L|240:104,1,90,2|0,0:0|0:0,0:0:0:0:
200,96,91432,1,8,0:0:0:0:
184,64,91566,1,0,0:0:0:0:
456,328,91700,6,0,L|464:144,1,180,6|10,0:0|0:0,0:0:0:0:
432,168,92035,1,0,0:0:0:0:
384,168,92102,1,0,0:0:0:0:
328,168,92168,1,0,0:0:0:0:
256,160,92235,5,10,0:0:0:0:
288,160,92302,1,0,0:0:0:0:
336,160,92369,1,0,0:0:0:0:
392,160,92435,1,0,0:0:0:0:
320,136,92503,2,0,L|312:88,1,45,10|0,0:0|0:0,0:0:0:0:
384,104,92637,2,0,L|376:56,1,45,0|0,0:0|0:0,0:0:0:0:
192,264,92771,5,10,0:0:0:0:
136,264,92838,1,0,0:0:0:0:
96,248,92905,2,0,L|104:200,1,45,0|0,0:0|0:0,0:0:0:0:
176,240,93039,1,10,0:0:0:0:
232,240,93106,1,0,0:0:0:0:
272,224,93173,2,0,L|264:176,1,45,0|0,0:0|0:0,0:0:0:0:
192,168,93307,6,0,L|240:168,1,45,10|0,0:0|0:0,0:0:0:0:
312,168,93441,2,0,L|368:168,1,45,0|0,0:0|0:0,0:0:0:0:
288,128,93575,2,0,L|240:128,1,45,10|0,0:0|0:0,0:0:0:0:
176,128,93708,2,0,L|128:128,1,45,0|0,0:0|0:0,0:0:0:0:
320,280,93842,6,0,L|368:280,1,45,10|0,0:0|0:0,0:0:0:0:
296,264,93976,2,0,L|248:264,1,45,10|0,0:0|0:0,0:0:0:0:
88,240,94110,2,0,L|40:240,1,45,10|0,0:0|0:0,0:0:0:0:
112,224,94244,2,0,L|160:224,1,45,10|0,0:0|0:0,0:0:0:0:
320,192,94378,6,0,L|328:144,1,45,10|0,0:0|0:0,0:0:0:0:
256,152,94512,2,0,L|248:104,1,45,10|0,0:0|0:0,0:0:0:0:
408,120,94646,2,0,L|456:120,1,45,10|8,0:0|0:0,0:0:0:0:
272,112,94780,2,0,L|208:112,1,45,10|8,0:0|0:0,0:0:0:0:
48,0,94914,6,0,B|40:0|40:0|40:352|40:352|40:224,1,450,14|0,0:0|0:0,0:0:0:0:
248,192,95717,2,0,L|96:192,1,135,10|0,0:0|0:0,0:0:0:0:
368,264,95985,6,0,P|424:264|424:144,1,198.000006042481,6|8,0:0|0:0,0:0:0:0:
296,136,96387,1,0,0:0:0:0:
432,120,96521,2,0,L|320:120,1,99.0000030212403,0|0,0:0|0:0,0:0:0:0:
136,184,96789,2,0,L|256:184,1,99.0000030212403,10|0,0:0|0:0,0:0:0:0:
40,296,97057,6,0,L|32:96,1,198.000006042481,2|8,0:0|0:0,0:0:0:0:
168,128,97458,1,0,0:0:0:0:
32,120,97592,2,0,L|152:120,1,99.0000030212403,2|0,0:0|0:0,0:0:0:0:
352,136,97860,2,0,L|456:136,1,99.0000030212403,10|0,0:0|0:0,0:0:0:0:
200,312,98128,6,0,P|240:272|376:272,1,198.000006042481,2|8,0:0|0:0,0:0:0:0:
168,272,98530,2,0,P|208:232|344:232,1,198.000006042481,2|0,0:0|0:0,0:0:0:0:
136,128,98932,2,0,L|32:128,1,99.0000030212403,10|0,0:0|0:0,0:0:0:0:
264,224,99200,6,0,L|256:120,1,99.0000030212403,2|0,0:0|0:0,0:0:0:0:
120,208,99467,2,0,L|112:104,1,99.0000030212403,8|0,0:0|0:0,0:0:0:0:
344,104,99735,2,0,L|232:104,1,99.0000030212403,10|0,0:0|0:0,0:0:0:0:
472,152,100003,2,0,L|352:152,1,99.0000030212403,10|0,0:0|0:0,0:0:0:0:
136,320,100271,6,0,P|80:320|80:200,1,198.000006042481,2|8,0:0|0:0,0:0:0:0:
208,208,100673,1,0,0:0:0:0:
72,168,100807,2,0,L|64:64,1,99.0000030212403,0|0,0:0|0:0,0:0:0:0:
280,152,101075,2,0,L|168:152,1,99.0000030212403,10|0,0:0|0:0,0:0:0:0:
392,272,101342,6,0,P|392:216|296:120,1,198.000006042481,2|8,0:0|0:0,0:0:0:0:
160,128,101744,1,0,0:0:0:0:
296,112,101878,2,0,L|184:112,1,99.0000030212403,0|0,0:0|0:0,0:0:0:0:
408,224,102146,2,0,L|416:120,1,99.0000030212403,10|0,0:0|0:0,0:0:0:0:
184,240,102414,6,0,P|224:200|360:200,1,198.000006042481,2|8,0:0|0:0,0:0:0:0:
136,192,102816,1,2,0:0:0:0:
272,160,102950,2,0,L|168:160,1,99.0000030212403,0|0,0:0|0:0,0:0:0:0:
384,168,103217,2,0,L|280:168,1,99.0000030212403,10|0,0:0|0:0,0:0:0:0:
72,240,103485,6,0,L|80:136,1,99.0000030212403,2|0,0:0|0:0,0:0:0:0:
200,176,103753,2,0,L|208:72,1,99.0000030212403,8|0,0:0|0:0,0:0:0:0:
424,240,104021,2,0,L|320:240,1,99.0000030212403,8|8,0:0|0:0,0:0:0:0:
112,168,104289,1,8,0:0:0:0:
328,176,104423,1,8,0:0:0:0:
104,176,104557,5,6,0:0:0:0:
232,144,104691,2,0,L|120:144,1,99.0000030212403,0|8,0:0|0:0,0:0:0:0:
352,104,104958,2,0,L|224:104,1,99.0000030212403,2|0,0:0|0:0,0:0:0:0:
472,104,105226,1,0,0:0:0:0:
248,256,105360,5,10,0:0:0:0:
376,248,105494,2,0,L|368:144,1,99.0000030212403,0|0,0:0|0:0,0:0:0:0:
154,104,105762,2,0,L|282:104,1,99.0000030212403,2|8,0:0|0:0,0:0:0:0:
32,104,106030,1,0,0:0:0:0:
256,184,106164,6,0,L|152:184,1,99.0000030212403,2|0,0:0|0:0,0:0:0:0:
56,176,106432,1,8,0:0:0:0:
272,144,106566,2,0,L|160:144,1,99.0000030212403,2|0,0:0|0:0,0:0:0:0:
392,144,106833,1,0,0:0:0:0:
168,288,106967,6,0,L|176:184,1,99.0000030212403,10|0,0:0|0:0,0:0:0:0:
312,200,107235,1,0,0:0:0:0:
96,128,107369,2,0,L|216:128,1,99.0000030212403,2|8,0:0|0:0,0:0:0:0:
416,128,107637,1,0,0:0:0:0:
144,272,107771,6,0,L|32:272,1,99.0000030212403,10|0,0:0|0:0,0:0:0:0:
256,248,108039,2,0,L|136:248,1,99.0000030212403,10|0,0:0|0:0,0:0:0:0:
368,272,108307,2,0,L|480:272,1,99.0000030212403,10|0,0:0|0:0,0:0:0:0:
256,248,108575,2,0,L|376:248,1,99.0000030212403,10|0,0:0|0:0,0:0:0:0:
112,272,108842,6,0,L|120:168,1,99.0000030212403,6|0,0:0|0:0,0:0:0:0:
256,200,109110,2,0,L|184:128,1,99.0000030212403,8|0,0:0|0:0,0:0:0:0:
320,160,109378,2,0,L|400:80,1,99.0000030212403,2|0,0:0|0:0,0:0:0:0:
256,144,109646,2,0,L|336:64,1,99.0000030212403,8|0,0:0|0:0,0:0:0:0:
128,280,109914,6,0,L|24:280,1,99.0000030212403,2|0,0:0|0:0,0:0:0:0:
168,264,110182,2,0,P|224:264|224:144,1,198.000006042481,10|0,0:0|0:0,0:0:0:0:
104,232,110583,1,0,0:0:0:0:
296,216,110717,2,0,L|432:216,1,99.0000030212403,10|0,0:0|0:0,0:0:0:0:
200,208,110985,6,0,L|96:208,1,99.0000030212403,2|0,0:0|0:0,0:0:0:0:
240,200,111253,2,0,L|160:120,1,99.0000030212403,8|0,0:0|0:0,0:0:0:0:
304,168,111521,2,0,L|296:64,1,99.0000030212403,2|0,0:0|0:0,0:0:0:0:
160,200,111789,2,0,L|152:96,1,99.0000030212403,8|0,0:0|0:0,0:0:0:0:
360,160,112057,5,2,0:0:0:0:
232,168,112191,2,0,L|344:168,1,99.0000030212403,8|0,0:0|0:0,0:0:0:0:
136,128,112458,1,10,0:0:0:0:
336,128,112592,2,0,L|232:128,1,99.0000030212403,0|8,0:0|0:0,0:0:0:0:
40,144,112860,2,0,L|152:144,1,99.0000030212403,2|8,0:0|0:0,0:0:0:0:
385,276,113128,6,0,L|411:177,2,90,6|0|8,0:0|0:0|0:0,0:0:0:0:
220,217,113664,2,0,L|197:111,2,90,2|0|8,0:0|0:0|0:0,0:0:0:0:
457,86,114200,5,2,0:0:0:0:
376,77,114333,1,0,0:0:0:0:
295,71,114467,1,8,0:0:0:0:
153,242,114735,1,2,0:0:0:0:
233,236,114869,1,0,0:0:0:0:
304,228,115003,1,8,0:0:0:0:
64,182,115271,6,0,L|40:79,2,90,2|0|8,0:0|0:0|0:0,0:0:0:0:
212,56,115807,1,2,0:0:0:0:
140,48,115941,1,0,0:0:0:0:
68,40,116075,1,8,0:0:0:0:
307,249,116342,6,0,L|312:151,1,90,2|0,0:0|0:0,0:0:0:0:
186,148,116610,1,8,0:0:0:0:
394,74,116744,1,2,0:0:0:0:
33,57,117012,1,2,0:0:0:0:
329,247,118083,6,0,L|333:195,1,45,0|0,0:0|0:0,0:0:0:0:
182,179,118217,2,0,L|76:172,1,90,10|0,0:0|0:0,0:0:0:0:
367,111,118485,6,0,L|485:120,2,90,6|0|8,0:0|0:0|0:0,0:0:0:0:
230,99,118887,1,10,0:0:0:0:
366,303,119021,2,0,P|438:280|385:195,1,180,0|8,0:0|0:0,0:0:0:0:
328,198,119423,1,0,0:0:0:0:
118,179,119557,6,0,L|7:185,2,90,2|0|8,0:0|0:0|0:0,0:0:0:0:
257,169,119958,1,10,0:0:0:0:
123,293,120092,2,0,P|62:283|73:174,1,180,0|8,0:0|0:0,0:0:0:0:
140,166,120494,1,0,0:0:0:0:
345,91,120628,5,2,0:0:0:0:
264,85,120762,1,0,0:0:0:0:
183,75,120896,1,8,0:0:0:0:
321,158,121030,1,10,0:0:0:0:
186,261,121164,2,0,P|155:228|239:159,1,180,0|8,0:0|0:0,0:0:0:0:
312,163,121566,1,0,0:0:0:0:
108,66,121700,5,2,0:0:0:0:
188,58,121833,1,0,0:0:0:0:
269,52,121967,1,8,0:0:0:0:
130,143,122101,1,10,0:0:0:0:
346,282,122235,2,0,L|359:175,1,90,0|0,0:0|0:0,0:0:0:0:
235,192,122503,2,0,L|128:185,1,90,8|0,0:0|0:0,0:0:0:0:
368,109,122771,6,0,L|468:107,2,90,2|0|8,0:0|0:0|0:0,0:0:0:0:
228,113,123173,1,10,0:0:0:0:
364,320,123307,2,0,P|418:320|379:229,1,180,0|8,0:0|0:0,0:0:0:0:
316,221,123708,1,0,0:0:0:0:
104,176,123842,5,2,0:0:0:0:
184,168,123976,1,0,0:0:0:0:
264,160,124110,1,8,0:0:0:0:
128,95,124244,1,10,0:0:0:0:
264,77,124378,2,0,L|367:83,1,90,0|0,0:0|0:0,0:0:0:0:
219,24,124646,2,0,L|119:33,1,90,8|0,0:0|0:0,0:0:0:0:
356,276,124914,6,0,L|456:280,2,90,2|0|8,0:0|0:0|0:0,0:0:0:0:
221,229,125316,2,0,L|164:222,2,45,2|0|2,0:0|0:0|0:0,0:0:0:0:
394,176,125717,1,2,0:0:0:0:
26,175,125985,6,0,L|97:168,1,60,10|0,0:0|0:0,0:0:0:0:
260,153,126164,2,0,L|343:139,1,60,8|0,0:0|0:0,0:0:0:0:
134,78,126342,2,0,L|65:84,1,60,10|0,0:0|0:0,0:0:0:0:
283,204,126521,2,0,L|295:266,1,60,8|0,0:0|0:0,0:0:0:0:
109,243,126700,2,0,L|101:177,1,60,8|0,0:0|0:0,0:0:0:0:
318,98,126878,2,0,L|387:88,1,60,8|0,0:0|0:0,0:0:0:0:
85,297,127057,5,6,0:0:0:0:
194,298,127191,2,0,L|200:181,1,90,0|8,0:0|0:0,0:0:0:0:
85,191,127458,1,0,0:0:0:0:
287,138,127592,2,0,L|392:133,1,90,2|0,0:0|0:0,0:0:0:0:
241,64,127860,2,0,L|136:53,1,90,8|0,0:0|0:0,0:0:0:0:
354,317,128128,6,0,L|362:217,1,90,2|0,0:0|0:0,0:0:0:0:
220,182,128396,2,0,L|209:279,1,90,8|0,0:0|0:0,0:0:0:0:
347,109,128664,2,0,L|243:96,1,90,2|0,0:0|0:0,0:0:0:0:
394,35,128932,2,0,L|411:160,1,90,8|0,0:0|0:0,0:0:0:0:
177,290,129200,5,2,0:0:0:0:
95,234,129333,1,0,0:0:0:0:
97,134,129467,1,8,0:0:0:0:
183,85,129601,1,0,0:0:0:0:
379,257,129735,2,0,L|198:228,1,180,2|8,0:0|0:0,0:0:0:0:
303,171,130137,1,0,0:0:0:0:
94,186,130271,6,0,L|89:81,1,90,2|0,0:0|0:0,0:0:0:0:
226,82,130539,2,0,L|329:75,1,90,8|0,0:0|0:0,0:0:0:0:
95,299,130807,2,0,P|34:293|84:214,1,180,2|8,0:0|0:0,0:0:0:0:
149,206,131208,1,0,0:0:0:0:
354,193,131342,6,0,L|455:186,3,90,2|0|8|0,0:0|0:0|0:0|0:0,0:0:0:0:
242,96,131878,2,0,L|139:91,1,90,2|0,0:0|0:0,0:0:0:0:
291,42,132146,2,0,L|299:139,1,90,8|0,0:0|0:0,0:0:0:0:
91,286,132414,6,0,L|195:291,1,90,2|0,0:0|0:0,0:0:0:0:
46,229,132682,2,0,L|41:127,1,90,8|0,0:0|0:0,0:0:0:0:
175,123,132950,1,2,0:0:0:0:
41,48,133083,2,0,L|141:52,2,90,0|8|0,0:0|0:0|0:0,0:0:0:0:
262,288,133485,6,0,L|273:181,1,90,2|0,0:0|0:0,0:0:0:0:
138,178,133753,1,8,0:0:0:0:
358,162,133887,2,0,P|416:140|337:80,1,180,2|0,0:0|0:0,0:0:0:0:
158,37,134289,2,0,L|265:36,1,90,10|0,0:0|0:0,0:0:0:0:
27,258,134557,5,2,0:0:0:0:
162,231,134691,1,8,0:0:0:0:
121,227,134758,1,8,0:0:0:0:
80,220,134825,1,8,0:0:0:0:
285,176,134958,2,0,L|380:168,2,90,10|0|8,0:0|0:0|0:0,0:0:0:0:
141,107,135360,2,0,L|248:98,1,90,8|8,0:0|0:0,0:0:0:0:
453,307,135628,6,0,L|462:205,1,90,6|0,0:0|0:0,0:0:0:0:
239,180,136030,1,0,0:0:0:0:
419,167,136432,6,0,P|470:149|406:79,1,180,2|0,0:0|0:0,0:0:0:0:
247,83,136967,1,2,0:0:0:0:
475,308,137235,2,0,L|482:110,1,180,2|2,0:0|0:0,0:0:0:0:
111,245,137771,6,0,L|106:134,1,90,6|0,0:0|0:0,0:0:0:0:
339,156,138173,1,2,0:0:0:0:
152,82,138441,1,0,0:0:0:0:
367,302,138575,6,0,L|157:283,1,180,10|0,0:0|0:0,0:0:0:0:
285,235,138976,1,0,0:0:0:0:
148,212,139110,2,0,L|142:107,1,90,8|0,0:0|0:0,0:0:0:0:
282,99,139378,2,0,L|381:94,1,90,0|0,0:0|0:0,0:0:0:0:
156,57,139646,2,0,L|128:15,1,45,8|8,0:0|0:0,0:0:0:0:
326,154,139780,2,0,L|367:203,1,45,8|8,0:0|0:0,0:0:0:0:
138,272,139914,6,0,L|29:265,1,90,6|0,0:0|0:0,0:0:0:0:
186,216,140182,2,0,L|194:100,1,90,8|0,0:0|0:0,0:0:0:0:
331,63,140450,2,0,L|228:55,1,90,2|0,0:0|0:0,0:0:0:0:
101,76,140717,2,0,L|195:85,1,90,8|0,0:0|0:0,0:0:0:0:
406,299,140985,6,0,P|463:286|410:204,1,180,2|8,0:0|0:0,0:0:0:0:
211,154,141387,2,0,L|93:155,2,90,2|0|0,0:0|0:0|0:0,0:0:0:0:
351,144,141789,2,0,L|342:37,1,90,8|0,0:0|0:0,0:0:0:0:
109,324,142057,6,0,L|130:225,1,90,2|0,0:0|0:0,0:0:0:0:
263,246,142325,2,0,L|288:152,1,90,8|0,0:0|0:0,0:0:0:0:
421,149,142592,2,0,L|451:47,1,90,2|0,0:0|0:0,0:0:0:0:
213,70,142860,2,0,L|100:67,1,90,8|0,0:0|0:0,0:0:0:0:
353,276,143128,6,0,L|442:275,1,90,10|0,0:0|0:0,0:0:0:0:
302,197,143396,2,0,L|407:193,1,90,10|0,0:0|0:0,0:0:0:0:
159,260,143664,2,0,L|352:243,1,180,10|8,0:0|0:0,0:0:0:0:
419,241,144066,1,0,0:0:0:0:
156,187,144200,6,0,P|83:162|141:91,1,180,6|0,0:0|0:0,0:0:0:0:
356,52,144735,2,0,L|148:36,1,180,10|0,0:0|0:0,0:0:0:0:
326,137,145137,6,0,P|377:162|294:229,1,180,2|8,0:0|0:0,0:0:0:0:
188,228,145539,2,0,L|175:331,1,90,0|0,0:0|0:0,0:0:0:0:
315,228,145807,2,0,L|122:208,1,180,10|0,0:0|0:0,0:0:0:0:
488,217,146342,6,0,L|483:30,1,180,6|0,0:0|0:0,0:0:0:0:
249,79,146878,1,10,0:0:0:0:
330,78,147012,2,0,L|321:179,1,90,0|0,0:0|0:0,0:0:0:0:
182,210,147280,6,0,L|77:197,2,90,2|8|0,0:0|0:0|0:0,0:0:0:0:
396,282,147682,2,0,L|290:285,1,90,2|0,0:0|0:0,0:0:0:0:
94,246,147950,2,0,L|195:240,1,90,10|0,0:0|0:0,0:0:0:0:
398,210,148217,2,0,L|406:100,1,90,8|0,0:0|0:0,0:0:0:0:
178,228,148485,5,14,0:0:0:0:
128,224,148552,1,0,0:0:0:0:
89,192,148619,1,0,0:0:0:0:
74,144,148686,1,0,0:0:0:0:
78,94,148753,1,0,0:0:0:0:
104,51,148820,1,0,0:0:0:0:
146,25,148887,1,0,0:0:0:0:
195,19,148954,1,0,0:0:0:0:
373,272,149021,6,0,L|382:210,1,45,10|0,0:0|0:0,0:0:0:0:
301,219,149155,2,0,L|295:164,1,45,0|0,0:0|0:0,0:0:0:0:
378,161,149289,1,0,0:0:0:0:
422,139,149356,1,0,0:0:0:0:
435,91,149423,1,0,0:0:0:0:
410,48,149490,1,0,0:0:0:0:
211,300,149557,5,10,0:0:0:0:
183,253,149624,1,0,0:0:0:0:
201,202,149691,1,0,0:0:0:0:
249,178,149758,1,0,0:0:0:0:
321,183,149825,2,0,L|329:127,1,45,0|0,0:0|0:0,0:0:0:0:
248,79,149958,2,0,L|237:151,1,45,0|0,0:0|0:0,0:0:0:0:
423,293,150092,6,0,L|481:288,1,45,10|0,0:0|0:0,0:0:0:0:
468,289,150226,2,0,L|414:294,1,45,0|0,0:0|0:0,0:0:0:0:
255,200,150360,2,0,L|208:262,1,45,0|0,0:0|0:0,0:0:0:0:
404,189,150494,2,0,L|438:137,1,45,0|0,0:0|0:0,0:0:0:0:
166,192,150628,5,14,0:0:0:0:
115,173,150695,1,0,0:0:0:0:
87,126,150762,1,0,0:0:0:0:
111,77,150829,1,0,0:0:0:0:
280,153,150896,1,10,0:0:0:0:
304,105,150963,1,0,0:0:0:0:
286,53,151030,1,0,0:0:0:0:
242,21,151097,1,0,0:0:0:0:
420,286,151164,6,0,L|469:290,1,45,10|0,0:0|0:0,0:0:0:0:
464,289,151298,2,0,L|406:284,1,45,0|0,0:0|0:0,0:0:0:0:
256,212,151432,2,0,L|181:219,1,45,10|0,0:0|0:0,0:0:0:0:
256,212,151566,2,0,L|321:208,1,45,0|0,0:0|0:0,0:0:0:0:
106,253,151700,5,10,0:0:0:0:
59,227,151766,1,0,0:0:0:0:
46,174,151833,1,0,0:0:0:0:
83,134,151900,1,0,0:0:0:0:
272,125,151967,1,10,0:0:0:0:
324,111,152034,1,0,0:0:0:0:
367,78,152101,1,0,0:0:0:0:
383,26,152168,1,0,0:0:0:0:
189,290,152235,5,10,0:0:0:0:
137,274,152302,1,0,0:0:0:0:
106,229,152369,1,0,0:0:0:0:
94,176,152436,1,0,0:0:0:0:
264,138,152503,2,0,L|335:142,1,45,10|0,0:0|0:0,0:0:0:0:
264,138,152637,2,0,L|206:136,1,45,0|0,0:0|0:0,0:0:0:0:
423,263,152771,6,0,L|481:268,1,45,10|0,0:0|0:0,0:0:0:0:
467,266,152905,2,0,L|418:262,1,45,10|0,0:0|0:0,0:0:0:0:
217,174,153039,2,0,L|231:230,1,45,10|0,0:0|0:0,0:0:0:0:
299,212,153173,2,0,L|281:268,1,45,10|0,0:0|0:0,0:0:0:0:
84,144,153307,6,0,L|29:142,1,45,10|0,0:0|0:0,0:0:0:0:
39,142,153441,2,0,L|88:144,1,45,10|0,0:0|0:0,0:0:0:0:
278,96,153575,2,0,L|339:91,1,45,10|8,0:0|0:0,0:0:0:0:
181,62,153708,2,0,L|121:54,1,45,10|8,0:0|0:0,0:0:0:0:
408,8,153842,6,0,B|456:8|456:8|448:320,1,360,14|0,0:0|0:0,0:0:0:0:
248,200,154512,1,0,0:0:0:0:
440,208,154646,2,0,L|453:100,1,90,10|0,0:0|0:0,0:0:0:0:
182,64,154914,6,0,L|369:60,1,180,6|8,0:0|0:0,0:0:0:0:
452,56,155316,1,0,0:0:0:0:
316,143,155450,2,0,L|203:147,1,90,0|0,0:0|0:0,0:0:0:0:
421,229,155717,2,0,L|427:326,1,90,10|0,0:0|0:0,0:0:0:0:
202,279,155985,6,0,P|146:270|206:198,1,180,2|8,0:0|0:0,0:0:0:0:
279,188,156387,1,0,0:0:0:0:
144,142,156521,2,0,L|137:50,1,90,2|0,0:0|0:0,0:0:0:0:
350,41,156789,2,0,L|356:138,1,90,10|0,0:0|0:0,0:0:0:0:
128,269,157057,6,0,L|324:261,1,180,2|8,0:0|0:0,0:0:0:0:
94,213,157458,2,0,P|39:209|87:132,1,180,2|0,0:0|0:0,0:0:0:0:
293,71,157860,2,0,L|176:67,1,90,10|0,0:0|0:0,0:0:0:0:
435,295,158128,6,0,L|444:187,1,90,2|0,0:0|0:0,0:0:0:0:
214,182,158396,2,0,L|97:191,1,90,8|0,0:0|0:0,0:0:0:0:
360,104,158664,2,0,L|262:95,1,90,10|0,0:0|0:0,0:0:0:0:
46,45,158932,2,0,L|144:36,1,90,10|0,0:0|0:0,0:0:0:0:
389,301,159200,6,0,P|435:287|361:217,1,180,2|8,0:0|0:0,0:0:0:0:
298,204,159601,1,0,0:0:0:0:
167,199,159735,2,0,L|180:96,1,90,0|0,0:0|0:0,0:0:0:0:
394,93,160003,2,0,L|409:-7,1,90,10|0,0:0|0:0,0:0:0:0:
189,290,160271,6,0,P|131:293|171:212,1,180,2|8,0:0|0:0,0:0:0:0:
251,204,160673,2,0,L|352:207,2,90,0|0|0,0:0|0:0|0:0,0:0:0:0:
51,108,161075,2,0,L|39:214,1,90,10|0,0:0|0:0,0:0:0:0:
251,139,161342,6,0,P|317:142|332:28,1,180,2|8,0:0|0:0,0:0:0:0:
128,256,161744,2,0,L|315:245,1,180,2|0,0:0|0:0,0:0:0:0:
76,193,162146,2,0,L|71:88,1,90,10|0,0:0|0:0,0:0:0:0:
289,78,162414,6,0,L|411:71,1,90,2|0,0:0|0:0,0:0:0:0:
169,189,162682,2,0,L|71:196,1,90,8|0,0:0|0:0,0:0:0:0:
293,129,162950,2,0,L|192:121,1,90,8|8,0:0|0:0,0:0:0:0:
426,236,163217,2,0,L|334:243,1,90,8|8,0:0|0:0,0:0:0:0:
44,177,163485,6,0,L|150:172,2,90,14|0|8,0:0|0:0|0:0,0:0:0:0:
270,155,163887,1,2,0:0:0:0:
179,156,164021,2,0,L|173:58,1,90,0|0,0:0|0:0,0:0:0:0:
453,88,164289,6,0,L|353:77,2,90,10|0|0,0:0|0:0|0:0,0:0:0:0:
217,243,164691,1,2,0:0:0:0:
307,243,164825,2,0,L|311:152,1,90,8|0,0:0|0:0,0:0:0:0:
31,171,165092,6,0,L|136:166,2,90,2|0|8,0:0|0:0|0:0,0:0:0:0:
262,139,165494,1,2,0:0:0:0:
171,137,165628,2,0,L|168:27,1,90,0|0,0:0|0:0,0:0:0:0:
443,79,165896,2,0,L|354:69,2,90,10|0|0,0:0|0:0|0:0,0:0:0:0:
208,250,166298,1,2,0:0:0:0:
297,256,166432,2,0,L|310:151,1,90,8|0,0:0|0:0,0:0:0:0:
90,147,166700,6,0,L|71:264,1,90,10|0,0:0|0:0,0:0:0:0:
305,98,166967,2,0,L|414:92,1,90,10|0,0:0|0:0,0:0:0:0:
181,56,167235,2,0,L|84:45,1,90,10|0,0:0|0:0,0:0:0:0:
341,185,167503,2,0,L|440:178,1,90,10|0,0:0|0:0,0:0:0:0:
173,272,167771,6,0,L|64:269,1,90,6|0,0:0|0:0,0:0:0:0:
220,227,168039,2,0,L|228:117,1,90,8|0,0:0|0:0,0:0:0:0:
364,74,168307,2,0,L|263:67,1,90,2|0,0:0|0:0,0:0:0:0:
53,137,168575,2,0,L|153:143,1,90,8|0,0:0|0:0,0:0:0:0:
369,279,168842,6,0,L|179:263,1,180,2|8,0:0|0:0,0:0:0:0:
99,257,169244,1,0,0:0:0:0:
236,188,169378,2,0,L|346:197,1,90,2|0,0:0|0:0,0:0:0:0:
124,95,169646,2,0,L|29:86,1,90,8|0,0:0|0:0,0:0:0:0:
267,63,169914,6,0,L|271:155,1,90,2|0,0:0|0:0,0:0:0:0:
132,209,170182,2,0,L|230:219,1,90,8|0,0:0|0:0,0:0:0:0:
441,258,170450,2,0,L|341:267,1,90,2|0,0:0|0:0,0:0:0:0:
100,297,170717,2,0,L|206:314,1,90,8|0,0:0|0:0,0:0:0:0:
427,205,170985,5,8,0:0:0:0:
451,192,171019,1,0,0:0:0:0:
469,173,171052,1,0,0:0:0:0:
476,146,171086,1,0,0:0:0:0:
471,119,171119,1,0,0:0:0:0:
458,94,171153,1,0,0:0:0:0:
434,81,171186,1,0,0:0:0:0:
247,55,171253,5,8,0:0:0:0:
272,52,171287,1,0,0:0:0:0:
296,50,171320,1,0,0:0:0:0:
320,46,171354,1,0,0:0:0:0:
344,43,171387,1,0,0:0:0:0:
367,38,171420,1,0,0:0:0:0:
391,33,171454,1,0,0:0:0:0:
217,230,171521,5,8,0:0:0:0:
193,221,171554,1,0,0:0:0:0:
173,205,171588,1,0,0:0:0:0:
162,183,171621,1,0,0:0:0:0:
160,157,171655,1,0,0:0:0:0:
167,133,171688,1,0,0:0:0:0:
185,115,171722,1,0,0:0:0:0:
379,93,171789,6,0,L|422:63,1,45,10|8,0:0|0:0,0:0:0:0:
233,51,171923,2,0,L|176:85,1,45,10|8,0:0|0:0,0:0:0:0:
439,314,172057,6,0,P|481:299|414:222,1,180,6|8,0:0|0:0,0:0:0:0:
340,217,172458,1,0,0:0:0:0:
203,198,172592,2,0,L|189:309,1,90,0|0,0:0|0:0,0:0:0:0:
328,154,172860,2,0,L|347:54,1,90,8|0,0:0|0:0,0:0:0:0:
126,225,173128,6,0,P|68:212|125:130,1,180,2|8,0:0|0:0,0:0:0:0:
195,120,173530,1,0,0:0:0:0:
335,92,173664,2,0,L|238:80,1,90,2|0,0:0|0:0,0:0:0:0:
30,42,173932,2,0,L|135:33,1,90,10|0,0:0|0:0,0:0:0:0:
338,289,174200,6,0,P|410:275|357:191,1,180,2|8,0:0|0:0,0:0:0:0:
247,197,174601,2,0,P|256:141|377:109,1,180,2|0,0:0|0:0,0:0:0:0:
151,90,175003,2,0,L|38:82,1,90,10|0,0:0|0:0,0:0:0:0:
301,295,175271,6,0,L|311:189,1,90,2|0,0:0|0:0,0:0:0:0:
89,180,175539,2,0,L|100:72,1,90,8|0,0:0|0:0,0:0:0:0:
321,109,175807,2,0,L|331:4,1,90,10|0,0:0|0:0,0:0:0:0:
91,260,176075,2,0,L|189:268,1,90,10|2,0:0|0:0,0:0:0:0:
422,277,176342,6,0,P|470:243|385:184,1,180,6|8,0:0|0:0,0:0:0:0:
315,181,176744,1,0,0:0:0:0:
176,186,176878,2,0,L|175:72,1,90,0|0,0:0|0:0,0:0:0:0:
396,48,177146,2,0,L|301:39,1,90,10|2,0:0|0:0,0:0:0:0:
94,276,177414,6,0,P|38:263|106:193,1,180,2|8,0:0|0:0,0:0:0:0:
172,186,177816,1,0,0:0:0:0:
311,202,177950,2,0,L|306:97,1,90,0|0,0:0|0:0,0:0:0:0:
173,70,178217,2,0,L|66:59,1,90,10|2,0:0|0:0,0:0:0:0:
309,304,178485,6,0,P|377:298|369:189,1,180,2|10,0:0|0:0,0:0:0:0:
253,212,178887,2,0,P|173:195|182:80,1,180,0|0,0:0|0:0,0:0:0:0:
373,81,179289,2,0,L|389:184,1,90,10|0,0:0|0:0,0:0:0:0:
164,276,179557,6,0,L|68:270,1,90,2|0,0:0|0:0,0:0:0:0:
294,203,179825,2,0,L|393:195,1,90,8|0,0:0|0:0,0:0:0:0:
177,142,180092,2,0,L|293:130,1,90,10|8,0:0|0:0,0:0:0:0:
39,68,180360,2,0,L|31:170,1,90,10|8,0:0|0:0,0:0:0:0:
276,278,180628,6,0,L|340:278,1,45,6|0,0:0|0:0,0:0:0:0:
321,278,180762,2,0,L|263:275,1,45,0|0,0:0|0:0,0:0:0:0:
193,235,180896,2,0,L|188:183,1,45,10|0,0:0|0:0,0:0:0:0:
356,119,181030,2,0,L|425:123,1,45,2|0,0:0|0:0,0:0:0:0:
356,119,181164,2,0,L|292:115,1,45,0|0,0:0|0:0,0:0:0:0:
398,76,181298,2,0,L|407:25,1,45,2|0,0:0|0:0,0:0:0:0:
221,164,181432,5,10,0:0:0:0:
172,140,181499,1,0,0:0:0:0:
149,91,181566,1,0,0:0:0:0:
176,44,181633,1,0,0:0:0:0:
243,32,181700,2,0,L|250:83,1,45,2|0,0:0|0:0,0:0:0:0:
87,294,181833,1,2,0:0:0:0:
35,278,181900,1,0,0:0:0:0:
11,229,181967,1,8,0:0:0:0:
10,174,182034,1,0,0:0:0:0:
40,129,182101,1,2,0:0:0:0:
92,114,182168,1,0,0:0:0:0:
276,178,182235,6,0,L|332:182,1,45,2|0,0:0|0:0,0:0:0:0:
276,178,182369,2,0,L|221:174,1,45,0|0,0:0|0:0,0:0:0:0:
416,128,182503,2,0,L|467:125,1,45,10|0,0:0|0:0,0:0:0:0:
460,125,182637,2,0,L|415:129|415:129,1,45,0|0,0:0|0:0,0:0:0:0:
243,90,182771,6,0,L|180:87,1,45,2|0,0:0|0:0,0:0:0:0:
198,87,182905,2,0,L|251:90,1,45,0|0,0:0|0:0,0:0:0:0:
325,86,183039,2,0,L|339:35,1,45,10|0,0:0|0:0,0:0:0:0:
155,248,183173,1,2,0:0:0:0:
135,197,183240,1,0,0:0:0:0:
157,147,183307,1,0,0:0:0:0:
206,124,183374,1,0,0:0:0:0:
141,109,183441,2,0,L|129:55,1,45,2|0,0:0|0:0,0:0:0:0:
308,238,183575,5,10,0:0:0:0:
356,215,183641,1,0,0:0:0:0:
364,161,183708,1,0,0:0:0:0:
331,117,183775,1,0,0:0:0:0:
249,121,183842,2,0,L|241:65,1,45,2|0,0:0|0:0,0:0:0:0:
429,317,183976,1,2,0:0:0:0:
476,292,184043,1,0,0:0:0:0:
499,243,184110,1,8,0:0:0:0:
491,189,184177,1,0,0:0:0:0:
455,148,184244,1,0,0:0:0:0:
405,126,184311,1,0,0:0:0:0:
211,190,184378,6,0,L|114:184,1,90,2|0,0:0|0:0,0:0:0:0:
353,66,184646,2,0,L|450:73,1,90,10|0,0:0|0:0,0:0:0:0:
143,101,184914,6,0,L|30:94,2,90,6|0|8,0:0|0:0|0:0,0:0:0:0:
353,273,185316,2,0,L|355:170,1,90,2|0,0:0|0:0,0:0:0:0:
151,173,185583,1,2,0:0:0:0:
357,108,185717,2,0,L|455:109,1,90,10|0,0:0|0:0,0:0:0:0:
213,102,185985,5,2,0:0:0:0:
323,111,186119,2,0,L|329:2,1,90,2|8,0:0|0:0,0:0:0:0:
213,18,186387,1,0,0:0:0:0:
434,258,186521,2,0,L|319:250,1,90,2|0,0:0|0:0,0:0:0:0:
129,243,186789,2,0,L|23:234,1,90,10|0,0:0|0:0,0:0:0:0:
360,174,187057,6,0,L|417:166,1,45,10|0,0:0|0:0,0:0:0:0:
450,137,187191,2,0,L|465:86,1,45,0|0,0:0|0:0,0:0:0:0:
444,42,187325,2,0,L|388:16,1,45,0|0,0:0|0:0,0:0:0:0:
208,59,187458,2,0,L|200:137,1,45,8|0,0:0|0:0,0:0:0:0:
385,312,187592,6,0,L|442:314,1,45,2|0,0:0|0:0,0:0:0:0:
385,312,187726,2,0,L|332:308,1,45,0|0,0:0|0:0,0:0:0:0:
154,248,187860,2,0,L|94:255,1,45,8|0,0:0|0:0,0:0:0:0:
109,253,187994,2,0,L|156:249,1,45,0|0,0:0|0:0,0:0:0:0:
322,211,188128,6,0,L|332:151,1,45,2|0,0:0|0:0,0:0:0:0:
131,128,188262,2,0,L|79:127,1,45,8|0,0:0|0:0,0:0:0:0:
86,127,188396,2,0,L|133:128,1,45,0|0,0:0|0:0,0:0:0:0:
311,118,188530,2,0,L|378:113,1,45,8|0,0:0|0:0,0:0:0:0:
150,52,188664,6,0,L|123:105,1,45,10|8,0:0|0:0,0:0:0:0:
348,275,188798,2,0,L|373:222,1,45,8|8,0:0|0:0,0:0:0:0:
154,232,188932,2,0,L|128:293,1,45,10|8,0:0|0:0,0:0:0:0:
327,151,189066,2,0,L|348:92,1,45,8|8,0:0|0:0,0:0:0:0:
152,384,189200,6,0,P|96:328|456:328,2,1007.99996923828,6|2|2,0:0|0:0|0:0,0:0:0:0:
280,312,193753,5,0,0:0:0:0:
152,336,194021,1,2,0:0:0:0:
160,328,194289,1,0,0:0:0:0:
344,312,194557,6,0,P|408:248|352:192,1,180,2|0,0:0|0:0,0:0:0:0:
264,192,194958,1,2,0:0:0:0:
96,272,195628,6,0,P|144:272|232:184,2,180,2|0|0,0:0|0:0|0:0,0:0:0:0:
344,304,196432,6,0,P|376:272|256:152,1,270,2|2,0:0|0:0,0:0:0:0:
336,296,196967,2,0,L|152:296,1,180,2|2,0:0|0:0,0:0:0:0:
288,240,197369,1,2,0:0:0:0:
160,280,197503,1,2,0:0:0:0:
416,304,197637,2,0,L|472:304,1,45,2|0,0:0|0:0,0:0:0:0:
224,200,197771,6,0,L|216:152,1,45,6|0,0:0|0:0,0:0:0:0:
288,160,197905,2,0,L|280:112,1,45,0|0,0:0|0:0,0:0:0:0:
120,192,198039,1,10,0:0:0:0:
96,176,198106,1,0,0:0:0:0:
120,192,198173,1,0,0:0:0:0:
168,192,198240,1,0,0:0:0:0:
328,224,198307,6,0,L|336:176,1,45,10|0,0:0|0:0,0:0:0:0:
264,184,198441,2,0,L|272:136,1,45,0|0,0:0|0:0,0:0:0:0:
432,176,198575,2,0,L|440:128,1,45,10|0,0:0|0:0,0:0:0:0:
256,248,198708,6,0,L|208:248,1,45,2|0,0:0|0:0,0:0:0:0:
272,232,198842,1,8,0:0:0:0:
320,208,198909,1,0,0:0:0:0:
344,160,198976,1,0,0:0:0:0:
320,208,199043,1,0,0:0:0:0:
176,168,199110,2,0,L|128:168,1,45,10|0,0:0|0:0,0:0:0:0:
200,152,199244,2,0,L|264:152,1,45,0|0,0:0|0:0,0:0:0:0:
96,200,199378,5,10,0:0:0:0:
48,176,199445,1,0,0:0:0:0:
24,128,199512,1,0,0:0:0:0:
48,176,199579,1,0,0:0:0:0:
112,168,199646,2,0,L|160:168,1,45,8|0,0:0|0:0,0:0:0:0:
88,152,199780,2,0,L|144:152,1,45,0|0,0:0|0:0,0:0:0:0:
296,208,199914,6,0,L|360:208,1,45,10|0,0:0|0:0,0:0:0:0:
272,200,200048,2,0,L|208:200,1,45,0|0,0:0|0:0,0:0:0:0:
384,224,200182,1,10,0:0:0:0:
432,200,200249,1,0,0:0:0:0:
456,152,200316,1,0,0:0:0:0:
432,200,200383,1,0,0:0:0:0:
272,184,200450,6,0,L|208:184,1,45,10|0,0:0|0:0,0:0:0:0:
296,176,200584,2,0,L|360:176,1,45,0|0,0:0|0:0,0:0:0:0:
184,136,200717,2,0,L|128:136,1,45,10|0,0:0|0:0,0:0:0:0:
304,160,200851,6,0,L|312:112,1,45,2|0,0:0|0:0,0:0:0:0:
240,128,200985,1,8,0:0:0:0:
192,104,201052,1,0,0:0:0:0:
168,56,201119,1,0,0:0:0:0:
192,104,201186,1,0,0:0:0:0:
352,144,201253,6,0,L|416:144,1,45,10|0,0:0|0:0,0:0:0:0:
328,136,201387,2,0,L|264:136,1,45,0|0,0:0|0:0,0:0:0:0:
120,240,201521,2,0,L|112:192,1,45,10|0,0:0|0:0,0:0:0:0:
184,192,201655,2,0,L|216:160,1,45,0|0,0:0|0:0,0:0:0:0:
288,160,201789,2,0,L|352:160,1,45,8|0,0:0|0:0,0:0:0:0:
144,96,201923,2,0,L|80:96,1,45,0|0,0:0|0:0,0:0:0:0:
328,264,202057,6,0,P|424:264|424:200,1,180,10|8,0:0|0:0,0:0:0:0:
296,192,202458,1,0,0:0:0:0:
488,144,202592,2,0,L|384:144,1,90,10|0,0:0|0:0,0:0:0:0:
200,144,202860,2,0,L|320:144,1,90,8|0,0:0|0:0,0:0:0:0:
88,208,203128,6,0,L|80:112,1,90,10|0,0:0|0:0,0:0:0:0:
280,112,203396,2,0,L|168:112,1,90,8|0,0:0|0:0,0:0:0:0:
384,104,203664,2,0,L|264:104,1,90,10|0,0:0|0:0,0:0:0:0:
96,96,203932,1,8,0:0:0:0:
288,80,204066,1,8,0:0:0:0:
64,272,204200,6,0,L|56:176,1,90,10|0,0:0|0:0,0:0:0:0:
248,192,204467,2,0,L|256:144,1,45,10|0,0:0|0:0,0:0:0:0:
184,160,204601,2,0,L|192:112,1,45,8|0,0:0|0:0,0:0:0:0:
376,128,204735,2,0,L|432:128,1,45,10|0,0:0|0:0,0:0:0:0:
232,192,204869,6,0,L|224:144,1,45,8|0,0:0|0:0,0:0:0:0:
296,160,205003,2,0,L|288:112,1,45,10|8,0:0|0:0,0:0:0:0:
104,128,205137,2,0,L|48:128,1,45,8|8,0:0|0:0,0:0:0:0:
296,136,205271,5,12,0:0:0:0:
112,336,205539,2,0,P|80:304|80:8,1,360,10|0,0:0|0:0,0:0:0:0:
464,312,206342,6,0,P|464:256|352:144,1,215.999993408203,6|8,0:0|0:0,0:0:0:0:
208,168,206744,1,0,0:0:0:0:
360,152,206878,2,0,L|248:152,1,107.999996704102,0|0,0:0|0:0,0:0:0:0:
40,176,207146,2,0,L|48:64,1,107.999996704102,10|0,0:0|0:0,0:0:0:0:
264,224,207414,6,0,P|224:184|72:184,1,215.999993408203,2|8,0:0|0:0,0:0:0:0:
224,136,207816,1,0,0:0:0:0:
80,104,207950,2,0,L|192:104,1,107.999996704102,2|0,0:0|0:0,0:0:0:0:
400,120,208217,2,0,L|408:8,1,107.999996704102,10|0,0:0|0:0,0:0:0:0:
192,272,208485,6,0,P|232:232|384:232,1,215.999993408203,2|8,0:0|0:0,0:0:0:0:
128,240,208887,2,0,P|168:200|320:200,1,215.999993408203,2|0,0:0|0:0,0:0:0:0:
64,144,209289,2,0,L|192:144,1,107.999996704102,10|0,0:0|0:0,0:0:0:0:
416,264,209557,6,0,P|456:224|360:128,1,215.999993408203,2|8,0:0|0:0,0:0:0:0:
232,120,209958,1,0,0:0:0:0:
448,104,210092,2,0,L|456:216,1,107.999996704102,10|0,0:0|0:0,0:0:0:0:
240,224,210360,2,0,L|352:224,1,107.999996704102,10|0,0:0|0:0,0:0:0:0:
128,288,210628,6,0,P|72:288|72:160,1,215.999993408203,6|8,0:0|0:0,0:0:0:0:
216,184,211030,1,0,0:0:0:0:
72,208,211164,2,0,L|80:96,1,107.999996704102,0|0,0:0|0:0,0:0:0:0:
224,192,211432,2,0,L|232:80,1,107.999996704102,8|0,0:0|0:0,0:0:0:0:
448,256,211700,6,0,P|408:216|256:216,1,215.999993408203,2|8,0:0|0:0,0:0:0:0:
400,144,212101,1,0,0:0:0:0:
256,176,212235,2,0,L|248:64,1,107.999996704102,0|0,0:0|0:0,0:0:0:0:
464,112,212503,2,0,L|352:112,1,107.999996704102,10|0,0:0|0:0,0:0:0:0:
120,304,212771,6,0,P|80:264|176:168,1,215.999993408203,2|8,0:0|0:0,0:0:0:0:
408,232,213173,2,0,P|368:192|216:192,1,215.999993408203,2|0,0:0|0:0,0:0:0:0:
464,128,213575,2,0,L|352:128,1,107.999996704102,10|0,0:0|0:0,0:0:0:0:
136,256,213842,6,0,L|256:256,1,107.999996704102,2|0,0:0|0:0,0:0:0:0:
96,224,214110,2,0,L|88:112,1,107.999996704102,8|0,0:0|0:0,0:0:0:0:
296,112,214378,2,0,L|160:112,1,107.999996704102,8|8,0:0|0:0,0:0:0:0:
336,88,214646,1,8,0:0:0:0:
112,80,214780,1,8,0:0:0:0:
376,176,214914,6,0,L|232:176,1,107.999996704102,6|0,0:0|0:0,0:0:0:0:
480,176,215182,1,8,0:0:0:0:
272,128,215316,1,2,0:0:0:0:
376,128,215450,1,0,0:0:0:0:
488,128,215583,1,0,0:0:0:0:
248,216,215717,6,0,L|392:216,1,107.999996704102,10|0,0:0|0:0,0:0:0:0:
144,216,215985,1,0,0:0:0:0:
352,168,216119,1,2,0:0:0:0:
248,168,216253,1,8,0:0:0:0:
136,168,216386,1,0,0:0:0:0:
384,248,216521,6,0,L|392:136,1,107.999996704102,2|0,0:0|0:0,0:0:0:0:
184,240,216789,1,8,0:0:0:0:
392,240,216923,2,0,L|280:240,1,107.999996704102,2|0,0:0|0:0,0:0:0:0:
400,232,217191,1,0,0:0:0:0:
160,216,217325,6,0,L|152:104,1,107.999996704102,10|0,0:0|0:0,0:0:0:0:
360,208,217593,1,0,0:0:0:0:
152,208,217727,2,0,L|264:208,1,107.999996704102,2|8,0:0|0:0,0:0:0:0:
144,200,217995,1,0,0:0:0:0:
392,176,218128,6,0,L|400:64,1,107.999996704102,10|0,0:0|0:0,0:0:0:0:
168,136,218396,2,0,L|288:136,1,107.999996704102,10|0,0:0|0:0,0:0:0:0:
48,192,218664,6,0,L|40:80,1,107.999996704102,10|0,0:0|0:0,0:0:0:0:
272,152,218932,2,0,L|152:152,1,107.999996704102,10|0,0:0|0:0,0:0:0:0:
432,264,219200,6,0,L|440:152,1,107.999996704102,6|0,0:0|0:0,0:0:0:0:
296,200,219467,2,0,L|376:120,1,107.999996704102,8|0,0:0|0:0,0:0:0:0:
224,144,219735,2,0,L|304:64,1,107.999996704102,2|0,0:0|0:0,0:0:0:0:
448,136,220003,2,0,L|440:24,1,107.999996704102,8|0,0:0|0:0,0:0:0:0:
224,216,220271,6,0,L|352:216,1,107.999996704102,2|0,0:0|0:0,0:0:0:0:
112,208,220539,2,0,P|112:152|224:40,1,215.999993408203,10|0,0:0|0:0,0:0:0:0:
360,64,220941,1,0,0:0:0:0:
128,80,221075,2,0,L|16:80,1,107.999996704102,10|0,0:0|0:0,0:0:0:0:
264,256,221342,6,0,L|272:144,1,107.999996704102,2|0,0:0|0:0,0:0:0:0:
128,160,221610,2,0,L|136:48,1,107.999996704102,8|0,0:0|0:0,0:0:0:0:
368,272,221878,2,0,L|376:160,1,107.999996704102,2|0,0:0|0:0,0:0:0:0:
144,168,222146,2,0,L|152:56,1,107.999996704102,10|0,0:0|0:0,0:0:0:0:
344,216,222414,6,0,P|392:216|392:128,1,157.5,0|0,0:0|0:0,0:0:0:0:
376,128,222682,2,0,L|200:128,1,173.250005287171,0|0,0:0|0:0,0:0:0:0:
216,120,222950,2,0,L|408:120,1,188.999994232178,0|0,0:0|0:0,0:0:0:0:
392,104,223217,2,0,L|216:104,1,175.499991966248,0|0,0:0|0:0,0:0:0:0:
440,280,223485,6,0,P|480:240|384:144,1,215.999993408203,6|8,0:0|0:0,0:0:0:0:
256,136,223887,1,0,0:0:0:0:
400,160,224021,2,0,L|392:272,1,107.999996704102,0|0,0:0|0:0,0:0:0:0:
168,240,224289,2,0,L|176:128,1,107.999996704102,10|0,0:0|0:0,0:0:0:0:
400,248,224557,6,0,P|360:208|208:208,1,215.999993408203,2|8,0:0|0:0,0:0:0:0:
64,208,224958,1,0,0:0:0:0:
288,160,225092,2,0,L|168:160,1,107.999996704102,2|0,0:0|0:0,0:0:0:0:
408,184,225360,2,0,L|416:72,1,107.999996704102,10|0,0:0|0:0,0:0:0:0:
160,248,225628,6,0,P|200:208|352:208,1,215.999993408203,2|8,0:0|0:0,0:0:0:0:
80,208,226030,2,0,P|40:168|136:72,1,215.999993408203,2|0,0:0|0:0,0:0:0:0:
384,96,226432,2,0,L|496:96,1,107.999996704102,10|0,0:0|0:0,0:0:0:0:
232,264,226700,6,0,P|176:264|176:136,1,215.999993408203,2|8,0:0|0:0,0:0:0:0:
320,152,227101,2,0,L|328:96,1,53.9999983520508,0|0,0:0|0:0,0:0:0:0:
248,96,227235,2,0,L|128:96,1,107.999996704102,10|0,0:0|0:0,0:0:0:0:
400,96,227503,2,0,L|280:96,1,107.999996704102,10|0,0:0|0:0,0:0:0:0:
48,248,227771,6,0,P|88:208|240:208,1,215.999993408203,2|8,0:0|0:0,0:0:0:0:
96,248,228172,1,2,0:0:0:0:
352,224,228307,2,0,L|360:112,1,107.999996704102,0|0,0:0|0:0,0:0:0:0:
104,120,228575,2,0,L|224:120,1,107.999996704102,10|0,0:0|0:0,0:0:0:0:
464,248,228842,6,0,P|424:208|272:208,1,215.999993408203,2|8,0:0|0:0,0:0:0:0:
424,160,229244,1,0,0:0:0:0:
280,160,229378,2,0,L|288:48,1,107.999996704102,0|0,0:0|0:0,0:0:0:0:
56,176,229646,2,0,L|48:64,1,107.999996704102,10|0,0:0|0:0,0:0:0:0:
304,256,229914,6,0,P|416:256|416:176,1,215.999993408203,2|8,0:0|0:0,0:0:0:0:
160,232,230316,2,0,P|200:192|352:192,1,215.999993408203,2|0,0:0|0:0,0:0:0:0:
88,112,230717,2,0,L|200:112,1,107.999996704102,10|0,0:0|0:0,0:0:0:0:
456,224,230985,6,0,L|464:112,1,107.999996704102,10|0,0:0|0:0,0:0:0:0:
240,144,231253,2,0,L|360:144,1,107.999996704102,10|0,0:0|0:0,0:0:0:0:
288,112,231454,1,0,0:0:0:0:
208,112,231521,2,0,L|344:112,1,107.999996704102,8|8,0:0|0:0,0:0:0:0:
96,72,231789,1,8,0:0:0:0:
312,72,231923,1,8,0:0:0:0:
40,208,232057,6,0,L|168:208,1,107.999996704102,6|0,0:0|0:0,0:0:0:0:
32,200,232325,1,8,0:0:0:0:
256,208,232458,2,0,P|216:168|64:168,1,215.999993408203,2|0,0:0|0:0,0:0:0:0:
304,240,232860,6,0,L|296:128,1,107.999996704102,10|0,0:0|0:0,0:0:0:0:
152,104,233128,1,0,0:0:0:0:
376,160,233262,2,0,P|336:120|184:120,1,215.999993408203,2|0,0:0|0:0,0:0:0:0:
424,224,233664,6,0,L|296:224,1,107.999996704102,2|0,0:0|0:0,0:0:0:0:
432,216,233932,1,8,0:0:0:0:
208,224,234065,2,0,P|248:184|400:184,1,215.999993408203,2|0,0:0|0:0,0:0:0:0:
160,256,234467,6,0,L|168:144,1,107.999996704102,10|0,0:0|0:0,0:0:0:0:
312,120,234735,1,0,0:0:0:0:
88,176,234869,2,0,P|128:136|280:136,1,215.999993408203,2|0,0:0|0:0,0:0:0:0:
40,160,235271,6,0,L|160:160,1,107.999996704102,2|0,0:0|0:0,0:0:0:0:
384,160,235539,1,8,0:0:0:0:
152,240,235673,1,2,0:0:0:0:
288,248,235807,2,0,L|280:136,1,107.999996704102,0|0,0:0|0:0,0:0:0:0:
40,128,236075,2,0,L|160:128,1,107.999996704102,10|0,0:0|0:0,0:0:0:0:
376,224,236342,6,0,L|384:112,1,107.999996704102,6|0,0:0|0:0,0:0:0:0:
240,224,236610,2,0,L|248:112,1,107.999996704102,8|0,0:0|0:0,0:0:0:0:
392,168,236878,2,0,L|312:88,1,107.999996704102,2|0,0:0|0:0,0:0:0:0:
168,168,237146,2,0,L|88:88,1,107.999996704102,8|0,0:0|0:0,0:0:0:0:
328,240,237414,6,0,L|336:128,1,107.999996704102,2|0,0:0|0:0,0:0:0:0:
192,160,237682,2,0,L|280:72,1,107.999996704102,8|0,0:0|0:0,0:0:0:0:
40,240,237950,2,0,L|32:128,1,107.999996704102,2|0,0:0|0:0,0:0:0:0:
176,160,238218,2,0,L|88:72,1,107.999996704102,8|0,0:0|0:0,0:0:0:0:
328,256,238485,6,0,L|440:256,1,107.999996704102,2|0,0:0|0:0,0:0:0:0:
296,224,238753,2,0,L|376:144,1,107.999996704102,8|0,0:0|0:0,0:0:0:0:
232,184,239021,2,0,L|240:72,1,107.999996704102,2|0,0:0|0:0,0:0:0:0:
96,160,239289,2,0,L|88:48,1,107.999996704102,8|0,0:0|0:0,0:0:0:0:
352,376,239557,6,0,P|352:320|32:0,1,539.999983520508,2|0,0:0|0:0,0:0:0:0:
337,268,240628,6,0,L|345:167,1,90,6|0,0:0|0:0,0:0:0:0:
209,179,240896,2,0,L|216:81,1,90,8|0,0:0|0:0,0:0:0:0:
351,41,241164,2,0,L|246:33,1,90,2|0,0:0|0:0,0:0:0:0:
124,31,241432,2,0,L|27:26,1,90,8|0,0:0|0:0,0:0:0:0:
273,259,241700,6,0,L|374:252,1,90,2|0,0:0|0:0,0:0:0:0:
222,187,241967,2,0,L|124:192,1,90,8|0,0:0|0:0,0:0:0:0:
273,68,242235,2,0,L|281:182,1,90,2|0,0:0|0:0,0:0:0:0:
151,164,242503,1,10,0:0:0:0:
365,198,242637,1,2,0:0:0:0:
139,322,242771,6,0,P|87:307|166:244,1,180,2|8,0:0|0:0,0:0:0:0:
213,228,243173,1,0,0:0:0:0:
351,239,243307,2,0,L|341:143,1,90,2|0,0:0|0:0,0:0:0:0:
207,137,243575,2,0,L|191:37,1,90,8|0,0:0|0:0,0:0:0:0:
406,308,243842,6,0,L|500:303,1,90,10|0,0:0|0:0,0:0:0:0:
269,242,244110,2,0,L|157:229,1,90,10|0,0:0|0:0,0:0:0:0:
409,138,244378,2,0,L|425:245,1,90,10|0,0:0|0:0,0:0:0:0:
194,153,244646,2,0,L|181:50,1,90,10|0,0:0|0:0,0:0:0:0:
412,303,244914,6,0,L|311:293,1,90,6|0,0:0|0:0,0:0:0:0:
184,240,245182,2,0,L|288:235,1,90,8|0,0:0|0:0,0:0:0:0:
405,208,245450,2,0,L|412:107,1,90,2|0,0:0|0:0,0:0:0:0:
274,78,245717,2,0,L|382:72,1,90,8|0,0:0|0:0,0:0:0:0:
153,220,245985,6,0,L|46:213,1,90,2|0,0:0|0:0,0:0:0:0:
199,168,246253,2,0,L|318:160,1,90,8|0,0:0|0:0,0:0:0:0:
152,133,246521,2,0,L|163:28,1,90,2|0,0:0|0:0,0:0:0:0:
280,51,246789,1,10,0:0:0:0:
76,165,246923,1,2,0:0:0:0:
286,288,247057,6,0,P|343:268|284:194,1,180,2|8,0:0|0:0,0:0:0:0:
212,194,247458,1,0,0:0:0:0:
347,144,247592,2,0,L|354:45,1,90,2|0,0:0|0:0,0:0:0:0:
213,38,247860,2,0,L|204:149,1,90,8|0,0:0|0:0,0:0:0:0:
434,316,248128,6,0,L|441:202,1,90,2|0,0:0|0:0,0:0:0:0:
229,174,248396,2,0,L|350:163,1,90,10|0,0:0|0:0,0:0:0:0:
110,243,248664,2,0,L|10:234,1,90,10|8,0:0|0:0,0:0:0:0:
236,141,248932,2,0,L|113:126,1,90,10|8,0:0|0:0,0:0:0:0:
382,299,249200,6,0,P|430:275|358:202,1,180,6|0,0:0|0:0,0:0:0:0:
231,168,249735,2,0,L|394:79,1,180,8|0,0:0|0:0,0:0:0:0:
148,283,250271,6,0,P|87:269|147:194,1,180,2|0,0:0|0:0,0:0:0:0:
279,175,250807,1,8,0:0:0:0:
122,98,251075,2,0,L|221:83,1,90,2|10,0:0|0:0,0:0:0:0:
422,303,251342,6,0,P|470:288|397:225,1,180,2|0,0:0|0:0,0:0:0:0:
274,191,251878,2,0,L|434:97,1,180,10|0,0:0|0:0,0:0:0:0:
192,306,252414,6,0,P|137:290|193:201,1,180,2|10,0:0|0:0,0:0:0:0:
309,187,252816,1,8,0:0:0:0:
101,98,252950,2,0,L|89:210,1,90,10|0,0:0|0:0,0:0:0:0:
308,65,253217,2,0,L|416:56,1,90,10|0,0:0|0:0,0:0:0:0:
170,273,253485,6,0,L|80:263,1,90,6|0,0:0|0:0,0:0:0:0:
217,223,253753,2,0,L|230:119,1,90,8|0,0:0|0:0,0:0:0:0:
365,91,254021,2,0,L|255:87,1,90,2|0,0:0|0:0,0:0:0:0:
138,52,254289,2,0,L|229:47,1,90,8|0,0:0|0:0,0:0:0:0:
448,292,254557,6,0,L|349:284,1,90,2|0,0:0|0:0,0:0:0:0:
220,277,254825,2,0,L|213:168,1,90,8|0,0:0|0:0,0:0:0:0:
353,185,255092,2,0,L|368:73,1,90,2|0,0:0|0:0,0:0:0:0:
237,79,255360,1,10,0:0:0:0:
449,52,255494,1,2,0:0:0:0:
226,288,255628,6,0,P|176:274|240:205,1,180,2|8,0:0|0:0,0:0:0:0:
309,206,256030,1,0,0:0:0:0:
173,151,256164,2,0,L|170:53,1,90,2|0,0:0|0:0,0:0:0:0:
307,50,256432,2,0,L|312:169,1,90,8|0,0:0|0:0,0:0:0:0:
34,288,256700,5,4,0:0:0:0:
177,285,256967,1,0,0:0:0:0:
321,283,257235,1,0,0:0:0:0:
465,280,257503,1,0,0:0:0:0:
80,240,257771,6,0,L|73:37,1,180,4|0,0:0|0:0,0:0:0:0:
285,58,258307,2,0,L|334:62,1,45,10|8,0:0|0:0,0:0:0:0:
285,58,258441,2,0,L|230:62,1,45,8|8,0:0|0:0,0:0:0:0:
416,219,258575,2,0,L|475:222,1,45,10|0,0:0|0:0,0:0:0:0:
460,221,258708,2,0,L|410:217,1,45,0|0,0:0|0:0,0:0:0:0:
174,243,258842,6,0,L|164:353,1,90,14|0,0:0|0:0,0:0:0:0:
301,148,259110,2,0,L|289:262,1,90,10|0,0:0|0:0,0:0:0:0:
90,104,259378,2,0,L|75:219,1,90,10|0,0:0|0:0,0:0:0:0:
212,173,259646,2,0,L|197:281,1,90,10|0,0:0|0:0,0:0:0:0:
446,89,259914,6,0,L|330:100,1,90,14|8,0:0|0:0,0:0:0:0:
82,45,260182,2,0,L|185:43,1,90,14|8,0:0|0:0,0:0:0:0:
471,249,260450,2,0,L|372:253,1,90,14|8,0:0|0:0,0:0:0:0:
54,268,260717,2,0,L|171:282,1,90,14|8,0:0|0:0,0:0:0:0:
486,319,260985,5,12,0:0:0:0:
256,192,261119,12,0,264200,0:0:0:0:
