osu file format v14

[General]
AudioFilename: audio.mp3
AudioLeadIn: 0
PreviewTime: 45855
Countdown: 1
SampleSet: Soft
StackLeniency: 0.7
Mode: 0
LetterboxInBreaks: 0
WidescreenStoryboard: 0

[Editor]
Bookmarks: 255,5130,6330,43530,45930,72780,74130,101055,107655,108255,127455,129855,140955,150255,173655
DistanceSpacing: 1.2
BeatDivisor: 4
GridSize: 16
TimelineZoom: 2.4

[Metadata]
Title:Hibana
TitleUnicode:Hibana
Artist:Araki
ArtistUnicode:Araki
Creator:luGha
Version:Knock Knock
Source:
Tags:Hibana Araki
BeatmapID:1681522
BeatmapSetID:801005

[Difficulty]
HPDrainRate:5
CircleSize:4
OverallDifficulty:9
ApproachRate:9.7
SliderMultiplier:1.8
SliderTickRate:1

[Events]
//Background and Video events
0,0,"hibana.jpg",0,0
//Break Periods
2,17255,21360
2,122255,126960
//Storyboard Layer 0 (Background)
//Storyboard Layer 1 (Fail)
//Storyboard Layer 2 (Pass)
//Storyboard Layer 3 (Foreground)
//Storyboard Sound Samples

[TimingPoints]
255,300,4,2,1,100,1,0
2280,-66.6666666666667,4,2,1,100,0,0
2505,-100,4,2,1,100,0,0
7455,-100,4,2,1,70,0,0
11655,-66.6666666666667,4,2,1,70,0,0
11805,-100,4,2,1,70,0,0
14655,-133.333333333333,4,2,1,70,0,0
16755,-100,4,2,1,70,0,0
22755,-100,4,2,1,70,0,0
28605,-66.6666666666667,4,2,1,70,0,0
28755,-100,4,2,1,70,0,0
43455,-66.6666666666667,4,2,1,70,0,0
45855,-66.6666666666667,4,2,1,100,0,1
63555,-133.333333333333,4,2,1,100,0,0
64455,-100,4,2,1,100,0,0
65055,-100,4,2,1,70,0,0
74355,-133.333333333333,4,2,1,40,0,0
82755,-133.333333333333,4,2,1,70,0,0
98655,-100,4,2,1,70,0,0
103455,-66.6666666666667,4,2,1,100,0,1
122055,-100,4,2,1,70,0,0
132858,-133.333333333333,4,2,1,70,0,0
143055,-100,4,2,1,70,0,0
148080,-133.333333333333,4,2,1,70,0,0
174255,-66.6666666666667,4,2,1,70,0,1
200505,-100,4,2,1,40,0,0

[HitObjects]
244,63,255,5,0,0:0:0:0:
98,165,455,1,0,0:0:0:0:
264,225,655,1,0,0:0:0:0:
216,277,855,5,0,0:0:0:0:
136,55,1055,1,0,0:0:0:0:
404,77,1255,1,0,0:0:0:0:
238,305,1455,5,0,0:0:0:0:
297,171,1655,1,0,0:0:0:0:
448,302,1855,1,0,0:0:0:0:
422,161,2055,5,0,0:0:0:0:
136,55,2280,6,0,B|107:101|149:146|61:243|61:243,1,202.500007724762
283,72,2655,1,8,0:0:0:0:
300,112,2730,1,0,0:0:0:0:
295,156,2805,1,0,0:0:0:0:
277,197,2880,1,0,0:0:0:0:
250,233,2955,1,0,0:0:0:0:
210,253,3030,1,0,0:0:0:0:
165,252,3105,1,8,0:0:0:0:
134,275,3180,1,0,0:0:0:0:
152,315,3255,1,0,0:0:0:0:
193,331,3330,5,0,0:0:0:0:
238,328,3405,1,0,0:0:0:0:
281,315,3480,1,0,0:0:0:0:
321,296,3555,1,8,0:0:0:0:
360,272,3630,1,0,0:0:0:0:
395,244,3705,1,0,0:0:0:0:
423,209,3780,1,0,0:0:0:0:
425,168,3855,1,8,0:0:0:0:
412,134,3930,2,0,L|392:89,3,45
370,65,4230,1,0,0:0:0:0:
318,56,4305,1,8,0:0:0:0:
275,85,4380,1,0,0:0:0:0:
262,136,4455,1,0,0:0:0:0:
269,188,4530,5,0,0:0:0:0:
273,241,4605,1,0,0:0:0:0:
247,285,4680,1,0,0:0:0:0:
198,304,4755,1,8,0:0:0:0:
147,297,4830,1,0,0:0:0:0:
111,260,4905,1,0,0:0:0:0:
120,210,4980,1,0,0:0:0:0:
133,177,5055,2,0,L|164:107,3,45,8|0|0|0,0:0|0:0|0:0|0:0,0:0:0:0:
175,109,5355,1,8,0:0:0:0:
233,79,5430,1,0,0:0:0:0:
297,88,5505,1,0,0:0:0:0:
337,139,5580,1,0,0:0:0:0:
333,203,5655,1,8,0:0:0:0:
284,243,5730,5,0,0:0:0:0:
227,216,5805,1,0,0:0:0:0:
181,169,5880,1,0,0:0:0:0:
117,173,5955,1,8,0:0:0:0:
69,217,6030,1,0,0:0:0:0:
74,280,6105,1,0,0:0:0:0:
125,321,6180,1,0,0:0:0:0:
189,337,6255,1,8,0:0:0:0:
280,142,6705,6,0,L|343:126,1,45
393,296,7155,2,0,L|319:291,1,45
207,201,7455,6,12,L|115:148,1,90,12|8,0:0|0:0,0:0:0:0:
229,71,7755,1,8,0:0:0:0:
336,244,7905,1,0,0:0:0:0:
173,305,8055,1,0,0:0:0:0:
304,147,8205,2,0,L|389:85,1,90
169,120,8505,1,0,0:0:0:0:
399,39,8655,5,0,0:0:0:0:
426,250,8805,2,0,B|381:288|333:281|323:317,1,90
255,143,9105,1,0,0:0:0:0:
110,297,9255,2,0,L|79:197,1,90
178,55,9555,2,0,L|301:106,1,90
341,308,9855,1,12,0:0:0:0:
239,167,10005,1,8,0:0:0:0:
110,283,10155,1,0,0:0:0:0:
126,82,10305,6,0,P|181:80|233:126,1,90
344,239,10605,2,0,B|364:198|365:183|378:179|391:178|403:181|421:193|430:201,1,90
270,313,10905,1,0,0:0:0:0:
275,116,11055,2,0,P|209:124|176:163,1,90
126,285,11355,1,0,0:0:0:0:
349,160,11505,1,0,0:0:0:0:
102,158,11655,2,0,P|145:99|221:94,1,135.000005149842
230,274,11955,1,8,0:0:0:0:
244,243,12030,1,0,0:0:0:0:
259,213,12105,1,0,0:0:0:0:
273,182,12180,1,0,0:0:0:0:
288,152,12255,1,4,0:0:0:0:
416,334,12555,6,0,P|475:299|485:251,1,90
422,104,12855,1,0,0:0:0:0:
318,248,13005,1,0,0:0:0:0:
160,205,13155,2,0,P|148:139|177:101,1,90
257,327,13455,1,0,0:0:0:0:
378,185,13605,2,0,P|435:215|454:267,1,90
357,331,13905,1,0,0:0:0:0:
210,245,14055,2,0,P|206:187|240:128,1,90
295,77,14355,2,0,P|344:61|413:67,1,90
456,185,14655,6,0,L|415:264,1,67.5000025749208,8|0,0:0|0:0,0:0:0:0:
289,250,15105,2,0,L|258:161,1,67.5000025749208,8|0,0:0|0:0,0:0:0:0:
112,85,15405,1,0,0:0:0:0:
66,328,15555,2,0,P|79:252|88:248,1,67.5000025749208,8|0,0:0|0:0,0:0:0:0:
199,114,15855,5,8,0:0:0:0:
377,113,16005,1,0,0:0:0:0:
388,132,16080,1,0,0:0:0:0:
399,151,16155,1,8,0:0:0:0:
244,280,16305,1,0,0:0:0:0:
92,151,16455,1,8,0:0:0:0:
53,350,16605,1,0,0:0:0:0:
243,82,16755,2,0,B|267:121|225:166|345:161|233:248|233:248,1,180,0|4,0:0|0:0,0:0:0:0:
353,85,21855,5,0,0:0:0:0:
210,258,22005,1,0,0:0:0:0:
362,308,22305,2,0,P|392:266|391:226,1,90
242,88,22605,2,0,P|211:129|210:206,1,90
186,325,23055,5,0,0:0:0:0:
90,137,23205,1,0,0:0:0:0:
289,73,24255,5,0,0:0:0:0:
399,310,24405,2,0,P|342:282|276:283,1,90
99,238,24705,5,0,0:0:0:0:
111,213,24780,1,0,0:0:0:0:
124,189,24855,1,0,0:0:0:0:
200,310,25005,1,0,0:0:0:0:
270,103,25155,1,0,0:0:0:0:
389,232,25305,1,0,0:0:0:0:
463,61,25455,1,0,0:0:0:0:
451,330,25605,6,0,L|402:297,1,45
269,110,25905,6,0,L|227:174,1,45
115,291,26205,2,0,L|176:275,1,45
158,279,26355,2,0,P|227:256|207:159,1,180
83,139,26805,2,0,P|73:83|113:60,1,90
229,161,27105,1,0,0:0:0:0:
409,93,27255,1,0,0:0:0:0:
335,239,27405,1,0,0:0:0:0:
262,90,27555,1,0,0:0:0:0:
169,295,27705,1,8,0:0:0:0:
69,197,28005,1,8,0:0:0:0:
186,57,28305,1,8,0:0:0:0:
329,328,28605,6,0,B|381:276|370:248|415:253|455:227|404:176,1,135.000005149842,0|8,0:0|0:0,0:0:0:0:
347,73,28905,1,0,0:0:0:0:
169,183,29055,1,8,0:0:0:0:
382,214,29355,1,0,0:0:0:0:
231,330,29505,2,0,P|152:311|136:274,1,90
235,68,29805,2,0,P|182:73|120:117,1,90
81,331,30105,2,0,B|133:279|122:251|167:256|159:239,1,90,8|0,0:0|0:0,0:0:0:0:
170,119,30405,2,8,P|228:144|266:169,1,90,8|0,0:0|0:0,0:0:0:0:
306,318,30705,2,8,P|295:255|265:225,1,90,8|0,0:0|0:0,0:0:0:0:
343,92,31155,6,0,P|406:126|398:238,1,180,0|4,0:0|0:0,0:0:0:0:
220,243,31755,1,0,0:0:0:0:
67,296,31905,1,0,0:0:0:0:
120,119,32055,1,0,0:0:0:0:
235,82,32205,2,0,P|316:85|340:100,1,90
282,303,32505,6,0,L|289:244,1,45
411,170,32805,2,0,L|374:202,1,45
253,137,33105,2,0,L|289:179,1,45
164,315,33555,5,0,0:0:0:0:
89,206,33705,2,0,P|99:112|119:90,1,90,0|4,0:0|0:0,0:0:0:0:
335,119,34005,2,0,P|258:98|236:119,1,90
222,208,34305,1,0,0:0:0:0:
409,238,34455,1,0,0:0:0:0:
420,83,34605,1,0,0:0:0:0:
236,47,34755,2,0,P|166:74|150:119,1,90
151,217,35055,5,8,0:0:0:0:
151,217,35130,1,0,0:0:0:0:
151,217,35205,1,0,0:0:0:0:
302,304,35355,1,8,0:0:0:0:
263,130,35505,1,0,0:0:0:0:
92,286,35655,1,8,0:0:0:0:
114,73,35805,1,0,0:0:0:0:
404,256,35955,1,8,0:0:0:0:
308,40,36255,6,0,L|242:145,1,90
342,332,36555,2,0,L|317:233,1,90
197,115,36855,2,0,P|128:121|91:163,1,90
189,263,37305,1,0,0:0:0:0:
381,323,37455,6,0,L|402:225,1,90
398,63,37755,2,0,P|329:59|293:82,1,90
147,101,38055,1,0,0:0:0:0:
236,285,38355,1,0,0:0:0:0:
389,98,38655,6,0,P|309:125|280:156,1,90
141,92,38955,1,0,0:0:0:0:
108,278,39255,2,0,P|168:217|202:220,1,90
268,110,39555,6,0,P|333:100|372:113,1,90
243,246,39855,1,0,0:0:0:0:
343,283,40005,2,0,P|393:252|400:208,1,90
207,98,40305,1,0,0:0:0:0:
393,72,40455,1,0,0:0:0:0:
175,200,40605,2,0,P|202:254|243:274,1,90
389,310,41055,2,0,L|371:260,2,45,8|0|0,0:0|0:0|0:0,0:0:0:0:
267,317,41280,2,0,L|289:273,2,45,0|8|0,0:0|0:0|0:0,0:0:0:0:
304,244,41505,1,0,0:0:0:0:
315,200,41580,1,0,0:0:0:0:
317,155,41655,1,8,0:0:0:0:
310,111,41730,1,0,0:0:0:0:
288,72,41805,1,0,0:0:0:0:
249,76,41880,5,0,0:0:0:0:
243,120,41955,1,8,0:0:0:0:
269,155,42030,1,0,0:0:0:0:
310,173,42105,1,0,0:0:0:0:
353,186,42180,1,0,0:0:0:0:
390,210,42255,1,8,0:0:0:0:
368,243,42330,1,0,0:0:0:0:
324,252,42405,1,0,0:0:0:0:
279,250,42480,1,0,0:0:0:0:
235,241,42555,1,8,0:0:0:0:
193,224,42630,1,0,0:0:0:0:
157,198,42705,1,0,0:0:0:0:
128,163,42780,1,0,0:0:0:0:
94,145,42855,5,8,0:0:0:0:
73,185,42930,1,0,0:0:0:0:
70,229,43005,1,0,0:0:0:0:
84,272,43080,1,0,0:0:0:0:
117,301,43155,1,8,0:0:0:0:
160,315,43230,1,0,0:0:0:0:
204,321,43305,1,0,0:0:0:0:
249,324,43380,1,0,0:0:0:0:
295,324,43455,6,0,L|350:51,1,270.000010299683
350,252,43905,2,0,L|407:-6,1,202.500007724762
476,37,44355,1,0,0:0:0:0:
120,268,45255,5,0,0:0:0:0:
144,270,45330,1,0,0:0:0:0:
169,268,45405,1,0,0:0:0:0:
194,264,45480,1,0,0:0:0:0:
218,257,45555,1,0,0:0:0:0:
240,246,45630,1,0,0:0:0:0:
262,233,45705,1,0,0:0:0:0:
281,217,45780,1,0,0:0:0:0:
302,194,45855,2,2,P|289:89|320:61,1,135.000005149842
388,183,46155,2,2,P|376:77|436:49,1,135.000005149842
460,165,46455,2,2,P|447:60|507:32,1,135.000005149842
318,76,46755,6,0,B|215:82|201:45|142:75,1,135.000005149842
103,290,47055,1,0,0:0:0:0:
223,154,47205,1,0,0:0:0:0:
96,126,47355,1,0,0:0:0:0:
237,314,47505,2,2,P|304:233|309:201,1,135.000005149842
359,336,47805,2,2,P|397:279|402:208,1,135.000005149842
257,90,48255,5,0,0:0:0:0:
136,283,48405,1,0,0:0:0:0:
331,312,48555,2,0,P|358:247|334:184,1,135.000005149842
93,70,48855,1,0,0:0:0:0:
266,266,49005,1,0,0:0:0:0:
391,83,49155,1,0,0:0:0:0:
415,310,49305,2,0,P|447:225|402:166,1,135.000005149842
183,260,49605,1,0,0:0:0:0:
143,82,49755,5,0,0:0:0:0:
171,85,49830,1,0,0:0:0:0:
197,94,49905,1,0,0:0:0:0:
221,110,49980,1,0,0:0:0:0:
247,127,50055,2,0,P|187:208|227:240,1,135.000005149842
248,212,50355,1,0,0:0:0:0:
279,194,50430,1,0,0:0:0:0:
314,186,50505,1,0,0:0:0:0:
349,187,50580,1,0,0:0:0:0:
383,192,50655,6,2,P|431:243|392:310,1,135.000005149842
216,314,50955,1,2,0:0:0:0:
120,145,51105,1,2,0:0:0:0:
287,106,51255,1,0,0:0:0:0:
418,88,51405,2,0,P|393:185|339:217,1,135.000005149842
222,67,51705,2,0,P|154:117|147:184,1,135.000005149842
202,311,52005,1,0,0:0:0:0:
302,163,52155,1,0,0:0:0:0:
429,256,52305,1,0,0:0:0:0:
443,85,52455,6,2,P|347:73|301:86,1,135.000005149842
159,208,52755,2,2,P|169:116|205:89,1,135.000005149842
325,109,53055,1,0,0:0:0:0:
329,314,53205,2,0,P|242:313|188:271,1,135.000005149842
127,155,53505,1,0,0:0:0:0:
268,63,53655,1,0,0:0:0:0:
444,119,53805,2,0,P|360:153|329:202,1,135.000005149842
109,311,54105,6,0,P|191:264|387:282,1,270.000010299683
418,294,54555,1,0,0:0:0:0:
439,273,54630,1,0,0:0:0:0:
453,247,54705,1,0,0:0:0:0:
460,218,54780,1,0,0:0:0:0:
458,189,54855,1,0,0:0:0:0:
381,62,55005,1,0,0:0:0:0:
232,211,55155,6,0,B|166:200|127:225|79:178|62:107|38:247|73:270|140:293,1,270.000010299683
137,61,55605,5,0,0:0:0:0:
351,314,55755,1,8,0:0:0:0:
381,62,55905,5,0,0:0:0:0:
128,310,56055,1,8,0:0:0:0:
137,61,56205,5,0,0:0:0:0:
351,314,56355,1,8,0:0:0:0:
381,62,56505,5,0,0:0:0:0:
128,310,56655,1,8,0:0:0:0:
240,45,56805,1,0,0:0:0:0:
444,209,56955,1,8,0:0:0:0:
77,106,57105,5,0,0:0:0:0:
338,268,57255,1,8,0:0:0:0:
300,42,57405,5,0,0:0:0:0:
138,326,57555,1,8,0:0:0:0:
69,170,57705,6,0,P|131:115|204:105,1,135.000005149842,0|8,0:0|0:0,0:0:0:0:
334,165,58005,1,0,0:0:0:0:
215,334,58155,2,0,P|134:263|150:201,1,135.000005149842,8|0,0:0|0:0,0:0:0:0:
413,160,58455,2,0,P|359:100|284:93,1,135.000005149842,8|0,0:0|0:0,0:0:0:0:
138,98,58755,1,8,0:0:0:0:
400,90,58905,2,0,P|294:102|263:162,1,135.000005149842
234,302,59205,1,0,0:0:0:0:
394,296,59355,6,0,P|467:248|461:191,1,135.000005149842,8|0,0:0|0:0,0:0:0:0:
361,44,59655,2,0,B|281:73|229:47|178:119|155:173|56:127|76:171,1,270.000010299683,8|0,0:0|0:0,0:0:0:0:
142,37,60105,5,0,0:0:0:0:
81,319,60255,1,8,0:0:0:0:
230,50,60405,5,0,0:0:0:0:
213,331,60555,1,8,0:0:0:0:
328,61,60705,5,0,0:0:0:0:
355,325,60855,1,8,0:0:0:0:
470,64,61005,5,0,0:0:0:0:
282,235,61155,1,8,0:0:0:0:
116,60,61305,5,0,0:0:0:0:
282,235,61455,1,8,0:0:0:0:
77,336,61605,1,0,0:0:0:0:
269,81,61755,1,8,0:0:0:0:
438,303,61905,1,0,0:0:0:0:
472,61,62055,1,8,0:0:0:0:
223,254,62205,1,0,0:0:0:0:
89,89,62355,1,8,0:0:0:0:
289,58,62505,6,0,P|358:99|373:163,1,135.000005149842
282,328,62805,1,0,0:0:0:0:
126,281,62955,1,8,0:0:0:0:
432,164,63105,1,0,0:0:0:0:
285,221,63255,1,8,0:0:0:0:
222,63,63405,1,0,0:0:0:0:
336,55,63555,2,0,P|384:71|412:104,2,67.5000025749208
357,316,64005,1,2,0:0:0:0:
192,285,64155,1,2,0:0:0:0:
381,135,64305,1,2,0:0:0:0:
287,65,64455,1,2,0:0:0:0:
182,102,65055,6,0,P|116:120|98:172,1,90
199,276,65355,1,0,0:0:0:0:
319,147,65505,2,0,P|396:147|435:183,1,90
358,310,65805,1,0,0:0:0:0:
202,143,65955,2,0,P|218:63|246:50,1,90
414,129,66255,1,0,0:0:0:0:
305,283,66405,2,0,P|240:279|206:300,1,90
111,125,66705,5,0,0:0:0:0:
240,74,66855,2,0,P|298:66|340:70,1,90
416,269,67155,2,0,P|395:200|362:182,1,90
166,310,67455,6,0,P|130:246|144:210,1,90
258,158,67755,1,0,0:0:0:0:
370,321,67905,2,0,P|396:264|433:232,1,90
386,79,68205,1,0,0:0:0:0:
219,71,68355,2,0,P|151:88|124:123,1,90
184,265,68655,1,0,0:0:0:0:
340,303,68805,2,0,P|412:262|444:273,1,90
462,139,69105,5,0,0:0:0:0:
358,70,69255,2,0,P|305:75|284:117,1,90
111,181,69555,2,8,L|131:134,2,45
284,150,69855,1,4,0:0:0:0:
440,233,70005,1,0,0:0:0:0:
296,305,70155,1,0,0:0:0:0:
98,242,70305,6,0,P|159:219|191:234,1,90
354,302,70605,1,0,0:0:0:0:
429,165,70755,2,0,P|396:102|358:89,1,90
198,87,71055,1,0,0:0:0:0:
205,231,71205,2,0,P|251:198|276:152,1,90
251,52,71505,2,0,P|196:43|142:62,1,90
109,160,71805,2,0,P|85:218|99:263,1,90
268,265,72105,5,8,0:0:0:0:
367,99,72255,2,0,B|313:74|253:81|214:30|199:136,1,180
177,185,72705,1,0,0:0:0:0:
173,197,72780,1,0,0:0:0:0:
170,210,72855,1,0,0:0:0:0:
317,279,73305,2,0,L|344:234,10,45,0|0|8|8|8|8|8|8|8|8|8,0:0|0:0|0:0|0:0|0:0|0:0|0:0|0:0|0:0|0:0|0:0,0:0:0:0:
224,274,74355,6,0,L|211:176,1,67.5000025749208
303,269,74655,6,0,L|293:173,1,67.5000025749208
333,76,75105,6,0,P|254:72|238:78,1,67.5000025749208
154,215,75405,1,0,0:0:0:0:
351,290,75555,1,0,0:0:0:0:
228,85,75705,6,0,P|281:111|297:136,1,67.5000025749208
276,262,76005,2,0,P|259:198|243:172,1,67.5000025749208
144,190,76305,2,0,P|180:218|190:258,1,67.5000025749208
84,322,76605,5,0,0:0:0:0:
144,190,76755,1,0,0:0:0:0:
295,325,76905,5,0,0:0:0:0:
277,202,77055,1,0,0:0:0:0:
82,118,77505,6,0,P|139:81|165:81,1,67.5000025749208
231,151,77805,2,0,P|186:129|147:143,1,67.5000025749208
361,95,78105,1,0,0:0:0:0:
146,165,78405,1,0,0:0:0:0:
355,290,78705,1,0,0:0:0:0:
259,101,79155,6,0,P|185:108|130:172,1,135.000005149842
405,109,79905,6,0,P|352:98|311:105,1,67.5000025749208
264,177,80205,2,0,P|309:156|343:159,1,67.5000025749208
369,293,80505,1,0,0:0:0:0:
242,88,80805,1,0,0:0:0:0:
151,301,81105,1,0,0:0:0:0:
356,121,81705,6,0,P|280:115|278:110,1,67.5000025749208
207,246,82005,2,0,P|191:179|196:173,1,67.5000025749208
377,273,82305,5,0,0:0:0:0:
245,108,82455,1,0,0:0:0:0:
414,89,82605,6,0,L|361:151,1,67.5000025749208
156,272,82905,1,0,0:0:0:0:
84,118,83055,1,8,0:0:0:0:
95,118,83130,1,0,0:0:0:0:
107,119,83205,1,0,0:0:0:0:
265,90,83355,1,8,0:0:0:0:
331,294,83505,1,0,0:0:0:0:
453,174,83655,1,8,0:0:0:0:
393,55,83805,1,0,0:0:0:0:
384,63,83880,1,0,0:0:0:0:
376,71,83955,1,8,0:0:0:0:
217,100,84105,6,0,P|182:146|174:181,1,67.5000025749208,0|4,0:0|0:0,0:0:0:0:
205,306,84405,5,0,0:0:0:0:
308,148,84555,1,0,0:0:0:0:
365,275,84705,2,0,L|280:232,1,67.5000025749208
150,239,85005,2,0,P|151:194|186:181,1,67.5000025749208
274,71,85305,1,0,0:0:0:0:
439,208,85605,1,0,0:0:0:0:
290,294,85905,1,0,0:0:0:0:
80,128,86205,5,0,0:0:0:0:
80,288,86355,1,0,0:0:0:0:
240,288,86505,1,0,0:0:0:0:
240,128,86655,1,0,0:0:0:0:
420,250,86955,2,0,P|410:172|407:170,2,67.5000025749208
227,251,87405,1,0,0:0:0:0:
120,70,87705,5,0,0:0:0:0:
418,232,88005,1,0,0:0:0:0:
140,293,88305,1,0,0:0:0:0:
387,88,88755,6,0,P|313:85|308:91,1,67.5000025749208
257,242,89055,1,4,0:0:0:0:
95,84,89355,5,0,0:0:0:0:
212,290,89505,1,0,0:0:0:0:
247,93,89655,5,0,0:0:0:0:
75,271,89805,1,0,0:0:0:0:
266,207,89955,2,0,P|315:172|342:170,1,67.5000025749208
433,62,90405,1,0,0:0:0:0:
415,259,90705,1,0,0:0:0:0:
252,86,91305,6,0,P|204:86|188:100,1,67.5000025749208,0|4,0:0|0:0,0:0:0:0:
169,290,91605,1,0,0:0:0:0:
362,151,91755,1,0,0:0:0:0:
170,100,91905,1,0,0:0:0:0:
328,296,92055,6,0,P|382:259|384:235,1,67.5000025749208
400,66,92355,1,0,0:0:0:0:
197,250,92505,1,0,0:0:0:0:
187,243,92580,1,0,0:0:0:0:
177,236,92655,1,8,0:0:0:0:
243,75,92805,1,0,0:0:0:0:
397,267,92955,1,8,0:0:0:0:
145,141,93105,1,0,0:0:0:0:
202,340,93255,1,8,0:0:0:0:
306,177,93405,2,0,L|367:123,1,67.5000025749208,0|8,0:0|0:0,0:0:0:0:
265,85,94155,6,0,P|209:82|173:99,1,67.5000025749208
195,266,94455,2,0,P|196:219|221:210,1,67.5000025749208
406,108,94905,5,0,0:0:0:0:
184,267,95205,1,0,0:0:0:0:
168,128,95355,2,0,P|211:99|243:108,1,67.5000025749208
349,82,95655,2,0,P|385:128|387:162,1,67.5000025749208
221,230,95955,1,0,0:0:0:0:
186,69,96255,5,0,0:0:0:0:
139,278,96405,1,0,0:0:0:0:
308,111,96555,2,0,P|361:116|392:148,1,67.5000025749208
232,226,96855,1,0,0:0:0:0:
322,283,97005,1,0,0:0:0:0:
225,75,97305,5,0,0:0:0:0:
149,292,97455,1,0,0:0:0:0:
124,100,97605,5,0,0:0:0:0:
287,199,97755,1,0,0:0:0:0:
411,100,97905,5,0,0:0:0:0:
409,322,98055,1,0,0:0:0:0:
186,166,98355,1,0,0:0:0:0:
149,308,98655,6,0,L|106:298,3,45,8|0|0|0,0:0|0:0|0:0|0:0,0:0:0:0:
80,291,98955,1,8,0:0:0:0:
70,253,99030,1,0,0:0:0:0:
67,215,99105,1,0,0:0:0:0:
67,177,99180,1,0,0:0:0:0:
71,138,99255,1,8,0:0:0:0:
82,102,99330,1,0,0:0:0:0:
112,83,99405,1,0,0:0:0:0:
142,106,99480,1,0,0:0:0:0:
162,139,99555,1,8,0:0:0:0:
179,173,99630,1,0,0:0:0:0:
196,208,99705,1,0,0:0:0:0:
219,239,99780,1,0,0:0:0:0:
250,227,99855,5,8,0:0:0:0:
268,194,99930,1,0,0:0:0:0:
286,160,100005,1,0,0:0:0:0:
308,128,100080,1,0,0:0:0:0:
337,103,100155,1,8,0:0:0:0:
373,91,100230,1,0,0:0:0:0:
405,110,100305,1,0,0:0:0:0:
417,146,100380,1,0,0:0:0:0:
419,184,100455,5,8,0:0:0:0:
414,222,100530,1,0,0:0:0:0:
403,259,100605,1,0,0:0:0:0:
381,291,100680,1,0,0:0:0:0:
351,314,100755,1,8,0:0:0:0:
316,330,100830,1,0,0:0:0:0:
279,339,100905,1,0,0:0:0:0:
241,338,100980,1,0,0:0:0:0:
205,324,101055,1,8,0:0:0:0:
120,99,101505,5,0,0:0:0:0:
349,225,101955,1,0,0:0:0:0:
112,157,102255,5,0,0:0:0:0:
145,158,102330,1,0,0:0:0:0:
176,171,102405,1,0,0:0:0:0:
205,188,102480,1,0,0:0:0:0:
235,203,102555,1,0,0:0:0:0:
268,203,102630,1,0,0:0:0:0:
297,185,102705,1,0,0:0:0:0:
320,160,102780,1,0,0:0:0:0:
338,128,102855,2,0,L|394:52,3,90
90,303,103455,6,0,P|148:223|185:211,1,135.000005149842
269,96,103755,1,0,0:0:0:0:
399,274,103905,1,2,0:0:0:0:
410,101,104055,2,2,P|344:131|301:196,1,135.000005149842,0|0,0:0|0:0,0:0:0:0:
102,121,104355,1,0,0:0:0:0:
186,280,104505,2,0,P|257:186|246:145,1,135.000005149842
254,51,104805,2,0,P|349:83|380:146,1,135.000005149842
373,256,105105,5,0,0:0:0:0:
246,317,105255,2,0,B|164:298|116:316|112:259|144:205|64:195|87:139,1,270.000010299683
230,94,105855,1,0,0:0:0:0:
347,180,106005,2,0,P|422:178|467:254,1,135.000005149842
430,330,106305,2,0,P|415:259|355:238,1,135.000005149842
269,275,106605,2,0,P|342:283|381:341,1,135.000005149842
227,121,106905,1,0,0:0:0:0:
136,279,107055,1,0,0:0:0:0:
110,101,107205,5,0,0:0:0:0:
257,48,107355,1,0,0:0:0:0:
279,54,107430,1,0,0:0:0:0:
301,64,107505,1,0,0:0:0:0:
321,76,107580,1,0,0:0:0:0:
339,92,107655,1,0,0:0:0:0:
266,197,107805,5,0,0:0:0:0:
257,336,107955,1,0,0:0:0:0:
279,329,108030,1,0,0:0:0:0:
301,319,108105,1,0,0:0:0:0:
321,307,108180,1,0,0:0:0:0:
340,290,108255,6,0,P|394:224|384:179,1,135.000005149842
296,112,108555,2,0,P|223:146|213:221,1,135.000005149842
115,316,108855,2,0,B|189:286|156:238|268:241|323:188|256:125,1,270.000010299683
146,57,109305,1,0,0:0:0:0:
273,302,109455,1,0,0:0:0:0:
416,142,109605,5,0,0:0:0:0:
123,228,109755,1,0,0:0:0:0:
406,320,109905,5,0,0:0:0:0:
287,93,110055,1,0,0:0:0:0:
174,318,110355,1,4,0:0:0:0:
135,126,110655,5,4,0:0:0:0:
327,62,110805,2,0,P|402:74|465:117,1,135.000005149842
407,278,111105,2,2,P|382:214|294:183,1,135.000005149842,2|6,0:0|0:0,0:0:0:0:
161,143,111405,1,0,0:0:0:0:
98,300,111555,2,0,P|181:301|236:264,1,135.000005149842,0|4,0:0|0:0,0:0:0:0:
253,94,111855,5,0,0:0:0:0:
360,309,112005,1,0,0:0:0:0:
412,104,112155,5,8,0:0:0:0:
253,228,112305,2,0,P|169:235|116:205,1,135.000005149842,0|8,0:0|0:0,0:0:0:0:
239,48,112605,2,0,B|169:76|150:53|142:124,1,135.000005149842
329,66,112905,1,0,0:0:0:0:
176,331,113055,1,8,0:0:0:0:
147,50,113205,5,0,0:0:0:0:
344,313,113355,1,8,0:0:0:0:
104,192,113505,5,0,0:0:0:0:
418,194,113655,1,8,0:0:0:0:
183,330,113805,5,0,0:0:0:0:
322,62,113955,1,8,0:0:0:0:
344,313,114105,5,0,0:0:0:0:
144,54,114255,1,8,0:0:0:0:
455,91,114405,1,0,0:0:0:0:
151,323,114555,1,8,0:0:0:0:
261,36,114705,1,0,0:0:0:0:
452,265,114855,1,8,0:0:0:0:
87,139,115005,1,0,0:0:0:0:
349,127,115155,1,8,0:0:0:0:
163,325,115305,6,0,B|80:300|71:242|91:217,2,135.000005149842,0|8|0,0:0|0:0|0:0,0:0:0:0:
181,74,115755,2,0,P|264:92|311:165,1,135.000005149842
289,335,116055,2,0,P|390:304|437:252,2,135.000005149842,8|0|8,0:0|0:0|0:0,0:0:0:0:
281,55,116505,1,0,0:0:0:0:
161,260,116655,1,8,0:0:0:0:
93,74,116805,5,0,0:0:0:0:
161,260,116955,1,8,0:0:0:0:
281,55,117105,1,0,0:0:0:0:
336,292,117255,1,8,0:0:0:0:
427,85,117555,1,8,0:0:0:0:
196,80,117705,6,0,B|128:99|48:88|79:182,1,135.000005149842,0|8,0:0|0:0,0:0:0:0:
142,295,118005,5,0,0:0:0:0:
319,56,118155,1,8,0:0:0:0:
326,310,118305,1,0,0:0:0:0:
136,101,118455,5,8,0:0:0:0:
411,137,118605,1,0,0:0:0:0:
213,314,118755,1,8,0:0:0:0:
256,44,118905,5,0,0:0:0:0:
402,312,119055,1,8,0:0:0:0:
133,195,119205,1,0,0:0:0:0:
372,81,119355,1,8,0:0:0:0:
285,315,119505,1,0,0:0:0:0:
170,99,119655,1,8,0:0:0:0:
411,282,119955,1,8,0:0:0:0:
316,68,120105,6,0,P|228:98|174:181,1,135.000005149842,0|8,0:0|0:0,0:0:0:0:
209,323,120405,2,0,P|224:208|264:183,1,135.000005149842,0|8,0:0|0:0,0:0:0:0:
367,139,120705,2,0,P|442:161|473:243,1,135.000005149842,0|8,0:0|0:0,0:0:0:0:
385,313,121005,2,8,P|311:254|265:248,1,135.000005149842
91,225,121305,5,0,0:0:0:0:
223,61,121455,1,0,0:0:0:0:
284,266,121605,1,0,0:0:0:0:
96,79,121755,1,0,0:0:0:0:
344,133,121905,1,0,0:0:0:0:
91,225,122055,1,0,0:0:0:0:
132,77,127455,5,0,0:0:0:0:
148,218,127605,1,0,0:0:0:0:
235,124,127755,1,0,0:0:0:0:
264,250,127905,1,0,0:0:0:0:
340,157,128055,1,0,0:0:0:0:
169,222,128205,1,0,0:0:0:0:
162,78,128355,1,0,0:0:0:0:
294,64,128505,1,0,0:0:0:0:
305,220,128655,1,0,0:0:0:0:
425,280,128805,5,0,0:0:0:0:
398,134,128955,1,0,0:0:0:0:
302,302,129105,1,0,0:0:0:0:
217,175,129255,1,0,0:0:0:0:
115,304,129405,1,0,0:0:0:0:
111,116,129555,1,0,0:0:0:0:
241,279,129705,1,0,0:0:0:0:
309,88,129855,5,0,0:0:0:0:
346,103,129930,1,0,0:0:0:0:
373,133,130005,1,0,0:0:0:0:
375,173,130080,1,0,0:0:0:0:
348,203,130155,1,0,0:0:0:0:
308,211,130230,1,0,0:0:0:0:
268,202,130305,1,0,0:0:0:0:
233,182,130380,1,0,0:0:0:0:
203,154,130455,1,0,0:0:0:0:
178,121,130530,1,0,0:0:0:0:
150,107,130605,1,0,0:0:0:0:
142,148,130680,1,0,0:0:0:0:
144,189,130755,1,0,0:0:0:0:
152,229,130830,5,0,0:0:0:0:
170,266,130905,1,0,0:0:0:0:
200,294,130980,1,0,0:0:0:0:
238,308,131055,1,0,0:0:0:0:
145,92,131655,6,0,P|209:124|224:152,2,90
166,242,132105,2,0,P|134:176|106:167,1,90
227,77,132405,6,0,B|287:92|324:48|392:84|394:137,1,180
262,260,132855,5,0,0:0:0:0:
127,137,133455,5,0,0:0:0:0:
355,113,134055,5,0,0:0:0:0:
222,339,134655,5,0,0:0:0:0:
171,90,134955,6,0,L|178:151,1,33.7500012874604
332,248,135405,2,0,L|303:201,1,33.7500012874604
99,264,135705,2,0,B|144:252|146:232|170:245|182:242,1,67.5000025749208
202,101,136305,6,0,L|243:147,1,33.7500012874604
233,136,136455,2,0,B|293:129|316:86|347:48|401:140|464:138|448:214,1,270.000010299683
170,94,137655,5,0,0:0:0:0:
213,299,138255,5,0,0:0:0:0:
398,72,138855,5,0,0:0:0:0:
123,253,139455,5,0,0:0:0:0:
381,311,139755,6,0,L|350:254,1,33.7500012874604
211,53,140205,6,0,L|196:92,1,33.7500012874604
445,74,140505,6,0,B|395:68|350:35|332:84|350:155|264:171,1,202.500007724762
189,77,141105,1,0,0:0:0:0:
183,303,141255,2,0,L|158:247,4,33.7500012874604,0|0|0|0|4,0:0|0:0|0:0|0:0|0:0,0:0:0:0:
309,114,141705,1,4,0:0:0:0:
193,111,143055,5,0,0:0:0:0:
396,161,143355,2,0,B|346:161|327:101|241:210,1,180
202,232,143955,2,0,P|134:190|134:151,1,90
211,75,144405,2,0,P|263:101|317:83,2,90
396,134,144855,1,0,0:0:0:0:
238,279,145155,1,0,0:0:0:0:
148,107,145455,6,0,L|133:167,1,45
86,319,145755,2,0,B|145:252|144:174|211:179,1,180
302,130,146355,2,0,L|268:190,2,45
234,296,146655,1,0,0:0:0:0:
76,196,146805,2,0,B|110:139|72:94|104:72,1,90
192,81,147105,2,0,B|166:119|176:174|159:208,1,90
300,85,147405,1,0,0:0:0:0:
384,264,147555,1,0,0:0:0:0:
185,269,147855,6,8,L|140:231,2,45
129,215,148080,1,0,0:0:0:0:
97,223,148155,1,8,0:0:0:0:
108,254,148230,1,0,0:0:0:0:
140,271,148305,1,0,0:0:0:0:
175,277,148380,1,0,0:0:0:0:
210,276,148455,1,8,0:0:0:0:
245,269,148530,1,0,0:0:0:0:
278,255,148605,1,0,0:0:0:0:
308,235,148680,1,0,0:0:0:0:
330,207,148755,1,8,0:0:0:0:
337,173,148830,1,0,0:0:0:0:
314,148,148905,5,0,0:0:0:0:
278,149,148980,1,0,0:0:0:0:
244,160,149055,1,8,0:0:0:0:
217,144,149130,1,0,0:0:0:0:
228,111,149205,1,0,0:0:0:0:
259,94,149280,1,0,0:0:0:0:
295,90,149355,1,8,0:0:0:0:
330,91,149430,1,0,0:0:0:0:
365,97,149505,5,0,0:0:0:0:
351,122,149580,1,0,0:0:0:0:
323,143,149655,1,8,0:0:0:0:
294,165,149730,1,0,0:0:0:0:
266,187,149805,1,0,0:0:0:0:
238,210,149880,1,0,0:0:0:0:
211,233,149955,1,8,0:0:0:0:
184,256,150030,1,0,0:0:0:0:
157,280,150105,1,0,0:0:0:0:
131,304,150180,1,0,0:0:0:0:
104,328,150255,1,8,0:0:0:0:
111,96,150555,5,0,0:0:0:0:
311,126,150855,5,0,0:0:0:0:
131,304,151155,5,0,0:0:0:0:
300,294,151455,5,0,0:0:0:0:
187,62,151755,5,0,0:0:0:0:
430,65,152055,5,0,0:0:0:0:
249,257,152355,5,0,0:0:0:0:
208,69,152655,6,0,L|177:131,1,67.5000025749208
383,314,153105,6,0,L|358:241,1,67.5000025749208
74,61,153555,6,0,L|78:145,1,67.5000025749208
409,79,155055,6,0,P|318:65|290:93,1,135.000005149842
222,256,155655,2,0,P|265:202|335:196,1,135.000005149842
282,323,156105,2,0,P|369:299|353:250,1,135.000005149842
160,121,156555,2,0,P|108:184|120:243,1,135.000005149842
242,259,157155,1,0,0:0:0:0:
133,52,157605,6,0,B|151:105|104:156|136:212,1,135.000005149842
133,332,158055,6,0,B|151:279|104:228|136:172,1,135.000005149842
217,74,158505,2,0,P|267:74|324:152,1,135.000005149842
216,284,158955,1,0,0:0:0:0:
105,131,159105,1,0,0:0:0:0:
330,228,159255,1,0,0:0:0:0:
168,59,159705,6,0,P|209:86|224:127,1,67.5000025749208
175,255,160005,2,0,P|177:213|155:174,1,67.5000025749208
420,179,160455,2,0,B|359:181|342:138|269:193,1,135.000005149842
199,80,160905,2,0,P|139:80|118:105,2,67.5000025749208
91,251,161355,5,0,0:0:0:0:
173,144,161505,1,0,0:0:0:0:
222,256,161655,1,0,0:0:0:0:
352,81,161955,1,0,0:0:0:0:
387,317,162405,6,0,B|389:269|398:230|360:182,1,135.000005149842
217,151,162855,6,0,B|267:183|251:259|291:273,1,135.000005149842
78,84,163305,6,0,P|87:138|142:196,1,135.000005149842
233,85,163755,1,0,0:0:0:0:
230,239,163905,1,0,0:0:0:0:
327,149,164055,1,0,0:0:0:0:
361,315,164355,6,0,P|322:258|326:236,1,67.5000025749208
279,58,164655,6,0,P|244:96|252:130,1,67.5000025749208
155,262,164955,5,0,0:0:0:0:
206,99,165255,5,0,0:0:0:0:
271,252,165555,5,0,0:0:0:0:
81,283,165705,1,0,0:0:0:0:
117,125,165855,1,0,0:0:0:0:
323,91,166155,5,0,0:0:0:0:
333,301,166455,5,0,0:0:0:0:
222,176,166605,1,0,0:0:0:0:
171,312,166755,1,0,0:0:0:0:
84,150,166905,1,0,0:0:0:0:
218,65,167055,2,0,P|264:55|300:69,1,67.5000025749208
319,154,167355,2,0,P|289:121|242:114,1,67.5000025749208
167,232,167655,2,0,P|227:233|252:236,1,67.5000025749208
344,294,167955,2,0,P|378:226|378:225,2,67.5000025749208
244,114,168405,5,0,0:0:0:0:
164,297,168555,1,0,0:0:0:0:
100,112,168705,1,0,0:0:0:0:
199,199,168855,2,0,P|262:213|294:278,1,135.000005149842
298,105,169305,5,0,0:0:0:0:
297,308,169455,1,0,0:0:0:0:
394,212,169605,1,0,0:0:0:0:
224,103,169755,5,0,0:0:0:0:
222,301,169905,1,0,0:0:0:0:
127,115,170055,1,0,0:0:0:0:
95,312,170205,5,0,0:0:0:0:
47,158,170355,1,0,0:0:0:0:
152,316,170505,5,0,0:0:0:0:
198,163,170655,1,0,0:0:0:0:
273,311,170805,5,0,0:0:0:0:
338,161,170955,1,0,0:0:0:0:
387,316,171105,1,0,0:0:0:0:
260,191,171255,1,0,0:0:0:0:
411,214,171405,1,0,0:0:0:0:
359,66,171555,1,0,0:0:0:0:
219,81,171705,6,0,P|170:92|149:115,1,67.5000025749208
144,126,171930,1,0,0:0:0:0:
104,140,172005,1,0,0:0:0:0:
78,171,172080,1,0,0:0:0:0:
99,204,172155,1,0,0:0:0:0:
140,213,172230,1,0,0:0:0:0:
182,208,172305,1,0,0:0:0:0:
223,198,172380,1,0,0:0:0:0:
263,186,172455,1,0,0:0:0:0:
304,176,172530,1,0,0:0:0:0:
346,175,172605,1,0,0:0:0:0:
379,198,172680,1,0,0:0:0:0:
377,239,172755,1,0,0:0:0:0:
351,271,172830,5,0,0:0:0:0:
314,293,172905,1,0,0:0:0:0:
273,302,172980,1,0,0:0:0:0:
232,299,173055,1,0,0:0:0:0:
194,280,173130,1,0,0:0:0:0:
176,243,173205,1,0,0:0:0:0:
182,202,173280,1,0,0:0:0:0:
201,164,173355,1,0,0:0:0:0:
226,130,173430,1,0,0:0:0:0:
254,99,173505,1,0,0:0:0:0:
284,69,173580,1,0,0:0:0:0:
315,41,173655,1,0,0:0:0:0:
416,137,173955,6,0,P|347:147|288:208,1,135.000005149842
320,328,174405,2,0,P|364:265|434:257,1,135.000005149842
331,112,174705,2,0,P|246:109|188:146,1,135.000005149842
74,273,175005,1,0,0:0:0:0:
249,294,175155,1,0,0:0:0:0:
150,95,175305,1,0,0:0:0:0:
255,60,175455,2,0,B|340:91|409:143|382:180,2,135.000005149842
159,297,175905,6,0,P|97:243|105:179,1,135.000005149842
336,237,176355,1,0,0:0:0:0:
83,263,176655,5,0,0:0:0:0:
206,101,176805,1,0,0:0:0:0:
271,285,176955,1,0,0:0:0:0:
95,123,177105,5,0,0:0:0:0:
267,211,177255,1,0,0:0:0:0:
335,33,177405,1,0,0:0:0:0:
171,299,177555,5,0,0:0:0:0:
375,143,177705,1,4,0:0:0:0:
148,58,177855,5,0,0:0:0:0:
262,300,178005,1,4,0:0:0:0:
314,73,178155,1,0,0:0:0:0:
342,78,178230,1,0,0:0:0:0:
368,90,178305,1,0,0:0:0:0:
390,110,178380,1,0,0:0:0:0:
405,134,178455,1,0,0:0:0:0:
297,218,178605,5,0,0:0:0:0:
200,328,178755,1,0,0:0:0:0:
169,316,178830,1,0,0:0:0:0:
144,294,178905,1,0,0:0:0:0:
128,265,178980,1,0,0:0:0:0:
123,233,179055,1,0,0:0:0:0:
198,50,179205,5,0,0:0:0:0:
308,285,179355,1,0,0:0:0:0:
394,71,179505,5,0,0:0:0:0:
458,300,179655,1,0,0:0:0:0:
329,119,179805,2,0,P|249:135|199:178,1,135.000005149842
64,302,180105,1,0,0:0:0:0:
183,110,180255,1,0,0:0:0:0:
243,266,180405,1,0,0:0:0:0:
291,78,180555,6,0,P|383:78|438:114,1,135.000005149842
398,269,180855,2,0,P|374:184|319:174,1,135.000005149842
169,158,181155,1,4,0:0:0:0:
169,286,181305,6,0,P|269:260|333:280,1,135.000005149842
293,54,181605,1,0,0:0:0:0:
446,287,181755,1,8,0:0:0:0:
242,294,181905,5,0,0:0:0:0:
424,90,182055,1,8,0:0:0:0:
160,110,182205,1,0,0:0:0:0:
144,305,182355,5,8,0:0:0:0:
273,103,182505,2,0,P|339:155|356:218,1,135.000005149842
217,291,182805,5,0,0:0:0:0:
103,204,182955,1,8,0:0:0:0:
106,137,183030,1,0,0:0:0:0:
142,81,183105,1,0,0:0:0:0:
201,50,183180,1,0,0:0:0:0:
267,54,183255,1,8,0:0:0:0:
363,117,183405,6,0,P|445:167|458:219,1,135.000005149842
134,316,183705,5,0,0:0:0:0:
218,55,183855,1,8,0:0:0:0:
389,290,184005,1,0,0:0:0:0:
468,29,184155,5,8,0:0:0:0:
245,294,184305,1,0,0:0:0:0:
218,32,184455,1,8,0:0:0:0:
93,326,184605,5,0,0:0:0:0:
357,75,184755,1,8,0:0:0:0:
356,309,184905,5,0,0:0:0:0:
262,61,185055,1,8,0:0:0:0:
164,322,185205,1,0,0:0:0:0:
422,141,185355,5,8,0:0:0:0:
143,166,185505,1,0,0:0:0:0:
307,335,185655,1,8,0:0:0:0:
339,52,185805,1,0,0:0:0:0:
144,283,185955,1,8,0:0:0:0:
428,260,186105,1,0,0:0:0:0:
215,50,186255,2,0,P|138:70|80:132,1,135.000005149842,8|0,0:0|0:0,0:0:0:0:
224,309,186555,2,0,P|226:220|282:171,1,135.000005149842,8|0,0:0|0:0,0:0:0:0:
460,58,186855,2,0,P|357:63|283:105,1,135.000005149842,8|0,0:0|0:0,0:0:0:0:
227,61,187155,6,0,P|149:57|81:107,1,135.000005149842,8|0,0:0|0:0,0:0:0:0:
140,326,187455,5,8,0:0:0:0:
331,97,187605,1,0,0:0:0:0:
100,90,187755,5,8,0:0:0:0:
333,307,187905,1,0,0:0:0:0:
462,68,188055,1,8,0:0:0:0:
199,185,188355,5,0,0:0:0:0:
238,45,188505,2,8,P|151:61|107:91,1,135.000005149842
389,86,188805,1,0,0:0:0:0:
233,305,188955,1,8,0:0:0:0:
100,64,189105,1,0,0:0:0:0:
379,260,189255,1,8,0:0:0:0:
78,223,189405,1,0,0:0:0:0:
271,36,189555,1,8,0:0:0:0:
335,318,189705,1,0,0:0:0:0:
447,52,189855,1,8,0:0:0:0:
187,280,190005,1,0,0:0:0:0:
96,57,190155,1,8,0:0:0:0:
330,35,190305,5,0,0:0:0:0:
244,309,190455,1,8,0:0:0:0:
181,41,190605,5,0,0:0:0:0:
105,283,190755,1,8,0:0:0:0:
337,292,190905,6,0,P|394:232|403:169,1,135.000005149842,0|8,0:0|0:0,0:0:0:0:
368,90,191205,2,0,P|285:87|230:111,1,135.000005149842,0|8,0:0|0:0,0:0:0:0:
117,65,191505,1,0,0:0:0:0:
131,252,191655,2,0,P|221:240|275:266,1,135.000005149842,0|8,0:0|0:0,0:0:0:0:
383,310,191955,1,0,0:0:0:0:
383,175,192105,2,8,P|445:132|444:54,1,135.000005149842
236,79,192405,1,0,0:0:0:0:
237,283,192555,1,8,0:0:0:0:
71,67,192705,1,0,0:0:0:0:
42,278,192855,6,0,P|105:265|216:292,1,135.000005149842
345,66,193155,1,8,0:0:0:0:
429,306,193305,1,0,0:0:0:0:
230,67,193455,5,8,0:0:0:0:
335,319,193605,1,0,0:0:0:0:
135,80,193755,5,8,0:0:0:0:
219,320,193905,1,0,0:0:0:0:
20,81,194055,5,8,0:0:0:0:
125,333,194205,1,0,0:0:0:0:
238,55,194355,1,8,0:0:0:0:
324,303,194505,1,0,0:0:0:0:
82,114,194655,5,8,0:0:0:0:
414,198,194805,1,0,0:0:0:0:
91,267,194955,1,8,0:0:0:0:
356,16,195105,5,0,0:0:0:0:
208,339,195255,1,8,0:0:0:0:
129,34,195405,1,0,0:0:0:0:
324,170,195555,1,8,0:0:0:0:
321,336,195705,6,0,P|410:293|447:231,1,135.000005149842,0|8,0:0|0:0,0:0:0:0:
382,81,196005,2,0,P|279:92|219:140,1,135.000005149842,0|8,0:0|0:0,0:0:0:0:
147,341,196305,2,0,P|72:285|76:216,1,135.000005149842,0|8,0:0|0:0,0:0:0:0:
139,77,196605,1,0,0:0:0:0:
267,251,196755,1,0,0:0:0:0:
316,67,196905,2,0,P|405:55|454:105,1,135.000005149842,4|0,0:0|0:0,0:0:0:0:
402,205,197205,1,0,0:0:0:0:
216,96,197355,6,0,P|134:110|89:172,1,135.000005149842
210,271,197655,1,4,0:0:0:0:
376,64,197955,1,4,0:0:0:0:
213,55,198105,6,0,P|111:74|82:145,1,135.000005149842,0|8,0:0|0:0,0:0:0:0:
184,109,198405,5,0,0:0:0:0:
324,269,198555,1,8,0:0:0:0:
319,111,198705,5,0,0:0:0:0:
180,270,198855,1,8,0:0:0:0:
149,78,199005,5,0,0:0:0:0:
375,316,199155,1,8,0:0:0:0:
367,58,199305,5,0,0:0:0:0:
136,318,199455,1,8,0:0:0:0:
98,30,199605,5,0,0:0:0:0:
418,353,199755,1,8,0:0:0:0:
72,311,199905,5,0,0:0:0:0:
254,15,200055,1,8,0:0:0:0:
444,308,200205,1,0,0:0:0:0:
86,98,200355,1,8,0:0:0:0:
387,112,200505,6,0,P|297:130|269:150,1,90
143,198,200805,2,0,P|205:240|219:257,1,90
251,56,201105,2,0,P|307:90|336:134,1,90
314,276,201555,1,0,0:0:0:0:
68,246,201705,5,0,0:0:0:0:
176,68,201855,1,0,0:0:0:0:
225,256,202005,1,0,0:0:0:0:
73,109,202155,1,0,0:0:0:0:
222,140,202305,2,0,P|291:136|321:159,1,90
