osu file format v14

[General]
AudioFilename: audio.mp3
AudioLeadIn: 0
PreviewTime: 48057
Countdown: 0
SampleSet: Normal
StackLeniency: 0.7
Mode: 1
LetterboxInBreaks: 0
WidescreenStoryboard: 1

[Editor]
Bookmarks: 2440,18440,27583,36726,45869,48155,57297,66440,75583,84726,93869,103012,105297,114440,123583,132726,141869,151012,160155,169297,173869,178440,187583,196726
DistanceSpacing: 1.7
BeatDivisor: 2
GridSize: 4
TimelineZoom: 0.7

[Metadata]
Title:Ghost Rule
TitleUnicode:Ghost Rule
Artist:Araki
ArtistUnicode:Araki
Creator:404 AccNotFound
Version:Kantan
Source:
Tags:utaite cover deco 27 deco*27 vocaloid hatsune miku
BeatmapID:1279711
BeatmapSetID:584669

[Difficulty]
HPDrainRate:7
CircleSize:5
OverallDifficulty:3
ApproachRate:5
SliderMultiplier:1.2
SliderTickRate:1

[Events]
//Background and Video events
0,0,"KakaoTalk_20170428_224455835.png",0,50
//Break Periods
2,80400,81285
2,123828,131571
//Storyboard Layer 0 (Background)
//Storyboard Layer 1 (Fail)
//Storyboard Layer 2 (Pass)
//Storyboard Layer 3 (Foreground)
//Storyboard Sound Samples

[TimingPoints]
200,285.714285714286,4,1,0,70,1,0
4771,-100,4,1,0,80,0,0
8200,-100,4,1,0,90,0,0
9342,-100,4,1,0,100,0,0
18485,-100,4,1,0,90,0,0
27628,-100,4,1,0,95,0,0
36771,-100,4,1,0,85,0,0
48200,-100,4,1,0,100,0,1
66200,-100,4,1,0,100,0,0
66485,-100,4,1,0,100,0,0
75628,-100,4,1,0,70,0,0
84771,-100,4,1,0,90,0,0
93914,-100,4,1,0,85,0,0
105342,-100,4,1,0,100,0,1
123057,-100,4,1,0,100,0,0
123628,-100,4,1,0,100,0,0
132771,-100,4,1,0,70,0,0
141914,-100,4,1,0,85,0,0
151057,-100,4,1,0,60,0,0
157914,-100,4,1,0,40,0,0
159628,-100,4,1,0,90,0,0
160200,-100,4,1,0,100,0,1
178485,-100,4,1,0,100,0,0
196771,-100,4,1,0,70,0,0

[HitObjects]
168,204,200,5,0,0:0:0:0:
332,188,771,1,2,0:0:0:0:
332,188,2485,1,0,0:0:0:0:
332,188,3057,1,2,0:0:0:0:
332,188,4771,1,0,0:0:0:0:
332,188,5342,1,2,0:0:0:0:
332,188,7057,1,0,0:0:0:0:
332,188,7628,1,2,0:0:0:0:
284,176,8771,1,2,0:0:0:0:
332,188,9342,1,4,0:0:0:0:
332,188,9914,1,2,0:0:0:0:
332,188,10771,1,0,0:0:0:0:
332,188,11057,1,2,0:0:0:0:
332,188,11628,1,0,0:0:0:0:
332,188,12200,1,2,0:0:0:0:
332,188,13057,1,2,0:0:0:0:
332,188,13342,1,2,0:0:0:0:
332,188,13914,1,0,0:0:0:0:
332,188,14485,1,2,0:0:0:0:
332,188,15342,1,0,0:0:0:0:
332,188,15628,1,2,0:0:0:0:
260,184,16200,1,0,0:0:0:0:
260,184,16771,1,2,0:0:0:0:
260,184,17628,1,0,0:0:0:0:
260,184,17914,1,0,0:0:0:0:
260,184,18485,1,0,0:0:0:0:
288,176,18914,1,2,0:0:0:0:
260,184,20771,1,0,0:0:0:0:
196,164,21200,1,0,0:0:0:0:
260,184,23057,1,0,0:0:0:0:
192,144,23485,1,2,0:0:0:0:
260,184,25342,1,2,0:0:0:0:
112,160,25771,1,2,0:0:0:0:
152,224,26485,1,0,0:0:0:0:
276,152,26771,2,0,L|352:152,4,60
260,184,27628,1,4,0:0:0:0:
232,88,28200,1,2,0:0:0:0:
260,184,28771,1,0,0:0:0:0:
260,184,29057,1,2,0:0:0:0:
260,184,29342,1,0,0:0:0:0:
260,184,29914,1,0,0:0:0:0:
260,184,30485,1,0,0:0:0:0:
260,184,31057,1,2,0:0:0:0:
256,192,32200,1,0,0:0:0:0:
256,192,32771,1,2,0:0:0:0:
256,192,33342,1,0,0:0:0:0:
256,192,33628,1,0,0:0:0:0:
256,192,33914,1,2,0:0:0:0:
256,192,34485,1,2,0:0:0:0:
256,192,35057,1,0,0:0:0:0:
256,192,35628,1,2,0:0:0:0:
256,192,36771,1,4,0:0:0:0:
272,216,37200,1,0,0:0:0:0:
272,220,37628,1,0,0:0:0:0:
324,168,38485,1,0,0:0:0:0:
256,192,39057,1,2,0:0:0:0:
244,220,39485,1,2,0:0:0:0:
244,220,39914,1,2,0:0:0:0:
256,192,41342,1,0,0:0:0:0:
244,220,41771,1,0,0:0:0:0:
244,220,42200,1,0,0:0:0:0:
324,172,43057,1,0,0:0:0:0:
256,192,43628,1,2,0:0:0:0:
256,152,44057,1,2,0:0:0:0:
256,152,44485,1,2,0:0:0:0:
316,156,45342,1,2,0:0:0:0:
256,192,48200,1,4,0:0:0:0:
260,112,48771,1,0,0:0:0:0:
256,192,49342,1,2,0:0:0:0:
260,112,49628,1,0,0:0:0:0:
256,192,49914,1,2,0:0:0:0:
256,192,50485,1,0,0:0:0:0:
256,192,51057,1,0,0:0:0:0:
256,192,51628,1,2,0:0:0:0:
256,192,52771,1,0,0:0:0:0:
208,72,53342,1,0,0:0:0:0:
256,192,53914,1,2,0:0:0:0:
208,72,54200,1,2,0:0:0:0:
256,192,54485,1,2,0:0:0:0:
256,192,55057,1,0,0:0:0:0:
256,192,55628,1,2,0:0:0:0:
256,192,56200,1,0,0:0:0:0:
160,168,57342,1,4,0:0:0:0:
156,160,57914,1,2,0:0:0:0:
256,192,58485,1,0,0:0:0:0:
196,196,58771,1,2,0:0:0:0:
256,192,59057,1,0,0:0:0:0:
256,192,59628,1,0,0:0:0:0:
256,192,60200,1,0,0:0:0:0:
256,192,60771,1,2,0:0:0:0:
256,192,61914,1,0,0:0:0:0:
136,184,62485,1,0,0:0:0:0:
256,192,63057,1,2,0:0:0:0:
208,144,63342,1,2,0:0:0:0:
256,192,63628,1,0,0:0:0:0:
256,192,64200,1,2,0:0:0:0:
256,192,64771,1,2,0:0:0:0:
256,192,65342,1,0,0:0:0:0:
256,192,66485,1,4,0:0:0:0:
244,208,67057,1,2,0:0:0:0:
244,208,67914,1,0,0:0:0:0:
244,208,68200,1,2,0:0:0:0:
244,208,68771,1,0,0:0:0:0:
244,208,69342,1,2,0:0:0:0:
244,208,70200,1,2,0:0:0:0:
244,208,70485,1,0,0:0:0:0:
244,208,71057,1,0,0:0:0:0:
244,208,71628,1,2,0:0:0:0:
244,208,72485,1,0,0:0:0:0:
244,208,72771,1,2,0:0:0:0:
244,208,73342,1,0,0:0:0:0:
244,208,73914,1,2,0:0:0:0:
244,208,74771,1,2,0:0:0:0:
244,208,75057,1,2,0:0:0:0:
248,196,75628,1,0,0:0:0:0:
200,204,77914,1,0,0:0:0:0:
196,200,80200,1,2,0:0:0:0:
240,184,82485,5,2,0:0:0:0:
232,232,84771,5,4,0:0:0:0:
156,144,85342,1,2,0:0:0:0:
232,232,85914,1,0,0:0:0:0:
232,140,86200,1,2,0:0:0:0:
236,224,86485,1,0,0:0:0:0:
232,232,87057,1,0,0:0:0:0:
232,232,87628,1,0,0:0:0:0:
232,232,88200,1,2,0:0:0:0:
232,232,89342,1,0,0:0:0:0:
120,148,89914,1,2,0:0:0:0:
232,232,90485,1,0,0:0:0:0:
208,236,90771,1,0,0:0:0:0:
208,236,91057,1,2,0:0:0:0:
232,232,91628,1,0,0:0:0:0:
232,232,92200,1,2,0:0:0:0:
232,232,92771,1,0,0:0:0:0:
232,232,93914,1,4,0:0:0:0:
232,232,94485,1,2,0:0:0:0:
232,232,95342,1,0,0:0:0:0:
232,232,95628,1,2,0:0:0:0:
232,232,96200,1,0,0:0:0:0:
232,232,96771,1,2,0:0:0:0:
232,232,97628,1,2,0:0:0:0:
232,232,97914,1,0,0:0:0:0:
232,232,98485,1,0,0:0:0:0:
232,232,99057,1,2,0:0:0:0:
232,232,99914,1,0,0:0:0:0:
232,232,100200,1,2,0:0:0:0:
232,232,100771,1,0,0:0:0:0:
232,232,101342,1,2,0:0:0:0:
232,232,102200,1,2,0:0:0:0:
232,232,102485,1,2,0:0:0:0:
232,232,105342,1,4,0:0:0:0:
196,216,105914,1,0,0:0:0:0:
232,232,106485,1,2,0:0:0:0:
232,232,106771,1,0,0:0:0:0:
232,232,107057,1,2,0:0:0:0:
232,236,107628,1,0,0:0:0:0:
232,236,108200,1,0,0:0:0:0:
232,236,108771,1,2,0:0:0:0:
232,256,109914,1,0,0:0:0:0:
216,168,110485,1,0,0:0:0:0:
232,256,111057,1,2,0:0:0:0:
232,256,111342,1,2,0:0:0:0:
232,256,111628,1,2,0:0:0:0:
232,256,112200,1,0,0:0:0:0:
232,256,112771,1,2,0:0:0:0:
232,256,113342,1,0,0:0:0:0:
232,256,114485,1,4,0:0:0:0:
216,124,115057,1,2,0:0:0:0:
232,256,115628,1,0,0:0:0:0:
216,124,115914,1,2,0:0:0:0:
232,256,116200,1,0,0:0:0:0:
224,152,116771,1,0,0:0:0:0:
224,152,117342,1,0,0:0:0:0:
232,256,117914,1,2,0:0:0:0:
232,256,119057,1,0,0:0:0:0:
248,148,119628,1,2,0:0:0:0:
232,256,120200,1,0,0:0:0:0:
188,112,120485,1,0,0:0:0:0:
232,256,120771,1,2,0:0:0:0:
232,256,121342,1,0,0:0:0:0:
152,144,121914,1,2,0:0:0:0:
232,256,122485,1,0,0:0:0:0:
168,192,122771,1,0,0:0:0:0:
264,196,123057,1,0,0:0:0:0:
232,256,123628,1,4,0:0:0:0:
232,256,132771,5,0,0:0:0:0:
232,256,133342,1,0,0:0:0:0:
232,256,133914,1,2,0:0:0:0:
232,256,135057,1,0,0:0:0:0:
232,256,135628,1,2,0:0:0:0:
232,256,136200,1,0,0:0:0:0:
232,256,137342,1,0,0:0:0:0:
232,256,137914,1,0,0:0:0:0:
232,256,138485,1,2,0:0:0:0:
232,260,139628,1,0,0:0:0:0:
232,260,140200,1,2,0:0:0:0:
232,260,140771,1,0,0:0:0:0:
232,260,141914,1,4,0:0:0:0:
232,260,142485,1,0,0:0:0:0:
232,260,143342,1,0,0:0:0:0:
232,260,143628,1,2,0:0:0:0:
232,260,144200,1,0,0:0:0:0:
232,260,144771,1,2,0:0:0:0:
232,260,145628,1,2,0:0:0:0:
232,260,145914,1,0,0:0:0:0:
232,260,146485,1,0,0:0:0:0:
232,260,147057,1,0,0:0:0:0:
232,260,147914,1,0,0:0:0:0:
232,260,148200,1,2,0:0:0:0:
232,260,148771,1,0,0:0:0:0:
232,260,149342,1,2,0:0:0:0:
224,268,149914,1,0,0:0:0:0:
224,280,151057,1,0,0:0:0:0:
224,280,152200,1,2,0:0:0:0:
224,280,153342,1,0,0:0:0:0:
224,280,154485,1,2,0:0:0:0:
224,280,155057,1,2,0:0:0:0:
224,280,155628,1,0,0:0:0:0:
224,280,156771,1,2,0:0:0:0:
224,280,160200,1,4,0:0:0:0:
224,280,160771,1,0,0:0:0:0:
216,244,161342,1,2,0:0:0:0:
216,244,161628,1,2,0:0:0:0:
216,244,161914,1,2,0:0:0:0:
216,244,162485,1,0,0:0:0:0:
220,248,163057,1,2,0:0:0:0:
220,248,163628,1,0,0:0:0:0:
220,248,164771,1,0,0:0:0:0:
220,248,165342,1,2,0:0:0:0:
220,248,165914,1,0,0:0:0:0:
220,248,166200,1,0,0:0:0:0:
220,248,166485,1,0,0:0:0:0:
220,248,167057,1,2,0:0:0:0:
220,248,167628,1,0,0:0:0:0:
220,248,168200,1,2,0:0:0:0:
220,248,169342,1,0,0:0:0:0:
220,248,169628,1,0,0:0:0:0:
220,248,169914,1,0,0:0:0:0:
220,248,170485,1,2,0:0:0:0:
220,248,170771,1,2,0:0:0:0:
220,248,171057,1,2,0:0:0:0:
220,248,171628,1,0,0:0:0:0:
220,248,171914,1,0,0:0:0:0:
220,248,172200,1,0,0:0:0:0:
220,248,172771,1,2,0:0:0:0:
300,116,173342,1,2,0:0:0:0:
220,248,173914,1,0,0:0:0:0:
220,248,174200,1,0,0:0:0:0:
220,248,174485,1,2,0:0:0:0:
220,248,175057,1,0,0:0:0:0:
68,136,175342,1,2,0:0:0:0:
220,248,175628,1,0,0:0:0:0:
220,248,176200,1,2,0:0:0:0:
220,248,176485,1,0,0:0:0:0:
220,248,176771,1,0,0:0:0:0:
220,248,177342,1,2,0:0:0:0:
220,248,178485,1,4,0:0:0:0:
220,248,179057,1,2,0:0:0:0:
220,248,179628,1,0,0:0:0:0:
76,152,179914,1,0,0:0:0:0:
220,248,180200,1,2,0:0:0:0:
220,248,180771,1,0,0:0:0:0:
208,136,181057,1,0,0:0:0:0:
220,248,181342,1,0,0:0:0:0:
220,248,181914,1,2,0:0:0:0:
220,248,183057,1,0,0:0:0:0:
220,248,183628,1,2,0:0:0:0:
220,248,184200,1,0,0:0:0:0:
176,152,184485,1,2,0:0:0:0:
220,248,184771,1,0,0:0:0:0:
220,248,185342,1,2,0:0:0:0:
200,120,185628,1,0,0:0:0:0:
220,248,185914,1,0,0:0:0:0:
220,248,186485,1,2,0:0:0:0:
220,248,187628,1,4,0:0:0:0:
220,248,188200,1,2,0:0:0:0:
220,248,188771,1,0,0:0:0:0:
220,248,189057,1,2,0:0:0:0:
220,248,189342,1,0,0:0:0:0:
220,248,189914,1,0,0:0:0:0:
220,248,190485,1,0,0:0:0:0:
220,248,191057,1,2,0:0:0:0:
220,248,192200,1,0,0:0:0:0:
220,248,192771,1,0,0:0:0:0:
220,248,193342,1,2,0:0:0:0:
220,248,193628,1,2,0:0:0:0:
220,248,193914,1,2,0:0:0:0:
220,248,194485,1,0,0:0:0:0:
220,248,195057,1,2,0:0:0:0:
220,248,195628,1,0,0:0:0:0:
216,232,196771,1,0,0:0:0:0:
216,232,199057,1,2,0:0:0:0:
216,232,201342,1,0,0:0:0:0:
256,192,203628,12,0,205342,0:0:0:0:
