osu file format v14

[General]
AudioFilename: audio.mp3
AudioLeadIn: 0
PreviewTime: 48057
Countdown: 0
SampleSet: Normal
StackLeniency: 0.7
Mode: 1
LetterboxInBreaks: 0
WidescreenStoryboard: 0

[Editor]
Bookmarks: 2440,18440,27583,36726,45869,48155,57297,66440,75583,84726,93869,103012,105297,114440,123583,132726,141869,151012,160155,169297,173869,178440,187583,196726
DistanceSpacing: 1.7
BeatDivisor: 4
GridSize: 4
TimelineZoom: 2

[Metadata]
Title:Ghost Rule
TitleUnicode:Ghost Rule
Artist:Araki
ArtistUnicode:Araki
Creator:404 AccNotFound
Version:Inner Oni
Source:
Tags:utaite cover deco 27 deco*27 vocaloid hatsune miku
BeatmapID:1279174
BeatmapSetID:584669

[Difficulty]
HPDrainRate:6
CircleSize:5
OverallDifficulty:6.5
ApproachRate:5
SliderMultiplier:1.4
SliderTickRate:1

[Events]
//Background and Video events
0,0,"KakaoTalk_20170428_224455835.png",0,50
//Break Periods
//Storyboard Layer 0 (Background)
//Storyboard Layer 1 (Fail)
//Storyboard Layer 2 (Pass)
//Storyboard Layer 3 (Foreground)
//Storyboard Sound Samples

[TimingPoints]
200,285.714285714286,4,1,0,70,1,0
4771,-100,4,1,0,80,0,0
8200,-100,4,1,0,90,0,0
9342,-100,4,1,0,100,0,0
18485,-100,4,1,0,90,0,0
27628,-100,4,1,0,95,0,0
36771,-100,4,1,0,85,0,0
48200,-100,4,1,0,100,0,1
66200,-111.111111111111,4,1,0,100,0,0
66485,-100,4,1,0,100,0,0
75628,-100,4,1,0,70,0,0
84771,-100,4,1,0,90,0,0
93914,-100,4,1,0,85,0,0
105342,-100,4,1,0,100,0,1
123057,-100,4,1,0,100,0,0
123628,-100,4,1,0,100,0,0
132771,-100,4,1,0,70,0,0
141914,-100,4,1,0,85,0,0
151057,-125,4,1,0,60,0,0
157914,-125,4,1,0,20,0,0
159628,-100,4,1,0,90,0,0
160200,-95.2380952380952,4,1,0,90,0,1
178485,-95.2380952380952,4,1,0,100,0,0
196771,-125,4,1,0,70,0,0

[HitObjects]
292,280,200,5,0,0:2:0:0:
292,280,485,1,0,0:2:0:0:
292,280,771,1,2,0:2:0:0:
256,252,1200,1,0,0:2:0:0:
256,252,1485,1,2,0:2:0:0:
256,252,1628,1,0,0:2:0:0:
260,256,1914,1,2,0:2:0:0:
260,256,2057,1,0,0:2:0:0:
208,132,2200,1,2,0:2:0:0:
208,248,2271,1,2,0:2:0:0:
208,248,2342,1,2,0:2:0:0:
292,280,2485,1,0,0:2:0:0:
292,280,2771,1,0,0:2:0:0:
292,280,3057,1,2,0:2:0:0:
256,252,3485,1,0,0:2:0:0:
256,252,3771,1,2,0:2:0:0:
256,252,3914,1,0,0:2:0:0:
260,256,4200,1,2,0:2:0:0:
228,200,4271,1,2,0:2:0:0:
272,216,4342,1,0,0:2:0:0:
140,128,4485,1,2,0:2:0:0:
272,216,4628,1,2,0:2:0:0:
292,280,4771,1,0,0:2:0:0:
292,280,5057,1,0,0:2:0:0:
292,280,5342,1,2,0:2:0:0:
256,252,5771,1,0,0:2:0:0:
256,252,6057,1,2,0:2:0:0:
256,252,6200,1,0,0:2:0:0:
260,256,6485,1,2,0:2:0:0:
260,256,6628,1,0,0:2:0:0:
184,140,6771,1,2,0:2:0:0:
280,120,6842,1,2,0:2:0:0:
280,120,6914,1,2,0:2:0:0:
212,136,7057,1,0,0:2:0:0:
184,136,7342,1,0,0:2:0:0:
184,136,7628,1,2,0:2:0:0:
152,168,8057,1,0,0:2:0:0:
188,176,8342,1,2,0:2:0:0:
276,156,8414,1,2,0:2:0:0:
188,176,8485,1,0,0:2:0:0:
276,156,8628,1,0,0:2:0:0:
180,172,8771,1,2,0:2:0:0:
180,172,8914,1,0,0:2:0:0:
180,172,9057,1,2,0:2:0:0:
280,240,9342,1,2,0:2:0:0:
336,240,9414,1,2,0:2:0:0:
336,240,9485,1,2,0:2:0:0:
240,216,9628,1,0,0:2:0:0:
216,172,9771,1,0,0:2:0:0:
268,176,9842,1,0,0:0:0:0:
220,176,9914,1,2,0:2:0:0:
228,160,10057,1,0,0:2:0:0:
228,160,10200,1,2,0:2:0:0:
224,168,10271,1,2,0:0:0:0:
220,176,10342,1,0,0:2:0:0:
136,156,10628,1,2,0:2:0:0:
136,156,10771,1,0,0:2:0:0:
124,184,10914,1,0,0:2:0:0:
80,168,10985,1,0,0:0:0:0:
136,156,11057,1,2,0:2:0:0:
296,200,11128,1,2,0:2:0:0:
288,192,11200,1,0,0:2:0:0:
288,192,11342,1,2,0:2:0:0:
208,156,11485,1,2,0:2:0:0:
248,164,11628,1,0,0:2:0:0:
216,148,11700,1,0,0:2:0:0:
248,164,11771,1,0,0:2:0:0:
248,164,11914,1,2,0:2:0:0:
248,164,12057,1,0,0:2:0:0:
216,148,12128,1,0,0:2:0:0:
248,164,12200,1,2,0:2:0:0:
248,164,12342,1,0,0:2:0:0:
216,148,12485,1,2,0:2:0:0:
152,148,12557,1,2,0:0:0:0:
104,184,12628,1,0,0:0:0:0:
232,232,12914,1,0,0:2:0:0:
152,140,13057,1,2,0:2:0:0:
280,208,13200,1,0,0:2:0:0:
280,208,13271,1,0,0:2:0:0:
152,140,13342,1,2,0:2:0:0:
152,140,13485,1,0,0:2:0:0:
152,140,13628,1,2,0:2:0:0:
120,168,13914,1,2,0:0:0:0:
168,160,13985,1,2,0:0:0:0:
168,160,14057,1,2,0:0:0:0:
168,160,14200,1,0,0:0:0:0:
192,180,14342,1,0,0:0:0:0:
164,160,14414,1,0,0:0:0:0:
192,180,14485,1,2,0:0:0:0:
168,160,14628,1,0,0:0:0:0:
168,160,14771,1,2,0:0:0:0:
168,160,14842,1,0,0:0:0:0:
184,184,14914,1,0,0:0:0:0:
160,160,15200,1,2,0:0:0:0:
184,184,15342,1,0,0:0:0:0:
184,184,15485,1,0,0:0:0:0:
160,160,15557,1,0,0:0:0:0:
312,248,15628,1,2,0:0:0:0:
160,160,15700,1,2,0:0:0:0:
184,184,15771,1,0,0:0:0:0:
160,160,15914,1,2,0:0:0:0:
120,128,16057,1,0,0:0:0:0:
124,112,16200,1,2,0:0:0:0:
192,180,16271,1,2,0:0:0:0:
112,180,16342,1,2,0:0:0:0:
188,172,16485,1,0,0:0:0:0:
128,168,16628,1,0,0:0:0:0:
180,152,16700,1,0,0:0:0:0:
128,168,16771,1,2,0:0:0:0:
352,160,16914,1,0,0:0:0:0:
144,128,17057,1,2,0:0:0:0:
160,248,17128,1,0,0:0:0:0:
144,128,17200,1,0,0:0:0:0:
144,128,17485,1,2,0:0:0:0:
196,108,17557,1,2,0:0:0:0:
144,128,17628,1,0,0:0:0:0:
144,128,17771,1,0,0:0:0:0:
144,128,17914,1,2,0:0:0:0:
144,128,18057,1,2,0:0:0:0:
144,128,18200,1,2,0:0:0:0:
144,128,18342,1,2,0:0:0:0:
116,200,18485,1,0,0:0:0:0:
368,260,18771,1,2,0:0:0:0:
188,108,18914,1,0,0:0:0:0:
368,260,19200,1,0,0:0:0:0:
368,260,19342,1,2,0:0:0:0:
296,172,19485,1,0,0:0:0:0:
368,260,19771,1,0,0:0:0:0:
368,260,19914,1,2,0:0:0:0:
296,172,20057,1,2,0:0:0:0:
368,260,20200,1,0,0:0:0:0:
368,260,20342,1,0,0:0:0:0:
368,260,20485,1,2,0:0:0:0:
368,260,20771,1,0,0:0:0:0:
368,260,21057,1,2,0:0:0:0:
368,260,21200,1,0,0:0:0:0:
368,260,21485,1,0,0:0:0:0:
368,260,21628,1,2,0:0:0:0:
184,208,21771,1,0,0:0:0:0:
184,208,21842,1,2,0:0:0:0:
368,260,21914,1,0,0:0:0:0:
368,260,22057,1,0,0:0:0:0:
368,260,22200,1,2,0:0:0:0:
368,260,22342,1,2,0:0:0:0:
80,200,22414,1,2,0:0:0:0:
368,260,22485,1,0,0:0:0:0:
368,260,22628,1,0,0:0:0:0:
368,260,22771,1,2,0:0:0:0:
368,260,23057,1,0,0:0:0:0:
368,260,23342,1,2,0:0:0:0:
276,180,23485,1,0,0:0:0:0:
368,260,23771,1,0,0:0:0:0:
368,260,23914,1,2,0:0:0:0:
100,176,24057,1,0,0:0:0:0:
252,224,24342,1,0,0:0:0:0:
252,224,24485,1,2,0:0:0:0:
176,144,24628,1,2,0:0:0:0:
176,144,24700,1,2,0:0:0:0:
228,256,24771,1,0,0:0:0:0:
228,256,24914,1,0,0:0:0:0:
228,256,25057,1,2,0:0:0:0:
116,176,25200,1,0,0:0:0:0:
116,176,25271,1,0,0:0:0:0:
288,240,25342,1,0,0:0:0:0:
296,240,25628,1,2,0:0:0:0:
216,204,25771,1,0,0:0:0:0:
216,204,26057,1,0,0:0:0:0:
216,204,26200,1,2,0:0:0:0:
184,188,26342,1,2,0:0:0:0:
416,216,26414,1,2,0:0:0:0:
216,204,26485,1,0,0:0:0:0:
216,204,26628,1,0,0:0:0:0:
216,204,26771,1,2,0:0:0:0:
216,204,26914,1,0,0:0:0:0:
176,192,26985,1,0,0:0:0:0:
216,204,27057,1,2,0:0:0:0:
216,204,27128,1,2,0:0:0:0:
216,204,27200,1,0,0:0:0:0:
216,204,27342,1,2,0:0:0:0:
352,228,27628,1,4,0:0:0:0:
360,236,27771,1,0,0:0:0:0:
360,236,27914,1,2,0:0:0:0:
360,236,28057,1,0,0:0:0:0:
184,152,28128,1,2,0:0:0:0:
184,152,28200,1,0,0:0:0:0:
360,236,28342,1,0,0:0:0:0:
360,236,28485,1,2,0:0:0:0:
360,236,28628,1,2,0:0:0:0:
212,192,28700,1,2,0:0:0:0:
360,236,28771,1,0,0:0:0:0:
360,236,28914,1,0,0:0:0:0:
360,236,29057,1,2,0:0:0:0:
360,236,29200,1,0,0:0:0:0:
220,156,29271,1,2,0:0:0:0:
360,236,29342,1,0,0:0:0:0:
360,236,29485,1,2,0:0:0:0:
220,156,29557,1,2,0:0:0:0:
360,236,29628,1,0,0:0:0:0:
212,156,29700,1,0,0:0:0:0:
212,156,29771,1,2,0:0:0:0:
216,156,29842,1,2,0:0:0:0:
172,168,29914,1,0,0:0:0:0:
172,168,30057,1,0,0:0:0:0:
172,168,30200,1,2,0:0:0:0:
220,176,30342,1,0,0:0:0:0:
220,176,30414,1,2,0:0:0:0:
172,168,30485,1,0,0:0:0:0:
172,168,30628,1,0,0:0:0:0:
172,168,30771,1,2,0:0:0:0:
172,168,30914,1,2,0:0:0:0:
356,152,30985,1,2,0:0:0:0:
172,168,31057,1,0,0:0:0:0:
172,168,31200,1,0,0:0:0:0:
172,168,31342,1,2,0:0:0:0:
172,168,31485,1,2,0:0:0:0:
224,136,31557,1,0,0:0:0:0:
172,168,31628,1,0,0:0:0:0:
172,168,31771,1,0,0:0:0:0:
172,168,31914,1,2,0:0:0:0:
172,168,32200,1,0,0:0:0:0:
172,168,32342,1,0,0:0:0:0:
172,168,32485,1,2,0:0:0:0:
172,168,32628,1,0,0:0:0:0:
176,128,32700,1,0,0:0:0:0:
168,128,32771,1,0,0:0:0:0:
172,168,32914,1,0,0:0:0:0:
172,168,33057,1,2,0:0:0:0:
172,168,33200,1,0,0:0:0:0:
104,104,33271,1,2,0:0:0:0:
172,168,33342,1,0,0:0:0:0:
172,168,33485,1,0,0:0:0:0:
172,168,33628,1,2,0:0:0:0:
296,168,33771,1,2,0:0:0:0:
296,168,33842,1,2,0:0:0:0:
172,168,33914,1,0,0:0:0:0:
172,168,34057,1,0,0:0:0:0:
172,168,34200,1,2,0:0:0:0:
172,168,34342,1,0,0:0:0:0:
120,208,34414,1,0,0:0:0:0:
172,168,34485,1,2,0:0:0:0:
172,168,34771,1,0,0:0:0:0:
172,168,34914,1,2,0:0:0:0:
304,172,34985,1,2,0:0:0:0:
172,168,35057,1,0,0:0:0:0:
172,168,35200,1,0,0:0:0:0:
172,168,35342,1,2,0:0:0:0:
184,36,35485,1,0,0:0:0:0:
80,112,35557,1,2,0:0:0:0:
172,168,35628,1,0,0:0:0:0:
172,168,35771,1,2,0:0:0:0:
284,160,35842,1,2,0:0:0:0:
172,168,35914,1,0,0:0:0:0:
172,168,36057,1,2,0:0:0:0:
184,152,36128,1,2,0:0:0:0:
172,168,36200,1,0,0:0:0:0:
16,176,36271,1,2,0:0:0:0:
16,176,36342,1,0,0:0:0:0:
16,176,36414,1,0,0:0:0:0:
172,168,36485,1,2,0:0:0:0:
284,160,36557,1,0,0:0:0:0:
172,168,36628,1,2,0:0:0:0:
172,168,36771,1,4,0:0:0:0:
328,160,36914,1,0,0:0:0:0:
168,160,37200,1,0,0:0:0:0:
176,140,37342,1,2,0:0:0:0:
168,168,37628,1,2,0:0:0:0:
224,124,37771,1,0,0:0:0:0:
136,104,38057,1,2,0:0:0:0:
208,188,38200,1,0,0:0:0:0:
88,184,38271,1,0,0:0:0:0:
88,184,38342,1,0,0:0:0:0:
208,188,38485,1,2,0:0:0:0:
144,212,38628,1,2,0:0:0:0:
144,212,38771,1,0,0:0:0:0:
144,212,38914,1,2,0:0:0:0:
144,212,39057,1,0,0:0:0:0:
264,196,39200,1,0,0:0:0:0:
160,188,39485,1,0,0:0:0:0:
144,212,39628,1,2,0:0:0:0:
144,212,39914,1,2,0:0:0:0:
224,140,40057,1,0,0:0:0:0:
112,160,40342,1,2,0:0:0:0:
112,160,40485,1,0,0:0:0:0:
84,168,40557,1,2,0:0:0:0:
84,168,40628,1,0,0:0:0:0:
112,160,40771,1,2,0:0:0:0:
112,160,40914,1,2,0:0:0:0:
112,160,41057,1,0,0:0:0:0:
152,96,41200,1,0,0:0:0:0:
112,160,41342,1,2,0:0:0:0:
252,88,41485,1,2,0:0:0:0:
112,160,41771,1,0,0:0:0:0:
112,160,41914,1,2,0:0:0:0:
188,116,42200,1,2,0:0:0:0:
112,160,42342,1,0,0:0:0:0:
112,160,42628,1,2,0:0:0:0:
112,160,42771,1,0,0:0:0:0:
72,220,42842,1,0,0:0:0:0:
48,192,42914,1,0,0:0:0:0:
112,160,43057,1,2,0:0:0:0:
92,164,43200,1,2,0:0:0:0:
112,160,43342,1,0,0:0:0:0:
224,128,43485,1,2,0:0:0:0:
224,128,43628,1,0,0:0:0:0:
224,144,43771,1,0,0:0:0:0:
224,132,44057,1,0,0:0:0:0:
224,132,44200,1,2,0:0:0:0:
224,136,44485,1,2,0:0:0:0:
80,228,44628,1,0,0:0:0:0:
224,136,44914,1,2,0:0:0:0:
192,124,45057,1,0,0:0:0:0:
164,152,45128,1,0,0:0:0:0:
224,132,45200,1,0,0:0:0:0:
224,132,45342,1,2,0:0:0:0:
224,136,45485,1,2,0:0:0:0:
224,136,45628,1,2,0:0:0:0:
224,136,45771,1,2,0:0:0:0:
156,220,48200,1,4,0:0:0:0:
156,220,48485,1,6,0:0:0:0:
156,220,48771,1,0,0:0:0:0:
156,220,48914,1,0,0:0:0:0:
184,136,48985,1,0,0:0:0:0:
156,220,49057,1,2,0:0:0:0:
276,228,49200,1,0,0:0:0:0:
148,144,49342,1,2,0:0:0:0:
176,168,49485,1,0,0:0:0:0:
176,160,49557,1,2,0:0:0:0:
152,148,49628,1,0,0:0:0:0:
152,148,49771,1,2,0:0:0:0:
152,148,50057,1,0,0:0:0:0:
152,148,50200,1,2,0:0:0:0:
192,148,50342,1,2,0:0:0:0:
192,148,50414,1,2,0:0:0:0:
152,148,50485,1,0,0:0:0:0:
232,112,50628,1,0,0:0:0:0:
152,148,50771,1,2,0:0:0:0:
136,208,50842,1,0,0:0:0:0:
232,112,50914,1,0,0:0:0:0:
152,148,51057,1,2,0:0:0:0:
152,148,51200,1,0,0:0:0:0:
80,116,51271,1,0,0:0:0:0:
152,148,51342,1,2,0:0:0:0:
340,116,51485,1,2,0:0:0:0:
152,148,51628,1,0,0:0:0:0:
136,164,51771,1,0,0:0:0:0:
128,164,51842,1,0,0:0:0:0:
152,148,51914,1,2,0:0:0:0:
152,148,52057,1,0,0:0:0:0:
140,168,52128,1,2,0:0:0:0:
152,148,52200,1,0,0:0:0:0:
212,128,52271,1,0,0:0:0:0:
152,148,52342,1,2,0:0:0:0:
88,172,52414,1,2,0:0:0:0:
152,148,52485,1,0,0:0:0:0:
168,140,52628,1,2,0:0:0:0:
152,148,52771,1,4,0:0:0:0:
168,140,53057,1,6,0:0:0:0:
168,140,53342,1,0,0:0:0:0:
160,144,53485,1,0,0:0:0:0:
168,140,53557,1,0,0:0:0:0:
168,140,53628,1,2,0:0:0:0:
180,132,53771,1,0,0:0:0:0:
160,144,53842,1,2,0:0:0:0:
160,144,53914,1,0,0:0:0:0:
180,132,54057,1,0,0:0:0:0:
180,132,54200,1,2,0:0:0:0:
184,252,54342,1,2,0:0:0:0:
192,260,54414,1,2,0:0:0:0:
176,132,54485,1,0,0:0:0:0:
176,132,54628,1,0,0:0:0:0:
180,132,54771,1,2,0:0:0:0:
180,132,55057,1,0,0:0:0:0:
180,132,55200,1,0,0:0:0:0:
180,132,55342,1,2,0:0:0:0:
156,152,55485,1,0,0:0:0:0:
204,212,55557,1,0,0:0:0:0:
176,132,55628,1,2,0:0:0:0:
180,132,55771,1,0,0:0:0:0:
180,132,55914,1,2,0:0:0:0:
204,192,56057,1,0,0:0:0:0:
204,192,56128,1,2,0:0:0:0:
180,132,56200,1,0,0:0:0:0:
176,180,56342,1,2,0:0:0:0:
176,180,56414,1,2,0:0:0:0:
176,180,56485,1,0,0:0:0:0:
176,180,56628,1,2,0:0:0:0:
176,180,56771,1,0,0:0:0:0:
148,184,57057,1,2,0:0:0:0:
176,180,57342,1,4,0:0:0:0:
244,256,57628,1,2,0:0:0:0:
176,128,57771,1,0,0:0:0:0:
176,128,57842,1,0,0:0:0:0:
244,256,57914,1,0,0:0:0:0:
244,256,58057,1,0,0:0:0:0:
244,256,58200,1,2,0:0:0:0:
392,96,58342,1,0,0:0:0:0:
396,116,58414,1,2,0:0:0:0:
244,256,58485,1,0,0:0:0:0:
244,256,58628,1,0,0:0:0:0:
244,256,58771,1,2,0:0:0:0:
244,256,58914,1,2,0:0:0:0:
80,156,58985,1,2,0:0:0:0:
180,176,59057,1,0,0:0:0:0:
244,256,59200,1,0,0:0:0:0:
244,256,59342,1,2,0:0:0:0:
244,256,59628,1,0,0:0:0:0:
192,120,59771,1,0,0:0:0:0:
248,260,59914,1,2,0:0:0:0:
192,120,60057,1,0,0:0:0:0:
104,188,60128,1,0,0:0:0:0:
228,200,60200,1,2,0:0:0:0:
228,200,60342,1,0,0:0:0:0:
228,200,60485,1,2,0:0:0:0:
228,200,60628,1,0,0:0:0:0:
228,200,60700,1,0,0:0:0:0:
228,200,60771,1,0,0:0:0:0:
228,200,61057,1,2,0:0:0:0:
228,200,61200,1,0,0:0:0:0:
52,160,61271,1,2,0:0:0:0:
228,200,61342,1,0,0:0:0:0:
228,200,61485,1,2,0:0:0:0:
228,200,61557,1,2,0:0:0:0:
228,200,61628,1,2,0:0:0:0:
228,200,61771,1,2,0:0:0:0:
228,200,61914,1,0,0:0:0:0:
228,200,62200,1,2,0:0:0:0:
472,108,62342,1,0,0:0:0:0:
472,112,62414,1,0,0:0:0:0:
228,200,62485,1,0,0:0:0:0:
228,200,62628,1,0,0:0:0:0:
228,200,62771,1,2,0:0:0:0:
228,200,62914,1,0,0:0:0:0:
228,200,62985,1,2,0:0:0:0:
228,200,63057,1,0,0:0:0:0:
228,200,63200,1,0,0:0:0:0:
228,200,63342,1,2,0:0:0:0:
228,200,63485,1,2,0:0:0:0:
160,132,63557,1,2,0:0:0:0:
160,104,63628,1,0,0:0:0:0:
228,200,63771,1,0,0:0:0:0:
228,200,63914,1,2,0:0:0:0:
228,200,64200,1,0,0:0:0:0:
160,104,64342,1,0,0:0:0:0:
228,200,64485,1,2,0:0:0:0:
160,104,64628,1,0,0:0:0:0:
264,140,64700,1,0,0:0:0:0:
228,200,64771,1,2,0:0:0:0:
228,200,64914,1,0,0:0:0:0:
228,200,65057,1,2,0:0:0:0:
96,156,65200,1,0,0:0:0:0:
292,176,65271,1,2,0:0:0:0:
228,200,65342,1,0,0:0:0:0:
228,200,65485,1,2,0:0:0:0:
228,200,65557,1,2,0:0:0:0:
228,200,65628,1,0,0:0:0:0:
112,88,65700,1,0,0:0:0:0:
228,200,65771,1,2,0:0:0:0:
228,200,65914,1,0,0:0:0:0:
208,172,66200,1,2,0:0:0:0:
208,172,66485,1,2,0:0:0:0:
396,296,66557,1,2,0:0:0:0:
396,296,66628,1,2,0:0:0:0:
396,304,66771,1,0,0:0:0:0:
396,304,66914,1,0,0:0:0:0:
204,120,66985,1,0,0:0:0:0:
396,304,67057,1,2,0:0:0:0:
396,304,67200,1,2,0:0:0:0:
396,304,67342,1,0,0:0:0:0:
316,248,67628,1,0,0:0:0:0:
396,304,67771,1,0,0:0:0:0:
396,304,67914,1,2,0:0:0:0:
316,248,67985,1,2,0:0:0:0:
316,248,68057,1,0,0:0:0:0:
316,248,68200,1,2,0:0:0:0:
316,248,68342,1,0,0:0:0:0:
168,124,68414,1,0,0:0:0:0:
316,248,68485,1,2,0:0:0:0:
316,248,68628,1,2,0:0:0:0:
168,200,68771,1,0,0:0:0:0:
168,184,68842,1,0,0:0:0:0:
168,192,68914,1,0,0:0:0:0:
316,248,69057,1,2,0:0:0:0:
316,248,69200,1,0,0:0:0:0:
316,248,69342,1,2,0:0:0:0:
316,248,69485,1,2,0:0:0:0:
28,204,69557,1,2,0:0:0:0:
316,248,69628,1,0,0:0:0:0:
220,176,69914,1,0,0:0:0:0:
192,180,70057,1,0,0:0:0:0:
192,180,70128,1,2,0:0:0:0:
192,180,70200,1,0,0:0:0:0:
192,180,70342,1,0,0:0:0:0:
192,180,70485,1,2,0:0:0:0:
192,180,70557,1,2,0:0:0:0:
192,180,70628,1,0,0:0:0:0:
192,180,70771,1,2,0:0:0:0:
192,180,70914,1,0,0:0:0:0:
192,180,71057,1,2,0:0:0:0:
192,180,71128,1,2,0:0:0:0:
192,180,71200,1,2,0:0:0:0:
192,180,71342,1,0,0:0:0:0:
192,180,71485,1,0,0:0:0:0:
192,180,71628,1,2,0:0:0:0:
192,180,71771,1,2,0:0:0:0:
192,180,71914,1,0,0:0:0:0:
192,180,72200,1,0,0:0:0:0:
192,180,72342,1,2,0:0:0:0:
192,180,72485,1,0,0:0:0:0:
192,180,72557,1,0,0:0:0:0:
192,180,72628,1,0,0:0:0:0:
192,180,72771,1,2,0:0:0:0:
192,180,72914,1,0,0:0:0:0:
192,180,72985,1,2,0:0:0:0:
192,180,73057,1,0,0:0:0:0:
192,180,73342,1,2,0:0:0:0:
188,184,73485,1,0,0:0:0:0:
188,184,73557,1,0,0:0:0:0:
188,184,73628,1,0,0:0:0:0:
188,184,73771,1,0,0:0:0:0:
188,184,73914,1,2,0:0:0:0:
188,184,74057,1,2,0:0:0:0:
188,184,74200,1,0,0:0:0:0:
188,184,74485,1,0,0:0:0:0:
188,184,74628,1,2,0:0:0:0:
188,184,74771,1,0,0:0:0:0:
112,144,74842,1,0,0:0:0:0:
108,164,74914,1,0,0:0:0:0:
184,172,75057,1,2,0:0:0:0:
180,172,75200,1,2,0:0:0:0:
180,172,75342,1,2,0:0:0:0:
208,176,75485,1,2,0:0:0:0:
224,192,75628,1,0,0:0:0:0:
188,204,75771,1,0,0:0:0:0:
188,204,76057,1,2,0:0:0:0:
196,164,77914,1,0,0:0:0:0:
196,164,78057,1,0,0:0:0:0:
196,164,78342,1,2,0:0:0:0:
320,136,78914,1,0,0:0:0:0:
232,176,79200,1,0,0:0:0:0:
264,168,79342,1,0,0:0:0:0:
208,136,79628,1,2,0:0:0:0:
208,136,79771,1,2,0:0:0:0:
208,136,80057,1,2,0:0:0:0:
228,208,80200,1,0,0:0:0:0:
228,208,80485,1,0,0:0:0:0:
228,208,80771,1,2,0:0:0:0:
228,208,81200,1,0,0:0:0:0:
228,208,81485,1,0,0:0:0:0:
228,208,81628,1,0,0:0:0:0:
200,168,81914,1,2,0:0:0:0:
200,168,82057,1,2,0:0:0:0:
200,168,82342,1,0,0:0:0:0:
200,168,82414,1,0,0:0:0:0:
200,168,82485,1,0,0:0:0:0:
332,244,82771,1,0,0:0:0:0:
272,128,82914,1,0,0:0:0:0:
332,244,83057,1,2,0:0:0:0:
304,116,83200,1,0,0:0:0:0:
332,244,83485,1,2,0:0:0:0:
328,248,83771,1,2,0:0:0:0:
296,216,84057,1,0,0:0:0:0:
296,216,84200,1,0,0:0:0:0:
296,216,84342,1,2,0:0:0:0:
296,216,84414,1,2,0:0:0:0:
296,216,84485,1,2,0:0:0:0:
296,216,84557,1,2,0:0:0:0:
288,220,84628,1,2,0:0:0:0:
296,216,84700,1,2,0:0:0:0:
296,216,84771,1,0,0:0:0:0:
292,220,84914,1,0,0:0:0:0:
216,208,85057,1,2,0:0:0:0:
292,220,85200,1,0,0:0:0:0:
312,168,85271,1,2,0:0:0:0:
192,172,85342,1,0,0:0:0:0:
292,220,85485,1,0,0:0:0:0:
288,220,85628,1,2,0:0:0:0:
292,220,85771,1,2,0:0:0:0:
80,152,85842,1,2,0:0:0:0:
292,220,85914,1,0,0:0:0:0:
292,220,86057,1,0,0:0:0:0:
292,220,86200,1,2,0:0:0:0:
292,220,86342,1,0,0:0:0:0:
416,248,86414,1,2,0:0:0:0:
292,220,86485,1,0,0:0:0:0:
160,200,86628,1,2,0:0:0:0:
168,188,86700,1,2,0:0:0:0:
164,192,86771,1,0,0:0:0:0:
292,220,86914,1,2,0:0:0:0:
292,220,87057,1,0,0:0:0:0:
292,220,87200,1,0,0:0:0:0:
292,220,87342,1,2,0:0:0:0:
292,220,87485,1,0,0:0:0:0:
164,128,87557,1,0,0:0:0:0:
288,220,87628,1,0,0:0:0:0:
292,220,87771,1,0,0:0:0:0:
292,220,87914,1,2,0:0:0:0:
292,220,88057,1,0,0:0:0:0:
112,208,88128,1,2,0:0:0:0:
292,220,88200,1,0,0:0:0:0:
292,220,88342,1,0,0:0:0:0:
292,220,88485,1,2,0:0:0:0:
272,216,88628,1,2,0:0:0:0:
112,208,88700,1,2,0:0:0:0:
272,216,88771,1,0,0:0:0:0:
176,156,88842,1,2,0:0:0:0:
272,216,88914,1,0,0:0:0:0:
272,216,89057,1,2,0:0:0:0:
272,216,89342,1,0,0:0:0:0:
272,216,89485,1,0,0:0:0:0:
272,216,89628,1,2,0:0:0:0:
272,216,89771,1,0,0:0:0:0:
164,176,89842,1,0,0:0:0:0:
272,216,89914,1,0,0:0:0:0:
272,216,90057,1,0,0:0:0:0:
272,216,90200,1,2,0:0:0:0:
272,216,90342,1,0,0:0:0:0:
244,152,90414,1,2,0:0:0:0:
272,216,90485,1,0,0:0:0:0:
272,216,90628,1,0,0:0:0:0:
272,216,90771,1,2,0:0:0:0:
160,148,90914,1,2,0:0:0:0:
160,148,90985,1,2,0:0:0:0:
272,216,91057,1,0,0:0:0:0:
272,216,91200,1,0,0:0:0:0:
272,216,91342,1,2,0:0:0:0:
124,112,91414,1,2,0:0:0:0:
272,216,91485,1,2,0:0:0:0:
272,216,91628,1,0,0:0:0:0:
272,216,91771,1,0,0:0:0:0:
272,216,91914,1,2,0:0:0:0:
272,216,92057,1,0,0:0:0:0:
160,148,92128,1,2,0:0:0:0:
272,216,92200,1,0,0:0:0:0:
272,216,92342,1,0,0:0:0:0:
272,216,92485,1,2,0:0:0:0:
272,216,92628,1,2,0:0:0:0:
164,56,92700,1,2,0:0:0:0:
272,216,92771,1,0,0:0:0:0:
104,216,92914,1,0,0:0:0:0:
112,172,92985,1,0,0:0:0:0:
272,216,93057,1,2,0:0:0:0:
272,216,93200,1,2,0:0:0:0:
160,148,93271,1,2,0:0:0:0:
272,216,93342,1,0,0:0:0:0:
160,148,93414,1,2,0:0:0:0:
272,216,93485,1,0,0:0:0:0:
160,148,93557,1,0,0:0:0:0:
272,216,93628,1,2,0:0:0:0:
160,148,93700,1,0,0:0:0:0:
272,216,93771,1,2,0:0:0:0:
172,168,93914,1,4,0:0:0:0:
328,160,94057,1,0,0:0:0:0:
168,160,94343,1,0,0:0:0:0:
176,140,94485,1,2,0:0:0:0:
168,168,94771,1,2,0:0:0:0:
224,124,94914,1,0,0:0:0:0:
136,104,95200,1,2,0:0:0:0:
208,188,95343,1,0,0:0:0:0:
88,184,95414,1,0,0:0:0:0:
88,184,95485,1,0,0:0:0:0:
208,188,95628,1,2,0:0:0:0:
144,212,95771,1,2,0:0:0:0:
144,212,95914,1,0,0:0:0:0:
144,212,96057,1,2,0:0:0:0:
144,212,96200,1,0,0:0:0:0:
264,196,96343,1,0,0:0:0:0:
160,188,96628,1,0,0:0:0:0:
144,212,96771,1,2,0:0:0:0:
144,212,97057,1,2,0:0:0:0:
224,140,97200,1,0,0:0:0:0:
112,160,97485,1,2,0:0:0:0:
112,160,97628,1,0,0:0:0:0:
84,168,97700,1,2,0:0:0:0:
84,168,97771,1,0,0:0:0:0:
112,160,97914,1,2,0:0:0:0:
112,160,98057,1,2,0:0:0:0:
112,160,98200,1,0,0:0:0:0:
56,136,98342,1,0,0:0:0:0:
112,160,98485,1,2,0:0:0:0:
252,88,98628,1,2,0:0:0:0:
112,160,98914,1,0,0:0:0:0:
112,160,99057,1,2,0:0:0:0:
188,116,99343,1,2,0:0:0:0:
112,160,99485,1,0,0:0:0:0:
112,160,99771,1,2,0:0:0:0:
112,160,99914,1,0,0:0:0:0:
72,220,99985,1,0,0:0:0:0:
48,192,100057,1,0,0:0:0:0:
112,160,100200,1,2,0:0:0:0:
92,164,100343,1,2,0:0:0:0:
112,160,100485,1,0,0:0:0:0:
224,128,100628,1,2,0:0:0:0:
224,128,100771,1,0,0:0:0:0:
224,144,100914,1,0,0:0:0:0:
224,132,101200,1,0,0:0:0:0:
224,132,101343,1,2,0:0:0:0:
224,136,101628,1,2,0:0:0:0:
80,228,101771,1,0,0:0:0:0:
224,136,102057,1,2,0:0:0:0:
192,124,102200,1,0,0:0:0:0:
164,152,102271,1,0,0:0:0:0:
224,132,102343,1,0,0:0:0:0:
224,132,102485,1,2,0:0:0:0:
224,136,102628,1,2,0:0:0:0:
224,136,102771,1,2,0:0:0:0:
224,136,102914,1,2,0:0:0:0:
296,232,105342,5,4,0:0:0:0:
300,236,105628,1,6,0:0:0:0:
156,220,105914,1,0,0:0:0:0:
156,220,106057,1,0,0:0:0:0:
184,136,106128,1,0,0:0:0:0:
156,220,106200,1,2,0:0:0:0:
276,228,106342,1,0,0:0:0:0:
148,144,106485,1,2,0:0:0:0:
176,168,106628,1,0,0:0:0:0:
176,160,106700,1,2,0:0:0:0:
152,148,106771,1,0,0:0:0:0:
152,148,106914,1,2,0:0:0:0:
212,224,107200,1,0,0:0:0:0:
212,224,107342,1,2,0:0:0:0:
248,120,107485,1,2,0:0:0:0:
248,120,107557,1,2,0:0:0:0:
212,224,107628,1,0,0:0:0:0:
212,224,107771,1,0,0:0:0:0:
212,224,107914,1,2,0:0:0:0:
220,192,108057,1,0,0:0:0:0:
248,120,108128,1,0,0:0:0:0:
216,212,108200,1,2,0:0:0:0:
216,212,108342,1,0,0:0:0:0:
216,212,108485,1,2,0:0:0:0:
248,120,108557,1,0,0:0:0:0:
216,212,108628,1,2,0:0:0:0:
216,212,108771,1,0,0:0:0:0:
216,212,108914,1,0,0:0:0:0:
216,212,109057,1,2,0:0:0:0:
216,212,109200,1,2,0:0:0:0:
236,112,109271,1,2,0:0:0:0:
216,212,109342,1,0,0:0:0:0:
236,112,109414,1,2,0:0:0:0:
216,212,109485,1,0,0:0:0:0:
216,212,109557,1,0,0:0:0:0:
216,212,109628,1,2,0:0:0:0:
252,164,109771,1,2,0:0:0:0:
216,212,109914,1,4,0:0:0:0:
216,212,110200,1,6,0:0:0:0:
216,212,110485,1,0,0:0:0:0:
216,212,110628,1,0,0:0:0:0:
216,212,110771,1,2,0:0:0:0:
216,212,110914,1,0,0:0:0:0:
216,212,110985,1,2,0:0:0:0:
216,212,111057,1,0,0:0:0:0:
216,212,111200,1,0,0:0:0:0:
216,212,111342,1,2,0:0:0:0:
216,212,111485,1,0,0:0:0:0:
216,212,111771,1,0,0:0:0:0:
216,212,111914,1,2,0:0:0:0:
232,96,112057,1,2,0:0:0:0:
232,96,112128,1,2,0:0:0:0:
216,212,112200,1,0,0:0:0:0:
216,212,112342,1,0,0:0:0:0:
216,212,112485,1,2,0:0:0:0:
232,104,112628,1,0,0:0:0:0:
224,96,112700,1,0,0:0:0:0:
216,212,112771,1,2,0:0:0:0:
216,212,112914,1,0,0:0:0:0:
216,212,113057,1,2,0:0:0:0:
268,160,113200,1,0,0:0:0:0:
288,152,113271,1,2,0:0:0:0:
216,212,113342,1,0,0:0:0:0:
216,212,113485,1,2,0:0:0:0:
216,212,113557,1,2,0:0:0:0:
216,212,113628,1,0,0:0:0:0:
216,212,113771,1,2,0:0:0:0:
100,208,113842,1,2,0:0:0:0:
216,212,113914,1,0,0:0:0:0:
196,88,113985,1,0,0:0:0:0:
216,212,114057,1,0,0:0:0:0:
272,120,114128,1,0,0:0:0:0:
216,212,114200,1,2,0:0:0:0:
216,212,114485,1,4,0:0:0:0:
216,212,114771,1,2,0:0:0:0:
200,176,114914,1,2,0:0:0:0:
200,176,114985,1,2,0:0:0:0:
216,212,115057,1,0,0:0:0:0:
216,212,115200,1,0,0:0:0:0:
216,212,115342,1,2,0:0:0:0:
236,148,115485,1,0,0:0:0:0:
168,88,115557,1,0,0:0:0:0:
284,212,115628,1,0,0:0:0:0:
284,240,115771,1,0,0:0:0:0:
284,240,115914,1,2,0:0:0:0:
284,240,116057,1,2,0:0:0:0:
80,208,116128,1,2,0:0:0:0:
240,120,116200,1,0,0:0:0:0:
284,240,116342,1,0,0:0:0:0:
284,240,116485,1,2,0:0:0:0:
284,240,116771,1,0,0:0:0:0:
244,148,116914,1,0,0:0:0:0:
236,88,116985,1,0,0:0:0:0:
284,240,117057,1,2,0:0:0:0:
244,148,117200,1,0,0:0:0:0:
284,240,117342,1,2,0:0:0:0:
224,96,117414,1,0,0:0:0:0:
284,240,117485,1,0,0:0:0:0:
284,240,117628,1,2,0:0:0:0:
244,148,117771,1,0,0:0:0:0:
224,96,117842,1,2,0:0:0:0:
284,240,117914,1,0,0:0:0:0:
152,204,118057,1,0,0:0:0:0:
284,240,118200,1,2,0:0:0:0:
284,240,118342,1,2,0:0:0:0:
224,96,118414,1,2,0:0:0:0:
304,228,118485,1,0,0:0:0:0:
220,140,118628,1,2,0:0:0:0:
220,100,118700,1,2,0:0:0:0:
304,228,118771,1,2,0:0:0:0:
220,100,118842,1,2,0:0:0:0:
304,228,118914,1,2,0:0:0:0:
48,136,118985,1,2,0:0:0:0:
304,232,119057,1,0,0:0:0:0:
204,200,119342,1,2,0:0:0:0:
232,112,119485,1,2,0:0:0:0:
232,112,119557,1,2,0:0:0:0:
204,200,119628,1,0,0:0:0:0:
204,200,119771,1,0,0:0:0:0:
204,200,119914,1,2,0:0:0:0:
216,100,120057,1,0,0:0:0:0:
216,100,120128,1,2,0:0:0:0:
208,204,120200,1,0,0:0:0:0:
208,204,120342,1,0,0:0:0:0:
208,204,120485,1,2,0:0:0:0:
208,204,120628,1,0,0:0:0:0:
216,100,120700,1,0,0:0:0:0:
220,140,120771,1,0,0:0:0:0:
208,204,120914,1,0,0:0:0:0:
208,204,121057,1,2,0:0:0:0:
208,204,121342,1,2,0:0:0:0:
228,100,121414,1,2,0:0:0:0:
220,140,121485,1,0,0:0:0:0:
208,204,121628,1,2,0:0:0:0:
216,96,121771,1,0,0:0:0:0:
216,96,121842,1,0,0:0:0:0:
208,204,121914,1,2,0:0:0:0:
208,204,122057,1,0,0:0:0:0:
208,204,122200,1,2,0:0:0:0:
376,216,122271,1,0,0:0:0:0:
220,140,122342,1,2,0:0:0:0:
56,164,122414,1,2,0:0:0:0:
208,204,122485,1,0,0:0:0:0:
208,204,122628,1,2,0:0:0:0:
208,176,122700,1,2,0:0:0:0:
208,204,122771,1,0,0:0:0:0:
136,152,122842,1,0,0:0:0:0:
136,152,122914,1,0,0:0:0:0:
172,228,122985,1,0,0:0:0:0:
208,204,123057,1,2,0:0:0:0:
288,208,123628,1,6,0:0:0:0:
140,204,124057,1,0,0:0:0:0:
140,204,124485,1,2,0:0:0:0:
140,204,124771,1,0,0:0:0:0:
140,204,125200,1,0,0:0:0:0:
140,204,125628,1,0,0:0:0:0:
140,204,125914,1,2,0:0:0:0:
140,204,126342,1,2,0:0:0:0:
140,204,126771,1,2,0:0:0:0:
140,204,127057,1,0,0:0:0:0:
140,204,127628,1,0,0:0:0:0:
140,204,128200,1,2,0:0:0:0:
140,204,128628,1,0,0:0:0:0:
140,204,129057,1,2,0:0:0:0:
140,204,129342,1,0,0:0:0:0:
140,204,129771,1,0,0:0:0:0:
140,204,130200,1,0,0:0:0:0:
120,208,130485,1,2,0:0:0:0:
124,208,130914,1,2,0:0:0:0:
120,208,131342,1,2,0:0:0:0:
124,208,131628,1,0,0:0:0:0:
312,276,132771,1,0,0:0:0:0:
312,276,133057,1,0,0:0:0:0:
312,276,133342,1,0,0:0:0:0:
312,276,133628,1,0,0:0:0:0:
312,276,133914,1,2,0:0:0:0:
312,276,134200,1,0,0:0:0:0:
312,276,134485,1,0,0:0:0:0:
312,276,134771,1,0,0:0:0:0:
312,276,135057,1,2,0:0:0:0:
312,276,135342,1,0,0:0:0:0:
312,276,135628,1,0,0:0:0:0:
312,276,135914,1,0,0:0:0:0:
312,276,136200,1,2,0:0:0:0:
312,276,136485,1,0,0:0:0:0:
312,276,136771,1,2,0:0:0:0:
312,276,137057,1,0,0:0:0:0:
312,276,137342,1,2,0:0:0:0:
312,276,137628,1,0,0:0:0:0:
312,276,137914,1,0,0:0:0:0:
312,276,138200,1,0,0:0:0:0:
312,276,138485,1,2,0:0:0:0:
312,276,138771,1,0,0:0:0:0:
312,276,139057,1,0,0:0:0:0:
312,276,139342,1,0,0:0:0:0:
312,276,139628,1,2,0:0:0:0:
312,276,139914,1,0,0:0:0:0:
312,276,140200,1,0,0:0:0:0:
312,276,140485,1,0,0:0:0:0:
312,276,140771,1,2,0:0:0:0:
312,276,141057,1,0,0:0:0:0:
312,276,141342,1,2,0:0:0:0:
312,276,141628,1,0,0:0:0:0:
312,276,141914,1,0,0:0:0:0:
200,228,142057,1,2,0:0:0:0:
208,176,142342,1,0,0:0:0:0:
208,176,142485,1,2,0:0:0:0:
208,176,142914,1,0,0:0:0:0:
208,176,143200,1,2,0:0:0:0:
212,180,143342,1,0,0:0:0:0:
212,180,143628,1,2,0:0:0:0:
212,180,144057,1,2,0:0:0:0:
212,180,144128,1,2,0:0:0:0:
212,180,144200,1,0,0:0:0:0:
212,180,144342,1,0,0:0:0:0:
212,180,144628,1,0,0:0:0:0:
212,180,144771,1,2,0:0:0:0:
212,180,145200,1,0,0:0:0:0:
216,184,145485,1,2,0:0:0:0:
216,184,145628,1,0,0:0:0:0:
216,184,145914,1,2,0:0:0:0:
216,184,146485,1,0,0:0:0:0:
216,184,146628,1,2,0:0:0:0:
216,184,146914,1,0,0:0:0:0:
216,184,147057,1,2,0:0:0:0:
216,184,147485,1,0,0:0:0:0:
216,184,147771,1,2,0:0:0:0:
216,184,147914,1,0,0:0:0:0:
216,184,148200,1,2,0:0:0:0:
216,184,148628,1,2,0:0:0:0:
216,184,148700,1,2,0:0:0:0:
216,184,148771,1,0,0:0:0:0:
216,184,148914,1,2,0:0:0:0:
216,184,149200,1,0,0:0:0:0:
216,184,149342,1,2,0:0:0:0:
216,184,149485,1,0,0:0:0:0:
148,164,149771,1,2,0:0:0:0:
216,184,149914,1,0,0:0:0:0:
216,184,150057,1,2,0:0:0:0:
216,188,150342,1,0,0:0:0:0:
216,188,150485,1,2,0:0:0:0:
216,188,151057,1,0,0:0:0:0:
220,208,151342,1,2,0:0:0:0:
220,208,151628,1,0,0:0:0:0:
220,208,151771,1,0,0:0:0:0:
220,208,151914,1,2,0:0:0:0:
220,208,152057,1,0,0:0:0:0:
220,208,152200,1,2,0:0:0:0:
220,208,152485,1,0,0:0:0:0:
220,208,152628,1,2,0:0:0:0:
332,204,152914,1,0,0:0:0:0:
220,208,153057,1,2,0:0:0:0:
220,208,153342,1,0,0:0:0:0:
220,208,153485,1,0,0:0:0:0:
220,208,153628,1,2,0:0:0:0:
220,208,153771,1,0,0:0:0:0:
220,208,153914,1,2,0:0:0:0:
220,208,154057,1,0,0:0:0:0:
220,208,154200,1,2,0:0:0:0:
220,208,154342,1,2,0:0:0:0:
220,208,154485,1,2,0:0:0:0:
220,208,154771,1,0,0:0:0:0:
220,208,154914,1,0,0:0:0:0:
352,212,155200,1,0,0:0:0:0:
220,208,155342,1,2,0:0:0:0:
220,208,155628,1,2,0:0:0:0:
220,208,155914,1,0,0:0:0:0:
220,208,156200,1,0,0:0:0:0:
128,108,156342,1,0,0:0:0:0:
220,208,156485,1,0,0:0:0:0:
220,208,156628,1,0,0:0:0:0:
60,152,156771,1,2,0:0:0:0:
220,208,157057,1,0,0:0:0:0:
220,208,157200,1,2,0:0:0:0:
156,136,157485,1,2,0:0:0:0:
156,136,157628,1,0,0:0:0:0:
220,220,159771,5,0,0:0:0:0:
220,220,159842,1,0,0:0:0:0:
324,164,159914,1,2,0:0:0:0:
180,192,160200,1,4,0:0:0:0:
336,188,160485,1,6,0:0:0:0:
328,228,160771,1,0,0:0:0:0:
328,228,160914,1,0,0:0:0:0:
208,112,160985,1,0,0:0:0:0:
328,228,161057,1,2,0:0:0:0:
224,152,161200,1,0,0:0:0:0:
472,296,161342,1,2,0:0:0:0:
472,296,161485,1,0,0:0:0:0:
216,72,161557,1,2,0:0:0:0:
472,296,161628,1,0,0:0:0:0:
472,296,161771,1,2,0:0:0:0:
472,296,162057,1,0,0:0:0:0:
472,296,162200,1,2,0:0:0:0:
220,176,162342,1,2,0:0:0:0:
220,176,162414,1,2,0:0:0:0:
472,296,162485,1,0,0:0:0:0:
472,296,162628,1,0,0:0:0:0:
472,296,162771,1,2,0:0:0:0:
224,152,162914,1,0,0:0:0:0:
212,172,162985,1,0,0:0:0:0:
204,168,163057,1,2,0:0:0:0:
204,168,163200,1,0,0:0:0:0:
204,168,163342,1,2,0:0:0:0:
224,152,163485,1,2,0:0:0:0:
212,172,163557,1,2,0:0:0:0:
204,168,163628,1,0,0:0:0:0:
204,168,163771,1,0,0:0:0:0:
212,172,163842,1,2,0:0:0:0:
204,168,163914,1,0,0:0:0:0:
204,168,164057,1,2,0:0:0:0:
204,168,164128,1,2,0:0:0:0:
204,168,164200,1,0,0:0:0:0:
212,172,164271,1,2,0:0:0:0:
204,168,164342,1,0,0:0:0:0:
196,172,164414,1,0,0:0:0:0:
204,168,164485,1,2,0:0:0:0:
204,168,164628,1,2,0:0:0:0:
184,152,164771,1,4,0:0:0:0:
184,152,165057,1,6,0:0:0:0:
184,152,165342,1,0,0:0:0:0:
184,152,165485,1,0,0:0:0:0:
188,152,165557,1,0,0:0:0:0:
184,152,165628,1,2,0:0:0:0:
184,152,165771,1,0,0:0:0:0:
184,152,165914,1,2,0:0:0:0:
184,152,166057,1,0,0:0:0:0:
184,152,166128,1,2,0:0:0:0:
184,152,166200,1,0,0:0:0:0:
184,152,166342,1,2,0:0:0:0:
184,152,166628,1,0,0:0:0:0:
184,152,166771,1,2,0:0:0:0:
244,164,166914,1,2,0:0:0:0:
244,164,166985,1,2,0:0:0:0:
184,152,167057,1,0,0:0:0:0:
184,152,167200,1,0,0:0:0:0:
204,272,167271,1,0,0:0:0:0:
184,152,167342,1,2,0:0:0:0:
288,248,167485,1,2,0:0:0:0:
244,164,167557,1,0,0:0:0:0:
184,152,167628,1,2,0:0:0:0:
292,244,167700,1,2,0:0:0:0:
184,152,167771,1,0,0:0:0:0:
292,244,167842,1,0,0:0:0:0:
184,152,167914,1,2,0:0:0:0:
224,152,168057,1,0,0:0:0:0:
220,124,168128,1,0,0:0:0:0:
176,204,168200,1,2,0:0:0:0:
176,204,168342,1,0,0:0:0:0:
176,204,168414,1,2,0:0:0:0:
176,204,168485,1,0,0:0:0:0:
176,204,168628,1,2,0:0:0:0:
224,96,168700,1,2,0:0:0:0:
176,204,168771,1,0,0:0:0:0:
176,204,168842,1,2,0:0:0:0:
176,204,168914,1,0,0:0:0:0:
176,204,168985,1,0,0:0:0:0:
176,204,169057,1,2,0:0:0:0:
176,204,169128,1,2,0:0:0:0:
176,204,169200,1,0,0:0:0:0:
176,204,169271,1,2,0:0:0:0:
176,204,169342,1,0,0:0:0:0:
176,204,169485,1,0,0:0:0:0:
272,168,169557,1,0,0:0:0:0:
176,204,169628,1,2,0:0:0:0:
236,112,169771,1,0,0:0:0:0:
208,120,169842,1,0,0:0:0:0:
176,204,169914,1,2,0:0:0:0:
208,88,169985,1,2,0:0:0:0:
176,204,170057,1,0,0:0:0:0:
236,124,170128,1,2,0:0:0:0:
176,204,170200,1,0,0:0:0:0:
212,200,170271,1,2,0:0:0:0:
224,152,170342,1,0,0:0:0:0:
280,152,170414,1,0,0:0:0:0:
200,208,170485,1,2,0:0:0:0:
200,208,170628,1,0,0:0:0:0:
240,124,170700,1,2,0:0:0:0:
200,208,170771,1,0,0:0:0:0:
200,208,170914,1,2,0:0:0:0:
352,128,170985,1,2,0:0:0:0:
200,208,171057,1,0,0:0:0:0:
108,144,171128,1,2,0:0:0:0:
200,208,171200,1,0,0:0:0:0:
276,200,171271,1,0,0:0:0:0:
200,208,171342,1,2,0:0:0:0:
152,112,171414,1,2,0:0:0:0:
240,124,171485,1,0,0:0:0:0:
168,144,171557,1,2,0:0:0:0:
168,144,171628,1,0,0:0:0:0:
200,208,171771,1,0,0:0:0:0:
280,196,171842,1,0,0:0:0:0:
200,208,171914,1,2,0:0:0:0:
224,156,172057,1,0,0:0:0:0:
348,168,172128,1,0,0:0:0:0:
200,208,172200,1,2,0:0:0:0:
264,108,172271,1,2,0:0:0:0:
200,208,172342,1,0,0:0:0:0:
204,120,172414,1,0,0:0:0:0:
200,208,172485,1,2,0:0:0:0:
268,156,172628,1,2,0:0:0:0:
268,156,172700,1,2,0:0:0:0:
200,208,172771,1,0,0:0:0:0:
200,208,172914,1,0,0:0:0:0:
68,164,172985,1,0,0:0:0:0:
200,208,173057,1,2,0:0:0:0:
256,236,173128,1,2,0:0:0:0:
200,208,173200,1,0,0:0:0:0:
260,176,173271,1,2,0:0:0:0:
200,208,173342,1,0,0:0:0:0:
184,84,173414,1,0,0:0:0:0:
200,208,173485,1,2,0:0:0:0:
200,208,173557,1,0,0:0:0:0:
184,84,173628,1,2,0:0:0:0:
184,84,173700,1,2,0:0:0:0:
184,84,173771,1,0,0:0:0:0:
180,96,173842,1,0,0:0:0:0:
200,208,173914,1,2,0:0:0:0:
180,96,174057,1,0,0:0:0:0:
180,96,174128,1,0,0:0:0:0:
200,208,174200,1,2,0:0:0:0:
180,96,174342,1,0,0:0:0:0:
196,92,174414,1,0,0:0:0:0:
180,96,174485,1,2,0:0:0:0:
88,144,174557,1,2,0:0:0:0:
200,208,174628,1,0,0:0:0:0:
152,136,174700,1,2,0:0:0:0:
200,208,174771,1,0,0:0:0:0:
200,208,174914,1,0,0:0:0:0:
180,108,174985,1,0,0:0:0:0:
200,208,175057,1,2,0:0:0:0:
168,168,175200,1,0,0:0:0:0:
216,132,175271,1,2,0:0:0:0:
200,208,175342,1,0,0:0:0:0:
248,84,175414,1,0,0:0:0:0:
200,208,175485,1,2,0:0:0:0:
264,104,175557,1,2,0:0:0:0:
136,144,175628,1,0,0:0:0:0:
264,104,175700,1,2,0:0:0:0:
200,208,175771,1,0,0:0:0:0:
308,144,175842,1,0,0:0:0:0:
200,208,175914,1,2,0:0:0:0:
180,96,176057,1,2,0:0:0:0:
232,112,176128,1,2,0:0:0:0:
168,168,176200,1,0,0:0:0:0:
196,104,176271,1,0,0:0:0:0:
240,224,176342,1,2,0:0:0:0:
240,224,176414,1,0,0:0:0:0:
168,168,176485,1,2,0:0:0:0:
240,224,176557,1,2,0:0:0:0:
136,144,176628,1,0,0:0:0:0:
204,88,176700,1,2,0:0:0:0:
208,200,176771,1,0,0:0:0:0:
88,128,176842,1,2,0:0:0:0:
208,200,176914,1,0,0:0:0:0:
208,200,177057,1,2,0:0:0:0:
208,200,177200,1,2,0:0:0:0:
156,88,177271,1,2,0:0:0:0:
208,200,177342,1,0,0:0:0:0:
204,92,177414,1,2,0:0:0:0:
208,200,177485,1,0,0:0:0:0:
208,200,177557,1,0,0:0:0:0:
208,200,177628,1,2,0:0:0:0:
204,88,177700,1,2,0:0:0:0:
208,200,177771,1,0,0:0:0:0:
176,132,177842,1,2,0:0:0:0:
172,188,177914,1,0,0:0:0:0:
20,124,177985,1,2,0:0:0:0:
172,188,178057,1,0,0:0:0:0:
288,176,178128,1,0,0:0:0:0:
172,188,178200,1,2,0:0:0:0:
152,184,178271,1,2,0:0:0:0:
164,184,178342,1,2,0:0:0:0:
152,184,178414,1,2,0:0:0:0:
176,188,178485,1,0,0:0:0:0:
224,108,178628,1,0,0:0:0:0:
224,108,178771,1,2,0:0:0:0:
236,164,178914,1,0,0:0:0:0:
236,164,178985,1,2,0:0:0:0:
224,108,179057,1,0,0:0:0:0:
240,168,179200,1,0,0:0:0:0:
196,160,179342,1,2,0:0:0:0:
196,160,179485,1,2,0:0:0:0:
240,168,179557,1,2,0:0:0:0:
196,160,179628,1,0,0:0:0:0:
196,160,179771,1,0,0:0:0:0:
196,160,179914,1,2,0:0:0:0:
240,168,180057,1,0,0:0:0:0:
240,168,180128,1,0,0:0:0:0:
196,160,180200,1,0,0:0:0:0:
240,168,180342,1,0,0:0:0:0:
196,160,180485,1,2,0:0:0:0:
240,168,180557,1,2,0:0:0:0:
196,160,180628,1,0,0:0:0:0:
196,160,180771,1,2,0:0:0:0:
196,160,180914,1,0,0:0:0:0:
240,168,180985,1,0,0:0:0:0:
196,160,181057,1,2,0:0:0:0:
240,168,181200,1,0,0:0:0:0:
196,160,181342,1,2,0:0:0:0:
240,168,181414,1,0,0:0:0:0:
196,160,181485,1,0,0:0:0:0:
196,160,181628,1,2,0:0:0:0:
240,168,181771,1,2,0:0:0:0:
240,168,181842,1,2,0:0:0:0:
200,164,181914,1,0,0:0:0:0:
200,164,182057,1,0,0:0:0:0:
200,164,182200,1,2,0:0:0:0:
200,164,182342,1,2,0:0:0:0:
240,168,182414,1,2,0:0:0:0:
200,164,182485,1,0,0:0:0:0:
200,164,182628,1,2,0:0:0:0:
272,140,182700,1,2,0:0:0:0:
148,156,182771,1,2,0:0:0:0:
144,160,182842,1,2,0:0:0:0:
144,160,182914,1,2,0:0:0:0:
148,156,182985,1,2,0:0:0:0:
200,164,183057,1,0,0:0:0:0:
148,128,183200,1,0,0:0:0:0:
200,164,183342,1,2,0:0:0:0:
240,168,183485,1,0,0:0:0:0:
240,168,183557,1,0,0:0:0:0:
200,164,183628,1,0,0:0:0:0:
200,164,183771,1,0,0:0:0:0:
200,164,183914,1,2,0:0:0:0:
240,168,184057,1,2,0:0:0:0:
240,168,184128,1,2,0:0:0:0:
72,176,184200,1,0,0:0:0:0:
72,176,184342,1,0,0:0:0:0:
72,176,184485,1,2,0:0:0:0:
72,176,184628,1,0,0:0:0:0:
160,152,184700,1,2,0:0:0:0:
72,176,184771,1,0,0:0:0:0:
72,176,184914,1,0,0:0:0:0:
72,176,185057,1,2,0:0:0:0:
356,108,185128,1,2,0:0:0:0:
196,108,185200,1,0,0:0:0:0:
80,176,185342,1,2,0:0:0:0:
80,180,185485,1,0,0:0:0:0:
80,184,185628,1,2,0:0:0:0:
80,184,185771,1,0,0:0:0:0:
164,152,185842,1,0,0:0:0:0:
80,184,185914,1,2,0:0:0:0:
164,152,185985,1,2,0:0:0:0:
80,184,186057,1,0,0:0:0:0:
80,184,186200,1,2,0:0:0:0:
80,184,186342,1,2,0:0:0:0:
164,152,186414,1,2,0:0:0:0:
80,180,186485,1,0,0:0:0:0:
136,184,186628,1,2,0:0:0:0:
172,172,186700,1,0,0:0:0:0:
136,184,186771,1,0,0:0:0:0:
136,184,186914,1,2,0:0:0:0:
136,184,187057,1,0,0:0:0:0:
136,184,187342,1,6,0:0:0:0:
136,184,187628,1,4,0:0:0:0:
200,120,187771,1,0,0:0:0:0:
136,184,187914,1,2,0:0:0:0:
164,152,188057,1,2,0:0:0:0:
164,152,188128,1,2,0:0:0:0:
136,184,188200,1,0,0:0:0:0:
136,184,188342,1,0,0:0:0:0:
136,184,188485,1,2,0:0:0:0:
224,108,188628,1,0,0:0:0:0:
224,108,188700,1,2,0:0:0:0:
136,184,188771,1,0,0:0:0:0:
136,184,188914,1,0,0:0:0:0:
136,184,189057,1,2,0:0:0:0:
136,184,189200,1,2,0:0:0:0:
164,152,189271,1,2,0:0:0:0:
164,152,189342,1,0,0:0:0:0:
136,184,189485,1,0,0:0:0:0:
136,184,189628,1,2,0:0:0:0:
136,184,189914,1,0,0:0:0:0:
136,184,190057,1,0,0:0:0:0:
136,184,190200,1,2,0:0:0:0:
164,152,190342,1,0,0:0:0:0:
164,152,190414,1,0,0:0:0:0:
136,184,190485,1,2,0:0:0:0:
164,152,190557,1,0,0:0:0:0:
136,184,190628,1,0,0:0:0:0:
136,184,190771,1,2,0:0:0:0:
164,152,190914,1,2,0:0:0:0:
164,152,190985,1,2,0:0:0:0:
184,160,191057,1,0,0:0:0:0:
184,160,191200,1,0,0:0:0:0:
184,160,191342,1,2,0:0:0:0:
184,160,191485,1,2,0:0:0:0:
164,152,191557,1,2,0:0:0:0:
184,160,191628,1,0,0:0:0:0:
164,152,191700,1,2,0:0:0:0:
184,160,191771,1,0,0:0:0:0:
184,160,191842,1,0,0:0:0:0:
184,160,191914,1,2,0:0:0:0:
184,160,192057,1,2,0:0:0:0:
184,160,192200,1,0,0:0:0:0:
288,144,192342,1,0,0:0:0:0:
184,160,192485,1,2,0:0:0:0:
164,152,192628,1,2,0:0:0:0:
164,152,192700,1,2,0:0:0:0:
184,160,192771,1,0,0:0:0:0:
184,160,192914,1,0,0:0:0:0:
184,160,193057,1,2,0:0:0:0:
160,156,193200,1,0,0:0:0:0:
160,156,193271,1,2,0:0:0:0:
184,160,193342,1,0,0:0:0:0:
184,160,193485,1,0,0:0:0:0:
184,160,193628,1,2,0:0:0:0:
184,160,193771,1,2,0:0:0:0:
160,152,193842,1,2,0:0:0:0:
160,152,193914,1,0,0:0:0:0:
184,160,194057,1,0,0:0:0:0:
184,160,194200,1,2,0:0:0:0:
184,160,194485,1,0,0:0:0:0:
184,160,194628,1,0,0:0:0:0:
244,144,194700,1,0,0:0:0:0:
184,160,194771,1,2,0:0:0:0:
184,160,194914,1,0,0:0:0:0:
184,160,195057,1,2,0:0:0:0:
244,144,195128,1,0,0:0:0:0:
184,160,195200,1,0,0:0:0:0:
184,160,195342,1,2,0:0:0:0:
184,160,195485,1,2,0:0:0:0:
64,152,195557,1,2,0:0:0:0:
184,160,195628,1,0,0:0:0:0:
184,160,195771,1,0,0:0:0:0:
184,160,195842,1,2,0:0:0:0:
184,160,195914,1,0,0:0:0:0:
184,160,196057,1,2,0:0:0:0:
184,160,196200,1,0,0:0:0:0:
256,204,196771,5,2,0:0:0:0:
240,164,197200,1,2,0:0:0:0:
256,196,199057,1,2,0:0:0:0:
256,196,199485,1,2,0:0:0:0:
256,196,201342,1,2,0:0:0:0:
256,196,201771,1,2,0:0:0:0:
148,188,203057,1,2,0:0:0:0:
256,192,203628,12,0,205342,0:0:0:0:
