osu file format v14

[General]
AudioFilename: audio.mp3
AudioLeadIn: 0
PreviewTime: 48057
Countdown: 0
SampleSet: Normal
StackLeniency: 0.7
Mode: 1
LetterboxInBreaks: 0
WidescreenStoryboard: 1

[Editor]
Bookmarks: 2440,18440,27583,36726,45869,48155,57297,66440,75583,84726,93869,103012,105297,114440,123583,132726,141869,151012,160155,169297,173869,178440,187583,196726
DistanceSpacing: 1.7
BeatDivisor: 2
GridSize: 4
TimelineZoom: 1.3

[Metadata]
Title:Ghost Rule
TitleUnicode:Ghost Rule
Artist:Araki
ArtistUnicode:Araki
Creator:404 AccNotFound
Version:Futsuu
Source:
Tags:utaite cover deco 27 deco*27 vocaloid hatsune miku
BeatmapID:1279775
BeatmapSetID:584669

[Difficulty]
HPDrainRate:7
CircleSize:2
OverallDifficulty:4
ApproachRate:5
SliderMultiplier:1.4
SliderTickRate:1

[Events]
//Background and Video events
0,0,"KakaoTalk_20170428_224455835.png",0,50
//Break Periods
2,45542,47000
2,123257,131571
//Storyboard Layer 0 (Background)
//Storyboard Layer 1 (Fail)
//Storyboard Layer 2 (Pass)
//Storyboard Layer 3 (Foreground)
//Storyboard Sound Samples

[TimingPoints]
200,285.714285714286,4,1,0,70,1,0
4771,-100,4,1,0,80,0,0
8200,-100,4,1,0,90,0,0
9342,-100,4,1,0,100,0,0
18485,-100,4,1,0,90,0,0
27628,-100,4,1,0,95,0,0
36771,-100,4,1,0,85,0,0
48200,-100,4,1,0,100,0,1
66200,-100,4,1,0,100,0,0
66485,-100,4,1,0,100,0,0
75628,-100,4,1,0,70,0,0
84771,-100,4,1,0,90,0,0
93914,-100,4,1,0,85,0,0
105342,-100,4,1,0,100,0,1
123057,-100,4,1,0,100,0,0
123628,-100,4,1,0,100,0,0
132771,-100,4,1,0,70,0,0
141914,-100,4,1,0,85,0,0
151057,-100,4,1,0,60,0,0
157914,-100,4,1,0,40,0,0
159628,-100,4,1,0,90,0,0
160200,-100,4,1,0,100,0,1
178485,-100,4,1,0,100,0,0
196771,-100,4,1,0,70,0,0

[HitObjects]
208,188,200,5,0,0:0:0:0:
348,232,771,1,2,0:0:0:0:
348,232,1200,1,0,0:0:0:0:
348,232,1628,1,0,0:0:0:0:
348,232,1914,1,2,0:0:0:0:
208,188,2485,1,0,0:0:0:0:
348,232,3057,1,2,0:0:0:0:
348,232,3485,1,0,0:0:0:0:
280,132,3914,1,0,0:0:0:0:
204,96,4200,1,0,0:0:0:0:
208,188,4771,1,0,0:0:0:0:
348,232,5342,1,2,0:0:0:0:
348,232,5771,1,0,0:0:0:0:
348,232,6200,1,0,0:0:0:0:
348,232,6485,1,2,0:0:0:0:
252,196,7057,1,0,0:0:0:0:
252,196,7628,1,2,0:0:0:0:
188,108,8057,1,0,0:0:0:0:
284,224,8771,1,2,0:0:0:0:
188,108,9342,1,4,0:0:0:0:
304,252,9914,1,2,0:0:0:0:
216,236,10057,1,2,0:0:0:0:
200,160,10200,1,2,0:0:0:0:
236,236,10771,1,0,0:0:0:0:
200,160,11057,1,2,0:0:0:0:
200,160,11628,1,0,0:0:0:0:
188,112,12200,1,0,0:0:0:0:
224,104,12342,1,0,0:0:0:0:
224,104,12485,1,0,0:0:0:0:
56,128,12914,1,0,0:0:0:0:
200,160,13057,1,0,0:0:0:0:
200,160,13342,1,2,0:0:0:0:
200,160,13914,1,0,0:0:0:0:
280,136,14485,1,2,0:0:0:0:
284,140,14628,1,2,0:0:0:0:
200,160,14771,1,2,0:0:0:0:
200,160,15342,1,0,0:0:0:0:
200,160,15628,1,2,0:0:0:0:
200,160,16200,1,0,0:0:0:0:
200,160,16771,1,0,0:0:0:0:
80,128,16914,1,0,0:0:0:0:
200,160,17057,1,0,0:0:0:0:
200,160,17485,1,2,0:0:0:0:
88,112,17628,1,2,0:0:0:0:
200,160,17914,1,2,0:0:0:0:
312,188,18485,1,0,0:0:0:0:
232,128,18914,1,0,0:0:0:0:
88,160,19342,1,0,0:0:0:0:
224,152,19914,1,0,0:0:0:0:
216,84,20200,1,0,0:0:0:0:
312,188,20771,1,2,0:0:0:0:
232,128,21200,1,2,0:0:0:0:
88,160,21628,1,2,0:0:0:0:
312,188,23057,1,0,0:0:0:0:
232,128,23485,1,0,0:0:0:0:
88,160,23914,1,0,0:0:0:0:
168,132,24485,1,2,0:0:0:0:
200,128,24771,1,2,0:0:0:0:
312,188,25342,1,2,0:0:0:0:
232,128,25771,1,2,0:0:0:0:
88,160,26200,1,2,0:0:0:0:
148,112,26485,1,0,0:0:0:0:
164,188,26771,2,0,L|228:136,4,70
264,236,27628,1,0,0:0:0:0:
268,236,27914,1,0,0:0:0:0:
268,236,28200,1,2,0:0:0:0:
268,236,28628,1,0,0:0:0:0:
268,236,28914,1,0,0:0:0:0:
268,236,29057,1,0,0:0:0:0:
152,156,29342,1,2,0:0:0:0:
268,236,29914,1,0,0:0:0:0:
268,236,30200,1,2,0:0:0:0:
268,236,30485,1,0,0:0:0:0:
268,236,30914,1,2,0:0:0:0:
268,236,31200,1,0,0:0:0:0:
268,236,31342,1,0,0:0:0:0:
268,236,31628,1,2,0:0:0:0:
268,236,32200,1,0,0:0:0:0:
268,236,32485,1,0,0:0:0:0:
268,236,32771,1,2,0:0:0:0:
268,236,33200,1,0,0:0:0:0:
268,236,33485,1,0,0:0:0:0:
268,236,33628,1,0,0:0:0:0:
268,236,33914,1,2,0:0:0:0:
268,236,34485,1,0,0:0:0:0:
120,172,34771,1,2,0:0:0:0:
268,236,35057,1,0,0:0:0:0:
248,116,35628,1,2,0:0:0:0:
268,236,35914,1,2,0:0:0:0:
144,232,36057,1,2,0:0:0:0:
184,80,36200,1,2,0:0:0:0:
180,128,36771,1,4,0:0:0:0:
192,168,37200,1,0,0:0:0:0:
148,136,37628,1,2,0:0:0:0:
184,176,38200,1,0,0:0:0:0:
184,176,38485,1,2,0:0:0:0:
184,176,39057,1,0,0:0:0:0:
152,136,39485,1,2,0:0:0:0:
152,136,39914,1,0,0:0:0:0:
184,180,40485,1,2,0:0:0:0:
184,180,40771,1,2,0:0:0:0:
184,180,41342,1,0,0:0:0:0:
152,136,41771,1,0,0:0:0:0:
152,136,42200,1,2,0:0:0:0:
184,180,42771,1,0,0:0:0:0:
192,152,43057,1,2,0:0:0:0:
184,180,43628,1,0,0:0:0:0:
152,136,44057,1,0,0:0:0:0:
152,136,44485,1,2,0:0:0:0:
152,136,44914,1,2,0:0:0:0:
152,136,45342,1,2,0:0:0:0:
224,236,48200,5,4,0:0:0:0:
232,168,48485,1,0,0:0:0:0:
224,236,48771,1,2,0:0:0:0:
224,236,49057,1,0,0:0:0:0:
168,108,49342,1,2,0:0:0:0:
224,236,49628,1,2,0:0:0:0:
168,108,49771,1,2,0:0:0:0:
172,68,50485,1,0,0:0:0:0:
172,68,50771,1,2,0:0:0:0:
172,68,51057,1,0,0:0:0:0:
172,68,51200,1,0,0:0:0:0:
172,68,51342,1,0,0:0:0:0:
172,68,51628,1,2,0:0:0:0:
172,68,51914,1,0,0:0:0:0:
172,68,52057,1,0,0:0:0:0:
168,88,52771,1,0,0:0:0:0:
240,180,53057,1,0,0:0:0:0:
168,88,53342,1,2,0:0:0:0:
168,88,53628,1,0,0:0:0:0:
168,88,53914,1,2,0:0:0:0:
168,88,54200,1,2,0:0:0:0:
168,88,54342,1,2,0:0:0:0:
168,88,55057,1,0,0:0:0:0:
168,88,55342,1,2,0:0:0:0:
168,88,55628,1,0,0:0:0:0:
168,88,55771,1,0,0:0:0:0:
168,88,55914,1,0,0:0:0:0:
168,88,56200,1,2,0:0:0:0:
168,88,56485,1,0,0:0:0:0:
168,88,56628,1,0,0:0:0:0:
176,104,57342,1,4,0:0:0:0:
264,184,57628,1,2,0:0:0:0:
256,188,57914,1,0,0:0:0:0:
256,188,58057,1,0,0:0:0:0:
256,188,58200,1,2,0:0:0:0:
264,188,58485,1,0,0:0:0:0:
264,188,58771,1,2,0:0:0:0:
224,156,59057,1,0,0:0:0:0:
264,188,59200,1,0,0:0:0:0:
264,188,59628,1,2,0:0:0:0:
264,188,59914,1,0,0:0:0:0:
264,188,60200,1,2,0:0:0:0:
264,188,60342,1,2,0:0:0:0:
264,188,60485,1,2,0:0:0:0:
264,188,60771,1,0,0:0:0:0:
264,188,61057,1,2,0:0:0:0:
264,188,61200,1,2,0:0:0:0:
176,104,61914,1,0,0:0:0:0:
256,188,62200,1,2,0:0:0:0:
256,188,62485,1,0,0:0:0:0:
256,188,62628,1,0,0:0:0:0:
256,188,62771,1,2,0:0:0:0:
264,188,63057,1,0,0:0:0:0:
264,188,63342,1,2,0:0:0:0:
224,156,63628,1,0,0:0:0:0:
264,188,63771,1,0,0:0:0:0:
264,188,64200,1,2,0:0:0:0:
264,188,64485,1,0,0:0:0:0:
264,188,64771,1,2,0:0:0:0:
264,188,64914,1,2,0:0:0:0:
264,188,65057,1,2,0:0:0:0:
264,188,65342,1,0,0:0:0:0:
264,188,65628,1,0,0:0:0:0:
264,188,65771,1,0,0:0:0:0:
280,152,65914,1,0,0:0:0:0:
188,108,66485,1,4,0:0:0:0:
304,252,67057,1,2,0:0:0:0:
216,236,67200,1,2,0:0:0:0:
200,160,67342,1,2,0:0:0:0:
236,236,67914,1,0,0:0:0:0:
200,160,68200,1,2,0:0:0:0:
200,160,68771,1,0,0:0:0:0:
188,112,69342,1,0,0:0:0:0:
224,104,69485,1,0,0:0:0:0:
224,104,69628,1,0,0:0:0:0:
200,160,70200,1,2,0:0:0:0:
200,160,70485,1,2,0:0:0:0:
200,160,71057,1,0,0:0:0:0:
280,136,71628,1,2,0:0:0:0:
284,140,71771,1,2,0:0:0:0:
200,160,71914,1,2,0:0:0:0:
200,160,72485,1,0,0:0:0:0:
200,160,72771,1,2,0:0:0:0:
200,160,73342,1,0,0:0:0:0:
200,160,73914,1,0,0:0:0:0:
80,128,74057,1,0,0:0:0:0:
200,160,74200,1,0,0:0:0:0:
88,112,74771,1,2,0:0:0:0:
200,160,75057,1,2,0:0:0:0:
196,228,75628,1,0,0:0:0:0:
196,228,76057,1,0,0:0:0:0:
196,228,77914,1,2,0:0:0:0:
196,228,78342,1,2,0:0:0:0:
196,228,80200,1,0,0:0:0:0:
196,228,80628,1,0,0:0:0:0:
200,228,82485,1,2,0:0:0:0:
200,228,82914,1,2,0:0:0:0:
196,256,84771,1,0,0:0:0:0:
196,256,85057,1,0,0:0:0:0:
196,256,85342,1,2,0:0:0:0:
196,256,85628,1,2,0:0:0:0:
196,256,85771,1,2,0:0:0:0:
196,256,86057,1,0,0:0:0:0:
196,256,86200,1,0,0:0:0:0:
196,256,86485,1,2,0:0:0:0:
196,256,87057,1,0,0:0:0:0:
196,256,87342,1,0,0:0:0:0:
196,256,87628,1,2,0:0:0:0:
196,256,87914,1,2,0:0:0:0:
196,256,88057,1,0,0:0:0:0:
196,256,88342,1,0,0:0:0:0:
196,256,88485,1,2,0:0:0:0:
196,256,88771,1,0,0:0:0:0:
196,256,89342,1,0,0:0:0:0:
196,256,89628,1,0,0:0:0:0:
196,256,89914,1,2,0:0:0:0:
196,256,90200,1,2,0:0:0:0:
196,256,90342,1,2,0:0:0:0:
196,256,90628,1,0,0:0:0:0:
196,256,90771,1,0,0:0:0:0:
196,256,91057,1,2,0:0:0:0:
196,256,91628,1,0,0:0:0:0:
196,256,91914,1,0,0:0:0:0:
196,256,92200,1,2,0:0:0:0:
196,256,92485,1,2,0:0:0:0:
196,256,92628,1,0,0:0:0:0:
196,256,92914,1,0,0:0:0:0:
196,256,93057,1,2,0:0:0:0:
196,256,93342,1,0,0:0:0:0:
180,128,93914,1,4,0:0:0:0:
192,168,94342,1,0,0:0:0:0:
148,136,94771,1,2,0:0:0:0:
184,176,95342,1,0,0:0:0:0:
184,176,95628,1,2,0:0:0:0:
184,176,96200,1,0,0:0:0:0:
152,136,96628,1,2,0:0:0:0:
152,136,97057,1,0,0:0:0:0:
196,160,97628,1,2,0:0:0:0:
196,160,97914,1,2,0:0:0:0:
184,180,98485,1,0,0:0:0:0:
152,136,98914,1,0,0:0:0:0:
152,136,99342,1,2,0:0:0:0:
184,180,99914,1,0,0:0:0:0:
192,152,100200,1,2,0:0:0:0:
184,180,100771,1,0,0:0:0:0:
152,136,101200,1,0,0:0:0:0:
152,136,101628,1,2,0:0:0:0:
152,136,102057,1,2,0:0:0:0:
152,136,102485,1,2,0:0:0:0:
224,236,105342,1,4,0:0:0:0:
232,168,105628,1,0,0:0:0:0:
224,236,105914,1,2,0:0:0:0:
224,236,106200,1,0,0:0:0:0:
168,108,106485,1,2,0:0:0:0:
224,236,106771,1,2,0:0:0:0:
168,108,106914,1,2,0:0:0:0:
172,68,107628,1,0,0:0:0:0:
172,68,107914,1,2,0:0:0:0:
172,68,108200,1,0,0:0:0:0:
172,68,108342,1,0,0:0:0:0:
172,68,108485,1,0,0:0:0:0:
172,68,108771,1,2,0:0:0:0:
172,68,109057,1,0,0:0:0:0:
172,68,109200,1,0,0:0:0:0:
168,88,109914,1,0,0:0:0:0:
240,180,110200,1,0,0:0:0:0:
168,88,110485,1,2,0:0:0:0:
168,88,110771,1,0,0:0:0:0:
168,88,111057,1,2,0:0:0:0:
168,88,111342,1,2,0:0:0:0:
168,88,111485,1,2,0:0:0:0:
168,88,112200,1,0,0:0:0:0:
168,88,112485,1,2,0:0:0:0:
168,88,112771,1,0,0:0:0:0:
168,88,112914,1,0,0:0:0:0:
168,88,113057,1,0,0:0:0:0:
168,88,113342,1,2,0:0:0:0:
168,88,113628,1,0,0:0:0:0:
168,88,113771,1,0,0:0:0:0:
176,104,114485,1,4,0:0:0:0:
276,164,114771,1,2,0:0:0:0:
256,188,115057,1,0,0:0:0:0:
256,188,115200,1,0,0:0:0:0:
256,188,115342,1,2,0:0:0:0:
264,188,115628,1,0,0:0:0:0:
264,188,115914,1,2,0:0:0:0:
224,156,116200,1,0,0:0:0:0:
264,188,116342,1,0,0:0:0:0:
264,188,116771,1,2,0:0:0:0:
264,188,117057,1,0,0:0:0:0:
264,188,117342,1,2,0:0:0:0:
264,188,117485,1,2,0:0:0:0:
264,188,117628,1,2,0:0:0:0:
264,188,117914,1,0,0:0:0:0:
264,188,118200,1,2,0:0:0:0:
264,188,118342,1,2,0:0:0:0:
176,104,119057,1,0,0:0:0:0:
256,188,119342,1,2,0:0:0:0:
256,188,119628,1,0,0:0:0:0:
256,188,119771,1,0,0:0:0:0:
256,188,119914,1,2,0:0:0:0:
264,188,120200,1,0,0:0:0:0:
264,188,120485,1,2,0:0:0:0:
224,156,120771,1,0,0:0:0:0:
264,188,120914,1,0,0:0:0:0:
264,188,121342,1,2,0:0:0:0:
264,188,121628,1,0,0:0:0:0:
264,188,121914,1,2,0:0:0:0:
264,188,122057,1,2,0:0:0:0:
264,188,122200,1,2,0:0:0:0:
264,188,122485,1,0,0:0:0:0:
264,188,122771,1,0,0:0:0:0:
264,188,122914,1,0,0:0:0:0:
280,152,123057,1,0,0:0:0:0:
240,160,132771,5,0,0:0:0:0:
240,160,133342,1,0,0:0:0:0:
240,160,133914,1,2,0:0:0:0:
240,160,134485,1,0,0:0:0:0:
240,160,135057,1,2,0:0:0:0:
240,160,135628,1,0,0:0:0:0:
240,160,136200,1,2,0:0:0:0:
240,160,137342,1,0,0:0:0:0:
240,160,137914,1,0,0:0:0:0:
240,160,138485,1,2,0:0:0:0:
240,160,139057,1,0,0:0:0:0:
240,160,139628,1,2,0:0:0:0:
240,160,140200,1,2,0:0:0:0:
240,160,140771,1,0,0:0:0:0:
200,216,141914,1,4,0:0:0:0:
192,200,142485,1,2,0:0:0:0:
192,200,142914,1,0,0:0:0:0:
192,200,143342,1,0,0:0:0:0:
192,200,143628,1,2,0:0:0:0:
192,200,144200,1,0,0:0:0:0:
192,200,144771,1,2,0:0:0:0:
192,200,145342,1,0,0:0:0:0:
192,200,146485,1,0,0:0:0:0:
192,200,147057,1,2,0:0:0:0:
192,200,147485,1,0,0:0:0:0:
192,200,147914,1,0,0:0:0:0:
192,200,148200,1,2,0:0:0:0:
192,200,148771,1,0,0:0:0:0:
192,200,149342,1,2,0:0:0:0:
192,200,149914,1,0,0:0:0:0:
228,96,150200,1,0,0:0:0:0:
192,200,150485,1,0,0:0:0:0:
280,172,151057,1,0,0:0:0:0:
184,136,152200,1,2,0:0:0:0:
180,136,153342,1,2,0:0:0:0:
216,192,154485,1,0,0:0:0:0:
216,192,155057,1,0,0:0:0:0:
216,192,155628,1,0,0:0:0:0:
216,192,156771,1,2,0:0:0:0:
224,236,160200,1,4,0:0:0:0:
232,168,160485,1,0,0:0:0:0:
224,236,160771,1,2,0:0:0:0:
224,236,161057,1,0,0:0:0:0:
168,108,161342,1,2,0:0:0:0:
224,236,161628,1,2,0:0:0:0:
168,108,161771,1,2,0:0:0:0:
172,68,162485,1,0,0:0:0:0:
172,68,162771,1,2,0:0:0:0:
172,68,163057,1,0,0:0:0:0:
172,68,163200,1,0,0:0:0:0:
172,68,163342,1,0,0:0:0:0:
172,68,163628,1,2,0:0:0:0:
172,68,163914,1,0,0:0:0:0:
172,68,164057,1,0,0:0:0:0:
168,88,164771,1,0,0:0:0:0:
240,180,165057,1,0,0:0:0:0:
168,88,165342,1,2,0:0:0:0:
168,88,165628,1,0,0:0:0:0:
168,88,165914,1,2,0:0:0:0:
168,88,166200,1,2,0:0:0:0:
168,88,166342,1,2,0:0:0:0:
168,88,167057,1,0,0:0:0:0:
168,88,167342,1,2,0:0:0:0:
168,88,167628,1,0,0:0:0:0:
168,88,167771,1,0,0:0:0:0:
168,88,167914,1,0,0:0:0:0:
168,88,168200,1,2,0:0:0:0:
168,88,168485,1,0,0:0:0:0:
168,88,168628,1,0,0:0:0:0:
224,236,169342,1,4,0:0:0:0:
232,168,169628,1,0,0:0:0:0:
224,236,169914,1,2,0:0:0:0:
208,156,170057,1,0,0:0:0:0:
224,236,170200,1,0,0:0:0:0:
168,108,170485,1,2,0:0:0:0:
224,236,170771,1,2,0:0:0:0:
168,108,170914,1,2,0:0:0:0:
172,68,171628,1,0,0:0:0:0:
172,68,171914,1,2,0:0:0:0:
172,68,172200,1,0,0:0:0:0:
172,68,172342,1,0,0:0:0:0:
172,68,172485,1,0,0:0:0:0:
172,68,172771,1,2,0:0:0:0:
172,68,173057,1,0,0:0:0:0:
172,68,173200,1,0,0:0:0:0:
168,88,173914,1,0,0:0:0:0:
240,180,174200,1,0,0:0:0:0:
168,88,174485,1,2,0:0:0:0:
248,136,174628,1,0,0:0:0:0:
168,88,174771,1,0,0:0:0:0:
168,88,175057,1,2,0:0:0:0:
168,88,175342,1,2,0:0:0:0:
168,88,175485,1,2,0:0:0:0:
248,136,175914,1,2,0:0:0:0:
168,88,176200,1,0,0:0:0:0:
168,88,176485,1,2,0:0:0:0:
168,88,176771,1,0,0:0:0:0:
168,88,176914,1,0,0:0:0:0:
168,88,177057,1,0,0:0:0:0:
168,88,177342,1,2,0:0:0:0:
168,88,177628,1,0,0:0:0:0:
168,88,177771,1,0,0:0:0:0:
176,104,178485,1,4,0:0:0:0:
324,172,178771,1,2,0:0:0:0:
256,188,179057,1,0,0:0:0:0:
256,188,179200,1,0,0:0:0:0:
256,188,179342,1,2,0:0:0:0:
264,188,179628,1,0,0:0:0:0:
264,188,179914,1,2,0:0:0:0:
224,156,180200,1,0,0:0:0:0:
264,188,180342,1,0,0:0:0:0:
264,188,180771,1,2,0:0:0:0:
264,188,181057,1,0,0:0:0:0:
264,188,181342,1,2,0:0:0:0:
264,188,181485,1,2,0:0:0:0:
264,188,181628,1,2,0:0:0:0:
264,188,181914,1,0,0:0:0:0:
264,188,182200,1,2,0:0:0:0:
264,188,182342,1,2,0:0:0:0:
176,104,183057,1,0,0:0:0:0:
256,188,183342,1,2,0:0:0:0:
256,188,183628,1,0,0:0:0:0:
256,188,183771,1,0,0:0:0:0:
256,188,183914,1,2,0:0:0:0:
264,188,184200,1,0,0:0:0:0:
264,188,184485,1,2,0:0:0:0:
224,156,184771,1,0,0:0:0:0:
264,188,184914,1,0,0:0:0:0:
264,188,185342,1,2,0:0:0:0:
264,188,185628,1,0,0:0:0:0:
264,188,185914,1,2,0:0:0:0:
264,188,186057,1,2,0:0:0:0:
264,188,186200,1,2,0:0:0:0:
264,188,186485,1,0,0:0:0:0:
264,188,186771,1,0,0:0:0:0:
264,188,186914,1,0,0:0:0:0:
256,128,187342,1,2,0:0:0:0:
176,104,187628,1,4,0:0:0:0:
256,188,187914,1,2,0:0:0:0:
256,188,188200,1,0,0:0:0:0:
256,188,188342,1,0,0:0:0:0:
256,188,188485,1,2,0:0:0:0:
264,188,188771,1,0,0:0:0:0:
264,188,189057,1,2,0:0:0:0:
224,156,189342,1,0,0:0:0:0:
264,188,189485,1,0,0:0:0:0:
264,188,189914,1,2,0:0:0:0:
264,188,190200,1,0,0:0:0:0:
264,188,190485,1,2,0:0:0:0:
264,188,190628,1,2,0:0:0:0:
264,188,190771,1,2,0:0:0:0:
264,188,191057,1,0,0:0:0:0:
264,188,191342,1,2,0:0:0:0:
264,188,191485,1,2,0:0:0:0:
176,104,192200,1,0,0:0:0:0:
256,188,192485,1,2,0:0:0:0:
256,188,192771,1,0,0:0:0:0:
256,188,192914,1,0,0:0:0:0:
256,188,193057,1,2,0:0:0:0:
264,188,193342,1,0,0:0:0:0:
264,188,193628,1,2,0:0:0:0:
224,156,193914,1,0,0:0:0:0:
264,188,194057,1,0,0:0:0:0:
264,188,194485,1,2,0:0:0:0:
264,188,194771,1,0,0:0:0:0:
264,188,195057,1,2,0:0:0:0:
264,188,195200,1,2,0:0:0:0:
264,188,195342,1,2,0:0:0:0:
264,188,195628,1,0,0:0:0:0:
264,188,195914,1,0,0:0:0:0:
264,188,196057,1,0,0:0:0:0:
280,152,196200,1,0,0:0:0:0:
200,168,196771,1,0,0:0:0:0:
176,172,199057,1,2,0:0:0:0:
176,172,201342,1,0,0:0:0:0:
256,192,203628,12,0,205342,0:0:0:0:
