osu file format v14

[General]
AudioFilename: audio.mp3
AudioLeadIn: 0
PreviewTime: 174626
Countdown: 1
SampleSet: Soft
StackLeniency: 0.7
Mode: 0
LetterboxInBreaks: 0
WidescreenStoryboard: 1

[Editor]
Bookmarks: 222138
DistanceSpacing: 0.9
BeatDivisor: 4
GridSize: 4
TimelineZoom: 3.149998

[Metadata]
Title:Chiisana Koi no Uta (Synth Rock Cover)
TitleUnicode:小さな恋のうた(Synth Rock Cover)
Artist:Araki
ArtistUnicode:あらき
Creator:Shishou
Version:Together
Source:
Tags:song of a small love mongol800 RVMathew omoi
BeatmapID:1306992
BeatmapSetID:613207

[Difficulty]
HPDrainRate:6
CircleSize:4
OverallDifficulty:7.5
ApproachRate:9.6
SliderMultiplier:1.9
SliderTickRate:1

[Events]
//Background and Video events
0,0,"bg.jpg",0,0
//Break Periods
2,108270,111604
2,159400,166692
//Storyboard Layer 0 (Background)
//Storyboard Layer 1 (Fail)
//Storyboard Layer 2 (Pass)
//Storyboard Layer 3 (Foreground)
//Storyboard Sound Samples

[TimingPoints]
2300,272.727272727273,4,2,1,70,1,0
2845,-125,4,2,1,70,0,0
3254,-100,4,2,1,70,0,0
3936,-125,4,2,1,70,0,0
4345,-100,4,2,1,70,0,0
5027,-125,4,2,1,70,0,0
5572,-100,4,2,1,70,0,0
6117,-125,4,2,1,70,0,0
6527,-100,4,2,1,70,0,0
10754,-166.666666666667,4,2,1,70,0,0
11027,-100,4,2,1,70,0,0
17572,-200,4,2,1,70,0,0
18663,-100,4,2,1,70,0,0
49754,-166.666666666667,4,2,1,70,0,0
50300,-90.9090909090909,4,2,1,70,0,1
81936,-166.666666666667,4,2,1,70,0,1
83027,260.869565217391,4,2,1,70,1,0
83027,-111.111111111111,4,2,1,70,0,0
83548,-166.666666666667,4,2,1,70,0,0
84070,-111.111111111111,4,2,1,70,0,0
84592,-166.666666666667,4,2,1,70,0,0
85113,-111.111111111111,4,2,1,70,0,0
85635,-166.666666666667,4,2,1,70,0,0
86157,-111.111111111111,4,2,1,70,0,0
86679,-166.666666666667,4,2,1,70,0,0
87200,-111.111111111111,4,2,1,70,0,0
87722,-166.666666666667,4,2,1,70,0,0
88244,-111.111111111111,4,2,1,70,0,0
88766,-166.666666666667,4,2,1,70,0,0
89287,-111.111111111111,4,2,1,70,0,0
89940,-166.666666666667,4,2,1,70,0,0
90331,-111.111111111111,4,2,1,70,0,0
112244,-125,4,2,1,70,0,0
112440,-125,4,2,1,5,0,0
112505,-125,4,2,1,70,0,0
112700,-125,4,2,1,5,0,0
112766,-125,4,2,1,70,0,0
112961,-125,4,2,1,5,0,0
113026,-125,4,2,1,70,0,0
113287,-111.111111111111,4,2,1,70,0,0
114331,-99.9999999999999,4,2,1,70,0,0
115374,-90.9090909090909,4,2,1,70,0,0
122679,-200,4,2,1,70,0,0
123200,-142.857142857143,4,2,1,70,0,0
123722,-90.9090909090909,4,2,1,70,0,1
155026,-142.857142857143,4,2,1,70,0,0
159201,250,4,2,1,70,1,0
167200,-142.857142857143,4,2,1,70,0,0
174700,-166.666666666667,4,2,1,70,0,0
175201,-90.9090909090909,4,2,1,70,0,1
191201,-76.9230769230769,4,2,1,70,0,1
220201,-166.666666666667,4,2,1,70,0,0

[HitObjects]
115,95,2300,6,0,P|156:87|209:100,1,95
300,200,2572,2,0,P|252:213|204:193,1,95
386,102,2845,2,0,P|415:130|427:191,1,76
360,272,3118,2,0,P|331:244|319:183,1,76
459,70,3390,6,0,L|442:284,1,190
359,338,3800,1,0,0:0:0:0:
301,202,3936,2,0,P|248:195|197:212,1,76,0|0,0:0|0:0,0:0:0:0:
183,312,4209,2,0,P|216:321|271:312,1,76
308,184,4481,6,0,L|321:74,1,95
196,218,4754,2,0,L|184:312,1,95
328,188,5027,2,0,P|379:181|421:186,1,76,0|0,0:0|0:0,0:0:0:0:
225,109,5300,2,0,P|171:111|126:102,1,76
467,100,5572,6,0,B|493:146|493:146|482:299,1,190
392,349,5981,1,0,0:0:0:0:
317,266,6118,2,0,P|272:262|225:276,1,76
113,354,6390,2,0,P|169:345|197:320,1,76
143,151,6663,6,0,L|161:263,1,95
272,112,6936,2,0,L|284:17,1,95
156,123,7209,2,0,P|101:141|49:134,1,95
262,138,7481,2,0,P|321:156|363:156,1,95
485,53,7754,6,0,P|448:104|449:246,1,190,0|0,0:0|0:0,0:0:0:0:
490,333,8163,1,0,0:0:0:0:
375,308,8300,2,0,L|265:301,1,95
130,155,8572,2,0,L|238:159,1,95
344,40,8845,6,0,P|308:104|324:232,1,190
354,318,9254,1,0,0:0:0:0:
232,352,9390,2,0,L|132:340,1,95
82,192,9663,2,0,P|70:146|91:98,1,95
229,40,9936,6,0,P|295:44|358:158,1,190
403,250,10345,1,0,0:0:0:0:
329,315,10481,2,0,P|268:319|219:314,1,95,2|0,0:0|0:0,0:0:0:0:
190,231,10754,2,0,P|147:229|97:228,1,85.4999973907472,2|0,0:0|0:0,0:0:0:0:
44,285,11027,6,0,P|92:226|83:98,1,190,6|2,0:0|0:0,0:0:0:0:
175,33,11436,1,0,0:0:0:0:
252,140,11572,2,0,P|305:154|347:141,1,95,2|0,0:0|0:0,0:0:0:0:
425,27,11845,2,0,P|352:44|326:97,1,95,2|0,0:0|0:0,0:0:0:0:
342,304,12118,6,0,P|418:255|405:167,1,190,2|2,0:0|0:0,0:0:0:0:
318,76,12527,1,0,0:0:0:0:
233,153,12663,2,0,L|128:148,1,95,2|0,0:0|0:0,0:0:0:0:
41,267,12936,2,0,L|146:262,1,95,2|0,0:0|0:0,0:0:0:0:
258,144,13209,6,0,L|240:247,1,95,2|0,0:0|0:0,0:0:0:0:
330,326,13481,2,0,P|370:337|432:328,1,95,2|0,0:0|0:0,0:0:0:0:
467,224,13754,2,0,P|420:217|374:229,1,95,2|0,0:0|0:0,0:0:0:0:
300,323,14027,2,0,P|253:329|207:317,1,95,2|0,0:0|0:0,0:0:0:0:
61,123,14300,6,0,B|110:145|110:145|122:197|78:314,1,190,2|2,0:0|0:0,0:0:0:0:
179,373,14709,1,0,0:0:0:0:
291,236,14845,2,0,L|299:127,1,95,2|0,0:0|0:0,0:0:0:0:
436,36,15118,2,0,L|429:130,1,95,2|0,0:0|0:0,0:0:0:0:
342,303,15390,6,0,P|281:320|246:307,1,95,2|0,0:0|0:0,0:0:0:0:
131,190,15663,2,0,P|85:180|41:197,1,95,2|0,0:0|0:0,0:0:0:0:
253,296,15936,2,0,P|269:243|254:204,1,95,2|0,0:0|0:0,0:0:0:0:
143,83,16209,2,0,L|128:207,1,95,2|0,0:0|0:0,0:0:0:0:
191,332,16481,5,2,0:0:0:0:
337,160,16618,1,0,0:0:0:0:
337,160,16686,1,0,0:0:0:0:
337,160,16754,1,2,0:0:0:0:
171,272,16890,1,0,0:0:0:0:
384,249,17027,1,2,0:0:0:0:
201,139,17163,1,0,0:0:0:0:
286,335,17300,1,2,0:0:0:0:
372,142,17436,1,0,0:0:0:0:
100,83,17572,2,0,B|154:117|199:74|199:74|214:102|246:114|246:114|286:42|338:112,1,285,6|0,0:0|0:0,0:0:0:0:
241,341,18527,1,0,0:0:0:0:
241,341,18595,1,0,0:0:0:0:
241,341,18663,6,0,P|187:355|138:330,1,95,8|0,0:0|0:0,0:0:0:0:
76,298,18868,1,0,0:0:0:0:
76,298,18936,2,0,P|63:234|76:198,1,95,8|0,0:0|0:0,0:0:0:0:
289,85,19209,1,2,0:0:0:0:
199,286,19345,1,2,0:0:0:0:
169,69,19481,1,10,0:0:0:0:
356,220,19618,1,2,0:0:0:0:
100,145,19754,5,6,0:0:0:0:
256,192,19822,12,0,20572,0:0:0:0:
91,274,20845,6,0,P|81:222|100:165,1,95,6|0,0:0|0:0,0:0:0:0:
224,94,21118,2,0,P|234:146|215:203,1,95,8|0,0:0|0:0,0:0:0:0:
139,40,21390,2,0,P|80:28|25:55,1,95,2|2,0:0|0:0,0:0:0:0:
194,238,21663,2,0,P|253:250|308:223,1,95,8|0,0:0|0:0,0:0:0:0:
410,125,21936,6,0,P|375:163|404:295,1,190,2|8,0:0|0:0,0:0:0:0:
476,213,22345,1,0,0:0:0:0:
360,75,22481,2,0,P|299:69|252:88,1,95,2|2,0:0|0:0,0:0:0:0:
169,156,22754,2,0,P|112:158|61:141,1,95,8|0,0:0|0:0,0:0:0:0:
320,193,23027,6,0,P|333:241|315:295,1,95,2|0,0:0|0:0,0:0:0:0:
133,342,23300,2,0,P|179:293|221:286,1,95,8|0,0:0|0:0,0:0:0:0:
333,309,23572,2,0,P|385:319|446:306,1,95,2|2,0:0|0:0,0:0:0:0:
478,234,23845,2,0,L|493:125,1,95,8|0,0:0|0:0,0:0:0:0:
325,11,24118,6,0,B|329:58|329:58|294:129|294:129|299:210,1,190,2|8,0:0|0:0,0:0:0:0:
193,68,24527,1,0,0:0:0:0:
119,161,24663,2,0,B|63:165|63:165|8:156,1,95,2|2,0:0|0:0,0:0:0:0:
217,228,24936,2,0,B|219:281|219:281|207:335,1,95,8|0,0:0|0:0,0:0:0:0:
381,125,25209,6,0,B|428:122|428:122|486:129,1,95,2|0,0:0|0:0,0:0:0:0:
455,303,25481,2,0,B|408:306|408:306|350:299,1,95,8|0,0:0|0:0,0:0:0:0:
276,219,25754,2,0,L|272:115,1,95,2|2,0:0|0:0,0:0:0:0:
156,41,26027,2,0,P|105:24|49:51,1,95,8|0,0:0|0:0,0:0:0:0:
48,256,26300,6,0,L|248:242,1,190,2|8,0:0|0:0,0:0:0:0:
340,348,26709,1,0,0:0:0:0:
392,206,26845,2,0,L|405:97,1,95,2|2,0:0|0:0,0:0:0:0:
279,29,27118,2,0,L|267:123,1,95,8|0,0:0|0:0,0:0:0:0:
235,283,27390,5,2,0:0:0:0:
168,150,27527,1,0,0:0:0:0:
342,207,27663,1,8,0:0:0:0:
127,232,27800,2,0,P|59:228|21:104,2,190,0|2|0,0:0|0:0|0:0,0:0:0:0:
238,147,28481,6,0,P|289:142|339:154,1,95,2|0,0:0|0:0,0:0:0:0:
429,282,28754,1,8,0:0:0:0:
320,238,28890,1,0,0:0:0:0:
430,164,29027,2,0,P|437:109|425:67,1,95,2|2,0:0|0:0,0:0:0:0:
310,252,29300,2,0,P|301:302|317:347,1,95,8|0,0:0|0:0,0:0:0:0:
451,189,29572,6,0,L|249:169,1,190,6|8,0:0|0:0,0:0:0:0:
191,84,29981,1,0,0:0:0:0:
121,164,30118,2,0,P|61:171|26:149,1,95,2|2,0:0|0:0,0:0:0:0:
228,77,30390,2,0,P|273:67|316:85,1,95,8|0,0:0|0:0,0:0:0:0:
177,341,30663,6,0,B|137:293|137:293|149:141,1,190,2|8,0:0|0:0,0:0:0:0:
247,257,31072,1,0,0:0:0:0:
328,331,31209,2,0,P|376:350|418:329,1,95,2|2,0:0|0:0,0:0:0:0:
461,232,31481,2,0,L|473:126,1,95,8|0,0:0|0:0,0:0:0:0:
364,65,31754,6,0,L|258:57,1,95,2|0,0:0|0:0,0:0:0:0:
288,150,32027,2,0,L|182:142,1,95,8|0,0:0|0:0,0:0:0:0:
93,248,32300,2,0,L|199:240,1,95,2|2,0:0|0:0,0:0:0:0:
196,330,32572,2,0,L|302:322,1,95,8|0,0:0|0:0,0:0:0:0:
425,157,32845,6,0,P|335:159|318:282,1,190,2|8,0:0|0:0,0:0:0:0:
390,240,33254,1,0,0:0:0:0:
455,159,33390,2,0,P|463:107|450:58,1,95,2|2,0:0|0:0,0:0:0:0:
341,30,33663,2,0,P|285:21|243:41,1,95,8|0,0:0|0:0,0:0:0:0:
159,138,33936,6,0,P|211:153|274:127,1,95,2|0,0:0|0:0,0:0:0:0:
121,52,34209,2,0,P|70:38|21:57,1,95,8|0,0:0|0:0,0:0:0:0:
100,225,34481,2,0,P|154:199|171:157,1,95,2|2,0:0|0:0,0:0:0:0:
13,160,34754,2,0,P|-5:203|3:252,1,95,8|0,0:0|0:0,0:0:0:0:
134,333,35027,6,0,P|208:287|316:322,1,190,2|8,0:0|0:0,0:0:0:0:
388,366,35436,1,0,0:0:0:0:
429,267,35572,2,0,P|440:213|428:166,1,95,2|2,0:0|0:0,0:0:0:0:
342,106,35845,2,0,L|241:99,1,95,8|0,0:0|0:0,0:0:0:0:
110,172,36118,5,2,0:0:0:0:
179,73,36254,1,0,0:0:0:0:
231,213,36390,2,0,L|222:316,1,95,8|0,0:0|0:0,0:0:0:0:
353,187,36663,2,0,L|358:77,1,95,2|2,0:0|0:0,0:0:0:0:
255,26,36936,1,8,0:0:0:0:
245,139,37072,1,0,0:0:0:0:
245,139,37209,6,0,L|151:133,1,95,2|0,0:0|0:0,0:0:0:0:
31,22,37481,1,8,0:0:0:0:
182,228,37618,1,8,0:0:0:0:
182,228,37686,1,8,0:0:0:0:
182,228,37754,1,10,0:0:0:0:
133,26,37890,1,10,0:0:0:0:
17,225,38027,1,2,0:0:0:0:
238,71,38163,1,2,0:0:0:0:
70,314,38300,6,0,L|279:317,1,190,6|8,0:0|0:0,0:0:0:0:
369,359,38709,1,0,0:0:0:0:
392,234,38845,2,0,P|406:181|384:137,1,95,2|2,0:0|0:0,0:0:0:0:
267,48,39118,2,0,P|253:101|275:145,1,95,8|0,0:0|0:0,0:0:0:0:
280,237,39390,6,0,B|223:248|223:248|85:230,1,190,2|8,0:0|0:0,0:0:0:0:
26,70,39800,1,0,0:0:0:0:
134,155,39936,2,0,P|131:195|78:233,1,95,2|2,0:0|0:0,0:0:0:0:
41,90,40209,2,0,P|44:50|97:12,1,95,8|2,0:0|0:0,0:0:0:0:
216,156,40481,6,0,L|192:364,1,190,2|8,0:0|0:0,0:0:0:0:
288,288,40890,1,0,0:0:0:0:
376,252,41027,2,0,L|480:252,1,95,2|2,0:0|0:0,0:0:0:0:
306,92,41300,1,8,0:0:0:0:
408,148,41436,1,0,0:0:0:0:
276,208,41572,6,0,P|232:248|115:193,1,190,2|8,0:0|0:0,0:0:0:0:
96,108,41981,1,0,0:0:0:0:
24,164,42118,2,0,L|31:288,1,95,2|2,0:0|0:0,0:0:0:0:
137,17,42390,2,0,L|128:142,1,95,8|0,0:0|0:0,0:0:0:0:
335,133,42663,6,0,P|399:132|479:243,1,190,6|8,0:0|0:0,0:0:0:0:
417,337,43072,1,0,0:0:0:0:
291,290,43209,2,0,P|233:282|175:297,1,95,2|2,0:0|0:0,0:0:0:0:
35,345,43481,2,0,P|81:351|128:343,1,95,8|0,0:0|0:0,0:0:0:0:
228,181,43754,6,0,P|134:177|89:284,1,190,2|8,0:0|0:0,0:0:0:0:
192,318,44163,1,0,0:0:0:0:
326,228,44300,2,0,L|446:244,1,95,2|2,0:0|0:0,0:0:0:0:
252,135,44572,2,0,L|133:140,1,95,8|0,0:0|0:0,0:0:0:0:
477,317,44845,6,0,P|510:256|459:145,1,190,2|8,0:0|0:0,0:0:0:0:
364,40,45254,1,0,0:0:0:0:
247,88,45390,2,0,P|202:102|146:91,1,95,2|2,0:0|0:0,0:0:0:0:
61,165,45663,2,0,B|56:212|56:212|79:291,1,95,8|0,3:2|0:0,0:0:0:0:
185,336,45936,6,0,P|232:348|281:337,1,95,6|0,0:0|0:0,0:0:0:0:
376,215,46209,1,8,0:0:0:0:
276,338,46345,1,0,0:0:0:0:
458,323,46481,1,2,0:0:0:0:
291,177,46618,1,2,0:0:0:0:
373,371,46754,1,8,0:0:0:0:
457,175,46890,1,0,0:0:0:0:
218,187,47027,6,0,L|80:174,1,95,2|0,0:0|0:0,0:0:0:0:
0,255,47300,1,8,0:0:0:0:
91,68,47436,1,0,0:0:0:0:
109,267,47572,1,2,0:0:0:0:
0,111,47709,1,2,0:0:0:0:
244,144,47845,1,8,0:0:0:0:
44,11,47981,1,0,0:0:0:0:
228,259,48118,5,2,0:0:0:0:
157,38,48254,1,0,0:0:0:0:
59,283,48390,1,8,0:0:0:0:
271,157,48527,1,0,0:0:0:0:
11,128,48663,1,2,0:0:0:0:
182,317,48800,1,2,0:0:0:0:
157,57,48936,1,8,0:0:0:0:
43,319,49072,1,0,0:0:0:0:
308,173,49209,5,4,0:0:0:0:
342,189,49754,2,0,P|401:211|457:95,1,199.499993911743,0|0,0:0|0:0,0:0:0:0:
400,54,50300,6,0,L|267:49,1,104.500003189087,4|0,0:1|0:0,0:0:0:0:
126,155,50572,1,8,0:0:0:0:
285,150,50709,1,0,0:0:0:0:
105,24,50845,2,0,L|121:127,1,104.500003189087,2|2,0:0|0:0,0:0:0:0:
44,338,51118,2,0,L|60:234,1,104.500003189087,8|0,0:0|0:0,0:0:0:0:
164,156,51390,6,0,P|226:152|276:165,1,104.500003189087,2|0,0:0|0:0,0:0:0:0:
367,260,51663,1,8,0:0:0:0:
432,132,51800,2,0,P|445:64|427:21,1,104.500003189087,0|2,0:0|0:0,0:0:0:0:
260,258,52072,1,2,0:0:0:0:
274,73,52209,2,0,P|192:62|146:81,1,104.500003189087,8|0,0:0|0:0,0:0:0:0:
59,195,52481,6,0,P|145:223|209:133,1,209.000006378174,2|8,0:0|0:0,0:0:0:0:
75,38,52890,1,0,0:0:0:0:
36,203,53027,2,0,B|29:260|29:260|40:332,1,104.500003189087,2|2,0:0|0:0,0:0:0:0:
214,180,53300,1,8,0:0:0:0:
111,337,53436,1,0,0:0:0:0:
119,38,53572,6,0,L|126:162,1,104.500003189087,2|0,0:0|0:0,0:0:0:0:
223,280,53845,1,8,0:0:0:0:
300,111,53981,2,0,P|379:101|433:122,1,104.500003189087,0|2,0:0|0:0,0:0:0:0:
490,241,54254,2,0,P|432:248|366:230,1,104.500003189087,2|8,0:0|0:0,0:0:0:0:
267,107,54527,1,0,0:0:0:0:
366,251,54663,5,2,0:0:0:0:
422,69,54800,1,0,0:0:0:0:
258,201,54936,2,0,L|132:183,1,104.500003189087,8|0,0:0|0:0,0:0:0:0:
61,29,55209,2,0,P|116:60|138:122,1,104.500003189087,2|2,0:0|0:0,0:0:0:0:
63,257,55481,2,0,P|36:191|68:141,1,104.500003189087,8|0,0:0|0:0,0:0:0:0:
225,63,55754,6,0,L|207:281,1,209.000006378174,2|8,0:0|0:0,0:0:0:0:
74,147,56163,1,0,0:0:0:0:
346,11,56300,2,0,L|325:243,1,209.000006378174,2|8,0:0|0:0,0:0:0:0:
303,332,56709,1,0,0:0:0:0:
201,145,56845,6,0,P|142:135|76:141,1,104.500003189087,2|0,0:0|0:0,0:0:0:0:
197,326,57118,1,8,0:0:0:0:
284,117,57254,1,0,0:0:0:0:
94,275,57390,1,0,0:0:0:0:
175,61,57527,1,2,0:0:0:0:
270,274,57663,1,8,0:0:0:0:
34,166,57800,1,0,0:0:0:0:
247,32,57936,6,0,L|232:267,1,209.000006378174,2|8,0:0|0:0,0:0:0:0:
288,350,58345,1,2,0:0:0:0:
138,206,58481,2,0,P|76:196|27:204,1,104.500003189087,0|2,0:0|0:0,0:0:0:0:
330,149,58754,2,0,P|392:139|441:147,1,104.500003189087,8|0,0:0|0:0,0:0:0:0:
247,345,59027,2,0,B|236:281|236:281|248:109,1,209.000006378174,4|8,0:0|0:0,0:0:0:0:
159,29,59436,1,0,0:0:0:0:
111,153,59572,2,0,P|48:160|-3:148,1,104.500003189087,2|2,0:0|0:0,0:0:0:0:
266,39,59845,2,0,P|328:35|392:50,1,104.500003189087,8|0,0:0|0:0,0:0:0:0:
466,185,60118,5,2,0:0:0:0:
305,117,60254,1,0,0:0:0:0:
443,68,60390,1,8,0:0:0:0:
326,234,60527,2,0,P|276:243|219:231,1,104.500003189087,0|2,0:0|0:0,0:0:0:0:
168,118,60800,1,2,0:0:0:0:
91,231,60936,2,0,P|81:295|115:344,1,104.500003189087,8|0,0:0|0:0,0:0:0:0:
267,161,61209,6,0,P|285:63|155:33,1,209.000006378174,2|8,0:0|0:0,0:0:0:0:
41,11,61618,1,0,0:0:0:0:
74,137,61754,2,0,L|66:244,1,104.500003189087,2|2,0:0|0:0,0:0:0:0:
139,338,62027,2,0,P|194:349|259:329,1,104.500003189087,8|0,0:0|0:0,0:0:0:0:
375,238,62300,6,0,L|405:120,1,104.500003189087,2|0,0:0|0:0,0:0:0:0:
317,33,62572,1,8,0:0:0:0:
317,33,62709,2,0,L|320:144,1,104.500003189087,0|2,0:0|0:0,0:0:0:0:
226,218,62981,2,0,P|179:241|120:221,1,104.500003189087,0|8,0:0|0:0,0:0:0:0:
129,61,63254,1,0,0:0:0:0:
239,194,63390,5,2,0:0:0:0:
317,33,63527,1,0,0:0:0:0:
317,33,63595,1,0,0:0:0:0:
317,33,63663,2,0,L|302:245,1,209.000006378174,8|2,0:0|0:0,0:0:0:0:
382,330,64072,1,0,0:0:0:0:
449,200,64209,2,0,P|462:121|449:80,1,104.500003189087,8|0,0:0|0:0,0:0:0:0:
262,50,64481,6,0,P|200:77|129:76,1,104.500003189087,2|0,0:0|0:0,0:0:0:0:
41,41,64754,1,8,0:0:0:0:
88,183,64890,1,0,0:0:0:0:
88,183,65027,2,0,L|92:300,1,104.500003189087,2|2,0:0|0:0,0:0:0:0:
178,201,65300,2,0,L|294:202,1,104.500003189087,8|0,0:0|0:0,0:0:0:0:
455,114,65572,5,2,0:0:0:0:
356,324,65709,1,0,0:0:0:0:
351,46,65845,5,8,0:0:0:0:
442,291,65981,1,0,0:0:0:0:
456,57,66118,5,2,0:0:0:0:
339,273,66254,1,2,0:0:0:0:
337,12,66390,5,8,0:0:0:0:
482,203,66527,1,0,0:0:0:0:
170,230,66663,6,0,P|110:197|161:75,1,209.000006378174,10|8,0:0|0:0,0:0:0:0:
359,114,67072,1,8,0:0:0:0:
133,205,67209,1,8,0:0:0:0:
348,206,67345,1,8,0:0:0:0:
175,64,67481,1,8,0:0:0:0:
216,320,67618,1,8,0:0:0:0:
416,282,67754,6,0,B|348:287|348:287|272:279|272:279|175:280,1,209.000006378174,4|8,0:0|0:0,0:0:0:0:
99,346,68163,1,0,0:0:0:0:
60,228,68300,2,0,P|47:149|73:117,1,104.500003189087,2|2,0:0|0:0,0:0:0:0:
147,46,68572,2,0,L|260:39,1,104.500003189087,8|0,0:0|0:0,0:0:0:0:
445,142,68845,5,2,0:0:0:0:
280,18,68981,1,0,0:0:0:0:
323,240,69118,1,8,0:0:0:0:
430,15,69254,1,0,0:0:0:0:
220,153,69390,2,0,L|247:266,1,104.500003189087,2|2,0:0|0:0,0:0:0:0:
444,260,69663,2,0,L|405:379,1,104.500003189087,8|0,0:0|0:0,0:0:0:0:
156,220,69936,6,0,P|84:202|0:328,1,209.000006378174,2|8,0:0|0:0,0:0:0:0:
106,318,70345,1,0,0:0:0:0:
293,260,70481,2,0,P|356:253|399:280,1,104.500003189087,2|2,0:0|0:0,0:0:0:0:
155,122,70754,2,0,P|92:115|49:142,1,104.500003189087,8|0,0:0|0:0,0:0:0:0:
333,335,71027,6,0,P|366:288|293:157,1,209.000006378174,2|8,0:0|0:0,0:0:0:0:
231,64,71436,1,0,0:0:0:0:
115,200,71572,2,0,L|128:322,1,104.500003189087,2|2,0:0|0:0,0:0:0:0:
330,39,71845,2,0,L|314:161,1,104.500003189087,8|0,0:0|0:0,0:0:0:0:
207,338,72118,6,0,P|122:294|4:338,1,209.000006378174,6|8,0:0|0:0,0:0:0:0:
320,378,72527,1,0,0:0:0:0:
407,255,72663,2,0,L|418:145,1,104.500003189087,2|2,0:0|0:0,0:0:0:0:
290,26,72936,2,0,L|295:162,1,104.500003189087,8|0,0:0|0:0,0:0:0:0:
181,234,73209,6,0,P|92:240|57:209,1,104.500003189087,2|0,0:0|0:0,0:0:0:0:
329,95,73481,2,0,P|386:86|446:100,1,104.500003189087,8|0,0:0|0:0,0:0:0:0:
253,297,73754,1,2,0:0:0:0:
184,107,73890,1,2,0:0:0:0:
366,250,74027,1,8,0:0:0:0:
145,310,74163,1,0,0:0:0:0:
377,162,74300,6,0,P|441:160|486:296,1,209.000006378174,2|8,0:0|0:0,0:0:0:0:
337,341,74709,1,0,0:0:0:0:
221,215,74845,2,0,P|155:206|83:223,1,104.500003189087,2|2,0:0|0:0,0:0:0:0:
23,346,75118,2,0,P|86:329|115:292,1,104.500003189087,8|0,0:0|0:0,0:0:0:0:
69,71,75390,6,0,P|46:104|42:276,1,209.000006378174,2|8,0:0|0:0,0:0:0:0:
207,189,75800,1,0,0:0:0:0:
341,281,75936,2,0,L|318:412,1,104.500003189087,2|2,0:0|0:0,0:0:0:0:
221,163,76209,2,0,L|214:53,1,104.500003189087,8|0,0:0|0:0,0:0:0:0:
426,130,76481,5,6,0:0:0:0:
312,245,76618,1,0,0:0:0:0:
332,51,76754,1,8,0:0:0:0:
420,233,76890,1,0,0:0:0:0:
245,139,77027,1,2,0:0:0:0:
386,320,77163,1,0,0:0:0:0:
305,129,77300,1,8,0:0:0:0:
232,281,77436,1,0,0:0:0:0:
200,114,77572,5,2,0:0:0:0:
312,248,77709,1,2,0:0:0:0:
124,190,77845,1,8,0:0:0:0:
285,107,77981,1,0,0:0:0:0:
197,307,78118,1,2,0:0:0:0:
147,87,78254,1,2,0:0:0:0:
304,286,78390,1,8,0:0:0:0:
269,59,78527,1,0,0:0:0:0:
115,291,78663,5,2,0:0:0:0:
50,112,78800,1,2,0:0:0:0:
214,245,78936,1,8,0:0:0:0:
139,67,79072,1,0,0:0:0:0:
43,250,79209,1,2,0:0:0:0:
216,130,79345,1,2,0:0:0:0:
144,375,79481,1,8,0:0:0:0:
297,182,79618,1,0,0:0:0:0:
66,322,79754,6,0,L|310:311,1,209.000006378174,2|8,0:0|0:0,0:0:0:0:
392,351,80163,1,0,0:0:0:0:
422,220,80300,2,0,P|426:144|400:111,1,104.500003189087,2|2,0:0|0:0,0:0:0:0:
215,91,80572,2,0,P|242:134|329:144,1,104.500003189087,8|0,0:0|0:0,0:0:0:0:
338,39,80845,6,0,L|128:26,1,209.000006378174,6|8,0:0|0:0,0:0:0:0:
8,43,81254,1,0,0:0:0:0:
106,135,81390,2,0,P|137:181|138:243,1,104.500003189087,2|2,0:0|0:0,0:0:0:0:
21,346,81663,2,0,P|101:327|138:336,1,104.500003189087,8|0,0:0|0:0,0:0:0:0:
355,239,81936,6,0,P|352:171|365:114,1,113.999996520996,4|0,0:0|0:0,0:0:0:0:
241,44,82481,2,0,P|190:82|71:57,1,170.999994781494,0|0,0:0|0:0,0:0:0:0:
20,129,83027,6,0,L|22:256,1,85.4999973907472,6|0,0:0|0:0,0:0:0:0:
117,335,83287,2,0,L|114:239,1,85.4999973907472,2|0,0:0|0:0,0:0:0:0:
196,149,83548,2,0,B|245:151|245:151|284:162|284:162|370:159,1,170.999994781494,8|0,0:0|0:0,0:0:0:0:
445,282,84070,6,0,P|386:273|339:244,1,85.4999973907472,2|0,0:0|0:0,0:0:0:0:
347,64,84331,2,0,P|397:93|423:135,1,85.4999973907472,2|0,0:0|0:0,0:0:0:0:
225,67,84592,2,0,L|52:59,1,170.999994781494,8|0,0:0|0:0,0:0:0:0:
26,159,85113,6,0,L|14:261,1,85.4999973907472,2|0,0:0|0:0,0:0:0:0:
178,289,85374,2,0,P|131:292|101:318,1,85.4999973907472,2|0,0:0|0:0,0:0:0:0:
272,354,85635,2,0,B|344:363|344:363|463:359,1,170.999994781494,8|0,0:0|0:0,0:0:0:0:
427,248,86157,6,0,P|422:188|434:155,1,85.4999973907472,2|0,0:0|0:0,0:0:0:0:
326,88,86418,2,0,P|277:96|223:92,1,85.4999973907472,2|0,0:0|0:0,0:0:0:0:
123,26,86679,2,0,P|150:78|128:200,1,170.999994781494,8|0,0:0|0:0,0:0:0:0:
34,291,87200,6,0,L|130:318,1,85.4999973907472,2|0,0:0|0:0,0:0:0:0:
230,366,87461,2,0,L|336:342,1,85.4999973907472,2|0,0:0|0:0,0:0:0:0:
382,270,87722,2,0,P|339:212|388:129,1,170.999994781494,8|0,0:0|0:0,0:0:0:0:
357,24,88244,6,0,L|250:34,1,85.4999973907472,2|0,0:0|0:0,0:0:0:0:
129,122,88505,2,0,L|214:114,1,85.4999973907472,2|0,0:0|0:0,0:0:0:0:
432,199,88766,2,0,L|241:213,1,170.999994781494,8|0,0:0|0:0,0:0:0:0:
156,305,89287,6,0,P|101:306|71:291,1,85.4999973907472,2|0,0:0|0:0,0:0:0:0:
35,174,89548,2,0,L|32:67,1,85.4999973907472,2|0,0:0|0:0,0:0:0:0:
141,20,89809,1,8,0:0:0:0:
240,105,89940,2,0,P|316:124|355:115,1,113.999996520996,0|8,0:0|0:0,0:0:0:0:
361,97,90266,1,8,0:0:0:0:
360,97,90331,5,8,0:0:0:0:
453,236,90461,1,8,0:0:0:0:
301,229,90592,2,0,L|203:226,1,85.4999973907472,8|0,0:0|0:0,0:0:0:0:
71,149,90853,2,0,L|12:127,3,42.7499986953736,8|0|0|0,0:0|0:0|0:0|0:0,0:0:0:0:
213,66,91113,2,0,L|278:43,3,42.7499986953736,8|0|0|0,0:0|0:0|0:0|0:0,0:0:0:0:
97,91,91374,6,0,P|110:112|96:273,1,170.999994781494,6|8,0:0|0:0,0:0:0:0:
181,368,91766,1,0,0:0:0:0:
270,279,91896,2,0,P|330:280|360:283,1,85.4999973907472,2|2,0:0|0:0,0:0:0:0:
471,169,92157,2,0,P|412:162|348:173,1,85.4999973907472,8|0,0:0|0:0,0:0:0:0:
219,29,92418,6,0,B|206:91|206:91|228:145|228:145|215:230,1,170.999994781494,2|8,0:0|0:0,0:0:0:0:
192,336,92809,1,0,0:0:0:0:
132,168,92940,2,0,P|67:159|35:166,1,85.4999973907472,2|2,0:0|0:0,0:0:0:0:
288,57,93200,2,0,P|337:52|381:69,1,85.4999973907472,8|0,0:0|0:0,0:0:0:0:
471,230,93461,5,2,0:0:0:0:
354,136,93592,1,0,0:0:0:0:
408,304,93722,1,8,0:0:0:0:
480,113,93853,5,0,0:0:0:0:
367,321,93983,2,0,L|266:317,1,85.4999973907472,2|2,0:0|0:0,0:0:0:0:
179,275,94244,2,0,L|68:283,1,85.4999973907472,8|0,0:0|0:0,0:0:0:0:
48,109,94505,6,0,B|71:175|97:200|97:200|204:195,1,170.999994781494,2|8,0:0|0:0,0:0:0:0:
284,96,94896,1,0,0:0:0:0:
367,184,95026,2,0,P|373:242|352:292,1,85.4999973907472,2|2,0:0|0:0,0:0:0:0:
143,108,95287,2,0,P|135:48|156:0,1,85.4999973907472,8|0,0:0|0:0,0:0:0:0:
272,244,95548,5,6,0:0:0:0:
279,77,95679,1,0,0:0:0:0:
164,144,95809,1,8,0:0:0:0:
343,176,95940,1,0,0:0:0:0:
132,129,96070,2,0,P|81:130|9:134,1,85.4999973907472,2|2,0:0|0:0,0:0:0:0:
211,319,96331,2,0,P|262:318|334:314,1,85.4999973907472,8|0,0:0|0:0,0:0:0:0:
387,190,96592,6,0,P|350:122|426:46,1,170.999994781494,2|8,0:0|0:0,0:0:0:0:
470,269,96983,1,0,0:0:0:0:
271,181,97113,2,0,L|169:181,1,85.4999973907472,2|2,0:0|0:0,0:0:0:0:
118,309,97374,1,8,0:0:0:0:
200,132,97505,1,0,0:0:0:0:
27,106,97635,6,0,L|31:215,1,85.4999973907472,2|0,0:0|0:0,0:0:0:0:
111,253,97896,1,8,0:0:0:0:
209,94,98026,2,0,P|266:92|318:98,1,85.4999973907472,0|2,0:0|0:0,0:0:0:0:
432,207,98287,2,0,P|375:209|323:203,1,85.4999973907472,0|8,0:0|0:0,0:0:0:0:
235,255,98548,1,0,0:0:0:0:
168,35,98679,5,8,0:0:0:0:
112,33,98744,1,0,0:0:0:0:
60,54,98809,1,0,0:0:0:0:
25,97,98874,1,0,0:0:0:0:
13,151,98940,2,0,L|23:260,1,85.4999973907472,8|0,0:0|0:0,0:0:0:0:
195,364,99200,1,8,0:0:0:0:
185,131,99331,1,0,0:0:0:0:
185,131,99396,1,0,0:0:0:0:
185,131,99461,1,8,0:0:0:0:
40,335,99592,1,0,0:0:0:0:
291,246,99722,6,0,L|387:260,1,85.4999973907472,6|0,0:0|0:0,0:0:0:0:
504,177,99983,2,0,L|419:164,1,85.4999973907472,8|0,0:0|0:0,0:0:0:0:
318,39,100244,2,0,P|311:93|324:138,1,85.4999973907472,2|2,0:0|0:0,0:0:0:0:
503,301,100505,2,0,P|510:247|497:202,1,85.4999973907472,8|0,0:0|0:0,0:0:0:0:
279,98,100766,6,0,P|212:77|121:141,1,170.999994781494,2|8,0:0|0:0,0:0:0:0:
219,194,101157,1,0,0:0:0:0:
149,307,101287,2,0,P|94:320|43:310,1,85.4999973907472,2|2,0:0|0:0,0:0:0:0:
262,178,101548,2,0,P|311:173|365:188,1,85.4999973907472,8|0,0:0|0:0,0:0:0:0:
454,337,101809,5,2,0:0:0:0:
468,155,101940,1,0,0:0:0:0:
369,333,102070,1,8,0:0:0:0:
354,135,102200,1,0,0:0:0:0:
260,265,102331,1,2,0:0:0:0:
436,237,102461,1,0,0:0:0:0:
254,140,102592,1,8,0:0:0:0:
265,357,102722,1,0,0:0:0:0:
435,144,102853,6,0,P|458:91|390:8,1,170.999994781494,2|8,0:0|0:0,0:0:0:0:
292,68,103244,1,0,0:0:0:0:
173,31,103374,2,0,P|125:21|58:34,1,85.4999973907472,2|2,0:0|0:0,0:0:0:0:
38,155,103635,2,0,P|74:161|138:143,1,85.4999973907472,8|0,0:0|0:0,0:0:0:0:
307,50,103896,5,2,0:0:0:0:
195,214,104026,1,0,0:0:0:0:
200,25,104157,1,8,0:0:0:0:
328,162,104287,1,0,0:0:0:0:
137,114,104418,1,2,0:0:0:0:
294,286,104548,1,0,0:0:0:0:
328,68,104679,1,8,0:0:0:0:
173,240,104809,1,0,0:0:0:0:
364,148,104940,6,0,P|432:142|465:249,1,170.999994781494,2|8,0:0|0:0,0:0:0:0:
418,340,105331,1,0,0:0:0:0:
289,237,105461,2,0,P|239:233|203:239,1,85.4999973907472,2|2,0:0|0:0,0:0:0:0:
88,334,105722,2,0,P|116:287|105:222,1,85.4999973907472,8|0,0:0|0:0,0:0:0:0:
22,118,105983,5,8,0:0:0:0:
120,158,106113,2,0,B|179:167|179:167|309:157,1,170.999994781494,2|0,0:0|0:0,0:0:0:0:
364,81,106505,1,8,0:0:0:0:
429,159,106635,2,0,P|470:206|435:313,1,170.999994781494,2|0,0:0|0:0,0:0:0:0:
320,267,107026,5,10,0:0:0:0:
257,338,107157,2,0,B|218:359|218:359|82:348,1,170.999994781494,0|0,0:0|0:0,0:0:0:0:
63,238,107548,2,0,L|45:145,1,85.4999973907472,8|8,0:0|0:0,0:0:0:0:
177,58,107809,2,0,L|154:177,1,85.4999973907472,8|0,0:0|0:0,0:0:0:0:
46,17,108070,5,4,0:0:0:0:
92,294,112113,5,0,0:0:0:0:
92,294,112179,1,0,0:0:0:0:
92,294,112244,6,0,P|146:307|235:294,1,114,8|0,0:0|0:0,0:0:0:0:
306,220,112505,2,0,L|292:354,1,114,8|0,0:0|0:0,0:0:0:0:
232,126,112766,2,0,P|179:114|99:137,1,114,8|0,0:0|0:0,0:0:0:0:
40,62,113026,2,0,L|26:206,1,114,8|0,0:0|0:0,0:0:0:0:
218,44,113287,2,0,L|365:57,1,128.249996086121,8|0,0:0|0:0,0:0:0:0:
425,154,113548,2,0,L|442:3,1,128.249996086121,8|0,0:0|0:0,0:0:0:0:
320,149,113809,2,0,L|326:296,1,128.249996086121,8|0,0:0|0:0,0:0:0:0:
221,274,114070,2,0,P|163:269|88:291,1,128.249996086121,8|0,0:0|0:0,0:0:0:0:
31,226,114331,6,0,L|26:81,1,142.5,8|0,0:0|0:0,0:0:0:0:
154,17,114592,2,0,L|120:172,1,142.5,8|0,0:0|0:0,0:0:0:0:
237,93,114853,2,0,P|302:66|383:89,1,142.5,8|0,0:0|0:0,0:0:0:0:
449,158,115113,2,0,L|441:322,1,142.5,8|0,0:0|0:0,0:0:0:0:
404,369,115374,5,8,0:0:0:0:
212,369,115505,1,0,0:0:0:0:
318,161,115635,1,8,0:0:0:0:
308,374,115766,1,0,0:0:0:0:
140,222,115896,1,8,0:0:0:0:
140,222,116026,1,8,0:0:0:0:
142,224,116418,6,0,L|130:108,1,104.500003189087,6|0,0:0|0:0,0:0:0:0:
397,28,116679,2,0,L|375:154,1,104.500003189087,10|0,0:0|0:0,0:0:0:0:
239,318,116940,2,0,L|228:206,1,104.500003189087,10|0,0:0|0:0,0:0:0:0:
474,69,117200,2,0,L|444:189,1,104.500003189087,10|0,0:0|0:0,0:0:0:0:
332,339,117461,5,2,0:0:0:0:
245,100,117592,1,10,0:0:0:0:
420,294,117722,1,10,0:0:0:0:
170,350,117853,1,10,0:0:0:0:
370,119,117983,1,2,0:0:0:0:
146,219,118113,1,2,0:0:0:0:
397,377,118244,1,8,0:0:0:0:
387,78,118374,1,0,0:0:0:0:
95,300,118505,5,4,0:0:0:0:
50,268,118766,5,0,0:0:0:0:
22,71,119026,5,0,0:0:0:0:
64,101,119287,5,0,0:0:0:0:
175,137,119548,5,6,0:0:0:0:
220,162,119613,1,0,0:0:0:0:
272,165,119679,1,0,0:0:0:0:
318,141,119744,1,0,0:0:0:0:
342,94,119809,1,10,0:0:0:0:
320,46,119874,1,0,0:0:0:0:
269,29,119940,1,2,0:0:0:0:
238,70,120005,1,2,0:0:0:0:
238,122,120070,1,2,0:0:0:0:
272,165,120135,1,0,0:0:0:0:
310,199,120200,1,10,0:0:0:0:
340,242,120266,1,2,0:0:0:0:
338,294,120331,1,2,0:0:0:0:
296,326,120396,1,2,0:0:0:0:
243,327,120461,1,2,0:0:0:0:
206,290,120526,1,0,0:0:0:0:
161,261,120592,6,0,L|100:257,3,52.2500015945435,10|2|2|2,0:0|0:0|0:0|0:0,0:0:0:0:
13,188,120853,2,0,L|65:191,3,52.2500015945435,10|2|2|2,0:0|0:0|0:0|0:0,0:0:0:0:
148,122,121113,2,0,L|95:118,3,52.2500015945435,10|2|2|2,0:0|0:0|0:0|0:0,0:0:0:0:
25,37,121374,2,0,L|85:40,3,52.2500015945435,10|2|2|2,0:0|0:0|0:0|0:0,0:0:0:0:
130,39,121635,5,10,0:0:0:0:
168,73,121700,1,2,0:0:0:0:
220,82,121766,1,10,0:0:0:0:
265,57,121831,1,2,0:0:0:0:
313,39,121896,1,2,0:0:0:0:
364,43,121961,1,2,0:0:0:0:
404,75,122026,1,10,0:0:0:0:
427,122,122092,1,2,0:0:0:0:
431,173,122157,1,10,0:0:0:0:
410,220,122222,1,0,0:0:0:0:
359,232,122287,1,0,0:0:0:0:
317,198,122353,1,2,0:0:0:0:
368,172,122418,1,10,0:0:0:0:
424,179,122483,1,2,0:0:0:0:
458,224,122548,1,2,0:0:0:0:
470,279,122613,1,2,0:0:0:0:
456,326,122679,1,8,0:0:0:0:
298,325,123200,6,0,P|194:277|128:357,1,232.749992897034,0|0,0:0|0:0,0:0:0:0:
49,354,123722,6,0,L|45:212,1,104.500003189087,4|0,3:1|0:0,0:0:0:0:
110,123,123983,2,0,P|159:140|230:133,1,104.500003189087,8|0,0:0|0:0,0:0:0:0:
348,53,124244,2,0,P|296:93|276:150,1,104.500003189087,2|2,0:0|0:0,0:0:0:0:
376,285,124505,2,0,P|336:233|279:213,1,104.500003189087,8|0,0:0|0:0,0:0:0:0:
146,249,124766,6,0,L|34:246,1,104.500003189087,2|0,0:0|0:0,0:0:0:0:
230,253,125026,1,8,0:0:0:0:
230,253,125157,2,0,P|244:312|230:382,1,104.500003189087,0|2,0:0|0:0,0:0:0:0:
252,153,125418,1,2,0:0:0:0:
252,153,125548,2,0,L|372:146,1,104.500003189087,8|0,0:0|0:0,0:0:0:0:
106,39,125809,6,0,B|73:92|100:153|100:153|132:193|84:283,1,209.000006378174,2|8,0:0|0:0,0:0:0:0:
183,356,126200,1,0,0:0:0:0:
254,253,126331,2,0,P|319:242|379:257,1,104.500003189087,2|2,0:0|0:0,0:0:0:0:
499,74,126592,2,0,P|445:101|428:159,1,104.500003189087,8|0,0:0|0:0,0:0:0:0:
443,273,126853,6,0,P|453:335|439:392,1,104.500003189087,2|0,0:0|0:0,0:0:0:0:
340,286,127113,1,8,0:0:0:0:
345,164,127244,2,0,L|236:155,1,104.500003189087,0|2,0:0|0:0,0:0:0:0:
72,54,127505,2,0,L|176:62,1,104.500003189087,2|8,0:0|0:0,0:0:0:0:
311,159,127766,1,0,0:0:0:0:
166,218,127896,5,2,0:0:0:0:
211,44,128026,1,0,0:0:0:0:
397,281,128157,2,0,L|174:253,1,209.000006378174,8|2,0:0|0:0,0:0:0:0:
85,349,128548,1,0,0:0:0:0:
20,254,128679,2,0,P|14:174|29:134,1,104.500003189087,8|0,0:0|0:0,0:0:0:0:
193,143,128940,6,0,B|182:218|182:218|200:268|200:268|185:373,1,209.000006378174,2|8,0:0|0:0,0:0:0:0:
277,198,129331,1,0,0:0:0:0:
401,15,129461,2,0,B|394:68|394:68|406:132|406:132|394:228,1,209.000006378174,2|8,0:0|0:0,0:0:0:0:
309,330,129853,1,0,0:0:0:0:
223,33,129983,5,2,0:0:0:0:
363,280,130113,1,0,0:0:0:0:
370,12,130244,5,8,0:0:0:0:
223,242,130374,1,0,0:0:0:0:
82,52,130505,5,2,0:0:0:0:
201,319,130635,1,2,0:0:0:0:
210,76,130766,5,8,0:0:0:0:
66,302,130896,1,0,0:0:0:0:
271,134,131026,6,0,B|340:128|340:128|411:141|411:141|501:131,1,209.000006378174,2|8,0:0|0:0,0:0:0:0:
426,37,131418,1,0,0:0:0:0:
306,225,131548,2,0,P|247:237|194:221,1,104.500003189087,2|2,0:0|0:0,0:0:0:0:
85,95,131809,2,0,P|144:84|197:100,1,104.500003189087,8|0,0:0|0:0,0:0:0:0:
358,133,132070,6,0,P|393:210|337:333,1,209.000006378174,6|8,0:0|0:0,0:0:0:0:
240,358,132461,1,0,0:0:0:0:
164,272,132592,2,0,P|105:267|61:286,1,104.500003189087
252,341,132853,2,0,P|263:288|247:226,1,104.500003189087,8|0,0:0|0:0,0:0:0:0:
107,57,133113,6,0,L|120:176,1,104.500003189087,2|0,0:0|0:0,0:0:0:0:
45,239,133374,1,8,0:0:0:0:
209,103,133505,2,0,L|231:240,1,104.500003189087,0|2,0:0|0:0,0:0:0:0:
193,340,133766,1,2,0:0:0:0:
316,235,133896,2,0,L|338:372,1,104.500003189087,8|0,0:0|0:0,0:0:0:0:
439,186,134157,6,0,P|365:161|383:45,1,209.000006378174,2|8,0:0|0:0,0:0:0:0:
497,38,134548,1,0,0:0:0:0:
265,142,134679,2,0,P|210:161|156:149,1,104.500003189087,2|2,0:0|0:0,0:0:0:0:
79,9,134940,2,0,L|88:123,1,104.500003189087,8|0,0:0|0:0,0:0:0:0:
30,307,135200,6,0,L|23:186,1,104.500003189087,2|0,0:0|0:0,0:0:0:0:
114,330,135461,1,8,0:0:0:0:
197,249,135592,2,0,P|260:237|307:250,1,104.500003189087,0|2,0:0|0:0,0:0:0:0:
396,156,135853,2,0,P|350:101|353:52,1,104.500003189087,2|8,0:0|0:0,0:0:0:0:
382,253,136113,1,0,0:0:0:0:
322,133,136244,5,2,0:0:0:0:
296,283,136374,1,0,0:0:0:0:
207,155,136505,2,0,P|126:134|44:220,1,209.000006378174,8|2,0:0|0:0,0:0:0:0:
127,307,136896,1,0,0:0:0:0:
232,269,137026,2,0,L|358:263,1,104.500003189087,8|0,0:0|0:0,0:0:0:0:
434,199,137287,6,0,P|448:143|418:83,1,104.500003189087,2|0,0:0|0:0,0:0:0:0:
352,8,137548,1,8,0:0:0:0:
258,141,137679,1,0,0:0:0:0:
177,38,137809,2,0,P|111:22|61:41,1,104.500003189087,2|2,0:0|0:0,0:0:0:0:
25,167,138070,2,0,L|40:302,1,104.500003189087,8|0,0:0|0:0,0:0:0:0:
214,363,138331,5,10,0:0:0:0:
239,141,138461,1,0,0:0:0:0:
78,276,138592,1,10,0:0:0:0:
307,210,138722,1,2,0:0:0:0:
118,127,138853,1,10,0:0:0:0:
292,316,138983,1,2,0:0:0:0:
330,88,139113,1,8,0:0:0:0:
181,258,139244,1,0,0:0:0:0:
456,265,139374,6,0,P|492:217|403:105,1,209.000006378174,8|10,0:0|0:0,0:0:0:0:
188,62,139766,1,2,0:0:0:0:
188,62,139831,1,2,0:0:0:0:
188,62,139896,1,10,0:0:0:0:
311,328,140026,1,10,0:0:0:0:
408,58,140157,1,10,0:0:0:0:
147,255,140287,1,10,0:0:0:0:
413,187,140418,6,0,L|183:186,1,209.000006378174,6|8,0:0|0:0,0:0:0:0:
89,105,140809,1,0,0:0:0:0:
39,221,140940,2,0,P|28:294|49:343,1,104.500003189087,2|2,0:0|0:0,0:0:0:0:
227,165,141200,2,0,P|238:92|217:43,1,104.500003189087,8|0,0:0|0:0,0:0:0:0:
255,310,141461,6,0,P|326:320|364:310,1,104.500003189087,2|0,0:0|0:0,0:0:0:0:
451,113,141722,2,0,P|396:149|374:194,1,104.500003189087,8|0,0:0|0:0,0:0:0:0:
474,337,141983,2,0,P|489:278|467:222,1,104.500003189087,2|2,0:0|0:0,0:0:0:0:
344,198,142244,2,0,L|228:191,1,104.500003189087,8|0,0:0|0:0,0:0:0:0:
111,61,142505,6,0,P|142:117|92:259,1,209.000006378174,2|8,0:0|0:0,0:0:0:0:
28,346,142896,1,0,0:0:0:0:
186,299,143026,2,0,P|252:295|298:304,1,104.500003189087,2|2,0:0|0:0,0:0:0:0:
418,260,143287,2,0,P|387:197|396:142,1,104.500003189087,8|0,0:0|0:0,0:0:0:0:
493,58,143548,6,0,B|434:95|434:95|286:72,1,209.000006378174,2|8,0:0|0:0,0:0:0:0:
206,5,143940,1,0,0:0:0:0:
121,82,144070,2,0,L|14:68,1,104.500003189087,2|2,0:0|0:0,0:0:0:0:
178,150,144331,2,0,L|281:163,1,104.500003189087,8|2,0:0|0:0,0:0:0:0:
34,179,144592,6,0,P|8:257|53:385,1,209.000006378174,6|8,0:0|0:0,0:0:0:0:
137,376,144983,1,0,0:0:0:0:
223,306,145113,2,0,P|284:297|344:302,1,104.500003189087,2|2,0:0|0:0,0:0:0:0:
426,200,145374,2,0,P|411:133|425:71,1,104.500003189087,8|0,0:0|0:0,0:0:0:0:
303,25,145635,6,0,P|245:64|167:62,1,104.500003189087,2|0,0:0|0:0,0:0:0:0:
43,22,145896,1,8,0:0:0:0:
177,137,146026,1,0,0:0:0:0:
0,100,146157,1,2,0:0:0:0:
137,13,146287,1,0,0:0:0:0:
80,193,146418,2,0,L|70:301,1,104.500003189087,8|0,0:0|0:0,0:0:0:0:
214,353,146679,6,0,P|268:327|423:354,1,209.000006378174,2|8,0:0|0:0,0:0:0:0:
498,244,147070,1,0,0:0:0:0:
377,186,147200,2,0,P|306:203|265:195,1,104.500003189087,2|2,0:0|0:0,0:0:0:0:
183,11,147461,2,0,P|253:35|290:73,1,104.500003189087,8|0,0:0|0:0,0:0:0:0:
195,248,147722,6,0,P|126:196|214:119,1,209.000006378174,2|8,0:0|0:0,0:0:0:0:
324,48,148113,1,0,0:0:0:0:
386,163,148244,2,0,P|400:225|386:285,1,104.500003189087,2|2,0:0|0:0,0:0:0:0:
303,354,148505,2,0,L|191:346,1,104.500003189087,8|0,0:0|0:0,0:0:0:0:
31,201,148766,5,6,0:0:0:0:
172,341,148896,1,0,0:0:0:0:
183,146,149026,1,8,0:0:0:0:
34,315,149157,1,0,0:0:0:0:
54,77,149287,1,2,0:0:0:0:
215,231,149418,1,2,0:0:0:0:
183,27,149548,1,8,0:0:0:0:
21,185,149679,1,0,0:0:0:0:
223,324,149809,6,0,L|347:312,1,104.500003189087,2|2,0:0|0:0,0:0:0:0:
469,167,150070,1,8,0:0:0:0:
398,371,150200,1,0,0:0:0:0:
329,148,150331,1,2,0:0:0:0:
512,283,150461,1,0,0:0:0:0:
247,359,150592,1,8,0:0:0:0:
239,101,150722,1,0,0:0:0:0:
412,276,150853,5,2,0:0:0:0:
172,294,150983,1,0,0:0:0:0:
307,32,151113,1,8,0:0:0:0:
108,151,151244,1,0,0:0:0:0:
381,180,151374,1,2,0:0:0:0:
182,13,151505,1,2,0:0:0:0:
190,273,151635,1,8,0:0:0:0:
22,101,151766,1,0,0:0:0:0:
305,79,151896,6,0,P|397:55|498:105,1,209.000006378174,2|8,0:0|0:0,0:0:0:0:
507,215,152287,1,0,0:0:0:0:
405,310,152418,2,0,P|333:327|298:324,1,104.500003189087,2|2,0:0|0:0,0:0:0:0:
188,166,152679,2,0,P|277:213|290:246,1,104.500003189087,8|0,0:0|0:0,0:0:0:0:
102,310,152940,6,0,L|98:98,1,209.000006378174,6|8,0:0|0:0,0:0:0:0:
228,7,153331,1,0,0:0:0:0:
326,102,153461,2,0,P|395:111|444:96,1,104.500003189087,2|2,0:0|0:0,0:0:0:0:
177,64,153722,1,8,0:0:0:0:
245,274,153853,1,0,0:0:0:0:
117,154,153983,6,0,L|3:138,1,104.500003189087,6|0,0:0|0:0,0:0:0:0:
228,369,154244,1,8,0:0:0:0:
333,73,154374,1,0,0:0:0:0:
77,249,154505,1,8,0:0:0:0:
375,279,154635,1,8,0:0:0:0:
203,47,154766,1,8,0:0:0:0:
134,359,154896,1,8,0:0:0:0:
472,266,155026,6,0,B|422:287|390:283|321:266|321:266|375:225|388:180|370:148|336:138|311:162|311:162|289:118|251:123|249:149|225:180|259:228|255:242|255:242|179:235|139:200|133:136|98:135|-9:114|28:202|36:233|83:232|83:232|133:251|131:322,1,930.999971588136,4|0,0:0|0:0,0:0:0:0:
256,192,157113,12,4,159200,0:0:0:0:
79,48,167201,6,0,L|88:169,1,99.7499969558717,6|0,0:0|0:0,0:0:0:0:
119,234,167451,2,0,P|153:227|217:229,1,99.7499969558717,2|0,0:0|0:0,0:0:0:0:
308,175,167701,2,0,P|352:175|349:311,1,199.499993911743,10|2,0:0|0:0,0:0:0:0:
286,353,168201,6,0,L|171:355,1,99.7499969558717,2|0,0:0|0:0,0:0:0:0:
89,337,168451,2,0,P|74:305|84:215,1,99.7499969558717,2|0,0:0|0:0,0:0:0:0:
129,112,168701,2,0,P|168:162|305:154,1,199.499993911743,10|2,0:0|0:0,0:0:0:0:
375,65,169201,6,0,P|428:51|480:89,1,99.7499969558717,2|0,0:0|0:0,0:0:0:0:
502,166,169451,2,0,L|492:286,1,99.7499969558717,2|0,0:0|0:0,0:0:0:0:
405,352,169701,2,0,P|357:326|200:375,1,199.499993911743,10|2,0:0|0:0,0:0:0:0:
118,351,170201,6,0,P|100:296|115:247,1,99.7499969558717,2|0,0:0|0:0,0:0:0:0:
204,221,170451,2,0,P|210:177|200:111,1,99.7499969558717,2|0,0:0|0:0,0:0:0:0:
134,65,170701,2,0,P|200:103|281:88,1,132.999995941162,10|2,0:0|0:0,0:0:0:0:
323,17,171076,1,0,0:0:0:0:
403,91,171201,6,0,P|421:157|388:221,1,132.999995941162,6|0,0:0|0:0,0:0:0:0:
285,311,171701,2,0,L|145:303,1,132.999995941162,14|0,0:0|0:0,0:0:0:0:
57,209,172201,2,0,P|22:166|67:111,1,132.999995941162,6|0,0:0|0:0,0:0:0:0:
166,32,172701,2,0,P|201:75|156:130,1,132.999995941162,14|0,0:0|0:0,0:0:0:0:
255,188,173201,6,0,L|409:181,1,132.999995941162,6|0,0:0|0:0,0:0:0:0:
486,255,173701,2,0,P|460:319|468:406,1,132.999995941162,14|2,0:0|0:0,0:0:0:0:
356,358,174201,2,0,L|279:354,1,66.4999979705811,8|8,0:0|0:0,0:0:0:0:
215,288,174451,2,0,P|168:275|108:296,1,99.7499969558717,8|0,0:0|0:0,0:0:0:0:
62,340,174701,2,0,P|93:289|49:162,1,199.499993911743,0|0,0:0|0:0,0:0:0:0:
92,91,175201,6,0,L|230:86,1,104.500003189087,14|0,0:1|0:0,0:0:0:0:
360,117,175451,1,10,0:0:0:0:
279,10,175576,1,0,0:0:0:0:
259,172,175701,2,0,P|250:227|272:282,1,104.500003189087,2|2,0:0|0:0,0:0:0:0:
459,318,175951,2,0,P|399:275|342:266,1,104.500003189087,8|0,0:0|0:0,0:0:0:0:
195,328,176201,6,0,L|65:329,1,104.500003189087,2|0,0:0|0:0,0:0:0:0:
59,183,176451,1,8,0:0:0:0:
196,87,176576,2,0,L|170:209,1,104.500003189087,0|2,0:0|0:0,0:0:0:0:
77,42,176826,1,2,0:0:0:0:
314,114,176951,2,0,P|377:132|434:114,1,104.500003189087,8|0,0:0|0:0,0:0:0:0:
115,13,177201,6,0,L|124:240,1,209.000006378174,2|8,0:0|0:0,0:0:0:0:
212,337,177576,1,0,0:0:0:0:
290,228,177701,2,0,P|341:227|401:248,1,104.500003189087,2|2,0:0|0:0,0:0:0:0:
125,238,177951,2,0,P|74:237|14:258,1,104.500003189087,8|0,0:0|0:0,0:0:0:0:
261,124,178201,5,2,0:0:0:0:
210,322,178326,1,0,0:0:0:0:
393,263,178451,1,8,0:0:0:0:
304,100,178576,2,0,L|300:219,1,104.500003189087,0|2,0:0|0:0,0:0:0:0:
190,48,178826,2,0,L|79:38,1,104.500003189087,2|8,0:0|0:0,0:0:0:0:
153,201,179076,1,0,0:0:0:0:
53,48,179201,5,2,0:0:0:0:
232,151,179326,1,0,0:0:0:0:
38,173,179451,2,0,P|6:221|54:356,1,209.000006378174,8|2,0:0|0:0,0:0:0:0:
173,332,179826,1,2,0:0:0:0:
294,288,179951,2,0,P|352:278|397:291,1,104.500003189087,8|0,0:0|0:0,0:0:0:0:
460,169,180201,6,0,B|491:228|491:228|479:379,1,209.000006378174,2|8,0:0|0:0,0:0:0:0:
344,133,180576,1,0,0:0:0:0:
214,68,180701,2,0,P|162:60|175:175,1,209.000006378174,2|8,0:0|0:0,0:0:0:0:
328,220,181076,1,0,0:0:0:0:
165,297,181201,6,0,L|51:292,1,104.500003189087,10|2,0:0|0:0,0:0:0:0:
244,9,181451,5,10,0:0:0:0:
285,369,181576,1,2,0:0:0:0:
424,44,181701,5,10,0:0:0:0:
161,318,181826,1,0,0:0:0:0:
103,96,181951,5,10,0:0:0:0:
478,296,182076,1,0,0:0:0:0:
40,150,182201,6,0,P|-7:94|85:8,1,209.000006378174,6|8,0:0|0:0,0:0:0:0:
157,121,182576,1,0,0:0:0:0:
272,55,182701,2,0,L|392:45,1,104.500003189087,8|0,0:0|0:0,0:0:0:0:
194,190,182951,1,8,0:0:0:0:
340,116,183076,1,8,0:0:0:0:
160,270,183201,6,0,P|121:221|196:105,1,209.000006378174,6|8,0:0|0:0,0:0:0:0:
270,68,183576,1,0,0:0:0:0:
346,204,183701,2,0,L|463:204,1,104.500003189087,2|2,0:0|0:0,0:0:0:0:
472,36,183951,2,0,L|348:35,1,104.500003189087,8|0,0:0|0:0,0:0:0:0:
226,135,184201,6,0,P|212:191|231:250,1,104.500003189087,2|0,0:0|0:0,0:0:0:0:
134,88,184451,1,8,0:0:0:0:
355,316,184576,2,0,P|304:302|228:329,1,104.500003189087,0|2,0:0|0:0,0:0:0:0:
154,366,184826,1,2,0:0:0:0:
58,251,184951,2,0,L|46:129,1,104.500003189087,8|0,0:0|0:0,0:0:0:0:
163,34,185201,6,0,P|206:89|356:64,1,209.000006378174,2|8,0:0|0:0,0:0:0:0:
435,4,185576,1,0,0:0:0:0:
466,120,185701,2,0,P|481:181|461:233,1,104.500003189087,2|2,0:0|0:0,0:0:0:0:
311,337,185951,2,0,P|330:271|377:242,1,104.500003189087,8|0,0:0|0:0,0:0:0:0:
221,196,186201,6,0,L|109:177,1,104.500003189087,2|0,0:0|0:0,0:0:0:0:
64,306,186451,1,8,0:0:0:0:
23,178,186576,2,0,P|14:99|33:44,1,104.500003189087,0|2,0:0|0:0,0:0:0:0:
185,220,186826,2,0,P|191:271|181:322,1,104.500003189087,2|8,0:0|0:0,0:0:0:0:
48,89,187076,1,0,0:0:0:0:
46,274,187201,1,2,0:0:0:0:
163,94,187326,1,0,0:0:0:0:
186,74,187388,1,0,0:0:0:0:
204,60,187451,2,0,P|292:40|425:93,1,209.000006378174,8|2,0:0|0:0,0:0:0:0:
493,12,187826,1,2,0:0:0:0:
476,154,187951,2,0,P|435:198|430:242,1,104.500003189087,8|0,0:0|0:0,0:0:0:0:
259,277,188201,6,0,P|316:253|459:293,1,209.000006378174,2|8,0:0|0:0,0:0:0:0:
312,369,188576,1,0,0:0:0:0:
199,212,188701,2,0,P|142:204|66:222,1,104.500003189087,2|2,0:0|0:0,0:0:0:0:
5,360,188951,2,0,P|74:355|123:315,1,104.500003189087,8|0,0:0|0:0,0:0:0:0:
309,77,189201,5,14,0:0:0:0:
179,372,189326,1,0,0:0:0:0:
167,37,189451,5,12,0:0:0:0:
385,343,189576,1,8,0:0:0:0:
34,145,189701,5,6,0:0:0:0:
489,204,189826,1,0,0:0:0:0:
208,346,189951,5,14,0:0:0:0:
397,32,190076,1,0,0:0:0:0:
74,234,190201,6,0,P|31:171|107:77,1,209.000006378174,14|0,0:0|0:0,0:0:0:0:
351,289,190576,1,10,0:0:0:0:
351,289,190638,1,0,0:0:0:0:
351,289,190701,1,8,0:0:0:0:
192,37,190826,1,8,0:0:0:0:
39,310,190951,1,8,0:0:0:0:
362,73,191076,1,8,0:0:0:0:
124,374,191201,6,0,B|137:302|137:302|102:223|102:223|124:123,1,246.999988693238,14|8,0:1|0:0,0:0:0:0:
237,27,191576,1,0,0:0:0:0:
334,211,191701,2,0,P|403:229|477:202,1,123.499994346619,2|2,0:0|0:0,0:0:0:0:
102,22,191951,2,0,L|114:174,1,123.499994346619,8|0,0:0|0:0,0:0:0:0:
392,116,192201,6,0,P|462:100|519:106,1,123.499994346619,6|0,0:0|0:0,0:0:0:0:
337,349,192451,1,8,0:0:0:0:
203,78,192576,2,0,L|214:220,1,123.499994346619,4|2,0:0|0:0,0:0:0:0:
90,327,192826,1,2,0:0:0:0:
291,0,192951,2,0,L|304:132,1,123.499994346619,8|0,0:0|0:0,0:0:0:0:
191,347,193201,6,0,P|164:260|73:356,1,246.999988693238,6|8,0:0|0:0,0:0:0:0:
303,122,193576,1,0,0:0:0:0:
140,252,193701,2,0,P|80:269|19:264,1,123.499994346619,2|2,0:0|0:0,0:0:0:0:
356,55,193951,2,0,P|439:49|495:57,1,123.499994346619,8|0,0:0|0:0,0:0:0:0:
228,308,194201,5,6,0:0:0:0:
404,174,194326,1,0,0:0:0:0:
153,130,194451,1,8,0:0:0:0:
351,337,194576,2,0,L|493:334,1,123.499994346619,4|2,0:0|0:0,0:0:0:0:
133,88,194826,2,0,L|-7:82,1,123.499994346619,0|8,0:0|0:0,0:0:0:0:
257,284,195076,1,0,0:0:0:0:
252,23,195201,5,6,0:0:0:0:
94,201,195326,1,0,0:0:0:0:
376,117,195451,2,0,P|422:175|365:351,1,246.999988693238,8|2,0:0|0:0,0:0:0:0:
213,351,195826,1,2,0:0:0:0:
113,180,195951,2,0,P|36:168|-13:203,1,123.499994346619,8|0,0:0|0:0,0:0:0:0:
355,27,196201,6,0,P|326:136|316:285,1,246.999988693238,6|8,0:0|0:0,0:0:0:0:
246,333,196576,1,4,0:0:0:0:
12,102,196701,2,0,P|87:158|245:121,1,246.999988693238,2|8,0:0|0:0,0:0:0:0:
152,21,197076,1,0,0:0:0:0:
101,330,197201,5,6,0:0:0:0:
268,32,197326,1,0,0:0:0:0:
269,352,197451,5,12,0:0:0:0:
117,59,197576,1,0,0:0:0:0:
472,124,197701,5,6,0:0:0:0:
29,313,197826,1,2,0:0:0:0:
462,337,197951,5,12,0:0:0:0:
19,98,198076,1,0,0:0:0:0:
458,91,198201,6,0,L|195:181,1,246.999988693238,6|8,0:0|0:0,0:0:0:0:
199,52,198576,1,0,0:0:0:0:
334,135,198701,2,0,L|488:226,1,123.499994346619,10|0,0:0|0:0,0:0:0:0:
245,279,198951,1,8,0:0:0:0:
163,89,199076,1,8,0:0:0:0:
398,63,199201,6,0,P|469:58|465:220,1,246.999988693238,6|8,0:0|0:0,0:0:0:0:
347,329,199576,1,0,0:0:0:0:
206,61,199701,2,0,L|215:207,1,123.499994346619,2|2,0:0|0:0,0:0:0:0:
140,314,199951,2,0,P|66:332|4:310,1,123.499994346619,8|0,0:0|0:0,0:0:0:0:
320,78,200201,6,0,L|301:231,1,123.499994346619,6|0,0:0|0:0,0:0:0:0:
142,295,200451,1,8,0:0:0:0:
65,29,200576,2,0,L|75:176,1,123.499994346619,4|2,0:0|0:0,0:0:0:0:
254,304,200826,1,2,0:0:0:0:
381,149,200951,2,0,P|465:153|506:169,1,123.499994346619,8|0,0:0|0:0,0:0:0:0:
204,13,201201,6,0,B|153:62|163:117|163:117|226:186|164:275,1,246.999988693238,6|8,0:0|0:0,0:0:0:0:
332,359,201576,1,0,0:0:0:0:
103,194,201701,2,0,L|104:335,1,123.499994346619,2|2,0:0|0:0,0:0:0:0:
276,74,201951,2,0,P|384:54|427:59,1,123.499994346619,8|0,0:0|0:0,0:0:0:0:
415,291,202201,6,0,L|273:310,1,123.499994346619,6|0,0:0|0:0,0:0:0:0:
119,332,202451,1,8,0:0:0:0:
45,31,202576,2,0,L|54:166,1,123.499994346619,4|2,0:0|0:0,0:0:0:0:
225,211,202826,2,0,L|225:373,1,123.499994346619,2|8,0:0|0:0,0:0:0:0:
262,37,203076,1,0,0:0:0:0:
397,287,203201,5,6,0:0:0:0:
115,202,203326,2,0,L|53:211,1,61.7499971733095
462,136,203451,2,0,L|188:112,1,246.999988693238,8|2,0:0|0:0,0:0:0:0:
74,64,203826,1,2,0:0:0:0:
41,172,203951,2,0,P|23:234|56:292,1,123.499994346619,8|0,0:0|0:0,0:0:0:0:
267,167,204201,6,0,P|350:150|450:268,1,246.999988693238,6|8,0:0|0:0,0:0:0:0:
260,352,204576,1,4,0:0:0:0:
194,71,204701,2,0,P|111:54|11:172,1,246.999988693238,2|8,0:0|0:0,0:0:0:0:
177,337,205076,1,0,0:0:0:0:
404,29,205201,5,14,0:0:0:0:
67,244,205326,1,2,0:0:0:0:
465,92,205451,5,14,0:0:0:0:
121,320,205576,1,2,0:0:0:0:
23,31,205701,5,14,0:0:0:0:
497,168,205826,1,2,0:0:0:0:
15,139,205951,5,14,0:0:0:0:
486,264,206076,1,2,0:0:0:0:
149,264,206201,6,0,P|82:290|20:149,1,246.999988693238,12|8,0:0|0:0,0:0:0:0:
263,22,206576,1,8,0:0:0:0:
263,22,206638,1,8,0:0:0:0:
263,22,206701,1,8,0:0:0:0:
214,349,206826,1,8,0:0:0:0:
77,24,206951,1,8,0:0:0:0:
386,258,207076,1,8,0:0:0:0:
37,134,207201,6,0,B|111:111|111:111|298:142,1,246.999988693238,14|12,0:1|0:0,0:0:0:0:
432,52,207576,1,0,0:0:0:0:
366,308,207701,2,0,P|303:277|279:222,1,123.499994346619,2|2,0:0|0:0,0:0:0:0:
485,114,207951,2,0,L|474:249,1,123.499994346619,12|0,0:0|0:0,0:0:0:0:
226,320,208201,6,0,P|157:308|104:330,1,123.499994346619,2|0,0:0|0:0,0:0:0:0:
22,138,208451,2,0,P|63:216|46:296,1,123.499994346619,12|0,0:0|0:0,0:0:0:0:
214,21,208701,1,2,0:0:0:0:
74,326,208826,1,2,0:0:0:0:
5,44,208951,1,12,0:0:0:0:
260,275,209076,1,0,0:0:0:0:
349,47,209201,6,0,B|351:114|351:114|310:205|310:205|306:305,1,246.999988693238,2|12,0:0|0:0,0:0:0:0:
426,264,209576,1,0,0:0:0:0:
203,86,209701,2,0,L|69:79,1,123.499994346619,2|2,0:0|0:0,0:0:0:0:
297,339,209951,2,0,L|420:345,1,123.499994346619,12|0,0:0|0:0,0:0:0:0:
52,17,210201,6,0,P|92:126|80:266,1,246.999988693238,6|8,0:0|0:0,0:0:0:0:
217,355,210576,1,4,0:0:0:0:
390,115,210701,2,0,P|454:108|472:179,1,123.499994346619,2|2,0:0|0:0,0:0:0:0:
92,284,210951,2,0,P|28:277|10:348,1,123.499994346619,12|0,0:0|0:0,0:0:0:0:
369,88,211201,6,0,B|274:76|274:76|206:102|206:102|124:84,1,246.999988693238,14|12,0:1|0:0,0:0:0:0:
390,253,211576,1,0,0:0:0:0:
89,76,211701,2,0,P|63:143|108:201,1,123.499994346619,2|2,0:0|0:0,0:0:0:0:
381,366,211951,2,0,P|407:299|362:241,1,123.499994346619,12|0,0:0|0:0,0:0:0:0:
90,9,212201,6,0,L|109:278,1,246.999988693238,2|12,0:0|0:0,0:0:0:0:
289,344,212576,1,0,0:0:0:0:
286,60,212701,1,2,0:0:0:0:
80,280,212826,1,2,0:0:0:0:
391,197,212951,2,0,P|459:210|499:260,1,123.499994346619,12|0,0:0|0:0,0:0:0:0:
208,12,213201,6,0,B|217:164|217:164|196:297,1,246.999988693238,2|12,0:0|0:0,0:0:0:0:
69,348,213576,1,0,0:0:0:0:
306,105,213701,2,0,P|385:95|446:110,1,123.499994346619,2|2,0:0|0:0,0:0:0:0:
170,260,213951,2,0,P|108:274|41:251,1,123.499994346619,12|0,0:0|0:0,0:0:0:0:
158,30,214201,5,14,0:0:0:0:
373,322,214326,1,0,0:0:0:0:
36,128,214451,1,0,0:0:0:0:
378,94,214576,1,12,0:0:0:0:
40,299,214701,1,2,0:0:0:0:
311,17,214826,1,0,0:0:0:0:
208,366,214951,1,12,0:0:0:0:
25,39,215076,1,0,0:0:0:0:
363,49,215201,6,0,L|347:182,1,123.499994346619,14|0,1:0|0:0,0:0:0:0:
191,306,215451,1,14,0:0:0:0:
151,321,215513,1,2,0:0:0:0:
108,310,215576,1,2,0:0:0:0:
81,276,215638,1,2,0:0:0:0:
84,232,215701,1,14,0:0:0:0:
113,200,215763,1,2,0:0:0:0:
156,194,215826,1,2,0:0:0:0:
193,214,215888,1,2,0:0:0:0:
230,236,215951,1,14,0:0:0:0:
264,261,216013,1,2,0:0:0:0:
307,261,216076,1,2,0:0:0:0:
346,243,216138,1,2,0:0:0:0:
378,213,216201,5,14,0:0:0:0:
235,45,216326,2,0,B|37:52|37:52|-1:101,2,246.999988693238,2|2|2,0:0|0:0|0:0,0:0:0:0:
450,113,216951,2,0,P|472:175|441:242,1,123.499994346619,14|0,0:0|0:0,0:0:0:0:
373,323,217201,5,6,0:0:0:0:
335,344,217263,1,2,0:0:0:0:
292,355,217326,1,2,0:0:0:0:
249,349,217388,1,2,0:0:0:0:
208,333,217451,1,14,0:0:0:0:
210,290,217513,1,2,0:0:0:0:
198,247,217576,1,2,0:0:0:0:
168,216,217638,1,2,0:0:0:0:
125,204,217701,1,2,0:0:0:0:
82,212,217763,1,2,0:0:0:0:
61,247,217826,1,14,0:0:0:0:
71,285,217888,1,2,0:0:0:0:
122,307,217951,1,2,0:0:0:0:
173,288,218013,1,2,0:0:0:0:
207,244,218076,1,2,0:0:0:0:
230,194,218138,1,2,0:0:0:0:
263,148,218201,6,0,P|337:117|516:171,1,246.999988693238,6|6,0:0|0:0,0:0:0:0:
269,360,218576,1,0,0:0:0:0:
236,16,218701,1,6,0:0:0:0:
426,344,218826,1,0,0:0:0:0:
36,71,218951,1,6,0:0:0:0:
491,114,219076,1,0,0:0:0:0:
151,330,219201,6,0,L|8:315,1,123.499994346619,6|0,0:0|0:0,0:0:0:0:
203,100,219451,1,10,0:0:0:0:
239,67,219513,1,10,0:0:0:0:
287,56,219576,1,10,0:0:0:0:
334,66,219638,1,10,0:0:0:0:
381,96,219701,1,6,0:0:0:0:
419,134,219763,1,2,0:0:0:0:
440,185,219826,1,2,0:0:0:0:
439,240,219888,1,2,0:0:0:0:
389,265,219951,1,2,0:0:0:0:
340,238,220013,1,2,0:0:0:0:
288,216,220076,1,2,0:0:0:0:
234,229,220138,1,2,0:0:0:0:
183,220,220201,6,0,P|113:217|72:64,1,227.999993041992,6|0,0:0|0:0,0:0:0:0:
299,308,221201,1,6,0:0:0:0:
