osu file format v14

[General]
AudioFilename: audio.mp3
AudioLeadIn: 0
PreviewTime: 174626
Countdown: 1
SampleSet: Soft
StackLeniency: 0.7
Mode: 0
LetterboxInBreaks: 0
WidescreenStoryboard: 1

[Editor]
DistanceSpacing: 1.2
BeatDivisor: 2
GridSize: 4
TimelineZoom: 2.849998

[Metadata]
Title:Chiisana Koi no Uta (Synth Rock Cover)
TitleUnicode:小さな恋のうた(Synth Rock Cover)
Artist:Araki
ArtistUnicode:あらき
Creator:Shishou
Version:Normal
Source:
Tags:song of a small love mongol800 RVMathew omoi
BeatmapID:1306077
BeatmapSetID:613207

[Difficulty]
HPDrainRate:3.5
CircleSize:3
OverallDifficulty:2
ApproachRate:3
SliderMultiplier:0.8
SliderTickRate:1

[Events]
//Background and Video events
0,0,"bg.jpg",0,0
//Break Periods
2,108270,110804
2,159400,165761
//Storyboard Layer 0 (Background)
//Storyboard Layer 1 (Fail)
//Storyboard Layer 2 (Pass)
//Storyboard Layer 3 (Foreground)
//Storyboard Sound Samples

[TimingPoints]
2300,272.727272727273,4,2,1,70,1,0
2846,-100,4,2,1,70,0,0
50300,-100,4,2,1,70,0,1
81936,-100,4,2,1,70,0,0
83027,260.869565217391,4,2,1,70,1,0
123722,-100,4,2,1,70,0,1
155026,-100,4,2,1,70,0,0
159201,250,4,2,1,70,1,0
167201,-100,4,2,1,70,0,0
174701,-100,4,2,1,70,0,0
175201,-100,4,2,1,70,0,1
220201,-100,4,2,1,70,0,0

[HitObjects]
58,90,2300,6,0,P|101:73|225:98,1,160,4|0,0:0|0:0,0:0:0:0:
267,166,3118,1,0,0:0:0:0:
322,87,3390,2,0,P|365:70|489:95,1,160
462,277,4481,6,0,P|385:296|309:275,1,160
232,216,5300,1,0,0:0:0:0:
158,154,5572,2,0,P|81:134|5:155,1,160
88,328,6663,6,0,B|166:338|166:338|275:330,1,160
343,337,7481,1,0,0:0:0:0:
394,255,7754,2,0,P|429:177|366:99,1,160
221,38,8845,6,0,P|143:21|55:41,1,160
10,115,9663,1,0,0:0:0:0:
82,178,9936,2,0,P|101:258|59:327,1,160,0|2,0:0|0:0,0:0:0:0:
151,363,10754,1,2,0:0:0:0:
239,324,11027,6,0,P|302:310|403:329,1,160,6|2,0:0|0:0,0:0:0:0:
476,377,11845,1,2,0:0:0:0:
487,281,12118,2,0,L|503:181,1,80,2|2,0:0|0:0,0:0:0:0:
404,192,12663,2,0,L|402:105,1,80,2|2,0:0|0:0,0:0:0:0:
327,50,13209,6,0,P|240:97|147:86,1,160,2|2,0:0|0:0,0:0:0:0:
105,37,14027,1,2,0:0:0:0:
49,115,14300,2,0,L|36:210,1,80,2|2,0:0|0:0,0:0:0:0:
126,232,14845,2,0,L|135:333,1,80,2|2,0:0|0:0,0:0:0:0:
221,349,15390,6,0,P|304:329|404:371,1,160,2|2,0:0|0:0,0:0:0:0:
470,356,16209,1,2,0:0:0:0:
439,265,16481,2,0,P|446:213|423:162,1,80,2|2,0:0|0:0,0:0:0:0:
344,168,17027,2,0,P|335:129|343:90,1,80,2|2,0:0|0:0,0:0:0:0:
429,48,17572,5,4,0:0:0:0:
256,192,18663,12,4,19754,0:0:0:0:
300,329,20845,6,0,P|215:349|140:331,1,160,6|2,0:0|0:0,0:0:0:0:
55,298,21663,1,8,0:0:0:0:
112,221,21936,2,0,P|131:131|68:44,1,160,2|2,0:0|0:0,0:0:0:0:
179,14,22754,1,8,0:0:0:0:
229,95,23027,6,0,P|322:119|404:69,1,160,2|2,0:0|0:0,0:0:0:0:
452,34,23845,1,8,0:0:0:0:
469,128,24118,2,0,P|496:206|469:296,1,160,2|2,0:0|0:0,0:0:0:0:
417,353,24936,1,8,0:0:0:0:
350,283,25209,6,0,B|298:274|298:274|168:285,1,160,2|2,0:0|0:0,0:0:0:0:
117,344,26027,1,8,0:0:0:0:
72,258,26300,2,0,P|42:172|82:108,1,160,2|2,0:0|0:0,0:0:0:0:
138,46,27118,1,8,0:0:0:0:
192,124,27390,6,0,P|289:138|363:122,1,160,2|2,0:0|0:0,0:0:0:0:
428,72,28209,1,8,0:0:0:0:
467,159,28481,2,0,P|486:246|435:337,1,160,2|2,0:0|0:0,0:0:0:0:
379,360,29300,1,8,0:0:0:0:
301,303,29572,6,0,L|185:303,1,80,6|8,0:0|0:0,0:0:0:0:
139,251,30118,2,0,L|37:253,1,80,2|8,0:0|0:0,0:0:0:0:
8,170,30663,2,0,P|-17:80|31:16,1,160,2|2,0:0|0:0,0:0:0:0:
109,9,31481,1,8,0:0:0:0:
171,82,31754,6,0,L|269:76,1,80,2|8,0:0|0:0,0:0:0:0:
343,49,32300,2,0,L|444:51,1,80,2|8,0:0|0:0,0:0:0:0:
473,132,32845,2,0,P|432:215|471:316,1,160,2|2,0:0|0:0,0:0:0:0:
455,373,33663,1,8,0:0:0:0:
375,318,33936,6,0,P|316:307|263:338,1,80,2|8,0:0|0:0,0:0:0:0:
208,338,34481,2,0,P|146:344|95:326,1,80,2|8,0:0|0:0,0:0:0:0:
50,283,35027,2,0,B|33:202|33:202|72:83,1,160,2|2,0:0|0:0,0:0:0:0:
103,45,35845,1,8,0:0:0:0:
170,113,36118,6,0,P|237:123|287:113,1,80,2|8,0:0|0:0,0:0:0:0:
316,53,36663,2,0,P|364:45|424:69,1,80,2|8,0:0|0:0,0:0:0:0:
480,95,37209,2,0,P|496:187|457:280,1,160,2|10,0:0|0:0,0:0:0:0:
452,342,38027,1,2,0:0:0:0:
356,329,38300,6,0,P|327:338|266:325,1,80,6|8,0:0|0:0,0:0:0:0:
206,267,38845,2,0,P|160:259|95:273,1,80,2|8,0:0|0:0,0:0:0:0:
31,268,39390,2,0,P|-1:180|46:121,1,160,2|2,0:0|0:0,0:0:0:0:
117,85,40209,1,8,0:0:0:0:
199,133,40481,6,0,L|316:135,1,80,2|8,0:0|0:0,0:0:0:0:
350,69,41027,1,2,0:0:0:0:
417,136,41300,1,8,0:0:0:0:
380,224,41572,6,0,L|378:398,2,160,2|2|6,0:0|0:0|0:0,0:0:0:0:
417,136,42936,1,8,0:0:0:0:
350,69,43209,2,0,P|302:66|239:75,1,80,2|8,0:0|0:0,0:0:0:0:
193,126,43754,6,0,P|138:129|94:123,1,80,2|8,0:0|0:0,0:0:0:0:
59,46,44300,1,2,0:0:0:0:
12,129,44572,1,8,0:0:0:0:
65,208,44845,6,0,L|63:319,1,80,2|8,0:0|0:0,0:0:0:0:
149,331,45390,2,0,P|200:343|246:335,1,80,2|8,0:0|3:2,0:0:0:0:
256,192,45936,12,4,49209,0:0:0:0:
439,356,50300,6,0,P|461:302|416:183,1,160,4|2,0:1|0:0,0:0:0:0:
371,136,51118,1,8,0:0:0:0:
310,210,51390,2,0,P|259:223|217:215,1,80,2|8,0:0|0:0,0:0:0:0:
159,157,51936,2,0,P|118:153|66:160,1,80,2|8,0:0|0:0,0:0:0:0:
17,229,52481,6,0,B|14:360|14:360|68:344,1,160,2|2,0:0|0:0,0:0:0:0:
120,295,53300,1,8,0:0:0:0:
199,348,53572,2,0,L|298:346,1,80,2|8,0:0|0:0,0:0:0:0:
345,276,54118,2,0,L|435:274,1,80,2|8,0:0|0:0,0:0:0:0:
505,325,54663,5,2,0:0:0:0:
501,228,54936,2,0,P|520:158|476:70,1,160,8|8,0:0|0:0,0:0:0:0:
392,99,55754,2,0,P|363:115|220:73,1,160,2|2,0:0|0:0,0:0:0:0:
58,42,56845,6,0,L|34:139,1,80,2|8,0:0|0:0,0:0:0:0:
123,164,57390,2,0,L|134:264,1,80,2|8,0:0|0:0,0:0:0:0:
160,335,57936,2,0,P|234:318|336:355,1,160,2|2,0:0|0:0,0:0:0:0:
497,284,59027,6,0,P|520:217|484:125,1,160,6|2,0:0|0:0,0:0:0:0:
404,94,59845,1,8,0:0:0:0:
317,136,60118,2,0,L|223:129,1,80,2|8,0:0|0:0,0:0:0:0:
202,40,60663,2,0,L|115:54,1,80,2|8,0:0|0:0,0:0:0:0:
48,113,61209,6,0,P|65:184|30:292,1,160,2|2,0:0|0:0,0:0:0:0:
113,335,62027,1,8,0:0:0:0:
199,294,62300,2,0,P|260:290|310:302,1,80,2|8,0:0|0:0,0:0:0:0:
344,362,62845,2,0,P|397:373|439:364,1,80,2|8,0:0|0:0,0:0:0:0:
506,323,63390,5,2,0:0:0:0:
481,230,63663,2,0,P|486:167|431:80,1,160,8|8,0:0|0:0,0:0:0:0:
355,133,64481,2,0,P|297:153|197:125,1,160,2|2,0:0|0:0,0:0:0:0:
42,25,65572,6,0,P|29:81|51:127,1,80,2|8,0:0|0:0,0:0:0:0:
118,149,66118,2,0,P|128:209|108:255,1,80,2|8,0:0|0:0,0:0:0:0:
189,296,66663,2,0,B|240:320|240:320|367:308,1,160,10|8,0:0|0:0,0:0:0:0:
432,345,67481,1,8,0:0:0:0:
486,265,67754,6,0,P|511:210|413:44,1,240,4|8,0:0|0:0,0:0:0:0:
349,80,68845,2,0,L|256:73,1,80,2|8,0:0|0:0,0:0:0:0:
189,21,69390,2,0,L|108:29,1,80,2|8,0:0|0:0,0:0:0:0:
43,99,69936,6,0,B|22:146|22:146|33:341,1,240,2|8,0:0|0:0,0:0:0:0:
128,337,71027,2,0,P|183:333|239:351,1,80,2|8,0:0|0:0,0:0:0:0:
296,371,71572,2,0,P|347:375|393:365,1,80,2|8,0:0|0:0,0:0:0:0:
419,284,72118,6,0,P|383:244|458:92,1,240,6|8,0:0|0:0,0:0:0:0:
374,31,73209,2,0,L|267:25,1,80,2|8,0:0|0:0,0:0:0:0:
205,62,73754,2,0,P|197:115|213:161,1,80,2|8,0:0|0:0,0:0:0:0:
235,230,74300,6,0,B|124:281|124:281|4:226,1,240,2|8,0:0|0:0,0:0:0:0:
23,136,75390,2,0,L|31:31,1,80,2|8,0:0|0:0,0:0:0:0:
122,32,75936,2,0,P|182:44|233:37,1,80,2|8,0:0|0:0,0:0:0:0:
291,13,76481,6,0,P|364:8|463:22,1,160,6|2,0:0|0:0,0:0:0:0:
488,107,77300,1,8,0:0:0:0:
395,129,77572,2,0,P|370:198|394:307,1,160,2|2,0:0|0:0,0:0:0:0:
467,324,78390,1,8,0:0:0:0:
378,360,78663,6,0,P|314:372|188:353,1,160,2|2,0:0|0:0,0:0:0:0:
124,358,79481,1,8,0:0:0:0:
60,285,79754,2,0,P|35:196|72:124,1,160,2|2,0:0|0:0,0:0:0:0:
135,77,80572,1,8,0:0:0:0:
183,159,80845,6,0,P|251:184|362:143,1,160,6|2,0:0|0:0,0:0:0:0:
421,204,81663,1,8,0:0:0:0:
435,109,81936,6,0,P|448:65|430:11,1,80,4|0,0:0|0:0,0:0:0:0:
346,26,82481,1,0,0:0:0:0:
187,148,83027,6,0,P|149:152|99:143,1,80,6|2,0:0|0:0,0:0:0:0:
12,153,83548,2,0,B|16:201|16:201|3:247,1,80,8|0,0:0|0:0,0:0:0:0:
62,311,84070,2,0,P|110:337|222:313,1,160,2|8,0:0|0:0,0:0:0:0:
267,243,84853,1,0,0:0:0:0:
343,300,85113,2,0,L|435:309,2,80,2|2|8,0:0|0:0|0:0,0:0:0:0:
267,243,85896,1,0,0:0:0:0:
349,194,86157,6,0,P|379:155|338:50,1,160,2|8,0:0|0:0,0:0:0:0:
256,30,86940,1,0,0:0:0:0:
170,72,87200,6,0,P|121:76|87:68,1,80,2|2,0:0|0:0,0:0:0:0:
17,132,87722,2,0,L|7:228,1,80,8|0,0:0|0:0,0:0:0:0:
64,290,88244,6,0,B|143:307|143:307|243:293,1,160,2|8,0:0|0:0,0:0:0:0:
291,230,89027,1,0,0:0:0:0:
359,296,89287,6,0,L|365:389,2,80,2|2|8,0:0|0:0|0:0,0:0:0:0:
430,117,90331,6,0,L|424:71,1,40,8|8,0:0|0:0,0:0:0:0:
424,29,90592,1,8,0:0:0:0:
329,24,90853,2,0,P|273:19|239:27,1,80,8|8,0:0|0:0,0:0:0:0:
187,96,91374,6,0,P|147:104|97:88,1,80,6|8,0:0|0:0,0:0:0:0:
27,145,91896,2,0,P|19:189|38:234,1,80,2|8,0:0|0:0,0:0:0:0:
84,301,92418,6,0,P|157:275|251:314,1,160,2|2,0:0|0:0,0:0:0:0:
323,332,93200,1,8,0:0:0:0:
400,275,93461,2,0,L|404:176,1,80,2|8,0:0|0:0,0:0:0:0:
319,146,93983,2,0,L|327:39,1,80,2|8,0:0|0:0,0:0:0:0:
233,35,94505,6,0,P|211:61|72:75,1,160,2|2,0:0|0:0,0:0:0:0:
23,18,95287,1,8,0:0:0:0:
13,113,95548,2,0,L|6:200,1,80,6|8,0:0|0:0,0:0:0:0:
77,258,96070,2,0,L|69:344,1,80,2|8,0:0|0:0,0:0:0:0:
164,320,96592,6,0,P|245:299|333:334,1,160,2|2,0:0|0:0,0:0:0:0:
402,363,97374,1,8,0:0:0:0:
451,280,97635,2,0,P|460:242|451:188,1,80,2|8,0:0|0:0,0:0:0:0:
364,169,98157,2,0,P|360:98|374:70,1,80,0|8,0:0|0:0,0:0:0:0:
269,64,98679,6,0,P|215:102|117:92,1,160,8|8,0:0|0:0,0:0:0:0:
73,14,99461,1,8,0:0:0:0:
26,97,99722,2,0,L|14:211,1,80,6|8,0:0|0:0,0:0:0:0:
71,256,100244,2,0,P|114:275|164:264,1,80,2|8,0:0|0:0,0:0:0:0:
220,211,100766,6,0,P|274:197|394:226,1,160,2|2,0:0|0:0,0:0:0:0:
469,48,101809,6,0,L|473:147,2,80,2|8|2,0:0|0:0|0:0,0:0:0:0:
372,39,102592,1,8,0:0:0:0:
302,105,102853,2,0,P|255:128|147:101,1,160,2|2,0:0|0:0,0:0:0:0:
89,34,103635,1,8,0:0:0:0:
37,114,103896,6,0,L|32:208,1,80,2|8,0:0|0:0,0:0:0:0:
102,260,104418,2,0,L|103:363,1,80,2|8,0:0|0:0,0:0:0:0:
199,334,104940,2,0,P|284:313|355:344,1,160,2|2,0:0|0:0,0:0:0:0:
443,353,105722,1,8,0:0:0:0:
480,264,105983,6,0,P|495:194|439:106,1,160,8|8,0:0|0:0,0:0:0:0:
268,77,107026,2,0,L|89:70,1,160,10|8,0:0|0:0,0:0:0:0:
13,50,107809,1,8,0:0:0:0:
23,145,108070,5,4,0:0:0:0:
436,331,112244,6,0,P|461:285|399:183,1,160,8|8,0:0|0:0,0:0:0:0:
346,131,113026,1,8,0:0:0:0:
263,180,113287,2,0,L|148:175,2,80,8|8|8,0:0|0:0|0:0,0:0:0:0:
346,131,114070,1,8,0:0:0:0:
271,69,114331,6,0,P|213:53|107:84,1,160,8|8,0:0|0:0,0:0:0:0:
27,108,115113,1,8,0:0:0:0:
73,192,115374,2,0,L|68:297,1,80,8|8,0:0|0:0,0:0:0:0:
142,334,115896,1,8,0:0:0:0:
256,192,116418,12,4,118505,0:0:0:0:
256,192,119548,12,12,122679,0:0:0:0:
58,100,123722,6,0,P|143:76|237:108,1,160,4|2,3:1|0:0,0:0:0:0:
277,162,124505,1,8,0:0:0:0:
347,97,124766,2,0,L|456:92,1,80,2|8,0:0|0:0,0:0:0:0:
476,175,125287,2,0,P|485:223|475:274,1,80,2|8,0:0|0:0,0:0:0:0:
395,298,125809,6,0,P|333:288|233:301,1,160,2|2,0:0|0:0,0:0:0:0:
159,356,126592,1,8,0:0:0:0:
82,297,126853,2,0,P|68:253|80:206,1,80,2|8,0:0|0:0,0:0:0:0:
162,183,127374,2,0,P|166:136|144:76,1,80,2|8,0:0|0:0,0:0:0:0:
86,40,127896,5,2,0:0:0:0:
180,25,128157,2,0,P|245:14|365:36,1,160,8|8,0:0|0:0,0:0:0:0:
422,72,128940,2,0,P|446:120|416:225,1,160,2|2,0:0|0:0,0:0:0:0:
367,298,129722,1,8,0:0:0:0:
288,242,129983,6,0,P|234:233|180:251,1,80,2|8,0:0|0:0,0:0:0:0:
138,302,130505,2,0,P|82:309|35:298,1,80,2|8,0:0|0:0,0:0:0:0:
27,214,131026,2,0,P|-5:149|42:69,1,160,6|2,0:0|0:0,0:0:0:0:
219,116,132070,6,0,B|259:129|259:129|388:130,1,160,6|2,0:0|0:0,0:0:0:0:
452,70,132853,1,8,0:0:0:0:
479,161,133113,2,0,P|485:232|464:263,1,80,2|8,0:0|0:0,0:0:0:0:
436,322,133635,1,2,0:0:0:0:
359,379,133896,1,8,0:0:0:0:
285,317,134157,6,0,P|220:303|118:325,1,160,2|2,0:0|0:0,0:0:0:0:
35,341,134940,1,8,0:0:0:0:
67,251,135200,2,0,L|73:167,1,80,2|8,0:0|0:0,0:0:0:0:
168,164,135722,2,0,L|176:71,1,80,2|8,0:0|0:0,0:0:0:0:
248,22,136244,5,2,0:0:0:0:
343,13,136505,2,0,P|431:23|482:88,1,160,8|8,0:0|0:0,0:0:0:0:
483,169,137287,2,0,P|506:236|482:336,1,160,2|2,0:0|0:0,0:0:0:0:
298,341,138331,6,0,L|199:339,1,80,10|10,0:0|0:0,0:0:0:0:
140,282,138853,2,0,L|50:278,1,80,10|8,0:0|0:0,0:0:0:0:
8,197,139374,2,0,P|35:147|33:46,1,160,8|10,0:0|0:0,0:0:0:0:
127,24,140157,1,10,0:0:0:0:
180,103,140418,6,0,P|288:149|417:96,1,240,6|8,0:0|0:0,0:0:0:0:
485,69,141461,1,2,0:0:0:0:
487,165,141722,1,8,0:0:0:0:
422,235,141983,2,0,L|414:336,1,80,2|8,0:0|0:0,0:0:0:0:
329,357,142505,6,0,P|273:336|85:349,1,240,2|8,0:0|0:0,0:0:0:0:
18,287,143548,1,2,0:0:0:0:
27,191,143809,1,8,0:0:0:0:
111,145,144070,2,0,L|98:41,1,80,2|8,0:0|0:0,0:0:0:0:
191,32,144592,6,0,B|241:63|241:63|442:59,1,240,6|8,0:0|0:0,0:0:0:0:
493,123,145635,2,0,P|501:178|488:225,1,80,2|8,0:0|0:0,0:0:0:0:
400,199,146157,1,2,0:0:0:0:
387,294,146418,1,8,0:0:0:0:
306,241,146679,6,0,B|239:271|239:271|48:225,1,240,2|8,0:0|0:0,0:0:0:0:
27,149,147722,2,0,P|24:87|46:58,1,80,2|8,0:0|0:0,0:0:0:0:
115,25,148244,2,0,L|228:29,1,80,2|8,0:0|0:0,0:0:0:0:
255,102,148766,6,0,P|322:132|412:100,1,160,6|2,0:0|0:0,0:0:0:0:
460,32,149548,1,8,0:0:0:0:
496,120,149809,2,0,B|515:158|515:158|502:279,1,160,2|2,0:0|0:0,0:0:0:0:
437,346,150592,1,8,0:0:0:0:
350,301,150853,6,0,P|291:286|173:298,1,160,2|2,0:0|0:0,0:0:0:0:
119,354,151635,1,8,0:0:0:0:
52,285,151896,2,0,L|46:109,1,160,2|2,0:0|0:0,0:0:0:0:
106,49,152679,1,8,0:0:0:0:
185,103,152940,6,0,P|243:123|347:106,1,160,6|2,0:0|0:0,0:0:0:0:
414,50,153722,1,8,0:0:0:0:
439,142,153983,2,0,P|455:204|445:248,1,80,6|8,0:0|0:0,0:0:0:0:
453,267,154374,1,0,0:0:0:0:
426,306,154505,2,0,P|383:319|324:324,1,80,8|8,0:0|0:0,0:0:0:0:
252,318,155026,5,4,0:0:0:0:
256,192,157113,12,4,159200,0:0:0:0:
72,89,167201,6,0,P|100:69|224:94,1,160,6|10,0:0|0:0,0:0:0:0:
383,181,168201,2,0,L|382:348,1,160,2|10,0:0|0:0,0:0:0:0:
205,264,169201,6,0,P|132:292|60:261,2,160,2|10|2,0:0|0:0|0:0,0:0:0:0:
382,337,170701,1,10,0:0:0:0:
446,156,171201,6,0,P|476:79|423:17,1,160,6|10,0:0|0:0,0:0:0:0:
245,56,172201,2,0,L|53:42,1,160,2|10,0:0|0:0,0:0:0:0:
19,224,173201,2,0,B|7:339|7:339|31:396,1,160,2|10,0:0|0:0,0:0:0:0:
108,334,173951,1,2,0:0:0:0:
196,297,174201,2,0,L|286:300,1,80,8|8,0:0|0:0,0:0:0:0:
469,217,175201,6,0,P|490:152|427:74,1,160,4|2,0:1|0:0,0:0:0:0:
365,22,175951,1,8,0:0:0:0:
294,87,176201,2,0,L|206:90,1,80,2|8,0:0|0:0,0:0:0:0:
126,50,176701,2,0,L|30:51,1,80,2|8,0:0|0:0,0:0:0:0:
36,146,177201,6,0,P|73:211|45:318,1,160,2|2,0:0|0:0,0:0:0:0:
135,354,177951,1,8,0:0:0:0:
212,297,178201,2,0,B|262:291|262:291|315:303,1,80,2|8,0:0|0:0,0:0:0:0:
360,364,178701,2,0,B|410:370|410:370|463:358,1,80,2|8,0:0|0:0,0:0:0:0:
509,298,179201,5,2,0:0:0:0:
419,263,179451,2,0,P|386:193|442:118,1,160,8|8,0:0|0:0,0:0:0:0:
342,76,180201,2,0,B|287:95|287:95|154:86,1,160,2|2,0:0|0:0,0:0:0:0:
20,186,181201,6,0,L|7:278,1,80,10|10,0:0|0:0,0:0:0:0:
102,286,181701,2,0,L|113:380,1,80,2|10,0:0|0:0,0:0:0:0:
195,319,182201,2,0,P|279:300|369:332,1,160,6|10,0:0|0:0,0:0:0:0:
443,258,183201,6,0,B|462:199|462:199|443:88,1,160,6|2,0:0|0:0,0:0:0:0:
357,62,183951,1,8,0:0:0:0:
274,111,184201,2,0,P|236:134|192:130,1,80,2|8,0:0|0:0,0:0:0:0:
137,62,184701,2,0,P|83:52|31:65,1,80,2|8,0:0|0:0,0:0:0:0:
21,143,185201,6,0,B|50:214|50:214|53:329,1,160,2|2,0:0|0:0,0:0:0:0:
121,364,185951,1,8,0:0:0:0:
188,295,186201,2,0,P|242:287|296:293,1,80,2|8,0:0|0:0,0:0:0:0:
327,362,186701,2,0,P|384:367|424:358,1,80,2|8,0:0|0:0,0:0:0:0:
482,305,187201,5,2,0:0:0:0:
426,226,187451,2,0,L|426:51,1,160,8|8,0:0|0:0,0:0:0:0:
330,59,188201,2,0,P|277:74|216:73,1,80,2|8,0:0|0:0,0:0:0:0:
171,23,188701,2,0,P|105:7|36:74,1,160,2|14,0:0|0:0,0:0:0:0:
2,151,189451,1,8,0:0:0:0:
50,233,189701,2,0,L|49:324,1,80,2|10,0:0|0:0,0:0:0:0:
140,341,190201,6,0,P|192:325|301:361,1,160,6|8,0:0|0:0,0:0:0:0:
384,376,190951,1,8,0:0:0:0:
440,298,191201,6,0,P|472:237|416:163,1,160,6|2,0:0|0:0,0:0:0:0:
375,84,191951,1,8,0:0:0:0:
307,151,192201,2,0,P|252:161|200:152,1,80,2|8,0:0|0:0,0:0:0:0:
159,92,192701,2,0,P|101:92|72:100,1,80,2|8,0:0|0:0,0:0:0:0:
30,179,193201,6,0,B|30:306|30:306|61:315,1,160,2|2,0:0|0:0,0:0:0:0:
144,267,193951,1,8,0:0:0:0:
207,339,194201,2,0,P|258:348|302:341,1,80,2|8,0:0|0:0,0:0:0:0:
307,251,194701,2,0,P|358:247|401:257,1,80,2|8,0:0|0:0,0:0:0:0:
436,333,195201,5,2,0:0:0:0:
472,244,195451,2,0,P|491:168|433:73,1,160,8|8,0:0|0:0,0:0:0:0:
369,62,196201,2,0,L|186:48,1,160,2|2,0:0|0:0,0:0:0:0:
117,22,196951,1,8,0:0:0:0:
44,84,197201,6,0,P|35:128|45:178,1,80,2|8,0:0|0:0,0:0:0:0:
116,219,197701,2,0,P|131:266|116:321,1,80,2|8,0:0|0:0,0:0:0:0:
212,340,198201,2,0,P|268:329|377:355,1,160,6|8,0:0|0:0,0:0:0:0:
462,361,198951,1,8,0:0:0:0:
475,265,199201,6,0,P|497:202|448:121,1,160,6|2,0:0|0:0,0:0:0:0:
389,53,199951,1,8,0:0:0:0:
340,136,200201,2,0,L|244:133,1,80,2|8,0:0|0:0,0:0:0:0:
178,82,200701,2,0,L|108:139,1,80,2|8,0:0|0:0,0:0:0:0:
42,195,201201,6,0,P|70:262|43:358,1,160,2|2,0:0|0:0,0:0:0:0:
148,349,201951,1,8,0:0:0:0:
224,290,202201,2,0,P|272:284|315:289,1,80,2|8,0:0|0:0,0:0:0:0:
369,357,202701,2,0,P|415:362|448:353,1,80,2|8,0:0|0:0,0:0:0:0:
471,260,203201,5,2,0:0:0:0:
394,202,203451,2,0,P|366:143|416:45,1,160,8|8,0:0|0:0,0:0:0:0:
301,48,204201,2,0,L|123:42,1,160,2|2,0:0|0:0,0:0:0:0:
34,202,205201,6,0,P|25:261|34:303,2,80,10|10|10,0:0|0:0|0:0,0:0:0:0:
108,141,205951,1,10,0:0:0:0:
184,198,206201,6,0,P|269:211|356:169,1,160,8|8,0:0|0:0,0:0:0:0:
388,104,206951,1,8,0:0:0:0:
463,163,207201,6,0,P|504:230|439:375,1,240,6|8,0:0|0:0,0:0:0:0:
358,335,208201,2,0,L|256:325,1,80,2|8,0:0|0:0,0:0:0:0:
182,319,208701,2,0,L|80:333,1,80,2|8,0:0|0:0,0:0:0:0:
31,265,209201,2,0,B|58:228|58:228|26:22,1,240,2|8,0:0|0:0,0:0:0:0:
121,58,210201,6,0,P|179:78|220:65,1,80,2|8,0:0|0:0,0:0:0:0:
285,38,210701,2,0,P|355:32|386:38,1,80,2|8,0:0|0:0,0:0:0:0:
437,96,211201,2,0,P|482:136|420:295,1,240,6|8,0:0|0:0,0:0:0:0:
348,324,212201,2,0,P|309:342|251:328,1,80,2|8,0:0|0:0,0:0:0:0:
193,285,212701,1,2,0:0:0:0:
121,348,212951,1,8,0:0:0:0:
66,269,213201,6,0,P|25:208|112:84,1,240,2|8,0:0|0:0,0:0:0:0:
196,50,214201,2,0,L|290:47,1,80,2|8,0:0|0:0,0:0:0:0:
328,128,214701,2,0,L|427:127,1,80,14|8,0:0|0:0,0:0:0:0:
483,187,215201,6,0,P|512:237|475:355,1,160,12|10,0:0|0:0,0:0:0:0:
403,363,215951,1,10,0:0:0:0:
329,300,216201,2,0,P|256:277|114:346,1,240,14|10,0:0|0:0,0:0:0:0:
56,268,217201,6,0,L|42:168,1,80,2|10,0:0|0:0,0:0:0:0:
139,172,217701,2,0,L|125:72,1,80,2|2,0:0|0:0,0:0:0:0:
208,41,218201,2,0,P|257:77|378:64,1,160,6|2,0:0|0:0,0:0:0:0:
430,20,218951,1,10,0:0:0:0:
475,104,219201,6,0,P|490:154|461:262,1,160,6|2,0:0|0:0,0:0:0:0:
395,323,219951,1,10,0:0:0:0:
317,266,220201,2,0,P|249:250|155:294,2,160,6|0|6,0:0|0:0|0:0,0:0:0:0:
