osu file format v14

[General]
AudioFilename: audio.mp3
AudioLeadIn: 0
PreviewTime: 174626
Countdown: 1
SampleSet: Soft
StackLeniency: 0.3
Mode: 0
LetterboxInBreaks: 0
WidescreenStoryboard: 1

[Editor]
DistanceSpacing: 1.4
BeatDivisor: 4
GridSize: 4
TimelineZoom: 3.349998

[Metadata]
Title:Chiisana Koi no Uta (Synth Rock Cover)
TitleUnicode:小さな恋のうた(Synth Rock Cover)
Artist:Araki
ArtistUnicode:あらき
Creator:Shishou
Version:Mathew's Hard
Source:
Tags:song of a small love mongol800 RVMathew omoi
BeatmapID:1353365
BeatmapSetID:613207

[Difficulty]
HPDrainRate:4
CircleSize:3.8
OverallDifficulty:6
ApproachRate:8
SliderMultiplier:1.1
SliderTickRate:1

[Events]
//Background and Video events
0,0,"bg.jpg",0,0
//Break Periods
2,70136,79822
2,108270,111494
2,142705,151929
2,159201,165951
//Storyboard Layer 0 (Background)
//Storyboard Layer 1 (Fail)
//Storyboard Layer 2 (Pass)
//Storyboard Layer 3 (Foreground)
//Storyboard Sound Samples

[TimingPoints]
2300,272.727272727273,4,2,1,70,1,0
2300,-125,4,2,1,70,0,0
20845,-100,4,2,1,70,0,0
50300,-94.3396226415094,4,2,1,70,0,1
58481,-94.3396226415094,4,2,1,70,0,0
59027,-94.3396226415094,4,2,1,70,0,1
67209,-94.3396226415094,4,2,1,70,0,0
67754,-100,4,2,1,70,0,0
83027,260.869565217391,4,2,1,70,1,0
83027,-125,4,2,1,70,0,0
91374,-100,4,2,1,70,0,0
112440,-100,4,2,1,5,0,0
112505,-100,4,2,1,70,0,0
112700,-100,4,2,1,5,0,0
112766,-100,4,2,1,70,0,0
112961,-100,4,2,1,5,0,0
113026,-100,4,2,1,70,0,0
123722,-94.3396226415094,4,2,1,70,0,1
131548,-94.3396226415094,4,2,1,70,0,0
132070,-94.3396226415094,4,2,1,70,0,1
139896,-94.3396226415094,4,2,1,70,0,0
140418,-100,4,2,1,70,0,0
159201,250,4,2,1,70,1,0
159201,-100,4,2,1,70,0,0
175201,-90.9090909090909,4,2,1,70,0,1
182701,-90.9090909090909,4,2,1,70,0,0
183201,-90.9090909090909,4,2,1,70,0,1
190701,-90.9090909090909,4,2,1,70,0,0
191201,-90.9090909090909,4,2,1,70,0,1
198701,-90.9090909090909,4,2,1,70,0,0
199201,-90.9090909090909,4,2,1,70,0,1
206701,-90.9090909090909,4,2,1,70,0,0
207201,-100,4,2,1,70,0,0

[HitObjects]
102,135,2300,6,0,L|89:45,1,88,0|0,0:0|0:0,0:0:0:0:
206,8,2845,2,0,L|219:98,1,88,0|0,0:0|0:0,0:0:0:0:
179,211,3390,5,0,0:0:0:0:
387,343,3936,1,0,0:0:0:0:
450,237,4209,1,0,0:0:0:0:
330,262,4481,6,0,L|232:262,1,88,0|0,0:0|0:0,0:0:0:0:
149,179,5027,2,0,L|247:179,1,88,0|0,0:0|0:0,0:0:0:0:
331,100,5572,5,0,0:0:0:0:
103,5,6118,1,0,0:0:0:0:
33,106,6390,1,0,0:0:0:0:
121,191,6663,6,0,L|128:280,1,88,0|0,0:0|0:0,0:0:0:0:
234,342,7209,2,0,L|227:254,1,88,0|0,0:0|0:0,0:0:0:0:
175,142,7754,5,0,0:0:0:0:
374,287,8300,1,0,0:0:0:0:
256,252,8572,1,0,0:0:0:0:
168,338,8845,6,0,L|112:342,1,44,0|0,0:0|0:0,0:0:0:0:
74,314,9118,1,0,0:0:0:0:
74,314,9254,2,0,P|80:271|59:226,2,88,0|0|0,0:0|0:0|0:0,0:0:0:0:
110,364,9936,5,0,0:0:0:0:
169,256,10209,1,0,0:0:0:0:
287,288,10481,2,0,P|330:284|374:288,1,88,2|2,0:0|0:0,0:0:0:0:
486,234,11027,6,0,P|502:197|497:126,1,88,6|2,0:0|0:0,0:0:0:0:
465,32,11572,1,2,0:0:0:0:
382,123,11845,1,2,0:0:0:0:
503,149,12118,5,2,0:0:0:0:
382,123,12390,2,0,L|325:128,1,44,2|0,0:0|0:0,0:0:0:0:
282,152,12663,2,0,P|300:189|299:245,1,88,2|2,0:0|0:0,0:0:0:0:
197,302,13209,6,0,P|179:265|180:209,1,88,2|2,0:0|0:0,0:0:0:0:
301,235,13754,1,2,0:0:0:0:
406,298,14027,1,2,0:0:0:0:
411,174,14300,5,2,0:0:0:0:
301,235,14572,2,0,L|254:238,1,44,2|0,0:0|0:0,0:0:0:0:
195,240,14845,2,0,P|172:200|178:150,1,88,2|2,0:0|0:0,0:0:0:0:
295,179,15390,6,0,P|318:219|312:269,1,88,2|2,0:0|0:0,0:0:0:0:
227,346,15936,1,2,0:0:0:0:
105,322,16209,1,2,0:0:0:0:
74,203,16481,6,0,L|66:143,1,44,2|0,0:0|0:0,0:0:0:0:
115,119,16754,2,0,L|120:162,1,44,2|0,0:0|0:0,0:0:0:0:
164,206,17027,2,0,P|208:198|252:215,1,88,2|2,0:0|0:0,0:0:0:0:
345,287,17572,5,4,0:0:0:0:
438,206,17845,1,0,0:0:0:0:
438,206,17981,2,0,P|406:170|398:113,1,88,0|0,0:0|0:0,0:0:0:0:
296,58,18527,1,0,0:0:0:0:
296,58,18663,6,0,P|283:98|307:146,1,88,8|10,0:0|0:0,0:0:0:0:
339,186,19072,1,2,0:0:0:0:
339,186,19209,2,0,L|318:228,1,44,2|2,0:0|0:0,0:0:0:0:
284,275,19481,2,0,L|233:272,1,44,10|2,0:0|0:0,0:0:0:0:
179,286,19754,5,6,0:0:0:0:
61,69,20300,1,0,0:0:0:0:
61,69,20572,1,0,0:0:0:0:
61,69,20845,6,0,P|110:81|178:53,1,110,6|8,0:0|0:0,0:0:0:0:
233,26,21254,1,0,0:0:0:0:
296,69,21390,2,0,P|304:98|301:125,1,55,2|2,0:0|0:0,0:0:0:0:
232,157,21663,2,0,P|224:128|227:101,1,55,8|0,0:0|0:0,0:0:0:0:
301,122,21936,5,2,0:0:0:0:
373,258,22209,1,8,0:0:0:0:
342,328,22345,1,0,0:0:0:0:
373,258,22481,2,0,L|400:191,1,55,2|2,0:0|0:0,0:0:0:0:
316,201,22754,2,0,L|343:134,1,55,8|0,0:0|0:0,0:0:0:0:
303,80,23027,6,0,P|246:94|186:61,1,110,2|8,0:0|0:0,0:0:0:0:
133,36,23436,1,0,0:0:0:0:
71,82,23572,2,0,P|53:110|57:156,1,55,2|2,0:0|0:0,0:0:0:0:
108,182,23845,2,0,P|126:154|122:108,1,55,8|0,0:0|0:0,0:0:0:0:
50,131,24118,5,2,0:0:0:0:
122,266,24390,2,0,L|187:279,1,55,8|0,0:0|0:0,0:0:0:0:
156,351,24663,2,0,L|220:363,1,55,2|2,0:0|0:0,0:0:0:0:
270,312,24936,2,0,L|334:324,1,55,8|0,0:0|0:0,0:0:0:0:
393,287,25209,6,0,P|413:239|385:171,1,110,2|8,0:0|0:0,0:0:0:0:
353,121,25618,1,0,0:0:0:0:
282,151,25754,2,0,L|212:151,1,55,2|2,0:0|0:0,0:0:0:0:
206,225,26027,2,0,L|136:225,1,55,8|0,0:0|0:0,0:0:0:0:
123,152,26300,6,0,P|177:150|232:98,1,110,2|8,0:0|0:0,0:0:0:0:
276,63,26709,1,0,0:0:0:0:
338,107,26845,2,0,P|337:138|360:178,1,55,2|2,0:0|0:0,0:0:0:0:
421,176,27118,2,0,P|422:145|399:105,1,55,8|0,0:0|0:0,0:0:0:0:
345,160,27390,6,0,P|344:191|367:231,1,55,2|0,0:0|0:0,0:0:0:0:
421,176,27663,1,8,0:0:0:0:
352,213,27800,2,0,P|293:216|233:246,1,110,0|2,0:0|0:0,0:0:0:0:
178,272,28209,1,0,0:0:0:0:
145,202,28345,6,0,P|146:171|124:134,2,55,0|2|0,0:0|0:0|0:0,0:0:0:0:
178,272,28754,1,8,0:0:0:0:
62,374,29027,1,2,0:0:0:0:
62,374,29299,1,8,0:0:0:0:
62,374,29572,6,0,L|189:374,1,110,6|8,0:0|0:0,0:0:0:0:
242,341,29981,1,0,0:0:0:0:
291,282,30117,2,0,P|300:252|289:214,1,55,2|2,0:0|0:0,0:0:0:0:
226,196,30390,2,0,P|217:226|228:264,1,55,8|0,0:0|0:0,0:0:0:0:
291,282,30663,5,2,0:0:0:0:
438,238,30936,1,8,0:0:0:0:
386,181,31072,1,0,0:0:0:0:
318,217,31208,2,0,L|246:217,1,55,2|2,0:0|0:0,0:0:0:0:
236,144,31481,2,0,L|291:144,1,55,8|0,0:0|0:0,0:0:0:0:
359,107,31754,6,0,P|386:152|371:203,1,110,2|8,0:0|0:0,0:0:0:0:
322,263,32163,1,0,0:0:0:0:
322,263,32300,2,0,L|339:337,1,55,2|2,0:0|0:0,0:0:0:0:
410,323,32572,2,0,L|393:249,1,55,8|0,0:0|0:0,0:0:0:0:
440,205,32845,5,2,0:0:0:0:
374,66,33117,2,0,L|308:66,1,55,8|0,0:0|0:0,0:0:0:0:
269,125,33390,2,0,L|203:125,1,55,2|2,0:0|0:0,0:0:0:0:
185,196,33663,2,0,L|240:196,1,55,8|0,0:0|0:0,0:0:0:0:
311,226,33936,6,0,P|331:262|302:332,1,110,2|8,0:0|0:0,0:0:0:0:
251,274,34345,1,0,0:0:0:0:
311,324,34481,2,0,L|375:328,1,55,2|2,0:0|0:0,0:0:0:0:
374,250,34754,2,0,L|438:254,1,55,8|0,0:0|0:0,0:0:0:0:
486,201,35027,6,0,P|491:147|461:102,1,110,2|8,0:0|0:0,0:0:0:0:
399,57,35436,1,0,0:0:0:0:
324,75,35572,2,0,L|260:67,1,55,2|2,0:0|0:0,0:0:0:0:
192,61,35845,2,0,L|166:129,1,55,8|0,0:0|0:0,0:0:0:0:
243,143,36118,6,0,L|217:211,1,55,2|0,0:0|0:0,0:0:0:0:
188,263,36390,1,8,0:0:0:0:
188,263,36527,2,0,P|134:250|83:267,1,110,0|2,0:0|0:0,0:0:0:0:
17,226,36936,2,0,L|10:162,1,55,8|0,0:0|0:0,0:0:0:0:
40,99,37209,5,2,0:0:0:0:
188,137,37481,2,0,L|250:141,1,55,8|8,0:0|0:0,0:0:0:0:
319,147,37754,1,10,0:0:0:0:
319,147,38027,1,2,0:0:0:0:
319,147,38300,6,0,P|310:207|355:257,1,110,6|8,0:0|0:0,0:0:0:0:
385,186,38709,1,0,0:0:0:0:
335,245,38845,2,0,L|266:235,1,55,2|2,0:0|0:0,0:0:0:0:
245,306,39118,2,0,L|299:313,1,55,8|0,0:0|0:0,0:0:0:0:
370,342,39390,5,2,0:0:0:0:
472,226,39663,1,8,0:0:0:0:
472,226,39936,2,0,P|481:172|461:122,1,110,2|8,0:0|0:0,0:0:0:0:
405,68,40345,1,0,0:0:0:0:
339,107,40481,6,0,L|266:96,1,55,2|0,0:0|0:0,0:0:0:0:
207,107,40754,1,8,0:0:0:0:
207,107,40890,2,0,P|209:31|185:4,2,110,0|2|0,0:0|0:0|0:0,0:0:0:0:
171,175,41572,5,2,0:0:0:0:
290,272,41845,1,8,0:0:0:0:
290,272,42118,2,0,L|328:208,1,55,2|2,0:0|0:0,0:0:0:0:
370,280,42390,2,0,L|341:327,1,55,8|0,0:0|0:0,0:0:0:0:
266,344,42663,6,0,P|205:331|156:341,1,110,6|8,0:0|0:0,0:0:0:0:
84,359,43072,1,0,0:0:0:0:
47,290,43209,2,0,L|41:227,1,55,2|2,0:0|0:0,0:0:0:0:
118,241,43481,2,0,L|112:178,1,55,8|0,0:0|0:0,0:0:0:0:
176,142,43754,6,0,P|201:190|188:252,1,110,2|8,0:0|0:0,0:0:0:0:
160,313,44163,1,0,0:0:0:0:
225,354,44300,2,0,L|299:354,1,55,2|2,0:0|0:0,0:0:0:0:
308,282,44572,2,0,L|253:282,1,55,8|0,0:0|0:0,0:0:0:0:
225,354,44845,6,0,L|348:354,1,110,2|8,0:0|0:0,0:0:0:0:
399,311,45254,2,0,P|416:249|387:194,1,110,0|2,0:0|0:0,0:0:0:0:
347,152,45663,1,8,3:2:0:0:
400,96,45800,1,0,0:0:0:0:
347,152,45936,6,0,P|285:140|240:179,1,110,6|8,0:0|0:0,0:0:0:0:
259,241,46345,2,0,P|321:253|366:214,1,110,0|2,0:0|0:0,0:0:0:0:
423,188,46754,1,8,0:0:0:0:
328,66,47027,5,2,0:0:0:0:
383,209,47300,1,8,0:0:0:0:
286,328,47572,1,2,0:0:0:0:
137,285,47845,2,0,L|116:217,1,55,8|0,0:0|0:0,0:0:0:0:
134,156,48118,5,2,0:0:0:0:
256,192,48254,12,4,49209,0:0:0:0:
465,347,49754,6,0,P|473:293|454:242,1,110,0|0,0:0|0:0,0:0:0:0:
293,208,50300,6,0,L|176:212,1,116.600000177917,4|8,0:1|0:0,0:0:0:0:
94,218,50709,1,0,0:0:0:0:
39,157,50845,2,0,P|29:131|36:97,1,58.3000000889587,2|2,0:0|0:0,0:0:0:0:
106,63,51118,2,0,P|116:89|109:123,1,58.3000000889587,8|0,0:0|0:0,0:0:0:0:
39,157,51390,6,0,P|79:212|66:264,1,116.600000177917,2|8,0:0|0:0,0:0:0:0:
35,330,51800,1,0,0:0:0:0:
116,328,51936,2,0,P|110:361|122:397,2,58.3000000889587,2|2|8,0:0|0:0|0:0,0:0:0:0:
175,271,52345,1,0,0:0:0:0:
254,290,52481,6,0,L|376:269,1,116.600000177917,2|8,0:0|0:0,0:0:0:0:
443,235,52890,1,0,0:0:0:0:
373,191,53027,1,2,0:0:0:0:
368,270,53163,1,2,0:0:0:0:
290,296,53300,2,0,L|224:283,1,58.3000000889587,8|0,0:0|0:0,0:0:0:0:
151,279,53572,6,0,L|134:219,1,58.3000000889587,2|0,0:0|0:0,0:0:0:0:
198,171,53845,2,0,L|215:231,1,58.3000000889587,8|0,0:0|0:0,0:0:0:0:
277,278,54118,1,2,0:0:0:0:
246,353,54254,1,2,0:0:0:0:
325,368,54390,1,8,0:0:0:0:
325,368,54527,6,0,P|376:348|447:348,1,116.600000177917,0|0,0:0|0:0,0:0:0:0:
484,279,54936,2,0,L|486:205,1,58.3000000889587,8|0,0:0|0:0,0:0:0:0:
423,166,55209,1,2,0:0:0:0:
479,107,55345,1,2,0:0:0:0:
403,75,55481,2,0,L|331:65,1,58.3000000889587,8|0,0:0|0:0,0:0:0:0:
263,72,55754,6,0,P|230:115|247:187,1,116.600000177917,2|8,0:0|0:0,0:0:0:0:
277,245,56163,1,0,0:0:0:0:
213,296,56300,2,0,L|150:323,2,58.3000000889587,2|0|8,0:0|0:0|0:0,0:0:0:0:
277,245,56709,1,0,0:0:0:0:
237,174,56845,6,0,P|236:115|196:75,1,116.600000177917,2|8,0:0|0:0,0:0:0:0:
160,149,57254,1,0,0:0:0:0:
237,174,57390,2,0,L|314:153,1,58.3000000889587,0|2,0:0|0:0,0:0:0:0:
327,233,57663,2,0,L|404:212,1,58.3000000889587,8|0,0:0|0:0,0:0:0:0:
441,160,57936,6,0,P|446:125|442:80,2,58.3000000889587,2|0|8,0:0|0:0|0:0,0:0:0:0:
383,217,58345,1,2,0:0:0:0:
404,295,58481,2,0,L|274:299,1,116.600000177917,0|8,0:0|0:0,0:0:0:0:
218,254,58890,1,0,0:0:0:0:
217,172,59027,6,0,L|334:176,1,116.600000177917,4|8,0:0|0:0,0:0:0:0:
416,182,59436,1,0,0:0:0:0:
471,121,59572,2,0,P|481:95|474:61,1,58.3000000889587,2|2,0:0|0:0,0:0:0:0:
404,27,59845,2,0,P|394:53|401:87,1,58.3000000889587,8|0,0:0|0:0,0:0:0:0:
471,121,60117,6,0,P|431:176|444:228,1,116.600000177917,2|8,0:0|0:0,0:0:0:0:
475,294,60527,1,0,0:0:0:0:
394,292,60663,2,0,P|400:325|388:361,2,58.3000000889587,2|2|8,0:0|0:0|0:0,0:0:0:0:
335,235,61072,1,0,0:0:0:0:
256,254,61208,6,0,L|134:233,1,116.600000177917,2|8,0:0|0:0,0:0:0:0:
71,190,61617,1,0,0:0:0:0:
145,154,61754,1,2,0:0:0:0:
75,112,61890,1,2,0:0:0:0:
71,190,62027,2,0,L|81:251,1,58.3000000889587,8|0,0:0|0:0,0:0:0:0:
161,236,62300,6,0,L|171:297,1,58.3000000889587,2|0,0:0|0:0,0:0:0:0:
251,285,62572,2,0,L|241:227,1,58.3000000889587,8|0,0:0|0:0,0:0:0:0:
310,182,62845,1,2,0:0:0:0:
363,243,62981,1,0,0:0:0:0:
327,316,63117,1,8,0:0:0:0:
327,316,63254,6,0,P|292:257|305:203,1,116.600000177917,0|0,0:0|0:0,0:0:0:0:
346,145,63663,2,0,P|354:112|340:70,1,58.3000000889587,8|0,0:0|0:0,0:0:0:0:
299,23,63936,1,2,0:0:0:0:
230,66,64072,1,0,0:0:0:0:
152,42,64208,2,0,L|69:42,1,58.3000000889587,8|0,0:0|0:0,0:0:0:0:
59,116,64481,6,0,P|111:145|179:126,1,116.600000177917,2|8,0:0|0:0,0:0:0:0:
239,101,64890,1,0,0:0:0:0:
310,141,65027,2,0,P|325:170|305:215,1,58.3000000889587,2|2,0:0|0:0,0:0:0:0:
250,234,65300,2,0,P|235:205|255:160,1,58.3000000889587,8|0,0:0|0:0,0:0:0:0:
321,194,65572,6,0,P|334:262|285:306,1,116.600000177917,2|8,0:0|0:0,0:0:0:0:
235,335,65981,1,0,0:0:0:0:
164,294,66117,2,0,L|87:279,1,58.3000000889587,2|2,0:0|0:0,0:0:0:0:
140,208,66390,2,0,L|63:193,1,58.3000000889587,8|0,0:0|0:0,0:0:0:0:
39,127,66663,6,0,L|52:45,2,58.3000000889587,10|0|8,0:0|0:0|0:0,0:0:0:0:
82,196,67072,1,8,0:0:0:0:
35,263,67209,2,0,P|86:244|147:261,1,116.600000177917,8|8,0:0|0:0,0:0:0:0:
216,297,67618,1,8,0:0:0:0:
284,248,67754,5,4,0:0:0:0:
256,192,67890,12,2,69936,0:0:0:0:
125,111,80572,5,8,0:0:0:0:
256,192,80845,1,6,0:0:0:0:
387,111,81118,1,8,0:0:0:0:
256,192,81390,2,0,P|269:219|271:256,1,55,2|2,0:0|0:0,0:0:0:0:
230,309,81663,6,0,P|282:291|358:310,2,110,8|4|0,0:0|0:0|0:0,0:0:0:0:
87,366,82481,1,0,0:0:0:0:
87,366,82754,1,0,0:0:0:0:
21,255,83027,6,0,L|116:262,1,88,6|2,0:0|0:0,0:0:0:0:
271,156,83548,2,0,L|184:163,1,88,8|0,0:0|0:0,0:0:0:0:
87,86,84070,5,2,0:0:0:0:
198,32,84331,1,2,0:0:0:0:
289,114,84592,2,0,P|294:161|272:205,1,88,8|0,0:0|0:0,0:0:0:0:
212,300,85113,6,0,L|299:306,1,88,2|2,0:0|0:0,0:0:0:0:
462,201,85635,2,0,L|374:207,1,88,8|0,0:0|0:0,0:0:0:0:
265,147,86157,5,2,0:0:0:0:
196,249,86418,1,2,0:0:0:0:
84,197,86679,2,0,P|69:151|94:106,1,88,8|0,0:0|0:0,0:0:0:0:
207,124,87200,6,0,L|302:131,1,88,2|2,0:0|0:0,0:0:0:0:
457,25,87722,2,0,L|370:32,1,88,8|0,0:0|0:0,0:0:0:0:
249,65,88244,5,2,0:0:0:0:
321,164,88505,1,2,0:0:0:0:
210,218,88766,2,0,P|199:267|226:308,1,88,8|0,0:0|0:0,0:0:0:0:
333,333,89287,6,0,L|433:320,1,88,2|2,0:0|0:0,0:0:0:0:
470,284,89679,2,0,P|477:240|466:198,1,88,0|0,0:0|0:0,0:0:0:0:
431,147,90070,1,0,0:0:0:0:
325,82,90331,6,0,L|318:31,2,44,8|8|8,0:0|0:0|0:0,0:0:0:0:
256,185,90853,1,8,0:0:0:0:
256,185,91113,1,8,0:0:0:0:
256,185,91374,6,0,P|253:139|203:96,1,110,6|8,0:0|0:0,0:0:0:0:
133,76,91766,1,0,0:0:0:0:
208,97,91896,2,0,L|264:87,1,55,2|2,0:0|0:0,0:0:0:0:
133,76,92157,2,0,L|78:66,1,55,8|0,0:0|0:0,0:0:0:0:
12,105,92418,5,2,0:0:0:0:
88,240,92679,1,8,0:0:0:0:
64,312,92809,1,0,0:0:0:0:
140,298,92940,2,0,L|209:288,1,55,2|2,0:0|0:0,0:0:0:0:
239,228,93200,2,0,L|313:216,1,55,8|0,0:0|0:0,0:0:0:0:
366,244,93461,6,0,P|388:193|365:134,1,110,2|8,0:0|0:0,0:0:0:0:
323,82,93853,1,0,0:0:0:0:
399,75,93983,2,0,L|451:59,1,55,2|2,0:0|0:0,0:0:0:0:
323,82,94244,2,0,L|271:98,1,55,8|0,0:0|0:0,0:0:0:0:
196,120,94505,5,2,0:0:0:0:
250,264,94766,1,8,0:0:0:0:
250,264,95026,2,0,L|227:206,1,55,2|2,0:0|0:0,0:0:0:0:
154,231,95287,2,0,L|131:173,1,55,8|0,0:0|0:0,0:0:0:0:
182,119,95548,6,0,L|243:98,1,55,6|0,0:0|0:0,0:0:0:0:
311,104,95809,2,0,P|342:151|323:210,1,110,8|2,0:0|0:0,0:0:0:0:
291,266,96200,1,2,0:0:0:0:
356,306,96331,2,0,L|422:330,1,55,8|0,0:0|0:0,0:0:0:0:
291,266,96592,6,0,L|225:290,1,55,2|0,0:0|0:0,0:0:0:0:
161,283,96853,2,0,P|132:233|146:174,1,110,8|2,0:0|0:0,0:0:0:0:
173,113,97244,1,2,0:0:0:0:
173,113,97374,2,0,L|117:91,1,55,8|0,0:0|0:0,0:0:0:0:
46,110,97635,6,0,L|33:171,1,55,2|0,0:0|0:0,0:0:0:0:
51,239,97896,1,8,0:0:0:0:
51,239,98026,2,0,L|124:242,1,55,0|2,0:0|0:0,0:0:0:0:
183,240,98287,1,0,0:0:0:0:
246,282,98418,6,0,P|298:265|351:277,1,110,8|8,0:0|0:0,0:0:0:0:
488,350,98940,1,8,0:0:0:0:
488,350,99200,1,8,0:0:0:0:
511,197,99461,1,8,0:0:0:0:
511,197,99722,6,0,P|448:196|399:169,1,110,6|8,0:0|0:0,0:0:0:0:
347,126,100113,1,0,0:0:0:0:
270,117,100244,2,0,L|287:60,1,55,2|2,0:0|0:0,0:0:0:0:
347,126,100505,2,0,L|331:178,1,55,8|0,0:0|0:0,0:0:0:0:
274,231,100766,5,2,0:0:0:0:
127,276,101026,1,8,0:0:0:0:
127,276,101287,2,0,P|105:226|130:161,1,110,2|8,0:0|0:0,0:0:0:0:
159,108,101679,1,0,0:0:0:0:
232,128,101809,6,0,P|291:147|348:110,1,110,2|8,0:0|0:0,0:0:0:0:
282,69,102200,1,0,0:0:0:0:
232,128,102331,2,0,L|201:181,1,55,2|0,0:0|0:0,0:0:0:0:
282,69,102592,2,0,L|313:122,1,55,8|0,0:0|0:0,0:0:0:0:
350,182,102853,5,2,0:0:0:0:
302,327,103113,2,0,L|232:312,1,55,8|0,0:0|0:0,0:0:0:0:
188,266,103374,2,0,L|166:213,1,55,2|2,0:0|0:0,0:0:0:0:
171,341,103635,2,0,L|136:386,1,55,8|0,0:0|0:0,0:0:0:0:
248,315,103896,6,0,P|298:325|364:295,1,110,2|8,0:0|0:0,0:0:0:0:
417,263,104287,1,0,0:0:0:0:
348,226,104418,2,0,L|359:157,1,55,2|0,0:0|0:0,0:0:0:0:
279,179,104679,2,0,L|290:110,1,55,8|0,0:0|0:0,0:0:0:0:
235,67,104940,6,0,L|121:78,1,110,2|8,0:0|0:0,0:0:0:0:
15,185,105461,1,2,0:0:0:0:
50,253,105592,1,2,0:0:0:0:
112,208,105722,2,0,L|168:196,1,55,8|0,0:0|0:0,0:0:0:0:
170,119,105983,6,0,L|226:107,1,55,8|2,0:0|0:0,0:0:0:0:
297,131,106244,1,0,0:0:0:0:
297,131,106374,2,0,P|299:182|362:228,1,110,0|2,0:0|0:0,0:0:0:0:
374,153,106766,1,0,0:0:0:0:
338,222,106896,1,0,0:0:0:0:
402,262,107026,6,0,L|478:244,2,55,10|0|0,0:0|0:0|0:0,0:0:0:0:
258,205,107548,2,0,L|239:135,1,55,8|8,0:0|0:0,0:0:0:0:
320,150,107809,2,0,L|301:80,1,55,8|0,0:0|0:0,0:0:0:0:
286,25,108070,5,4,0:0:0:0:
256,192,112244,12,8,115374,0:0:0:0:
275,321,115635,5,8,0:0:0:0:
275,321,115896,1,8,0:0:0:0:
197,302,116026,1,8,0:0:0:0:
275,321,116157,2,0,L|348:293,1,55,0|0,0:0|0:0,0:0:0:0:
381,246,116418,6,0,L|381:187,1,55,6|0,0:0|0:0,0:0:0:0:
334,128,116679,1,10,0:0:0:0:
334,128,116809,2,0,P|346:195|320:233,1,110,0|0,0:0|0:0,0:0:0:0:
256,262,117200,1,10,0:0:0:0:
187,228,117331,1,0,0:0:0:0:
256,262,117461,6,0,L|256:323,2,55,2|10|10,0:0|0:0|0:0,0:0:0:0:
187,228,117853,1,10,0:0:0:0:
116,257,117983,2,0,L|38:257,1,55,2|2,0:0|0:0,0:0:0:0:
88,184,118244,2,0,L|143:184,1,55,8|0,0:0|0:0,0:0:0:0:
207,141,118505,6,0,L|226:87,1,55,4|0,0:0|0:0,0:0:0:0:
264,22,118766,1,0,0:0:0:0:
262,21,118896,2,0,P|267:105|292:122,1,110,0|0,0:0|0:0,0:0:0:0:
347,156,119287,1,0,0:0:0:0:
311,224,119418,6,0,L|232:236,1,55,0|6,0:0|0:0,0:0:0:0:
256,192,119679,12,10,121113,0:0:0:0:
256,192,121374,5,10,0:0:0:0:
256,192,121635,12,8,122679,0:0:0:0:
437,56,123200,6,0,P|454:104|423:172,1,110,0|0,0:0|0:0,0:0:0:0:
301,251,123722,6,0,L|163:230,1,116.600000177917,4|8,3:1|0:0,0:0:0:0:
120,183,124113,1,0,0:0:0:0:
71,249,124244,2,0,P|64:284|83:322,1,58.3000000889587,2|2,0:0|0:0,0:0:0:0:
133,357,124505,1,8,0:0:0:0:
182,292,124635,1,0,0:0:0:0:
249,338,124766,6,0,P|266:277|221:222,1,116.600000177917,2|8,0:0|0:0,0:0:0:0:
171,190,125157,1,0,0:0:0:0:
111,134,125287,2,0,L|128:58,1,58.3000000889587,2|2,0:0|0:0,0:0:0:0:
192,121,125548,2,0,L|209:45,1,58.3000000889587,8|0,0:0|0:0,0:0:0:0:
284,46,125809,6,0,P|327:84|403:73,1,116.600000177917,2|8,0:0|0:0,0:0:0:0:
358,5,126200,1,0,0:0:0:0:
383,83,126331,2,0,P|406:58|447:41,2,58.3000000889587,2|2|8,0:0|0:0|0:0,0:0:0:0:
347,156,126722,1,0,0:0:0:0:
386,227,126853,6,0,L|268:244,1,116.600000177917,2|8,0:0|0:0,0:0:0:0:
191,220,127244,1,0,0:0:0:0:
191,220,127374,2,0,L|185:155,2,58.3000000889587,2|2|8,0:0|0:0|0:0,0:0:0:0:
142,287,127766,1,0,0:0:0:0:
142,287,127896,6,0,P|192:258|260:285,1,116.600000177917,2|8,0:0|0:0,0:0:0:0:
321,303,128287,1,0,0:0:0:0:
383,249,128418,1,2,0:0:0:0:
346,176,128548,1,0,0:0:0:0:
383,249,128679,2,0,L|446:254,1,58.3000000889587,8|0,0:0|0:0,0:0:0:0:
346,176,128940,6,0,P|277:167|247:119,1,116.600000177917,2|8,0:0|0:0,0:0:0:0:
325,98,129331,1,0,0:0:0:0:
346,176,129461,2,0,P|355:206|338:253,1,58.3000000889587,2|0,0:0|0:0,0:0:0:0:
316,305,129722,1,8,0:0:0:0:
240,337,129853,1,0,0:0:0:0:
159,323,129983,6,0,L|142:264,1,58.3000000889587,2|0,0:0|0:0,0:0:0:0:
240,337,130244,2,0,L|223:278,1,58.3000000889587,8|0,0:0|0:0,0:0:0:0:
316,305,130505,2,0,L|299:246,1,58.3000000889587,2|0,0:0|0:0,0:0:0:0:
274,171,130766,1,8,0:0:0:0:
324,107,130896,1,0,0:0:0:0:
388,156,131026,6,0,B|456:148,1,58.3000000889587,6|0,0:0|0:0,0:0:0:0:
499,86,131287,1,8,0:0:0:0:
435,34,131418,1,0,0:0:0:0:
376,91,131548,2,0,P|358:146|396:211,1,116.600000177917,2|8,0:0|0:0,0:0:0:0:
427,265,131940,1,0,0:0:0:0:
352,297,132070,6,0,P|292:282|226:301,1,116.600000177917,6|8,0:0|0:0,0:0:0:0:
166,331,132461,1,0,0:0:0:0:
103,277,132592,1,2,0:0:0:0:
157,216,132722,1,2,0:0:0:0:
93,163,132853,2,0,P|79:129|83:95,1,58.3000000889587,8|0,0:0|0:0,0:0:0:0:
149,65,133113,6,0,P|184:151|173:180,1,116.600000177917,2|8,0:0|0:0,0:0:0:0:
158,248,133505,1,0,0:0:0:0:
158,248,133635,2,0,L|240:236,1,58.3000000889587,2|2,0:0|0:0,0:0:0:0:
192,318,133896,2,0,L|134:326,1,58.3000000889587,8|0,0:0|0:0,0:0:0:0:
60,291,134157,6,0,P|36:238|46:175,1,116.600000177917,2|8,0:0|0:0,0:0:0:0:
81,108,134548,1,0,0:0:0:0:
129,174,134679,2,0,L|204:163,1,58.3000000889587,2|2,0:0|0:0,0:0:0:0:
81,108,134940,2,0,L|156:97,1,58.3000000889587,8|0,0:0|0:0,0:0:0:0:
215,73,135200,6,0,P|270:88|328:45,1,116.600000177917,2|8,0:0|0:0,0:0:0:0:
260,2,135592,1,0,0:0:0:0:
215,73,135722,2,0,P|203:45|168:27,2,58.3000000889587,2|2|8,0:0|0:0|0:0,0:0:0:0:
184,149,136113,1,0,0:0:0:0:
136,215,136244,6,0,P|185:193|258:218,1,116.600000177917,2|8,0:0|0:0,0:0:0:0:
320,236,136635,1,0,0:0:0:0:
389,191,136766,2,0,L|396:113,1,58.3000000889587,2|0,0:0|0:0,0:0:0:0:
323,92,137026,2,0,P|312:117|319:158,1,58.3000000889587,8|0,0:0|0:0,0:0:0:0:
389,191,137287,6,0,P|322:182|277:223,1,116.600000177917,2|8,0:0|0:0,0:0:0:0:
235,275,137679,1,0,0:0:0:0:
174,220,137809,2,0,P|175:183|155:143,1,58.3000000889587,2|2,0:0|0:0,0:0:0:0:
117,99,138070,1,8,0:0:0:0:
65,162,138201,1,0,0:0:0:0:
65,162,138331,6,0,L|1:143,1,58.3000000889587,10|0,0:0|0:0,0:0:0:0:
117,99,138592,2,0,L|165:53,1,58.3000000889587,10|2,0:0|0:0,0:0:0:0:
150,170,138853,2,0,L|165:234,1,58.3000000889587,10|2,0:0|0:0,0:0:0:0:
138,304,139113,1,8,0:0:0:0:
207,347,139244,1,0,0:0:0:0:
267,292,139374,6,0,L|336:284,1,58.3000000889587,8|0,0:0|0:0,0:0:0:0:
391,238,139635,1,10,0:0:0:0:
325,188,139766,1,2,0:0:0:0:
386,134,139896,2,0,P|411:185|377:249,1,116.600000177917,10|10,0:0|0:0,0:0:0:0:
336,298,140287,1,10,0:0:0:0:
258,292,140418,5,6,0:0:0:0:
256,192,140548,12,2,142505,0:0:0:0:
94,119,152679,5,8,0:0:0:0:
63,270,152940,5,6,0:0:0:0:
63,270,153200,1,8,0:0:0:0:
217,269,153461,2,0,L|275:282,1,55,2|2,0:0|0:0,0:0:0:0:
282,204,153722,2,0,L|340:217,1,55,8|0,0:0|0:0,0:0:0:0:
405,182,153983,6,0,P|437:136|418:66,1,110,6|8,0:0|0:0,0:0:0:0:
387,22,154374,1,0,0:0:0:0:
313,45,154505,2,0,P|281:91|300:161,1,110,8|8,0:0|0:0,0:0:0:0:
326,208,154896,1,8,0:0:0:0:
262,250,155026,5,4,0:0:0:0:
256,192,155157,12,0,157896,0:0:0:0:
256,192,166701,5,0,0:0:0:0:
256,192,166951,1,0,0:0:0:0:
88,301,167201,6,0,L|203:287,1,110,6|2,0:0|0:0,0:0:0:0:
424,301,167701,2,0,L|309:287,1,110,10|0,0:0|0:0,0:0:0:0:
435,191,168201,5,2,0:0:0:0:
326,82,168451,1,2,0:0:0:0:
186,82,168701,1,10,0:0:0:0:
186,82,168951,1,0,0:0:0:0:
77,191,169201,6,0,L|53:310,1,110,2|2,0:0|0:0,0:0:0:0:
185,215,169701,2,0,L|206:107,1,110,10|0,0:0|0:0,0:0:0:0:
435,191,170201,6,0,L|459:310,1,110,2|2,0:0|0:0,0:0:0:0:
327,215,170701,2,0,L|305:107,1,110,10|2,0:0|0:0,0:0:0:0:
437,28,171201,5,6,0:0:0:0:
497,169,171451,1,0,0:0:0:0:
349,213,171701,2,0,P|333:270|356:326,1,110,14|0,0:0|0:0,0:0:0:0:
487,382,172201,5,6,0:0:0:0:
348,316,172451,1,0,0:0:0:0:
164,316,172701,1,14,0:0:0:0:
25,382,172951,1,0,0:0:0:0:
164,316,173201,6,0,P|169:268|143:192,1,110,6|0,0:0|0:0,0:0:0:0:
67,80,173701,1,14,0:0:0:0:
204,10,173951,1,2,0:0:0:0:
345,70,174201,6,0,L|424:57,2,55,8|8|8,0:0|0:0|0:0,0:0:0:0:
345,70,174701,2,0,P|340:125|368:183,1,110,0|0,0:0|0:0,0:0:0:0:
456,314,175201,6,0,P|395:300|310:318,1,121.000003692627,4|10,0:1|0:0,0:0:0:0:
259,338,175576,1,0,0:0:0:0:
217,263,175701,2,0,P|207:237|214:203,1,60.5000018463135,2|2,0:0|0:0,0:0:0:0:
291,169,175951,2,0,P|301:195|294:229,1,60.5000018463135,8|0,0:0|0:0,0:0:0:0:
217,263,176201,6,0,P|152:248|93:285,1,121.000003692627,2|8,0:0|0:0,0:0:0:0:
165,331,176576,1,0,0:0:0:0:
217,263,176701,2,0,P|225:293|246:314,2,60.5000018463135,2|2|8,0:0|0:0|0:0,0:0:0:0:
248,183,177076,1,0,0:0:0:0:
248,183,177201,6,0,P|263:127|226:63,1,121.000003692627,2|8,0:0|0:0,0:0:0:0:
172,16,177576,1,0,0:0:0:0:
157,99,177701,1,2,0:0:0:0:
237,72,177826,1,2,0:0:0:0:
315,40,177951,2,0,L|397:35,1,60.5000018463135,8|0,0:0|0:0,0:0:0:0:
450,75,178201,6,0,L|429:136,1,60.5000018463135,2|0,0:0|0:0,0:0:0:0:
460,208,178451,2,0,L|499:253,1,60.5000018463135,8|0,0:0|0:0,0:0:0:0:
371,189,178701,2,0,L|311:200,1,60.5000018463135,2|2,0:0|0:0,0:0:0:0:
227,193,178951,1,8,0:0:0:0:
258,271,179076,1,0,0:0:0:0:
311,200,179201,6,0,P|327:142|287:77,1,121.000003692627,2|8,0:0|0:0,0:0:0:0:
236,35,179576,1,0,0:0:0:0:
173,92,179701,2,0,L|91:85,1,60.5000018463135,2|2,0:0|0:0,0:0:0:0:
36,125,179951,1,8,0:0:0:0:
105,173,180076,1,0,0:0:0:0:
112,86,180201,6,0,L|95:18,1,60.5000018463135,2|0,0:0|0:0,0:0:0:0:
182,18,180451,2,0,P|149:61|166:133,1,121.000003692627,8|2,0:0|0:0,0:0:0:0:
215,187,180826,1,0,0:0:0:0:
298,201,180951,2,0,L|368:193,1,60.5000018463135,8|0,0:0|0:0,0:0:0:0:
412,129,181201,6,0,L|397:60,2,60.5000018463135,10|2|10,0:0|0:0|0:0,0:0:0:0:
441,209,181576,1,10,0:0:0:0:
412,129,181701,2,0,L|464:81,1,60.5000018463135,2|0,0:0|0:0,0:0:0:0:
358,194,181951,2,0,L|290:172,1,60.5000018463135,10|0,0:0|0:0,0:0:0:0:
441,209,182201,6,0,L|456:278,1,60.5000018463135,6|0,0:0|0:0,0:0:0:0:
432,349,182451,1,8,0:0:0:0:
352,318,182576,1,0,0:0:0:0:
272,347,182701,2,0,P|242:288|266:218,1,121.000003692627,10|8,0:0|0:0,0:0:0:0:
305,169,183076,1,0,0:0:0:0:
252,236,183201,6,0,L|122:240,1,121.000003692627,6|8,0:0|0:0,0:0:0:0:
56,198,183576,1,0,0:0:0:0:
113,135,183701,2,0,L|134:69,1,60.5000018463135,2|2,0:0|0:0,0:0:0:0:
214,97,183951,2,0,L|284:97,1,60.5000018463135,8|0,0:0|0:0,0:0:0:0:
344,146,184201,6,0,P|282:140|228:189,1,121.000003692627,2|8,0:0|0:0,0:0:0:0:
306,221,184576,1,0,0:0:0:0:
344,146,184701,2,0,P|338:114|349:84,1,60.5000018463135,2|2,0:0|0:0,0:0:0:0:
424,123,184951,2,0,P|429:154|418:184,1,60.5000018463135,8|0,0:0|0:0,0:0:0:0:
385,258,185201,6,0,P|348:316|366:366,1,121.000003692627,2|8,0:0|0:0,0:0:0:0:
437,321,185576,2,0,P|470:315|506:327,2,60.5000018463135,0|2|2,0:0|0:0|0:0,0:0:0:0:
362,361,185951,1,8,0:0:0:0:
282,331,186076,1,0,0:0:0:0:
199,350,186201,6,0,P|227:290|195:224,1,121.000003692627,2|8,0:0|0:0,0:0:0:0:
141,288,186576,1,0,0:0:0:0:
199,350,186701,2,0,L|280:329,1,60.5000018463135,2|2,0:0|0:0,0:0:0:0:
302,262,186951,2,0,L|290:195,1,60.5000018463135,8|0,0:0|0:0,0:0:0:0:
345,339,187201,6,0,P|389:301|463:315,1,121.000003692627,2|8,0:0|0:0,0:0:0:0:
417,384,187576,1,0,0:0:0:0:
448,305,187701,1,2,0:0:0:0:
392,241,187826,1,2,0:0:0:0:
450,179,187951,2,0,P|456:149|448:106,1,60.5000018463135,8|0,0:0|0:0,0:0:0:0:
373,88,188201,6,0,P|311:101|252:63,1,121.000003692627,2|8,0:0|0:0,0:0:0:0:
200,15,188576,1,0,0:0:0:0:
262,75,188701,2,0,L|271:134,1,60.5000018463135,2|2,0:0|0:0,0:0:0:0:
187,116,188951,2,0,L|196:175,1,60.5000018463135,8|0,0:0|0:0,0:0:0:0:
182,260,189201,6,0,P|259:254|307:275,1,121.000003692627,14|12,0:0|0:0,0:0:0:0:
382,249,189576,1,8,0:0:0:0:
448,197,189701,2,0,L|481:130,1,60.5000018463135,6|0,0:0|0:0,0:0:0:0:
382,249,189951,2,0,L|307:253,1,60.5000018463135,14|0,0:0|0:0,0:0:0:0:
458,280,190201,6,0,L|499:342,1,60.5000018463135,6|0,0:0|0:0,0:0:0:0:
416,371,190451,1,8,0:0:0:0:
336,341,190576,1,10,0:0:0:0:
253,361,190701,2,0,L|128:372,1,121.000003692627,8|8,0:0|0:0,0:0:0:0:
50,349,191076,1,8,0:0:0:0:
107,287,191201,6,0,P|128:231|104:159,1,121.000003692627,6|8,0:0|0:0,0:0:0:0:
74,98,191576,1,0,0:0:0:0:
155,74,191701,2,0,P|190:81|228:62,1,60.5000018463135,2|2,0:0|0:0,0:0:0:0:
284,28,191951,1,8,0:0:0:0:
212,73,192076,1,0,0:0:0:0:
271,132,192201,6,0,P|300:182|282:239,1,121.000003692627,6|8,0:0|0:0,0:0:0:0:
218,294,192576,1,4,0:0:0:0:
282,239,192701,2,0,L|358:256,1,60.5000018463135,2|2,0:0|0:0,0:0:0:0:
295,320,192951,2,0,L|371:337,1,60.5000018463135,8|0,0:0|0:0,0:0:0:0:
436,312,193201,6,0,P|464:267|444:192,1,121.000003692627,6|8,0:0|0:0,0:0:0:0:
405,132,193576,1,0,0:0:0:0:
444,57,193701,2,0,P|467:32|510:23,2,60.5000018463135,2|2|8,0:0|0:0|0:0,0:0:0:0:
405,132,194076,1,0,0:0:0:0:
405,132,194201,6,0,P|347:115|279:147,1,121.000003692627,6|8,0:0|0:0,0:0:0:0:
220,181,194576,1,4,0:0:0:0:
168,113,194701,2,0,P|159:89|162:48,2,60.5000018463135,2|0|8,0:0|0:0|0:0,0:0:0:0:
220,181,195076,1,0,0:0:0:0:
220,181,195201,6,0,P|249:231|222:299,1,121.000003692627,6|8,0:0|0:0,0:0:0:0:
170,347,195576,1,0,0:0:0:0:
232,288,195701,1,2,0:0:0:0:
195,215,195826,1,2,0:0:0:0:
232,288,195951,2,0,L|295:293,1,60.5000018463135,8|0,0:0|0:0,0:0:0:0:
195,215,196201,6,0,P|126:206|96:158,1,121.000003692627,6|8,0:0|0:0,0:0:0:0:
177,135,196576,1,4,0:0:0:0:
195,215,196701,2,0,P|204:245|187:292,1,60.5000018463135,2|0,0:0|0:0,0:0:0:0:
250,340,196951,1,8,0:0:0:0:
318,290,197076,1,0,0:0:0:0:
402,296,197201,6,0,L|385:237,1,60.5000018463135,6|0,0:0|0:0,0:0:0:0:
318,290,197451,2,0,L|301:231,1,60.5000018463135,12|0,0:0|0:0,0:0:0:0:
342,157,197701,2,0,L|325:98,1,60.5000018463135,6|2,0:0|0:0,0:0:0:0:
258,151,197951,2,0,L|241:92,1,60.5000018463135,12|0,0:0|0:0,0:0:0:0:
325,98,198201,6,0,P|390:103|441:58,1,121.000003692627,6|8,0:0|0:0,0:0:0:0:
362,23,198576,1,0,0:0:0:0:
325,98,198701,2,0,P|307:153|345:218,1,121.000003692627,12|8,0:0|0:0,0:0:0:0:
384,274,199076,1,8,0:0:0:0:
312,318,199201,6,0,P|252:303|186:322,1,121.000003692627,6|8,0:0|0:0,0:0:0:0:
119,354,199576,1,0,0:0:0:0:
65,288,199701,1,2,0:0:0:0:
134,239,199826,1,2,0:0:0:0:
79,174,199951,2,0,P|65:140|69:106,1,60.5000018463135,8|0,0:0|0:0,0:0:0:0:
141,74,200201,6,0,P|198:83|269:58,1,121.000003692627,6|8,0:0|0:0,0:0:0:0:
329,19,200576,1,4,0:0:0:0:
390,76,200701,2,0,L|472:64,1,60.5000018463135,2|2,0:0|0:0,0:0:0:0:
426,152,200951,2,0,L|366:160,1,60.5000018463135,8|0,0:0|0:0,0:0:0:0:
291,200,201201,6,0,P|283:259|307:313,1,121.000003692627,6|8,0:0|0:0,0:0:0:0:
385,349,201576,1,0,0:0:0:0:
444,357,201701,2,0,L|385:349,1,60.5000018463135,2|2,0:0|0:0,0:0:0:0:
492,291,201951,2,0,L|433:283,1,60.5000018463135,8|0,0:0|0:0,0:0:0:0:
394,211,202201,6,0,P|362:156|379:96,1,121.000003692627,6|8,0:0|0:0,0:0:0:0:
421,31,202576,1,4,0:0:0:0:
375,102,202701,2,0,P|402:116|442:109,2,60.5000018463135,2|2|8,0:0|0:0|0:0,0:0:0:0:
298,64,203076,1,0,0:0:0:0:
225,107,203201,6,0,P|166:91|110:115,1,121.000003692627,6|8,0:0|0:0,0:0:0:0:
171,175,203576,1,0,0:0:0:0:
225,107,203701,2,0,L|232:29,1,60.5000018463135,2|2,0:0|0:0,0:0:0:0:
153,92,203951,2,0,P|153:128|172:159,1,60.5000018463135,8|0,0:0|0:0,0:0:0:0:
225,208,204201,6,0,P|158:199|113:240,1,121.000003692627,6|8,0:0|0:0,0:0:0:0:
185,282,204576,1,4,0:0:0:0:
225,208,204701,2,0,P|226:171|206:131,1,60.5000018463135,2|0,0:0|0:0,0:0:0:0:
185,78,204951,1,8,0:0:0:0:
133,141,205076,1,0,0:0:0:0:
133,141,205201,6,0,L|69:122,1,60.5000018463135,14|2,0:0|0:0,0:0:0:0:
185,78,205451,2,0,L|233:32,1,60.5000018463135,14|2,0:0|0:0,0:0:0:0:
218,149,205701,2,0,L|233:213,1,60.5000018463135,14|2,0:0|0:0,0:0:0:0:
181,276,205951,1,14,0:0:0:0:
235,340,206076,1,2,0:0:0:0:
316,316,206201,6,0,L|449:313,1,121.000003692627,12|8,0:0|0:0,0:0:0:0:
493,250,206576,1,8,0:0:0:0:
424,200,206701,2,0,L|303:202,1,121.000003692627,8|8,0:0|0:0,0:0:0:0:
223,173,207076,1,0,0:0:0:0:
195,100,207201,5,6,0:0:0:0:
256,192,207326,12,2,209201,0:0:0:0:
59,215,209451,6,0,L|125:209,1,55,12|0,0:0|0:0,0:0:0:0:
164,152,209701,2,0,L|185:88,2,55,2|2|12,0:0|0:0|0:0,0:0:0:0:
187,225,210076,1,0,0:0:0:0:
158,296,210201,6,0,P|207:270|279:280,1,110,6|8,0:0|0:0,0:0:0:0:
332,299,210576,1,4,0:0:0:0:
381,240,210701,2,0,L|390:171,2,55,2|2|12,0:0|0:0|0:0,0:0:0:0:
332,299,211076,1,0,0:0:0:0:
287,236,211201,6,0,P|282:178|313:124,1,110,4|12,0:0|0:0,0:0:0:0:
364,83,211576,1,0,0:0:0:0:
419,136,211701,2,0,L|495:122,1,55,2|2,0:0|0:0,0:0:0:0:
364,83,211951,2,0,L|313:24,1,55,12|0,0:0|0:0,0:0:0:0:
345,161,212201,6,0,L|319:233,2,55,2|0|12,0:0|0:0|0:0,0:0:0:0:
364,83,212576,1,0,0:0:0:0:
419,136,212701,1,2,0:0:0:0:
345,161,212826,1,2,0:0:0:0:
272,133,212952,2,0,L|193:123,1,55,12|0,0:0|0:0,0:0:0:0:
149,91,213201,6,0,P|174:148|144:205,1,110,2|12,0:0|0:0,0:0:0:0:
109,249,213576,1,0,0:0:0:0:
150,313,213701,2,0,L|210:318,1,55,2|2,0:0|0:0,0:0:0:0:
307,317,213951,2,0,L|362:313,1,55,12|0,0:0|0:0,0:0:0:0:
409,252,214201,6,0,P|390:197|418:141,1,110,14|0,0:0|0:0,0:0:0:0:
467,200,214576,1,12,0:0:0:0:
409,252,214701,2,0,P|363:226|303:233,1,110,2|12,0:0|0:0,0:0:0:0:
234,256,215076,1,0,0:0:0:0:
180,200,215201,6,0,L|166:122,2,55,8|0|14,0:0|0:0|0:0,0:0:0:0:
234,256,215576,1,2,0:0:0:0:
174,304,215701,2,0,P|177:331|165:363,1,55,14|2,0:0|0:0,0:0:0:0:
99,324,215951,2,0,P|96:297|108:265,1,55,14|2,0:0|0:0,0:0:0:0:
152,210,216201,5,14,0:0:0:0:
152,210,216326,1,2,0:0:0:0:
90,68,216576,1,2,0:0:0:0:
90,68,216826,1,2,0:0:0:0:
158,104,216951,2,0,L|234:95,1,55,14|0,0:0|0:0,0:0:0:0:
277,56,217201,6,0,P|282:22|271:-22,2,55,6|2|14,0:0|0:0|0:0,0:0:0:0:
287,132,217576,1,2,0:0:0:0:
287,132,217701,2,0,L|346:131,2,55,2|14|2,0:0|0:0|0:0,0:0:0:0:
223,177,218076,1,2,0:0:0:0:
223,177,218201,5,6,0:0:0:0:
141,307,218451,1,6,0:0:0:0:
141,307,218701,1,6,0:0:0:0:
28,201,218951,1,6,0:0:0:0:
28,201,219201,6,0,L|25:143,1,55,6|0,0:0|0:0,0:0:0:0:
101,158,219451,2,0,L|98:100,1,55,10|10,0:0|0:0,0:0:0:0:
172,124,219701,2,0,L|174:178,1,55,6|2,0:0|0:0,0:0:0:0:
202,250,219951,1,2,0:0:0:0:
256,192,220076,1,2,0:0:0:0:
256,192,220201,6,0,L|256:60,2,110,6|0|0,0:0|0:0|0:0,0:0:0:0:
256,192,221201,5,6,0:0:0:0:
