osu file format v14

[General]
AudioFilename: audio.mp3
AudioLeadIn: 0
PreviewTime: 174626
Countdown: 1
SampleSet: Soft
StackLeniency: 0.7
Mode: 0
LetterboxInBreaks: 0
WidescreenStoryboard: 1

[Editor]
Bookmarks: 222138
DistanceSpacing: 0.8
BeatDivisor: 4
GridSize: 4
TimelineZoom: 3.349998

[Metadata]
Title:Chiisana Koi no Uta (Synth Rock Cover)
TitleUnicode:小さな恋のうた(Synth Rock Cover)
Artist:Araki
ArtistUnicode:あらき
Creator:Shishou
Version:Insane
Source:
Tags:song of a small love mongol800 RVMathew omoi
BeatmapID:1304553
BeatmapSetID:613207

[Difficulty]
HPDrainRate:5.4
CircleSize:3.8
OverallDifficulty:7
ApproachRate:9
SliderMultiplier:1.5
SliderTickRate:1

[Events]
//Background and Video events
0,0,"bg.jpg",0,0
//Break Periods
2,108270,111513
2,159400,166601
//Storyboard Layer 0 (Background)
//Storyboard Layer 1 (Fail)
//Storyboard Layer 2 (Pass)
//Storyboard Layer 3 (Foreground)
//Storyboard Sound Samples

[TimingPoints]
2300,272.727272727273,4,2,1,70,1,0
2845,-100,4,2,1,70,0,0
3254,-100,4,2,1,70,0,0
3936,-100,4,2,1,70,0,0
4345,-100,4,2,1,70,0,0
5027,-100,4,2,1,70,0,0
5572,-100,4,2,1,70,0,0
6118,-125,4,2,1,70,0,0
6527,-100,4,2,1,70,0,0
10754,-166.666666666667,4,2,1,70,0,0
11027,-100,4,2,1,70,0,0
17572,-90.9090909090909,4,2,1,70,0,0
18663,-100,4,2,1,70,0,0
49754,-166.666666666667,4,2,1,70,0,0
50300,-90.9090909090909,4,2,1,70,0,1
81936,-166.666666666667,4,2,1,70,0,1
83027,260.869565217391,4,2,1,70,1,0
83027,-111.111111111111,4,2,1,70,0,0
83548,-166.666666666667,4,2,1,70,0,0
84070,-111.111111111111,4,2,1,70,0,0
84592,-166.666666666667,4,2,1,70,0,0
85113,-111.111111111111,4,2,1,70,0,0
85635,-166.666666666667,4,2,1,70,0,0
86157,-111.111111111111,4,2,1,70,0,0
86679,-166.666666666667,4,2,1,70,0,0
87200,-111.111111111111,4,2,1,70,0,0
87722,-166.666666666667,4,2,1,70,0,0
88244,-111.111111111111,4,2,1,70,0,0
88766,-166.666666666667,4,2,1,70,0,0
89287,-111.111111111111,4,2,1,70,0,0
89940,-166.666666666667,4,2,1,70,0,0
90331,-100,4,2,1,70,0,0
112245,-125,4,2,1,70,0,0
112440,-125,4,2,1,5,0,0
112505,-125,4,2,1,70,0,0
112700,-125,4,2,1,5,0,0
112766,-125,4,2,1,70,0,0
112961,-125,4,2,1,5,0,0
113026,-125,4,2,1,70,0,0
113287,-111.111111111111,4,2,1,70,0,0
114331,-99.9999999999999,4,2,1,70,0,0
115374,-90.9090909090909,4,2,1,70,0,0
122679,-200,4,2,1,70,0,0
123200,-142.857142857143,4,2,1,70,0,0
123722,-90.9090909090909,4,2,1,70,0,1
155026,-90.9090909090909,4,2,1,70,0,0
159201,250,4,2,1,70,1,0
167200,-142.857142857143,4,2,1,70,0,0
174700,-166.666666666667,4,2,1,70,0,0
175201,-90.9090909090909,4,2,1,70,0,1
220201,-166.666666666667,4,2,1,70,0,0

[HitObjects]
44,126,2299,6,0,P|97:117|166:203,1,150
187,289,2709,1,0,0:0:0:0:
270,198,2845,2,0,L|356:193,1,75,0|0,0:0|0:0,0:0:0:0:
399,295,3118,2,0,L|308:301,1,75,0|0,0:0|0:0,0:0:0:0:
176,279,3390,2,0,B|211:242|211:242|178:190|225:124,1,150,0|0,0:0|0:0,0:0:0:0:
272,83,3800,1,0,0:0:0:0:
349,127,3936,2,0,P|391:135|510:132,1,150,0|0,0:0|0:0,0:0:0:0:
266,58,4481,6,0,P|204:52|115:66,1,150,0|0,0:0|0:0,0:0:0:0:
21,49,4890,1,0,0:0:0:0:
23,146,5027,2,0,P|15:192|24:243,1,75,0|0,0:0|0:0,0:0:0:0:
105,258,5300,2,0,P|110:298|99:342,1,75,0|0,0:0|0:0,0:0:0:0:
206,355,5572,6,0,P|261:342|364:355,1,150,0|0,0:0|0:0,0:0:0:0:
446,333,5981,1,0,0:0:0:0:
466,234,6118,2,0,P|410:242|337:225,1,120,0|0,0:0|0:0,0:0:0:0:
208,225,6663,6,0,P|156:228|125:225,1,75,0|0,0:0|0:0,0:0:0:0:
120,138,6936,2,0,P|68:141|37:138,1,75,0|0,0:0|0:0,0:0:0:0:
213,275,7209,2,0,P|161:278|130:275,1,75,0|0,0:0|0:0,0:0:0:0:
128,175,7481,2,0,P|76:178|45:175,1,75,0|0,0:0|0:0,0:0:0:0:
246,315,7754,6,0,P|206:323|79:305,1,150,0|0,0:0|0:0,0:0:0:0:
12,265,8163,1,0,0:0:0:0:
53,176,8300,2,0,P|110:153|201:174,1,150,0|0,0:0|0:0,0:0:0:0:
361,272,8845,6,0,P|410:282|450:268,1,75,0|0,0:0|0:0,0:0:0:0:
484,193,9118,1,0,0:0:0:0:
416,122,9254,2,0,P|374:110|258:124,2,150,0|0|0,0:0|0:0|0:0,0:0:0:0:
484,193,9936,2,0,P|489:239|479:297,1,75,0|0,0:0|0:0,0:0:0:0:
410,328,10209,2,0,P|370:340|323:322,1,75,0|0,0:0|0:0,0:0:0:0:
257,277,10481,2,0,P|210:266|97:283,1,150,2|2,0:0|0:0,0:0:0:0:
31,229,11027,6,0,P|23:180|37:139,1,75,6|0,0:0|0:0,0:0:0:0:
113,108,11300,2,0,P|121:157|107:198,1,75,2|0,0:0|0:0,0:0:0:0:
205,91,11572,2,0,P|270:79|359:104,1,150,2|2,0:0|0:0,0:0:0:0:
435,51,11981,1,0,0:0:0:0:
467,142,12118,6,0,P|476:184|450:243,1,75,2|0,0:0|0:0,0:0:0:0:
378,251,12390,2,0,P|369:293|395:352,1,75,2|0,0:0|0:0,0:0:0:0:
278,338,12663,2,0,B|226:360|226:360|128:353,1,150,2|2,0:0|0:0,0:0:0:0:
11,200,13209,6,0,P|5:132|18:108,1,75,2|0,0:0|0:0,0:0:0:0:
68,51,13481,2,0,P|124:42|165:60,1,75,2|0,0:0|0:0,0:0:0:0:
190,130,13754,2,0,P|234:141|351:124,1,150,2|2,0:0|0:0,0:0:0:0:
409,63,14163,1,0,0:0:0:0:
442,188,14300,6,0,P|448:243|436:281,1,75,2|0,0:0|0:0,0:0:0:0:
343,295,14572,2,0,P|337:350|349:388,1,75,2|0,0:0|0:0,0:0:0:0:
254,299,14845,2,0,B|203:308|203:308|89:295,1,150,2|2,0:0|0:0,0:0:0:0:
32,231,15254,1,0,0:0:0:0:
32,231,15390,6,0,P|27:182|40:147,1,75,2|0,0:0|0:0,0:0:0:0:
109,95,15663,2,0,B|147:103|147:103|201:98,1,75,2|0,0:0|0:0,0:0:0:0:
259,39,15936,2,0,B|302:35|302:35|412:46,1,150,2|2,0:0|0:0,0:0:0:0:
465,125,16345,1,0,0:0:0:0:
372,190,16481,6,0,P|361:232|383:281,1,75,2|0,0:0|0:0,0:0:0:0:
414,287,16686,1,0,0:0:0:0:
414,287,16754,1,0,0:0:0:0:
336,375,16890,1,0,0:0:0:0:
263,303,17027,2,0,L|175:300,1,75,2|0,0:0|0:0,0:0:0:0:
85,206,17300,2,0,L|159:208,1,75,2|0,0:0|0:0,0:0:0:0:
257,158,17572,5,4,0:0:0:0:
256,192,18663,12,0,19686,0:0:0:0:
256,192,19754,12,0,20709,0:0:0:0:
155,319,20845,6,0,L|150:229,1,75,6|0,0:0|0:0,0:0:0:0:
63,200,21118,2,0,L|58:110,1,75,8|0,0:0|0:0,0:0:0:0:
129,57,21390,2,0,P|175:78|280:77,1,150,2|8,0:0|0:0,0:0:0:0:
350,19,21800,1,0,0:0:0:0:
405,110,21936,6,0,B|431:155|431:155|426:270,2,150,2|8|2,0:0|0:0|0:0,0:0:0:0:
304,299,22754,1,8,0:0:0:0:
126,223,23027,6,0,P|70:215|30:223,1,75,2|0,0:0|0:0,0:0:0:0:
192,150,23300,2,0,P|238:143|292:155,1,75,8|0,0:0|0:0,0:0:0:0:
342,207,23572,2,0,P|401:218|503:202,1,150,2|8,0:0|0:0,0:0:0:0:
457,114,23981,1,0,0:0:0:0:
359,61,24118,6,0,B|308:40|308:40|193:48,2,150,2|8|2,0:0|0:0|0:0,0:0:0:0:
489,206,24936,1,8,0:0:0:0:
294,202,25209,6,0,P|237:199|198:204,1,75,2|0,0:0|0:0,0:0:0:0:
146,265,25481,2,0,P|93:269|46:261,1,75,8|0,0:0|0:0,0:0:0:0:
6,193,25754,2,0,B|-3:132|-3:132|18:31,1,150,2|8,0:0|0:0,0:0:0:0:
92,105,26163,1,0,0:0:0:0:
183,35,26300,6,0,P|227:23|334:51,2,150,2|8|2,0:0|0:0|0:0,0:0:0:0:
14,45,27118,1,8,0:0:0:0:
146,190,27390,6,0,L|145:286,1,75,2|0,0:0|0:0,0:0:0:0:
217,331,27663,2,0,P|261:335|311:331,1,75,8|0,0:0|0:0,0:0:0:0:
381,295,27936,2,0,P|405:249|383:155,1,150,2|8,0:0|0:0,0:0:0:0:
308,95,28345,1,0,0:0:0:0:
201,155,28481,6,0,B|149:168|149:168|45:146,2,150,2|8|2,0:0|0:0|0:0,0:0:0:0:
292,327,29300,1,8,0:0:0:0:
201,155,29572,6,0,L|190:239,1,75,6|0,0:0|0:0,0:0:0:0:
298,68,29845,2,0,L|309:152,1,75,8|0,0:0|0:0,0:0:0:0:
368,217,30118,2,0,P|448:246|508:206,1,150,2|8,0:0|0:0,0:0:0:0:
431,145,30527,1,0,0:0:0:0:
321,229,30663,6,0,B|272:228|272:228|223:243|223:243|147:238,2,150,2|8|2,0:0|0:0|0:0,0:0:0:0:
391,160,31345,1,2,0:0:0:0:
439,260,31481,2,0,P|444:310|427:355,1,75,8|0,0:0|0:0,0:0:0:0:
343,360,31754,6,0,B|297:366|297:366|244:358,1,75,2|0,0:0|0:0,0:0:0:0:
196,299,32027,2,0,P|183:253|199:214,1,75,8|0,0:0|0:0,0:0:0:0:
223,136,32300,2,0,P|203:84|117:62,1,150,2|8,0:0|0:0,0:0:0:0:
31,15,32709,1,0,0:0:0:0:
33,129,32845,6,0,B|25:180|25:180|45:222|45:222|33:291,2,150,2|8|2,0:0|0:0|0:0,0:0:0:0:
121,171,33527,1,2,0:0:0:0:
206,124,33663,2,0,P|248:117|284:128,1,75,8|0,0:0|0:0,0:0:0:0:
359,210,33936,6,0,P|374:260|355:307,1,75,2|0,0:0|0:0,0:0:0:0:
298,347,34209,2,0,B|259:349|259:349|211:342,1,75,8|0,0:0|0:0,0:0:0:0:
161,267,34481,2,0,P|112:257|21:297,1,150,2|8,0:0|0:0,0:0:0:0:
31,197,34890,1,0,0:0:0:0:
118,153,35027,6,0,B|164:170|164:170|283:165,1,150,2|8,0:0|0:0,0:0:0:0:
342,106,35436,1,0,0:0:0:0:
394,187,35572,2,0,P|405:234|391:275,2,75,2|2|8,0:0|0:0|0:0,0:0:0:0:
342,106,35981,1,0,0:0:0:0:
222,37,36118,6,0,L|44:32,1,150,2|8,0:0|0:0,0:0:0:0:
8,108,36527,1,0,0:0:0:0:
8,108,36663,2,0,P|1:164|10:203,1,75,2|2,0:0|0:0,0:0:0:0:
77,246,36936,2,0,P|85:292|65:342,1,75,8|0,0:0|0:0,0:0:0:0:
170,349,37209,6,0,B|216:359|216:359|342:354,1,150,2|8,0:0|0:0,0:0:0:0:
416,356,37618,1,8,0:0:0:0:
369,270,37754,2,0,P|364:215|379:180,1,75,10|10,0:0|0:0,0:0:0:0:
507,185,38027,2,0,P|480:220|447:227,1,75,2|2,0:0|0:0,0:0:0:0:
357,121,38300,6,0,P|315:109|206:133,1,150,6|8,0:0|0:0,0:0:0:0:
145,200,38709,1,0,0:0:0:0:
91,118,38845,2,0,P|47:115|8:119,1,75,2|2,0:0|0:0,0:0:0:0:
16,237,39118,2,0,P|60:240|99:236,1,75,8|0,0:0|0:0,0:0:0:0:
212,128,39390,6,0,B|225:167|225:167|213:299,1,150,2|8,0:0|0:0,0:0:0:0:
287,341,39800,1,0,0:0:0:0:
361,277,39936,2,0,P|403:273|455:276,1,75,2|2,0:0|0:0,0:0:0:0:
507,208,40209,2,0,P|508:145|493:109,1,75,8|0,0:0|0:0,0:0:0:0:
401,82,40481,6,0,P|343:102|254:86,1,150,2|8,0:0|0:0,0:0:0:0:
178,28,40890,1,0,0:0:0:0:
102,90,41027,2,0,P|90:133|93:171,1,75,2|2,0:0|0:0,0:0:0:0:
174,294,41300,2,0,P|186:251|183:213,1,75,8|0,0:0|0:0,0:0:0:0:
34,48,41572,6,0,P|14:97|27:207,1,150,2|8,0:0|0:0,0:0:0:0:
95,255,41981,1,0,0:0:0:0:
185,222,42118,2,0,P|227:213|280:234,1,75,2|2,0:0|0:0,0:0:0:0:
367,319,42390,2,0,P|325:328|272:307,1,75,8|0,0:0|0:0,0:0:0:0:
254,191,42663,6,0,L|255:100,1,75,6|0,0:0|0:0,0:0:0:0:
180,52,42936,2,0,P|135:61|93:47,1,75,8|0,0:0|0:0,0:0:0:0:
31,115,43209,2,0,L|30:189,1,75,2|2,0:0|0:0,0:0:0:0:
86,270,43481,2,0,P|131:283|172:266,1,75,8|0,0:0|0:0,0:0:0:0:
252,207,43754,6,0,P|320:193|405:216,2,150,2|8|2,0:0|0:0|0:0,0:0:0:0:
228,302,44436,1,2,0:0:0:0:
182,215,44572,2,0,P|179:158|187:129,1,75,8|0,0:0|0:0,0:0:0:0:
264,59,44845,6,0,B|304:45|304:45|437:64,2,150,2|8|2,0:0|0:0|0:0,0:0:0:0:
175,23,45527,1,2,0:0:0:0:
115,99,45663,2,0,L|105:180,1,75,8|0,3:2|0:0,0:0:0:0:
153,259,45936,5,6,0:0:0:0:
256,192,46004,12,8,47845,0:0:0:0:
271,232,48118,5,2,0:0:0:0:
256,192,48186,12,4,49209,0:0:0:0:
98,157,49754,6,0,B|143:187|143:187|260:176,1,157.499995193482
279,186,50300,6,0,P|323:224|280:314,1,165.000005035401,4|8,0:1|0:0,0:0:0:0:
188,352,50709,1,0,0:0:0:0:
120,267,50845,2,0,P|111:217|132:180,1,82.5000025177003,2|2,0:0|0:0,0:0:0:0:
187,103,51118,2,0,P|233:96|276:109,1,82.5000025177003,8|0,0:0|0:0,0:0:0:0:
375,210,51390,6,0,L|356:382,1,165.000005035401,2|8,0:0|0:0,0:0:0:0:
249,368,51800,1,0,0:0:0:0:
200,267,51936,2,0,P|146:259|106:274,1,82.5000025177003,2|2,0:0|0:0,0:0:0:0:
35,201,52209,2,0,B|28:150|28:150|41:101,1,82.5000025177003,8|0,0:0|0:0,0:0:0:0:
152,42,52481,6,0,B|226:69|226:69|314:51,1,165.000005035401,2|8,0:0|0:0,0:0:0:0:
413,19,52890,1,0,0:0:0:0:
454,118,53027,2,0,P|462:174|438:226,1,82.5000025177003,2|2,0:0|0:0,0:0:0:0:
328,262,53300,1,8,0:0:0:0:
340,136,53436,1,0,0:0:0:0:
391,309,53572,6,0,P|342:339|250:277,1,165.000005035401,2|8,0:0|0:0,0:0:0:0:
196,175,53981,1,0,0:0:0:0:
148,280,54118,2,0,P|100:283|55:268,1,82.5000025177003,2|2,0:0|0:0,0:0:0:0:
16,179,54390,1,8,0:0:0:0:
130,95,54527,6,0,P|176:77|299:100,1,165.000005035401,0|0,0:0|0:0,0:0:0:0:
374,156,54936,2,0,P|432:160|482:154,1,82.5000025177003,8|0,0:0|0:0,0:0:0:0:
287,93,55209,2,0,B|269:136|269:136|277:193,1,82.5000025177003,2|2,0:0|0:0,0:0:0:0:
352,245,55481,2,0,B|363:287|363:287|353:329,1,82.5000025177003,8|0,0:0|0:0,0:0:0:0:
248,302,55754,6,0,P|209:289|85:315,1,165.000005035401,2|8,0:0|0:0,0:0:0:0:
17,231,56163,1,0,0:0:0:0:
58,132,56300,2,0,P|97:149|222:104,1,165.000005035401,2|8,0:0|0:0,0:0:0:0:
271,29,56709,1,0,0:0:0:0:
321,124,56845,6,0,P|364:136|425:114,1,82.5000025177003,2|0,0:0|0:0,0:0:0:0:
493,75,57118,1,8,0:0:0:0:
493,75,57254,1,0,0:0:0:0:
463,177,57390,2,0,P|440:222|445:285,1,82.5000025177003,2|2,0:0|0:0,0:0:0:0:
319,301,57663,2,0,P|352:262|355:223,1,82.5000025177003,8|0,0:0|0:0,0:0:0:0:
265,160,57936,6,0,B|219:177|152:144|152:144|107:171,1,165.000005035401,2|8,0:0|0:0,0:0:0:0:
47,273,58345,1,2,0:0:0:0:
2,166,58481,2,0,P|-7:118|16:67,1,82.5000025177003,0|2,0:0|0:0,0:0:0:0:
114,0,58754,2,0,P|123:48|100:99,1,82.5000025177003,8|0,0:0|0:0,0:0:0:0:
275,81,59027,6,0,P|337:62|433:91,1,165.000005035401,4|8,0:0|0:0,0:0:0:0:
490,183,59436,1,0,0:0:0:0:
398,248,59572,2,0,P|389:294|404:343,1,82.5000025177003,2|2,0:0|0:0,0:0:0:0:
284,350,59845,2,0,P|232:345|184:354,1,82.5000025177003,8|0,0:0|0:0,0:0:0:0:
100,330,60118,6,0,B|110:265|110:265|92:224|92:224|96:156,1,165.000005035401,2|8,0:0|0:0,0:0:0:0:
72,76,60527,1,0,0:0:0:0:
171,115,60663,2,0,P|221:137|279:142,1,82.5000025177003,2|2,0:0|0:0,0:0:0:0:
390,26,60936,2,0,P|338:35|283:59,1,82.5000025177003,8|0,0:0|0:0,0:0:0:0:
229,167,61209,6,0,B|213:234|213:234|229:347,1,165.000005035401,2|8,0:0|0:0,0:0:0:0:
331,303,61618,1,0,0:0:0:0:
377,205,61754,2,0,P|421:195|470:202,1,82.5000025177003,2|2,0:0|0:0,0:0:0:0:
232,144,62027,2,0,P|188:134|139:141,1,82.5000025177003,8|0,0:0|0:0,0:0:0:0:
100,225,62300,6,0,P|128:181|88:82,1,165.000005035401,2|8,0:0|0:0,0:0:0:0:
39,158,62709,1,0,0:0:0:0:
92,269,62845,2,0,P|142:279|184:259,1,82.5000025177003,2|2,0:0|0:0,0:0:0:0:
264,218,63118,1,8,0:0:0:0:
334,131,63254,6,0,P|310:178|308:297,1,165.000005035401,0|0,0:0|0:0,0:0:0:0:
413,295,63663,2,0,P|470:304|507:290,1,82.5000025177003,8|0,0:0|0:0,0:0:0:0:
338,115,63936,2,0,P|281:106|244:120,1,82.5000025177003,2|2,0:0|0:0,0:0:0:0:
187,192,64209,2,0,P|132:200|86:184,1,82.5000025177003,8|0,0:0|0:0,0:0:0:0:
37,110,64481,6,0,P|74:192|42:276,1,165.000005035401,2|8,0:0|0:0,0:0:0:0:
123,342,64890,1,0,0:0:0:0:
192,259,65027,2,0,P|274:238|355:265,1,165.000005035401,2|8,0:0|0:0,0:0:0:0:
426,335,65436,1,0,0:0:0:0:
475,226,65572,6,0,L|486:138,1,82.5000025177003,2|0,0:0|0:0,0:0:0:0:
405,72,65845,1,8,0:0:0:0:
312,125,65981,1,0,0:0:0:0:
231,54,66118,2,0,P|184:47|141:61,1,82.5000025177003,2|2,0:0|0:0,0:0:0:0:
68,125,66390,2,0,L|55:229,1,82.5000025177003,8|0,0:0|0:0,0:0:0:0:
80,315,66663,6,0,P|119:268|140:351,1,165.000005035401,10|8,0:0|0:0,0:0:0:0:
263,361,67072,1,8,0:0:0:0:
338,285,67209,2,0,P|391:283|451:297,1,82.5000025177003,8|8,0:0|0:0,0:0:0:0:
500,209,67481,2,0,P|451:195|424:159,1,82.5000025177003,8|8,0:0|0:0,0:0:0:0:
369,68,67754,6,0,P|324:53|206:73,1,165.000005035401,4|8,0:0|0:0,0:0:0:0:
164,168,68163,1,0,0:0:0:0:
86,94,68300,2,0,L|-10:93,1,82.5000025177003,2|2,0:0|0:0,0:0:0:0:
169,171,68572,2,0,P|166:230|163:277,1,82.5000025177003,8|0,0:0|0:0,0:0:0:0:
251,330,68845,6,0,P|308:343|353:322,1,82.5000025177003,2|0,0:0|0:0,0:0:0:0:
410,266,69118,2,0,L|418:151,1,82.5000025177003,8|0,0:0|0:0,0:0:0:0:
355,94,69390,2,0,P|305:80|248:86,1,82.5000025177003,2|2,0:0|0:0,0:0:0:0:
191,204,69663,2,0,P|243:197|280:168,1,82.5000025177003,8|0,0:0|0:0,0:0:0:0:
138,132,69936,6,0,L|143:325,1,165.000005035401,2|8,0:0|0:0,0:0:0:0:
241,338,70345,1,0,0:0:0:0:
320,266,70481,2,0,P|371:254|419:280,1,82.5000025177003,2|2,0:0|0:0,0:0:0:0:
488,203,70754,2,0,P|498:155|469:106,1,82.5000025177003,8|0,0:0|0:0,0:0:0:0:
364,57,71027,6,0,P|306:49|199:65,1,165.000005035401,2|8,0:0|0:0,0:0:0:0:
98,33,71436,1,0,0:0:0:0:
37,121,71572,2,0,L|27:222,1,82.5000025177003,2|2,0:0|0:0,0:0:0:0:
110,273,71845,2,0,L|101:382,1,82.5000025177003,8|0,0:0|0:0,0:0:0:0:
214,351,72118,6,0,P|271:367|388:338,1,165.000005035401,6|8,0:0|0:0,0:0:0:0:
447,268,72527,1,0,0:0:0:0:
368,195,72663,2,0,P|359:135|375:104,1,82.5000025177003,2|2,0:0|0:0,0:0:0:0:
485,39,72936,2,0,P|494:99|478:130,1,82.5000025177003,8|0,0:0|0:0,0:0:0:0:
369,61,73209,6,0,P|289:57|263:75,1,82.5000025177003,2|0,0:0|0:0,0:0:0:0:
215,134,73481,2,0,P|158:142|109:127,1,82.5000025177003,8|0,0:0|0:0,0:0:0:0:
65,54,73754,1,2,0:0:0:0:
23,152,73890,1,2,0:0:0:0:
104,222,74027,2,0,L|103:315,1,82.5000025177003,8|0,0:0|0:0,0:0:0:0:
217,222,74300,6,0,P|279:200|408:235,1,165.000005035401,2|8,0:0|0:0,0:0:0:0:
447,294,74709,1,0,0:0:0:0:
473,189,74845,2,0,P|483:140|468:89,1,82.5000025177003,2|2,0:0|0:0,0:0:0:0:
386,51,75118,2,0,P|337:36|284:58,1,82.5000025177003,8|0,0:0|0:0,0:0:0:0:
200,84,75390,6,0,L|115:73,2,82.5000025177003,2|0|8,0:0|0:0|0:0,0:0:0:0:
198,191,75800,1,0,0:0:0:0:
91,171,75936,2,0,P|34:179|3:202,1,82.5000025177003,2|2,0:0|0:0,0:0:0:0:
77,278,76209,2,0,L|169:280,1,82.5000025177003,8|0,0:0|0:0,0:0:0:0:
297,206,76481,6,0,P|356:199|431:291,1,165.000005035401,6|8,0:0|0:0,0:0:0:0:
326,304,76890,1,0,0:0:0:0:
251,213,77027,2,0,P|237:160|266:109,1,82.5000025177003,2|2,0:0|0:0,0:0:0:0:
317,56,77300,2,0,P|371:49|414:57,1,82.5000025177003,8|0,0:0|0:0,0:0:0:0:
259,231,77572,6,0,B|219:246|219:246|83:228,1,165.000005035401,2|8,0:0|0:0,0:0:0:0:
30,146,77981,1,0,0:0:0:0:
95,61,78118,2,0,P|150:53|208:66,1,82.5000025177003,2|2,0:0|0:0,0:0:0:0:
245,139,78390,2,0,P|300:147|358:134,1,82.5000025177003,8|0,0:0|0:0,0:0:0:0:
406,36,78663,6,0,B|381:81|381:81|375:212,1,165.000005035401,2|8,0:0|0:0,0:0:0:0:
455,266,79072,1,0,0:0:0:0:
362,320,79209,2,0,P|313:329|252:311,1,82.5000025177003,2|2,0:0|0:0,0:0:0:0:
193,261,79481,2,0,P|141:254|87:260,1,82.5000025177003,8|0,0:0|0:0,0:0:0:0:
26,331,79754,6,0,P|-6:254|42:173,2,165.000005035401,2|8|2,0:0|0:0|0:0,0:0:0:0:
122,357,80436,1,2,0:0:0:0:
193,261,80572,2,0,L|203:168,1,82.5000025177003,8|0,0:0|0:0,0:0:0:0:
277,81,80845,6,0,P|335:71|429:116,1,165.000005035401,6|8,0:0|0:0,0:0:0:0:
488,204,81254,1,0,0:0:0:0:
384,230,81390,2,0,P|367:272|362:321,1,82.5000025177003,2|2,0:0|0:0,0:0:0:0:
260,345,81663,2,0,P|210:348|165:342,1,82.5000025177003,8|0,0:0|0:0,0:0:0:0:
86,260,81936,6,0,P|77:211|108:167,1,89.9999972534181,4|0,0:0|0:0,0:0:0:0:
171,85,82481,2,0,B|228:124|228:124|299:83,1,134.999995880127
309,58,83027,6,0,L|379:54,1,67.4999979400635,6|0,0:0|0:0,0:0:0:0:
466,107,83287,2,0,P|475:146|463:188,1,67.4999979400635,2|0,0:0|0:0,0:0:0:0:
362,252,83548,2,0,P|335:225|393:153,1,134.999995880127,8|0,0:0|0:0,0:0:0:0:
295,324,84070,6,0,L|207:314,1,67.4999979400635,2|0,0:0|0:0,0:0:0:0:
123,222,84331,2,0,L|190:229,1,67.4999979400635,2|0,0:0|0:0,0:0:0:0:
286,142,84592,2,0,P|317:197|273:242,1,134.999995880127,8|0,0:0|0:0,0:0:0:0:
168,143,85113,6,0,L|97:133,1,67.4999979400635,2|0,0:0|0:0,0:0:0:0:
14,47,85374,2,0,L|80:56,1,67.4999979400635,2|0,0:0|0:0,0:0:0:0:
195,49,85635,2,0,B|245:59|245:59|336:50,1,134.999995880127,8|0,0:0|0:0,0:0:0:0:
425,44,86157,6,0,P|441:96|435:124,1,67.4999979400635,2|0,0:0|0:0,0:0:0:0:
360,148,86418,2,0,P|351:193|365:233,1,67.4999979400635,2|0,0:0|0:0,0:0:0:0:
424,305,86679,2,0,P|398:296|285:305,1,134.999995880127,8|0,0:0|0:0,0:0:0:0:
217,347,87200,6,0,P|183:353|148:353,1,67.4999979400635,2|0,0:0|0:0,0:0:0:0:
59,288,87461,2,0,L|43:205,1,67.4999979400635,2|0,0:0|0:0,0:0:0:0:
110,135,87722,2,0,P|134:174|230:189,1,134.999995880127,8|0,0:0|0:0,0:0:0:0:
325,129,88244,6,0,P|362:121|405:131,1,67.4999979400635,2|0,0:0|0:0,0:0:0:0:
393,230,88505,2,0,P|356:238|313:228,1,67.4999979400635,2|0,0:0|0:0,0:0:0:0:
304,89,88766,2,0,P|268:69|192:117,1,134.999995880127,8|0,0:0|0:0,0:0:0:0:
82,126,89287,6,0,L|12:122,2,67.4999979400635,2|0|2,0:0|0:0|0:0,0:0:0:0:
176,212,89679,1,0,0:0:0:0:
193,111,89809,1,8,0:0:0:0:
84,210,89940,2,0,P|70:244|90:306,1,89.9999972534181,0|8,0:0|0:0,0:0:0:0:
107,317,90266,1,8,0:0:0:0:
146,324,90331,6,0,L|234:330,1,75,8|8,0:0|0:0,0:0:0:0:
334,289,90592,2,0,B|366:255|366:255|345:131,1,150,8|8,0:0|0:0,0:0:0:0:
276,87,90983,1,0,0:0:0:0:
231,173,91113,2,0,P|173:186|146:179,1,75,8|0,0:0|0:0,0:0:0:0:
73,115,91374,6,0,P|113:181|83:272,1,150,6|8,0:0|0:0,0:0:0:0:
39,343,91766,1,0,0:0:0:0:
149,334,91896,2,0,P|201:325|239:328,1,75,2|2,0:0|0:0,0:0:0:0:
343,256,92157,2,0,P|291:247|253:250,1,75,8|0,0:0|0:0,0:0:0:0:
385,357,92418,6,0,B|420:323|420:323|436:199,1,150,2|8,0:0|0:0,0:0:0:0:
383,100,92809,1,0,0:0:0:0:
299,170,92940,2,0,P|244:171|202:160,1,75,2|2,0:0|0:0,0:0:0:0:
142,24,93200,2,0,P|188:41|231:72,1,75,8|0,0:0|0:0,0:0:0:0:
69,169,93461,6,0,P|76:123|105:84,1,75,2|0,0:0|0:0,0:0:0:0:
159,211,93722,2,0,P|169:262|164:298,1,75,8|0,0:0|0:0,0:0:0:0:
86,342,93983,2,0,L|260:336,1,150,2|8,0:0|0:0,0:0:0:0:
341,361,94374,1,0,0:0:0:0:
412,290,94505,6,0,P|421:248|396:201,1,75,2|0,0:0|0:0,0:0:0:0:
317,133,94766,2,0,P|264:154|235:157,1,75,8|0,0:0|0:0,0:0:0:0:
161,28,95026,2,0,P|206:33|247:79,1,75,2|2,0:0|0:0,0:0:0:0:
248,197,95287,1,8,0:0:0:0:
269,44,95418,1,0,0:0:0:0:
154,160,95548,6,0,P|112:153|15:201,2,150,6|8|2,0:0|0:0|0:0,0:0:0:0:
170,270,96200,1,2,0:0:0:0:
276,210,96331,2,0,L|369:206,1,75,8|0,0:0|0:0,0:0:0:0:
420,309,96592,6,0,P|397:269|437:155,1,150,2|8,0:0|0:0,0:0:0:0:
463,65,96983,1,0,0:0:0:0:
336,91,97113,2,0,P|292:108|239:108,1,75,2|2,0:0|0:0,0:0:0:0:
159,8,97374,2,0,P|145:52|154:113,1,75,8|0,0:0|0:0,0:0:0:0:
242,204,97635,6,0,P|256:160|247:99,1,75,2|0,0:0|0:0,0:0:0:0:
149,96,97896,1,8,0:0:0:0:
85,182,98026,2,0,P|56:230|106:317,1,150,0|2,0:0|0:0,0:0:0:0:
201,342,98418,2,0,L|284:341,1,75,8|0,0:0|0:0,0:0:0:0:
383,279,98679,6,0,L|397:242,3,37.5,8|0|0|0,0:0|0:0|0:0|0:0,0:0:0:0:
415,220,98940,2,0,L|421:118,1,75,8|0,0:0|0:0,0:0:0:0:
327,40,99200,2,0,L|322:114,1,75,8|0,0:0|0:0,0:0:0:0:
265,210,99461,2,0,P|214:216|172:193,1,75,8|0,0:0|0:0,0:0:0:0:
130,130,99722,6,0,B|149:183|149:183|135:291,1,150,6|8,0:0|0:0,0:0:0:0:
70,359,100113,1,0,0:0:0:0:
178,357,100244,2,0,P|226:366|271:349,1,75,2|2,0:0|0:0,0:0:0:0:
383,266,100505,2,0,P|335:257|290:274,1,75,8|0,0:0|0:0,0:0:0:0:
436,331,100766,6,0,P|464:278|409:186,1,150,2|8,0:0|0:0,0:0:0:0:
358,108,101157,1,0,0:0:0:0:
279,168,101287,2,0,P|228:174|190:162,1,75,2|2,0:0|0:0,0:0:0:0:
95,73,101548,2,0,P|146:69|180:80,1,75,8|0,0:0|0:0,0:0:0:0:
189,205,101809,5,2,0:0:0:0:
77,52,101940,1,0,0:0:0:0:
171,41,102070,1,8,0:0:0:0:
83,175,102200,1,0,0:0:0:0:
238,93,102331,2,0,L|326:93,1,75,2|2,0:0|0:0,0:0:0:0:
426,192,102592,2,0,P|371:173|349:139,1,75,8|0,0:0|0:0,0:0:0:0:
493,126,102853,6,0,B|508:182|508:182|494:303,1,150,2|8,0:0|0:0,0:0:0:0:
427,354,103244,1,0,0:0:0:0:
369,262,103374,2,0,P|312:252|266:275,1,75,2|2,0:0|0:0,0:0:0:0:
162,360,103635,2,0,P|214:355|242:329,1,75,8|0,0:0|0:0,0:0:0:0:
118,237,103896,6,0,B|87:266|87:266|83:393,1,150,2|8,0:0|0:0,0:0:0:0:
210,254,104287,1,0,0:0:0:0:
173,156,104418,2,0,L|185:50,1,75,2|2,0:0|0:0,0:0:0:0:
296,18,104679,2,0,L|284:117,1,75,8|0,0:0|0:0,0:0:0:0:
350,201,104940,6,0,P|390:226|482:195,1,150,2|8,0:0|0:0,0:0:0:0:
458,100,105331,1,0,0:0:0:0:
359,101,105461,2,0,P|311:89|274:96,1,75,2|2,0:0|0:0,0:0:0:0:
225,169,105722,2,0,P|173:173|134:161,1,75,8|0,0:0|0:0,0:0:0:0:
107,80,105983,1,8,0:0:0:0:
38,193,106113,6,0,P|63:245|28:344,1,150,2|0,0:0|0:0,0:0:0:0:
143,342,106505,1,8,0:0:0:0:
255,298,106635,2,0,B|297:286|297:286|417:303,1,150,2|0,0:0|0:0,0:0:0:0:
488,218,107026,6,0,P|494:169|471:135,1,75,10|0,0:0|0:0,0:0:0:0:
378,54,107287,2,0,P|372:103|386:140,1,75,8|0,0:0|0:0,0:0:0:0:
314,197,107548,2,0,L|236:193,1,75,8|8,0:0|0:0,0:0:0:0:
130,112,107809,1,8,0:0:0:0:
225,213,107940,1,0,0:0:0:0:
222,39,108070,5,4,0:0:0:0:
131,90,112113,5,0,0:0:0:0:
131,90,112179,1,0,0:0:0:0:
131,90,112244,6,0,L|120:248,1,150,8|8,0:0|0:0,0:0:0:0:
205,342,112766,1,8,0:0:0:0:
342,268,113026,1,8,0:0:0:0:
201,162,113287,1,8,0:0:0:0:
349,67,113548,1,8,0:0:0:0:
459,203,113809,1,8,0:0:0:0:
355,345,114070,1,8,0:0:0:0:
240,186,114331,6,0,P|179:173|90:198,1,150,8|8,0:0|0:0,0:0:0:0:
255,307,114853,2,0,P|326:328|399:315,1,150,8|8,0:0|0:0,0:0:0:0:
461,110,115374,2,0,L|443:203,1,82.5000025177003,8|0,0:0|0:0,0:0:0:0:
342,41,115635,2,0,L|348:240,1,165.000005035401,8|8,0:0|0:0,0:0:0:0:
418,320,116026,1,8,0:0:0:0:
297,217,116418,6,0,P|252:213|190:221,1,82.5000025177003,6|0,0:0|0:0,0:0:0:0:
89,312,116679,2,0,P|134:316|196:308,1,82.5000025177003,10|0,0:0|0:0,0:0:0:0:
225,179,116940,2,0,P|246:134|224:92,1,82.5000025177003,10|0,0:0|0:0,0:0:0:0:
144,30,117200,2,0,P|123:75|145:117,1,82.5000025177003,10|0,0:0|0:0,0:0:0:0:
286,70,117461,6,0,L|387:64,1,82.5000025177003,2|10,0:0|0:0,0:0:0:0:
432,219,117722,1,10,0:0:0:0:
479,32,117853,1,10,0:0:0:0:
493,147,117983,1,2,0:0:0:0:
369,35,118113,1,2,0:0:0:0:
336,212,118244,2,0,L|334:305,1,82.5000025177003,8|0,0:0|0:0,0:0:0:0:
179,293,118505,6,0,L|8:288,2,165.000005035401,4|0|0,0:0|0:0|0:0,0:0:0:0:
312,355,119287,1,0,0:0:0:0:
256,192,119548,12,10,121374,0:0:0:0:
155,216,121635,5,14,0:0:0:0:
256,192,121700,12,12,122679,0:0:0:0:
423,89,123200,6,0,P|368:80|237:132,1,183.749994392395,0|0,0:0|0:0,0:0:0:0:
215,157,123722,6,0,P|160:164|97:150,1,82.5000025177003,4|0,3:1|0:0,0:0:0:0:
25,159,123983,2,0,P|14:211|37:261,1,82.5000025177003,8|0,0:0|0:0,0:0:0:0:
103,308,124244,2,0,B|146:315|146:315|204:308,1,82.5000025177003,2|2,0:0|0:0,0:0:0:0:
277,255,124505,1,8,0:0:0:0:
350,332,124635,1,0,0:0:0:0:
432,225,124766,6,0,P|451:186|409:70,1,165.000005035401,2|8,0:0|0:0,0:0:0:0:
312,49,125157,1,0,0:0:0:0:
234,122,125287,2,0,P|192:141|139:144,1,82.5000025177003,2|2,0:0|0:0,0:0:0:0:
37,36,125548,2,0,P|106:42|143:62,1,82.5000025177003,8|0,0:0|0:0,0:0:0:0:
248,150,125809,6,0,B|268:194|268:194|267:341,1,165.000005035401,2|8,0:0|0:0,0:0:0:0:
174,366,126200,1,0,0:0:0:0:
267,310,126331,2,0,B|324:301|334:300|379:299,1,82.5000025177003,2|2,0:0|0:0,0:0:0:0:
473,215,126592,2,0,B|415:206|406:205|361:204,1,82.5000025177003,8|0,0:0|0:0,0:0:0:0:
248,150,126853,6,0,P|201:102|264:31,1,165.000005035401,2|8,0:0|0:0,0:0:0:0:
373,47,127244,1,0,0:0:0:0:
253,188,127374,2,0,P|199:212|161:209,1,82.5000025177003,2|2,0:0|0:0,0:0:0:0:
97,127,127635,1,8,0:0:0:0:
34,221,127766,6,0,P|0:270|48:372,1,165.000005035401,0|0,0:0|0:0,0:0:0:0:
133,325,128157,2,0,P|193:318|244:332,1,82.5000025177003,8|0,0:0|0:0,0:0:0:0:
315,358,128418,2,0,P|384:359|432:345,1,82.5000025177003,2|2,0:0|0:0,0:0:0:0:
473,281,128679,2,0,L|490:195,1,82.5000025177003,8|0,0:0|0:0,0:0:0:0:
377,75,128940,6,0,L|379:243,1,165.000005035401,2|8,0:0|0:0,0:0:0:0:
267,233,129331,1,0,0:0:0:0:
219,105,129461,2,0,P|168:87|115:175,1,165.000005035401,2|8,0:0|0:0,0:0:0:0:
53,257,129853,1,0,0:0:0:0:
147,306,129983,6,0,L|246:301,1,82.5000025177003,2|0,0:0|0:0,0:0:0:0:
333,331,130244,2,0,L|426:329,1,82.5000025177003,8|0,0:0|0:0,0:0:0:0:
351,157,130505,2,0,P|312:194|297:238,1,82.5000025177003,2|2,0:0|0:0,0:0:0:0:
499,231,130766,2,0,P|480:194|448:168,1,82.5000025177003,8|0,0:0|0:0,0:0:0:0:
294,87,131026,6,0,L|110:84,1,165.000005035401,6|8,0:0|0:0,0:0:0:0:
26,25,131418,1,0,0:0:0:0:
15,123,131548,2,0,P|5:164|-2:230,1,82.5000025177003,2|2,0:0|0:0,0:0:0:0:
74,289,131809,2,0,P|117:295|161:292,1,82.5000025177003,8|0,0:0|0:0,0:0:0:0:
257,208,132070,6,0,P|317:188|417:230,1,165.000005035401,6|8,0:0|0:0,0:0:0:0:
457,333,132461,1,0,0:0:0:0:
496,231,132592,2,0,P|509:176|490:133,1,82.5000025177003,2|2,0:0|0:0,0:0:0:0:
417,75,132853,2,0,P|370:66|325:74,1,82.5000025177003,8|0,0:0|0:0,0:0:0:0:
237,140,133113,6,0,B|185:153|185:153|54:115,1,165.000005035401,2|8,0:0|0:0,0:0:0:0:
26,217,133505,1,0,0:0:0:0:
114,276,133635,2,0,L|112:371,1,82.5000025177003,2|2,0:0|0:0,0:0:0:0:
209,246,133896,2,0,P|265:239|326:258,1,82.5000025177003,8|0,0:0|0:0,0:0:0:0:
374,340,134157,6,0,B|340:308|340:308|346:182,1,165.000005035401,2|8,0:0|0:0,0:0:0:0:
429,122,134548,1,0,0:0:0:0:
324,96,134679,2,0,P|271:102|226:98,1,82.5000025177003,2|2,0:0|0:0,0:0:0:0:
150,43,134940,2,0,P|92:37|45:48,1,82.5000025177003,8|0,0:0|0:0,0:0:0:0:
16,134,135200,6,0,B|40:182|40:182|32:309,1,165.000005035401,2|8,0:0|0:0,0:0:0:0:
123,352,135592,1,0,0:0:0:0:
204,282,135722,2,0,P|267:271|307:277,1,82.5000025177003,2|2,0:0|0:0,0:0:0:0:
433,324,135983,2,0,P|387:322|336:301,1,82.5000025177003,8|0,0:0|0:0,0:0:0:0:
296,139,136244,6,0,P|359:145|395:262,2,165.000005035401,2|8|2,0:0|0:0|0:0,0:0:0:0:
200,189,136896,1,2,0:0:0:0:
123,114,137026,2,0,P|59:107|32:117,1,82.5000025177003,8|0,0:0|0:0,0:0:0:0:
17,216,137287,6,0,B|-2:325|-2:325|27:386,1,165.000005035401,2|8,0:0|0:0,0:0:0:0:
114,318,137679,1,0,0:0:0:0:
207,265,137809,2,0,P|254:253|369:275,1,165.000005035401,2|8,0:0|0:0,0:0:0:0:
448,343,138200,1,0,0:0:0:0:
462,217,138331,6,0,L|473:105,1,82.5000025177003,10|0,0:0|0:0,0:0:0:0:
397,55,138592,1,10,0:0:0:0:
294,25,138722,1,2,0:0:0:0:
240,118,138853,2,0,P|193:121|133:110,1,82.5000025177003,10|2,0:0|0:0,0:0:0:0:
52,100,139113,2,0,P|34:142|45:200,1,82.5000025177003,8|0,0:0|0:0,0:0:0:0:
117,279,139374,6,0,B|173:267|173:267|218:290|218:290|308:287,1,165.000005035401,8|10,0:0|0:0,0:0:0:0:
446,306,139766,1,8,0:0:0:0:
446,306,139831,1,8,0:0:0:0:
446,306,139896,2,0,L|451:210,1,82.5000025177003,10|10,0:0|0:0,0:0:0:0:
352,113,140157,2,0,L|348:195,1,82.5000025177003,10|10,0:0|0:0,0:0:0:0:
274,288,140418,6,0,P|201:306|116:260,1,165.000005035401,6|8,0:0|0:0,0:0:0:0:
38,201,140809,1,0,0:0:0:0:
86,104,140940,2,0,P|129:100|183:107,1,82.5000025177003,2|2,0:0|0:0,0:0:0:0:
241,181,141200,2,0,P|282:184|323:180,1,82.5000025177003,8|0,0:0|0:0,0:0:0:0:
388,95,141461,6,0,P|399:51|373:13,2,82.5000025177003,2|0|8,0:0|0:0|0:0,0:0:0:0:
323,180,141853,1,0,0:0:0:0:
250,104,141983,2,0,L|151:103,1,82.5000025177003,2|2,0:0|0:0,0:0:0:0:
62,126,142244,2,0,P|54:175|66:224,1,82.5000025177003,8|0,0:0|0:0,0:0:0:0:
109,322,142505,6,0,P|166:297|283:319,1,165.000005035401,2|8,0:0|0:0,0:0:0:0:
369,336,142896,1,0,0:0:0:0:
441,257,143026,2,0,P|453:200|422:150,1,82.5000025177003,2|2,0:0|0:0,0:0:0:0:
348,131,143287,2,0,P|339:91|352:52,1,82.5000025177003,8|0,0:0|0:0,0:0:0:0:
284,195,143548,6,0,B|246:213|246:213|110:178,1,165.000005035401,2|8,0:0|0:0,0:0:0:0:
31,130,143940,1,0,0:0:0:0:
17,238,144070,2,0,P|6:286|13:335,1,82.5000025177003,2|2,0:0|0:0,0:0:0:0:
108,359,144331,2,0,B|154:368|154:368|203:363,1,82.5000025177003,8|0,0:0|0:0,0:0:0:0:
294,274,144592,6,0,P|370:251|448:291,1,165.000005035401,6|8,0:0|0:0,0:0:0:0:
475,183,144983,1,0,0:0:0:0:
370,159,145113,2,0,L|250:151,1,82.5000025177003,2|2,0:0|0:0,0:0:0:0:
179,153,145374,2,0,P|177:86|194:63,1,82.5000025177003,8|0,0:0|0:0,0:0:0:0:
92,18,145635,6,0,P|41:13|-7:29,1,82.5000025177003,2|0,0:0|0:0,0:0:0:0:
54,118,145896,2,0,L|54:230,1,82.5000025177003,8|0,0:0|0:0,0:0:0:0:
104,295,146157,2,0,P|150:302|196:294,1,82.5000025177003,2|2,0:0|0:0,0:0:0:0:
256,216,146418,1,8,0:0:0:0:
323,298,146548,1,0,0:0:0:0:
389,191,146679,6,0,B|413:131|413:131|399:6,1,165.000005035401,2|8,0:0|0:0,0:0:0:0:
314,93,147070,1,0,0:0:0:0:
213,57,147200,2,0,P|159:49|119:60,1,82.5000025177003,2|2,0:0|0:0,0:0:0:0:
39,108,147461,2,0,P|30:160|46:196,1,82.5000025177003,8|0,0:0|0:0,0:0:0:0:
129,246,147722,6,0,P|139:308|125:348,2,82.5000025177003,2|0|8,0:0|0:0|0:0,0:0:0:0:
39,186,148113,1,0,0:0:0:0:
145,170,148244,2,0,L|244:176,1,82.5000025177003,2|2,0:0|0:0,0:0:0:0:
300,254,148505,1,8,0:0:0:0:
399,215,148635,1,0,0:0:0:0:
306,109,148766,6,0,L|120:89,1,165.000005035401,6|8,0:0|0:0,0:0:0:0:
54,28,149157,1,0,0:0:0:0:
24,130,149287,2,0,P|12:195|27:235,1,82.5000025177003,2|2,0:0|0:0,0:0:0:0:
122,294,149548,2,0,P|134:229|119:189,1,82.5000025177003,8|0,0:0|0:0,0:0:0:0:
36,342,149809,6,0,L|226:340,1,165.000005035401,2|8,0:0|0:0,0:0:0:0:
307,358,150200,1,0,0:0:0:0:
387,286,150331,2,0,P|397:226|375:190,1,82.5000025177003,2|2,0:0|0:0,0:0:0:0:
289,168,150592,2,0,P|283:118|297:74,1,82.5000025177003,8|0,0:0|0:0,0:0:0:0:
372,25,150853,6,0,P|318:55|198:31,1,165.000005035401,2|8,0:0|0:0,0:0:0:0:
111,28,151244,1,0,0:0:0:0:
44,111,151374,2,0,L|44:206,1,82.5000025177003,2|2,0:0|0:0,0:0:0:0:
104,282,151635,2,0,P|148:295|201:273,1,82.5000025177003,8|0,0:0|0:0,0:0:0:0:
239,194,151896,6,0,P|294:169|391:197,1,165.000005035401,2|8,0:0|0:0,0:0:0:0:
456,281,152287,1,0,0:0:0:0:
473,174,152418,2,0,L|479:84,1,82.5000025177003,2|2,0:0|0:0,0:0:0:0:
393,10,152679,2,0,L|387:92,1,82.5000025177003,8|0,0:0|0:0,0:0:0:0:
271,54,152940,6,0,B|220:39|220:39|76:59,1,165.000005035401,6|8,0:0|0:0,0:0:0:0:
27,124,153331,1,0,0:0:0:0:
110,191,153461,2,0,P|123:253|105:289,1,82.5000025177003,2|2,0:0|0:0,0:0:0:0:
189,349,153722,2,0,L|298:349,1,82.5000025177003,8|0,0:0|0:0,0:0:0:0:
371,306,153983,6,0,B|360:254|360:254|387:189|387:189|381:118,1,165.000005035401,6|8,0:0|0:0,0:0:0:0:
302,76,154374,1,8,0:0:0:0:
211,133,154505,2,0,L|121:124,2,82.5000025177003,8|8|8,0:0|0:0|0:0,0:0:0:0:
249,233,154896,1,0,0:0:0:0:
386,152,155026,5,4,0:0:0:0:
256,192,155092,12,0,156853,0:0:0:0:
256,192,157113,12,4,159200,0:0:0:0:
53,103,167201,6,0,P|38:152|60:204,1,104.999996795654,6|2,0:0|0:0,0:0:0:0:
164,283,167701,1,10,0:0:0:0:
378,113,168201,6,0,L|366:228,1,104.999996795654,2|2,0:0|0:0,0:0:0:0:
309,341,168701,1,10,0:0:0:0:
272,70,169201,6,0,P|227:62|160:76,1,104.999996795654,2|2,0:0|0:0,0:0:0:0:
32,61,169701,1,10,0:0:0:0:
173,294,170201,6,0,L|282:293,1,104.999996795654,2|2,0:0|0:0,0:0:0:0:
408,335,170701,1,10,0:0:0:0:
442,240,170951,2,0,P|450:190|446:171,1,52.4999983978272,2|0,0:0|0:0,0:0:0:0:
414,108,171201,6,0,P|362:134|303:134,1,104.999996795654,6|0,0:0|0:0,0:0:0:0:
240,42,171701,2,0,P|188:33|124:55,1,104.999996795654,10|0,0:0|0:0,0:0:0:0:
53,109,172201,6,0,B|43:158|43:158|41:221,1,104.999996795654,2|0,0:0|0:0,0:0:0:0:
115,296,172701,1,10,0:0:0:0:
247,328,172951,1,0,0:0:0:0:
368,264,173201,6,0,L|375:146,1,104.999996795654,2|0,0:0|0:0,0:0:0:0:
276,64,173701,2,0,L|269:168,1,104.999996795654,10|2,0:0|0:0,0:0:0:0:
164,256,174201,2,0,P|112:257|89:254,1,52.4999983978272,8|8,0:0|0:0,0:0:0:0:
25,251,174451,1,8,0:0:0:0:
94,153,174701,2,0,L|248:145,1,134.999995880127,0|0,0:0|0:0,0:0:0:0:
274,166,175201,6,0,P|323:156|375:183,1,82.5000025177003,4|0,0:1|0:0,0:0:0:0:
459,182,175451,2,0,P|472:126|452:78,2,82.5000025177003,10|0|2,0:0|0:0|0:0,0:0:0:0:
402,272,175826,1,2,0:0:0:0:
299,303,175951,2,0,L|196:302,1,82.5000025177003,8|0,0:0|0:0,0:0:0:0:
117,260,176201,6,0,P|103:201|124:164,1,82.5000025177003,2|0,0:0|0:0,0:0:0:0:
154,84,176451,1,8,0:0:0:0:
252,126,176576,2,0,L|350:125,1,82.5000025177003,0|2,0:0|0:0,0:0:0:0:
399,38,176826,1,2,0:0:0:0:
444,134,176951,2,0,P|450:189|445:220,1,82.5000025177003,8|0,0:0|0:0,0:0:0:0:
350,302,177201,6,0,P|297:286|179:313,1,165.000005035401,2|8,0:0|0:0,0:0:0:0:
96,356,177576,1,0,0:0:0:0:
30,270,177701,2,0,P|27:204|39:169,1,82.5000025177003,2|2,0:0|0:0,0:0:0:0:
59,85,177951,2,0,P|97:56|140:53,1,82.5000025177003,8|0,0:0|0:0,0:0:0:0:
252,126,178201,6,0,B|316:141|316:141|429:137,1,165.000005035401,2|8,0:0|0:0,0:0:0:0:
442,33,178576,1,0,0:0:0:0:
489,129,178701,2,0,P|498:182|489:211,1,82.5000025177003,2|2,0:0|0:0,0:0:0:0:
385,233,178951,2,0,P|379:285|397:328,1,82.5000025177003,8|0,0:0|0:0,0:0:0:0:
264,346,179201,6,0,P|206:329|99:342,1,165.000005035401,2|8,0:0|0:0,0:0:0:0:
13,282,179576,1,0,0:0:0:0:
79,198,179701,2,0,L|86:105,1,82.5000025177003,2|2,0:0|0:0,0:0:0:0:
154,33,179951,2,0,P|201:62|242:58,1,82.5000025177003,8|0,0:0|0:0,0:0:0:0:
343,8,180201,6,0,P|404:-2|519:51,1,165.000005035401,2|8,0:0|0:0,0:0:0:0:
503,140,180576,1,0,0:0:0:0:
404,181,180701,2,0,P|381:225|415:353,1,165.000005035401,2|8,0:0|0:0,0:0:0:0:
293,310,181076,1,0,0:0:0:0:
181,228,181201,6,0,P|124:224|76:233,1,82.5000025177003,10|2,0:0|0:0,0:0:0:0:
30,144,181451,2,0,P|85:132|148:142,1,82.5000025177003,10|10,0:0|0:0,0:0:0:0:
196,66,181701,1,2,0:0:0:0:
301,45,181826,1,0,0:0:0:0:
382,114,181951,2,0,L|378:206,1,82.5000025177003,10|0,0:0|0:0,0:0:0:0:
293,310,182201,6,0,P|241:283|125:304,1,165.000005035401,6|8,0:0|0:0,0:0:0:0:
46,352,182576,1,0,0:0:0:0:
23,247,182701,2,0,P|20:188|41:151,1,82.5000025177003,10|8,0:0|0:0,0:0:0:0:
119,110,182951,2,0,P|121:69|107:12,1,82.5000025177003,8|0,0:0|0:0,0:0:0:0:
236,42,183201,6,0,P|293:89|399:86,1,165.000005035401,6|8,0:0|0:0,0:0:0:0:
468,29,183576,1,0,0:0:0:0:
486,134,183701,2,0,P|494:197|480:249,1,82.5000025177003,2|2,0:0|0:0,0:0:0:0:
354,298,183951,2,0,P|384:248|415:233,1,82.5000025177003,8|0,0:0|0:0,0:0:0:0:
439,351,184201,6,0,L|251:337,1,165.000005035401,2|8,0:0|0:0,0:0:0:0:
170,369,184576,1,0,0:0:0:0:
101,286,184701,2,0,P|93:235|116:186,1,82.5000025177003,2|2,0:0|0:0,0:0:0:0:
158,86,184951,1,8,0:0:0:0:
183,244,185076,1,0,0:0:0:0:
68,134,185201,6,0,L|259:126,1,165.000005035401,2|8,0:0|0:0,0:0:0:0:
321,65,185576,1,0,0:0:0:0:
375,157,185701,2,0,P|389:226|375:261,1,82.5000025177003,2|2,0:0|0:0,0:0:0:0:
306,308,185951,2,0,L|210:304,1,82.5000025177003,8|0,0:0|0:0,0:0:0:0:
145,157,186201,6,0,P|97:138|-2:216,1,165.000005035401,2|8,0:0|0:0,0:0:0:0:
30,296,186576,1,0,0:0:0:0:
141,301,186701,2,0,L|236:304,1,82.5000025177003,2|2,0:0|0:0,0:0:0:0:
314,245,186951,2,0,P|323:197|307:158,1,82.5000025177003,8|0,0:0|0:0,0:0:0:0:
201,57,187201,6,0,P|261:93|357:71,2,165.000005035401,2|8|2,0:0|0:0|0:0,0:0:0:0:
102,13,187826,1,2,0:0:0:0:
37,98,187951,2,0,L|27:194,1,82.5000025177003,8|0,0:0|0:0,0:0:0:0:
92,266,188201,6,0,B|150:240|197:277|197:277|259:253,1,165.000005035401,2|8,0:0|0:0,0:0:0:0:
185,171,188576,1,0,0:0:0:0:
134,343,188701,2,0,P|82:351|41:337,1,82.5000025177003,2|2,0:0|0:0,0:0:0:0:
246,257,188951,2,0,P|298:249|339:263,1,82.5000025177003,8|0,0:0|0:0,0:0:0:0:
432,276,189201,6,0,P|442:241|429:192,1,82.5000025177003,14|0,0:0|0:0,0:0:0:0:
372,108,189451,1,8,0:0:0:0:
275,61,189576,1,12,0:0:0:0:
193,130,189701,2,0,L|101:124,1,82.5000025177003,2|0,0:0|0:0,0:0:0:0:
44,39,189951,2,0,L|126:44,1,82.5000025177003,14|0,0:0|0:0,0:0:0:0:
226,155,190201,6,0,B|247:228|247:228|228:333,1,165.000005035401,6|8,0:0|0:0,0:0:0:0:
133,269,190576,1,10,0:0:0:0:
133,269,190638,1,0,0:0:0:0:
133,269,190701,2,0,P|72:265|25:266,1,82.5000025177003,8|8,0:0|0:0,0:0:0:0:
231,337,190951,2,0,P|272:340|313:340,1,82.5000025177003,8|8,0:0|0:0,0:0:0:0:
404,259,191201,6,0,B|428:217|428:217|410:163|410:163|417:79,1,165.000005035401,6|8,0:0|0:0,0:0:0:0:
329,37,191576,1,0,0:0:0:0:
253,113,191701,2,0,P|209:133|161:126,1,82.5000025177003,2|2,0:0|0:0,0:0:0:0:
69,113,191951,2,0,P|59:165|83:222,1,82.5000025177003,8|0,0:0|0:0,0:0:0:0:
137,290,192201,6,0,P|213:279|323:294,1,165.000005035401,2|8,0:0|0:0,0:0:0:0:
387,351,192576,1,0,0:0:0:0:
459,271,192701,2,0,L|462:173,1,82.5000025177003,2|2,0:0|0:0,0:0:0:0:
362,86,192951,2,0,L|356:198,1,82.5000025177003,8|0,0:0|0:0,0:0:0:0:
252,34,193201,6,0,P|182:7|76:57,1,165.000005035401,2|8,0:0|0:0,0:0:0:0:
14,99,193576,1,0,0:0:0:0:
91,173,193701,2,0,P|103:228|88:274,1,82.5000025177003,2|2,0:0|0:0,0:0:0:0:
179,323,193951,2,0,P|245:315|292:337,1,82.5000025177003,8|0,0:0|0:0,0:0:0:0:
357,275,194201,6,0,P|370:225|352:177,1,82.5000025177003,2|0,0:0|0:0,0:0:0:0:
282,124,194451,1,8,0:0:0:0:
336,31,194576,2,0,P|397:21|431:39,1,82.5000025177003,0|2,0:0|0:0,0:0:0:0:
242,34,194826,1,0,0:0:0:0:
162,105,194951,1,8,0:0:0:0:
72,45,195076,6,0,P|102:115|79:206,1,165.000005035401,0|0,0:0|0:0,0:0:0:0:
117,301,195451,2,0,P|174:293|230:308,1,82.5000025177003,8|0,0:0|0:0,0:0:0:0:
291,350,195701,2,0,P|355:357|390:346,1,82.5000025177003,2|2,0:0|0:0,0:0:0:0:
439,255,195951,2,0,L|446:164,1,82.5000025177003,8|0,0:0|0:0,0:0:0:0:
370,77,196201,6,0,B|319:59|319:59|278:103|195:61,1,165.000005035401,2|8,0:0|0:0,0:0:0:0:
123,15,196576,1,0,0:0:0:0:
60,101,196701,2,0,P|37:156|71:268,1,165.000005035401,2|8,0:0|0:0,0:0:0:0:
152,312,197076,1,0,0:0:0:0:
247,262,197201,6,0,P|307:251|360:257,1,82.5000025177003,2|0,0:0|0:0,0:0:0:0:
483,351,197451,2,0,P|441:348|379:323,1,82.5000025177003,8|0,0:0|0:0,0:0:0:0:
388,144,197701,2,0,P|420:181|438:231,1,82.5000025177003,2|2,0:0|0:0,0:0:0:0:
263,170,197951,2,0,L|163:167,1,82.5000025177003,8|0,0:0|0:0,0:0:0:0:
82,89,198201,6,0,P|115:142|99:270,1,165.000005035401,6|8,0:0|0:0,0:0:0:0:
46,326,198576,1,0,0:0:0:0:
152,341,198701,2,0,P|199:329|252:341,1,82.5000025177003,8|8,0:0|0:0,0:0:0:0:
334,365,198951,1,8,0:0:0:0:
437,338,199076,1,8,0:0:0:0:
367,224,199201,6,0,L|370:30,1,165.000005035401,6|8,0:0|0:0,0:0:0:0:
265,28,199576,1,0,0:0:0:0:
191,105,199701,2,0,P|139:124|91:128,1,82.5000025177003,2|2,0:0|0:0,0:0:0:0:
5,145,199951,2,0,P|0:193|17:238,1,82.5000025177003,8|0,0:0|0:0,0:0:0:0:
78,314,200201,6,0,B|164:295|164:295|249:320,1,165.000005035401,2|8,0:0|0:0,0:0:0:0:
336,359,200576,1,0,0:0:0:0:
418,290,200701,2,0,L|422:184,1,82.5000025177003,2|2,0:0|0:0,0:0:0:0:
368,112,200951,1,8,0:0:0:0:
290,37,201076,1,0,0:0:0:0:
225,131,201201,6,0,P|170:154|78:95,1,165.000005035401,2|8,0:0|0:0,0:0:0:0:
15,22,201576,1,0,0:0:0:0:
2,128,201701,2,0,L|0:224,1,82.5000025177003,2|2,0:0|0:0,0:0:0:0:
68,293,201951,2,0,P|117:301|172:282,1,82.5000025177003,8|0,0:0|0:0,0:0:0:0:
227,203,202201,6,0,P|279:189|409:220,1,165.000005035401,2|8,0:0|0:0,0:0:0:0:
448,295,202576,1,0,0:0:0:0:
475,191,202701,2,0,P|485:131|472:95,1,82.5000025177003,2|2,0:0|0:0,0:0:0:0:
389,51,202951,2,0,P|341:42|288:55,1,82.5000025177003,8|0,0:0|0:0,0:0:0:0:
227,117,203201,6,0,B|165:137|165:137|44:100,1,165.000005035401,2|8,0:0|0:0,0:0:0:0:
17,15,203576,1,0,0:0:0:0:
70,108,203701,2,0,L|63:216,1,82.5000025177003,2|2,0:0|0:0,0:0:0:0:
127,278,203951,2,0,P|174:289|222:283,1,82.5000025177003,8|0,0:0|0:0,0:0:0:0:
306,213,204201,6,0,P|368:193|466:258,1,165.000005035401,2|8,0:0|0:0,0:0:0:0:
365,315,204576,1,0,0:0:0:0:
232,288,204701,2,0,P|194:201|251:133,1,165.000005035401,2|8,0:0|0:0,0:0:0:0:
327,64,205076,1,0,0:0:0:0:
434,158,205201,6,0,L|436:253,1,82.5000025177003,10|2,0:0|0:0,0:0:0:0:
306,213,205451,2,0,L|297:331,1,82.5000025177003,10|2,0:0|0:0,0:0:0:0:
486,127,205701,6,0,L|488:222,1,82.5000025177003,10|2,0:0|0:0,0:0:0:0:
327,256,205951,2,0,L|318:374,1,82.5000025177003,10|2,0:0|0:0,0:0:0:0:
182,253,206201,6,0,P|134:230|6:252,1,165.000005035401,8|8,0:0|0:0,0:0:0:0:
96,315,206576,1,8,0:0:0:0:
218,264,206701,2,0,P|230:213|220:159,1,82.5000025177003,8|8,0:0|0:0,0:0:0:0:
74,131,206951,2,0,P|121:117|176:120,1,82.5000025177003,8|0,0:0|0:0,0:0:0:0:
280,96,207201,6,0,B|324:122|324:122|448:124,1,165.000005035401,6|12,0:0|0:0,0:0:0:0:
481,222,207576,1,0,0:0:0:0:
394,285,207701,2,0,L|290:286,1,82.5000025177003,2|2,0:0|0:0,0:0:0:0:
212,328,207951,2,0,L|117:327,1,82.5000025177003,12|0,0:0|0:0,0:0:0:0:
52,250,208201,6,0,P|41:194|59:160,1,82.5000025177003,2|0,0:0|0:0,0:0:0:0:
86,71,208451,1,12,0:0:0:0:
148,157,208576,1,0,0:0:0:0:
178,54,208701,2,0,L|286:47,1,82.5000025177003,2|2,0:0|0:0,0:0:0:0:
351,180,208951,2,0,P|303:158|275:122,1,82.5000025177003,12|0,0:0|0:0,0:0:0:0:
428,82,209201,6,0,L|412:278,1,165.000005035401,2|12,0:0|0:0,0:0:0:0:
364,342,209576,1,0,0:0:0:0:
278,277,209701,2,0,P|227:273|166:286,1,82.5000025177003,2|2,0:0|0:0,0:0:0:0:
101,330,209951,2,0,P|71:279|71:231,1,82.5000025177003,12|0,0:0|0:0,0:0:0:0:
77,128,210201,6,0,P|97:93|224:110,1,165.000005035401,2|12,0:0|0:0,0:0:0:0:
266,182,210576,1,0,0:0:0:0:
340,105,210701,2,0,L|450:109,1,82.5000025177003,2|2,0:0|0:0,0:0:0:0:
481,198,210951,2,0,P|492:247|475:296,1,82.5000025177003,12|0,0:0|0:0,0:0:0:0:
374,327,211201,6,0,B|327:345|327:345|256:336|256:336|184:342,1,165.000005035401,6|12,0:0|0:0,0:0:0:0:
106,348,211576,1,0,0:0:0:0:
27,274,211701,2,0,P|23:222|28:189,1,82.5000025177003,2|2,0:0|0:0,0:0:0:0:
187,149,211951,2,0,P|154:189|115:207,1,82.5000025177003,12|0,0:0|0:0,0:0:0:0:
45,107,212201,5,2,0:0:0:0:
141,60,212326,2,0,L|255:65,1,82.5000025177003,0|12,0:0|0:0,0:0:0:0:
302,137,212576,1,0,0:0:0:0:
401,97,212701,2,0,P|448:88|499:102,1,82.5000025177003,2|2,0:0|0:0,0:0:0:0:
365,179,212951,2,0,P|313:158|298:124,1,82.5000025177003,12|0,0:0|0:0,0:0:0:0:
454,199,213201,6,0,B|463:273|463:273|448:381,1,165.000005035401,2|12,0:0|0:0,0:0:0:0:
347,329,213576,1,0,0:0:0:0:
253,276,213701,2,0,P|185:271|147:284,1,82.5000025177003,2|2,0:0|0:0,0:0:0:0:
68,303,213951,2,0,P|54:252|57:208,1,82.5000025177003,12|0,0:0|0:0,0:0:0:0:
120,93,214201,6,0,P|159:132|268:126,1,165.000005035401,2|12,0:0|0:0,0:0:0:0:
336,51,214576,1,0,0:0:0:0:
400,136,214701,2,0,P|408:181|406:235,1,82.5000025177003,14|0,0:0|0:0,0:0:0:0:
299,310,214951,2,0,P|317:251|336:228,1,82.5000025177003,12|0,0:0|0:0,0:0:0:0:
378,349,215201,6,0,L|190:350,1,165.000005035401,12|10,0:0|0:0,0:0:0:0:
107,326,215576,1,2,0:0:0:0:
61,228,215701,2,0,L|56:181,3,41.2500012588501,10|2|2|2,0:0|0:0|0:0|0:0,0:0:0:0:
122,118,215951,2,0,L|124:65,3,41.2500012588501,10|2|2|2,0:0|0:0|0:0|0:0,0:0:0:0:
115,44,216201,5,14,0:0:0:0:
212,55,216326,6,4,L|388:61,2,165.000005035401,6|6|6,0:0|0:0|0:0,0:0:0:0:
120,137,216951,2,0,P|111:188|130:233,1,82.5000025177003,10|0,0:0|0:0,0:0:0:0:
194,296,217201,5,2,0:0:0:0:
194,296,217263,1,2,0:0:0:0:
194,296,217326,2,0,L|243:284,5,41.2500012588501,2|2|10|2|2|2,0:0|0:0|0:0|0:0|0:0|0:0,0:0:0:0:
321,328,217701,2,0,L|363:334,3,41.2500012588501,2|2|10|2,0:0|0:0|0:0|0:0,0:0:0:0:
390,316,217951,1,2,0:0:0:0:
408,288,218013,1,2,0:0:0:0:
415,255,218076,1,2,0:0:0:0:
415,222,218138,1,2,0:0:0:0:
404,190,218201,6,0,L|403:80,1,82.5000025177003,6|0,0:0|0:0,0:0:0:0:
279,43,218451,2,4,P|214:79|116:42,2,165.000005035401,6|6|6,0:0|0:0|0:0,0:0:0:0:
388,75,219076,1,0,0:0:0:0:
279,177,219201,6,0,L|175:178,1,82.5000025177003,6|0,0:0|0:0,0:0:0:0:
89,185,219451,2,0,L|63:224,3,41.2500012588501,10|10|10|10,0:0|0:0|0:0|0:0,0:0:0:0:
103,251,219701,2,0,L|126:324,3,41.2500012588501,2|2|2|2,0:0|0:0|0:0|0:0,0:0:0:0:
148,295,219951,1,2,0:0:0:0:
180,296,220013,1,2,0:0:0:0:
212,301,220076,1,2,0:0:0:0:
244,303,220138,1,2,0:0:0:0:
274,300,220201,6,0,B|331:278|461:281|461:281|405:331|356:357|356:357|333:356,1,337.499989700318,6|0,0:0|0:0,0:0:0:0:
320,349,221201,1,6,0:0:0:0:
