osu file format v14

[General]
AudioFilename: audio.mp3
AudioLeadIn: 0
PreviewTime: 174626
Countdown: 1
SampleSet: Soft
StackLeniency: 0.7
Mode: 0
LetterboxInBreaks: 0
WidescreenStoryboard: 1

[Editor]
Bookmarks: 145374,222138
DistanceSpacing: 0.5
BeatDivisor: 1
GridSize: 8
TimelineZoom: 3.349998

[Metadata]
Title:Chiisana Koi no Uta (Synth Rock Cover)
TitleUnicode:小さな恋のうた(Synth Rock Cover)
Artist:Araki
ArtistUnicode:あらき
Creator:Shishou
Version:Extreme
Source:
Tags:song of a small love mongol800 RVMathew omoi
BeatmapID:1669990
BeatmapSetID:613207

[Difficulty]
HPDrainRate:6
CircleSize:4
OverallDifficulty:8
ApproachRate:9.5
SliderMultiplier:1.7
SliderTickRate:1

[Events]
//Background and Video events
0,0,"bg.jpg",0,0
//Break Periods
2,108270,111588
2,159400,166676
//Storyboard Layer 0 (Background)
//Storyboard Layer 1 (Fail)
//Storyboard Layer 2 (Pass)
//Storyboard Layer 3 (Foreground)
//Storyboard Sound Samples

[TimingPoints]
2300,272.727272727273,4,2,1,70,1,0
2845,-125,4,2,1,70,0,0
3254,-100,4,2,1,70,0,0
3936,-125,4,2,1,70,0,0
4345,-100,4,2,1,70,0,0
5027,-125,4,2,1,70,0,0
5572,-100,4,2,1,70,0,0
6117,-125,4,2,1,70,0,0
6527,-100,4,2,1,70,0,0
10754,-166.666666666667,4,2,1,70,0,0
11027,-100,4,2,1,70,0,0
17572,-200,4,2,1,70,0,0
18663,-100,4,2,1,70,0,0
49754,-166.666666666667,4,2,1,70,0,0
50300,-90.9090909090909,4,2,1,70,0,1
81936,-166.666666666667,4,2,1,70,0,1
83027,260.869565217391,4,2,1,70,1,0
83027,-111.111111111111,4,2,1,70,0,0
83548,-166.666666666667,4,2,1,70,0,0
84070,-111.111111111111,4,2,1,70,0,0
84592,-166.666666666667,4,2,1,70,0,0
85113,-111.111111111111,4,2,1,70,0,0
85635,-166.666666666667,4,2,1,70,0,0
86157,-111.111111111111,4,2,1,70,0,0
86679,-166.666666666667,4,2,1,70,0,0
87200,-111.111111111111,4,2,1,70,0,0
87722,-166.666666666667,4,2,1,70,0,0
88244,-111.111111111111,4,2,1,70,0,0
88766,-166.666666666667,4,2,1,70,0,0
89287,-111.111111111111,4,2,1,70,0,0
89940,-166.666666666667,4,2,1,70,0,0
90331,-111.111111111111,4,2,1,70,0,0
112244,-125,4,2,1,70,0,0
112440,-125,4,2,1,5,0,0
112505,-125,4,2,1,70,0,0
112700,-125,4,2,1,5,0,0
112766,-125,4,2,1,70,0,0
112961,-125,4,2,1,5,0,0
113026,-125,4,2,1,70,0,0
113287,-111.111111111111,4,2,1,70,0,0
114331,-99.9999999999999,4,2,1,70,0,0
115374,-90.9090909090909,4,2,1,70,0,0
122679,-200,4,2,1,70,0,0
123200,-142.857142857143,4,2,1,70,0,0
123722,-90.9090909090909,4,2,1,70,0,1
155026,-166.666666666667,4,2,1,70,0,0
159201,250,4,2,1,70,1,0
167200,-142.857142857143,4,2,1,70,0,0
174700,-166.666666666667,4,2,1,70,0,0
175201,-90.9090909090909,4,2,1,70,0,1
191201,-90.9090909090909,4,2,1,70,0,1
220201,-166.666666666667,4,2,1,70,0,0

[HitObjects]
78,97,2300,6,0,L|284:87,1,170,0|0,0:0|0:0,0:0:0:0:
366,130,2709,1,0,0:0:0:0:
366,130,2845,2,0,P|369:171|351:223,1,68,0|0,0:0|0:0,0:0:0:0:
240,255,3118,2,0,P|266:222|291:207,1,68,0|0,0:0|0:0,0:0:0:0:
325,353,3390,6,0,L|142:340,1,170,0|0,0:0|0:0,0:0:0:0:
47,320,3800,1,0,0:0:0:0:
47,320,3936,2,0,P|26:268|27:234,1,68,0|0,0:0|0:0,0:0:0:0:
108,160,4209,2,0,P|129:212|128:246,1,68,0|0,0:0|0:0,0:0:0:0:
16,117,4481,6,0,L|201:105,1,170,0|0,0:0|0:0,0:0:0:0:
267,165,4890,1,0,0:0:0:0:
343,213,5027,2,0,L|441:209,1,68,0|0,0:0|0:0,0:0:0:0:
273,298,5300,2,0,L|175:302,1,68,0|0,0:0|0:0,0:0:0:0:
104,348,5572,6,0,P|77:299|93:191,1,170,0|0,0:0|0:0,0:0:0:0:
172,125,5981,1,0,0:0:0:0:
172,125,6118,2,0,P|212:125|253:161,1,68,0|0,0:0|0:0,0:0:0:0:
93,190,6390,2,0,P|64:140|67:115,1,68,0|0,0:0|0:0,0:0:0:0:
152,39,6663,6,0,L|336:34,1,170,0|0,0:0|0:0,0:0:0:0:
409,92,7072,1,0,0:0:0:0:
409,92,7209,2,0,L|404:183,1,85,0|0,0:0|0:0,0:0:0:0:
316,292,7481,2,0,L|308:202,1,85,0|0,0:0|0:0,0:0:0:0:
488,65,7754,6,0,B|495:140|495:140|475:270,1,170,0|0,0:0|0:0,0:0:0:0:
407,303,8163,1,0,0:0:0:0:
316,292,8300,2,0,L|195:270,1,85,0|0,0:0|0:0,0:0:0:0:
115,212,8572,2,0,L|198:196,1,85,0|0,0:0|0:0,0:0:0:0:
328,124,8845,6,0,B|316:181|316:181|324:247|324:247|309:323,1,170,0|0,0:0|0:0,0:0:0:0:
234,357,9254,1,0,0:0:0:0:
159,301,9390,2,0,P|103:292|64:309,1,85,0|0,0:0|0:0,0:0:0:0:
198,196,9663,2,0,P|254:187|293:204,1,85,0|0,0:0|0:0,0:0:0:0:
51,205,9936,6,0,P|30:128|61:37,1,170,0|0,0:0|0:0,0:0:0:0:
156,87,10345,1,0,0:0:0:0:
156,87,10481,2,0,L|257:81,1,85,2|0,0:0|0:0,0:0:0:0:
383,38,10754,2,0,P|353:77|353:125,1,76.4999976654053,2|0,0:0|0:0,0:0:0:0:
356,148,11027,6,0,L|361:240,1,85,6|0,0:0|0:0,0:0:0:0:
260,307,11300,2,0,L|255:222,1,85,2|0,0:0|0:0,0:0:0:0:
205,116,11572,2,0,P|158:105|115:129,1,85,2|0,0:0|0:0,0:0:0:0:
37,218,11845,2,0,P|84:229|127:205,1,85,2|0,0:0|0:0,0:0:0:0:
37,48,12118,6,0,L|37:249,1,170,2|2,0:0|0:0,0:0:0:0:
96,311,12527,1,0,0:0:0:0:
96,311,12663,2,0,L|195:304,1,85,2|0,0:0|0:0,0:0:0:0:
283,314,12936,2,0,P|312:267|318:199,1,85,2|0,0:0|0:0,0:0:0:0:
230,152,13209,6,0,L|121:137,1,85,2|0,0:0|0:0,0:0:0:0:
326,86,13481,2,0,L|435:71,1,85,2|0,0:0|0:0,0:0:0:0:
167,61,13754,2,0,P|146:102|148:153,1,85,2|0,0:0|0:0,0:0:0:0:
303,165,14027,2,0,P|324:124|322:73,1,85,2|0,0:0|0:0,0:0:0:0:
65,44,14300,6,0,L|77:246,1,170,2|2,0:0|0:0,0:0:0:0:
180,314,14709,1,0,0:0:0:0:
180,314,14845,2,0,L|287:304,1,85,2|0,0:0|0:0,0:0:0:0:
343,232,15118,2,0,L|236:222,1,85,2|0,0:0|0:0,0:0:0:0:
164,158,15390,6,0,P|154:90|169:48,1,85,2|0,0:0|0:0,0:0:0:0:
258,224,15663,2,0,P|268:292|253:334,1,85,2|0,0:0|0:0,0:0:0:0:
179,367,15936,2,0,P|126:374|88:359,1,85,2|0,0:0|0:0,0:0:0:0:
258,224,16209,2,0,P|311:217|349:232,1,85,2|0,0:0|0:0,0:0:0:0:
432,344,16481,5,2,0:0:0:0:
461,188,16618,1,0,0:0:0:0:
461,188,16686,1,0,0:0:0:0:
461,188,16754,1,2,0:0:0:0:
332,308,16890,1,0,0:0:0:0:
487,283,17027,1,2,0:0:0:0:
258,112,17163,1,0,0:0:0:0:
316,349,17300,1,2,0:0:0:0:
417,121,17436,1,0,0:0:0:0:
192,332,17572,6,0,P|74:338|81:191,1,297.5,6|0,0:0|0:0,0:0:0:0:
107,172,18595,1,0,0:0:0:0:
107,172,18663,5,8,0:0:0:0:
256,90,18800,1,0,0:0:0:0:
224,252,18936,1,8,0:0:0:0:
135,55,19072,1,0,0:0:0:0:
335,160,19209,1,2,0:0:0:0:
111,282,19345,1,2,0:0:0:0:
290,46,19481,1,10,0:0:0:0:
324,339,19618,1,2,0:0:0:0:
87,130,19754,5,6,0:0:0:0:
256,192,19822,12,0,20572,0:0:0:0:
205,251,20845,6,0,P|152:266|114:253,1,85,6|0,0:0|0:0,0:0:0:0:
293,180,21118,2,0,P|337:154|381:154,1,85,8|0,0:0|0:0,0:0:0:0:
206,173,21390,2,0,P|193:127|207:80,1,85,2|2,0:0|0:0,0:0:0:0:
295,266,21663,2,0,P|308:312|294:359,1,85,8|0,0:0|0:0,0:0:0:0:
63,328,21936,6,0,P|36:261|87:162,1,170,2|8,0:0|0:0,0:0:0:0:
152,95,22345,1,0,0:0:0:0:
202,191,22481,2,0,L|319:181,1,85,2|2,0:0|0:0,0:0:0:0:
382,106,22754,2,0,L|297:98,1,85,8|0,0:0|0:0,0:0:0:0:
479,127,23027,6,0,P|479:85|464:46,1,85,2|0,0:0|0:0,0:0:0:0:
368,195,23300,2,0,P|367:237|383:276,1,85,8|0,0:0|0:0,0:0:0:0:
512,155,23572,2,0,P|512:112|496:73,1,85,2|2,0:0|0:0,0:0:0:0:
341,219,23845,2,0,P|340:261|356:300,1,85,8|0,0:0|0:0,0:0:0:0:
496,73,24118,6,0,L|322:85,1,170,2|8,0:0|0:0,0:0:0:0:
264,170,24527,1,0,0:0:0:0:
203,96,24663,2,0,P|154:92|124:110,1,85,2|2,0:0|0:0,0:0:0:0:
208,231,24936,2,0,P|245:250|286:244,1,85,8|0,0:0|0:0,0:0:0:0:
65,170,25209,6,0,L|77:293,1,85,2|0,0:0|0:0,0:0:0:0:
199,315,25481,2,0,L|207:230,1,85,8|0,0:0|0:0,0:0:0:0:
23,153,25754,2,0,L|35:276,1,85,2|2,0:0|0:0,0:0:0:0:
225,333,26027,2,0,L|233:248,1,85,8|0,0:0|0:0,0:0:0:0:
140,49,26300,6,0,B|110:122|177:116|133:225,1,170,2|8,0:0|0:0,0:0:0:0:
64,164,26709,1,0,0:0:0:0:
208,85,26845,2,0,L|306:82,1,85,2|2,0:0|0:0,0:0:0:0:
434,173,27118,2,0,L|336:170,1,85,8|0,0:0|0:0,0:0:0:0:
255,215,27390,6,0,P|242:256|255:304,2,85,2|0|8,0:0|0:0|0:0,0:0:0:0:
349,170,27800,2,0,L|355:71,1,85,0|0,0:0|0:0,0:0:0:0:
261,39,28072,2,0,P|204:40|148:62,1,85,2|0,0:0|0:0,0:0:0:0:
75,103,28345,1,0,0:0:0:0:
75,103,28481,2,0,L|101:294,1,170,2|8,0:0|0:0,0:0:0:0:
182,351,28890,1,0,0:0:0:0:
256,284,29027,2,0,P|306:265|401:293,1,127.5,2|0,0:0|0:0,0:0:0:0:
478,329,29300,2,0,P|436:332|374:257,1,127.5,8|0,0:0|0:0,0:0:0:0:
375,239,29572,6,0,L|377:122,1,85,6|0,0:0|0:0,0:0:0:0:
284,41,29845,2,0,L|286:158,1,85,8|0,0:0|0:0,0:0:0:0:
199,267,30118,6,0,L|201:150,1,85,2|2,0:0|0:0,0:0:0:0:
115,100,30391,2,0,L|117:217,1,85,8|0,0:0|0:0,0:0:0:0:
105,336,30663,6,0,P|155:297|259:324,1,170,2|8,0:0|0:0,0:0:0:0:
346,354,31072,1,0,0:0:0:0:
431,298,31209,2,0,P|450:240|433:178,1,127.5,2|0,0:0|0:0,0:0:0:0:
415,140,31481,2,0,B|376:101|376:101|298:137,1,127.5,8|0,0:0|0:0,0:0:0:0:
287,163,31754,6,0,L|173:146,1,85,2|0,0:0|0:0,0:0:0:0:
101,87,32027,2,0,L|185:74,1,85,8|0,0:0|0:0,0:0:0:0:
284,209,32300,2,0,L|170:192,1,85,2|2,0:0|0:0,0:0:0:0:
115,135,32572,2,0,L|199:122,1,85,8|0,0:0|0:0,0:0:0:0:
372,122,32845,6,0,L|360:323,1,170,2|8,0:0|0:0,0:0:0:0:
274,349,33254,1,0,0:0:0:0:
274,349,33390,2,0,P|212:361|138:330,1,127.5,2|0,0:0|0:0,0:0:0:0:
126,312,33663,2,0,L|120:174,1,127.5,8|0,0:0|0:0,0:0:0:0:
144,143,33936,6,0,L|260:132,1,85,2|0,0:0|0:0,0:0:0:0:
340,63,34209,2,0,L|255:54,1,85,8|0,0:0|0:0,0:0:0:0:
168,174,34481,2,0,L|284:163,1,85,2|2,0:0|0:0,0:0:0:0:
376,35,34754,2,0,L|291:26,1,85,8|0,0:0|0:0,0:0:0:0:
119,123,35027,6,0,P|94:171|162:272,1,170,2|8,0:0|0:0,0:0:0:0:
231,327,35436,1,0,0:0:0:0:
307,263,35572,2,0,P|352:256|411:269,1,85,2|2,0:0|0:0,0:0:0:0:
259,181,35845,2,0,P|217:175|175:182,1,85,8|0,0:0|0:0,0:0:0:0:
461,347,36118,6,0,B|493:303|493:303|478:152,1,170,2|8,0:0|0:0,0:0:0:0:
421,102,36527,1,0,0:0:0:0:
421,102,36663,2,0,P|375:100|335:122,1,85,2|2,0:0|0:0,0:0:0:0:
301,222,36936,2,0,P|347:224|387:202,1,85,8|0,0:0|0:0,0:0:0:0:
251,127,37209,6,0,L|151:108,1,85,2|0,0:0|0:0,0:0:0:0:
221,265,37481,1,8,0:0:0:0:
355,63,37618,1,8,0:0:0:0:
355,63,37686,1,8,0:0:0:0:
355,63,37754,1,10,0:0:0:0:
100,172,37890,1,10,0:0:0:0:
338,218,38027,1,2,0:0:0:0:
227,38,38163,1,2,0:0:0:0:
132,260,38300,6,0,P|78:277|15:185,1,170,6|8,0:0|0:0,0:0:0:0:
103,165,38709,1,0,0:0:0:0:
227,219,38845,2,0,L|215:340,1,85,2|2,0:0|0:0,0:0:0:0:
138,167,39118,2,0,L|126:46,1,85,8|0,0:0|0:0,0:0:0:0:
279,147,39390,6,0,L|467:138,1,170,2|8,0:0|0:0,0:0:0:0:
511,233,39800,1,0,0:0:0:0:
511,233,39936,2,0,P|499:290|477:321,1,85,2|2,0:0|0:0,0:0:0:0:
398,357,40209,2,0,P|377:319|371:277,1,85,8|2,0:0|0:0,0:0:0:0:
279,147,40481,6,0,L|96:137,1,170,2|8,0:0|0:0,0:0:0:0:
209,62,40890,1,0,0:0:0:0:
276,148,41027,2,0,P|293:204|281:250,1,85,2|2,0:0|0:0,0:0:0:0:
189,292,41300,2,0,P|186:249|202:210,1,85,8|0,0:0|0:0,0:0:0:0:
367,98,41572,6,0,L|368:305,1,170,2|8,0:0|0:0,0:0:0:0:
283,329,41981,1,0,0:0:0:0:
192,292,42118,2,0,L|73:282,1,85,2|2,0:0|0:0,0:0:0:0:
241,209,42390,2,0,L|325:201,1,85,8|0,0:0|0:0,0:0:0:0:
448,151,42663,6,0,P|471:89|401:7,1,170,6|8,0:0|0:0,0:0:0:0:
333,74,43072,1,0,0:0:0:0:
250,23,43209,2,0,P|195:18|152:37,1,85,2|2,0:0|0:0,0:0:0:0:
202,118,43481,2,0,P|257:123|300:104,1,85,8|0,0:0|0:0,0:0:0:0:
94,27,43754,6,0,L|106:230,1,170,2|8,0:0|0:0,0:0:0:0:
147,303,44163,1,0,0:0:0:0:
147,303,44300,2,0,P|204:310|254:287,1,85,2|2,0:0|0:0,0:0:0:0:
298,206,44572,2,0,P|241:199|191:222,1,85,8|0,0:0|0:0,0:0:0:0:
368,282,44845,6,0,L|385:96,1,170,2|8,0:0|0:0,0:0:0:0:
302,27,45254,1,0,0:0:0:0:
229,102,45390,2,0,P|174:112|140:91,1,85,2|2,0:0|0:0,0:0:0:0:
56,40,45663,2,0,L|52:146,1,85,8|0,3:2|0:0,0:0:0:0:
63,245,45936,6,0,P|106:219|156:218,2,85,6|0|8,0:0|0:0|0:0,0:0:0:0:
171,331,46345,2,0,L|354:329,1,170,0|2,0:0|0:0,0:0:0:0:
430,288,46754,2,0,P|438:229|431:193,1,85,8|0,0:0|0:0,0:0:0:0:
385,63,47027,5,2,0:0:0:0:
362,170,47163,1,0,0:0:0:0:
473,125,47300,1,8,0:0:0:0:
298,84,47436,2,0,L|99:75,1,170,0|2,0:0|0:0,0:0:0:0:
35,135,47845,2,0,P|20:180|20:217,1,85,8|0,0:0|0:0,0:0:0:0:
134,329,48118,5,2,0:0:0:0:
342,159,48254,1,0,0:0:0:0:
148,82,48390,5,8,0:0:0:0:
272,309,48527,1,0,0:0:0:0:
303,33,48663,5,2,0:0:0:0:
94,208,48800,1,2,0:0:0:0:
361,333,48936,5,8,0:0:0:0:
218,59,49072,1,0,0:0:0:0:
152,333,49209,5,4,0:0:0:0:
152,333,49754,6,0,B|142:264|142:264|147:197|147:197|143:138,1,178.499994552612,0|0,0:0|0:0,0:0:0:0:
146,111,50300,6,0,P|195:136|297:67,1,187.000005706787,4|8,0:1|0:0,0:0:0:0:
390,32,50709,1,0,0:0:0:0:
390,32,50845,2,0,P|403:96|393:142,1,93.5000028533936,2|2,0:0|0:0,0:0:0:0:
262,222,51118,2,0,P|293:165|339:135,1,93.5000028533936,8|0,0:0|0:0,0:0:0:0:
339,305,51390,6,0,P|275:338|174:252,1,187.000005706787,2|8,0:0|0:0,0:0:0:0:
140,198,51800,1,0,0:0:0:0:
140,198,51936,2,0,L|129:85,1,93.5000028533936,2|2,0:0|0:0,0:0:0:0:
229,12,52209,2,0,L|218:125,1,93.5000028533936,8|0,0:0|0:0,0:0:0:0:
59,255,52481,6,0,P|108:214|230:246,1,187.000005706787,2|8,0:0|0:0,0:0:0:0:
278,326,52890,1,0,0:0:0:0:
278,326,53027,2,0,L|401:320,1,93.5000028533936,2|2,0:0|0:0,0:0:0:0:
445,242,53300,2,0,L|446:134,1,93.5000028533936,8|0,0:0|0:0,0:0:0:0:
391,62,53572,6,0,P|351:81|301:76,2,93.5000028533936,2|0|8,0:0|0:0|0:0,0:0:0:0:
224,23,53981,2,0,P|205:87|225:162,1,140.25000428009,0|0,0:0|0:0,0:0:0:0:
262,168,54254,2,0,P|279:235|259:301,1,140.25000428009,2|0,0:0|0:0,0:0:0:0:
223,320,54527,2,0,P|174:332|111:242,1,140.25000428009,0|0,0:0|0:0,0:0:0:0:
91,240,54800,1,0,0:0:0:0:
86,113,54936,6,0,L|286:102,1,187.000005706787,8|2,0:0|0:0,0:0:0:0:
388,98,55345,1,2,0:0:0:0:
388,98,55481,2,0,P|366:158|368:203,1,93.5000028533936,8|0,0:0|0:0,0:0:0:0:
447,269,55754,6,0,P|384:229|276:283,1,187.000005706787,2|8,0:0|0:0,0:0:0:0:
232,358,56163,1,0,0:0:0:0:
155,292,56300,2,0,P|121:200|194:116,1,187.000005706787,2|8,0:0|0:0,0:0:0:0:
204,213,56709,1,0,0:0:0:0:
372,56,56845,5,2,0:0:0:0:
293,166,56981,1,0,0:0:0:0:
271,50,57118,5,8,0:0:0:0:
415,199,57254,1,0,0:0:0:0:
419,8,57390,5,0,0:0:0:0:
230,268,57527,1,2,0:0:0:0:
249,10,57663,5,8,0:0:0:0:
453,284,57800,1,0,0:0:0:0:
153,95,57936,6,0,B|99:119|59:91|59:91|-5:92|15:183,1,187.000005706787,2|8,0:0|0:0,0:0:0:0:
61,269,58345,1,2,0:0:0:0:
154,193,58481,2,0,L|259:185,1,93.5000028533936,0|2,0:0|0:0,0:0:0:0:
336,106,58754,2,0,L|242:98,1,93.5000028533936,8|0,0:0|0:0,0:0:0:0:
428,19,59027,6,0,L|406:240,1,187.000005706787,4|8,0:0|0:0,0:0:0:0:
351,305,59436,1,0,0:0:0:0:
278,239,59572,2,0,P|223:233|161:252,1,93.5000028533936,2|2,0:0|0:0,0:0:0:0:
106,289,59845,2,0,P|57:228|55:187,1,93.5000028533936,8|0,0:0|0:0,0:0:0:0:
161,87,60118,6,0,P|163:150|139:208,2,93.5000028533936,2|0|8,0:0|0:0|0:0,0:0:0:0:
85,53,60527,2,0,L|265:41,1,140.25000428009,0|0,0:0|0:0,0:0:0:0:
267,52,60800,2,0,P|291:106|282:149,1,93.5000028533936,2|8,0:0|0:0,0:0:0:0:
250,258,61072,1,0,0:0:0:0:
351,220,61209,6,0,P|410:209|442:331,1,187.000005706787,2|8,0:0|0:0,0:0:0:0:
357,346,61618,1,0,0:0:0:0:
357,346,61754,2,0,L|263:346,1,93.5000028533936,2|2,0:0|0:0,0:0:0:0:
186,281,62027,2,0,P|176:213|187:182,1,93.5000028533936,8|0,0:0|0:0,0:0:0:0:
281,127,62300,6,0,P|291:59|280:28,2,93.5000028533936,2|0|8,0:0|0:0|0:0,0:0:0:0:
176,75,62709,2,0,L|44:66,1,93.5000028533936,0|2,0:0|0:0,0:0:0:0:
280,151,62981,2,0,L|412:160,1,93.5000028533936,0|8,0:0|0:0,0:0:0:0:
460,67,63254,1,0,0:0:0:0:
460,67,63390,6,0,P|474:122|464:178,1,93.5000028533936,2|0,0:0|0:0,0:0:0:0:
406,251,63663,2,0,P|355:226|260:300,1,187.000005706787,8|2,0:0|0:0,0:0:0:0:
170,348,64072,2,0,L|67:345,1,93.5000028533936,0|8,0:0|0:0,0:0:0:0:
16,269,64345,1,0,0:0:0:0:
16,269,64481,2,0,B|6:199|6:199|25:49,1,187.000005706787,2|8,0:0|0:0,0:0:0:0:
104,24,64890,1,0,0:0:0:0:
166,112,65027,2,0,P|237:162|316:85,1,187.000005706787,2|8,0:0|0:0,0:0:0:0:
379,27,65436,1,0,0:0:0:0:
450,107,65572,6,0,P|461:159|439:210,1,93.5000028533936,2|0,0:0|0:0,0:0:0:0:
349,282,65845,2,0,P|338:230|360:179,1,93.5000028533936,8|0,0:0|0:0,0:0:0:0:
484,86,66118,2,0,P|495:138|473:189,1,93.5000028533936,2|2,0:0|0:0,0:0:0:0:
318,298,66390,2,0,P|307:246|329:195,1,93.5000028533936,8|0,0:0|0:0,0:0:0:0:
477,67,66663,6,0,L|276:61,1,187.000005706787,10|8,0:0|0:0,0:0:0:0:
129,213,67072,1,8,0:0:0:0:
129,213,67140,1,0,0:0:0:0:
129,213,67209,1,8,0:0:0:0:
287,140,67345,1,8,0:0:0:0:
155,74,67481,1,8,0:0:0:0:
207,230,67618,1,8,0:0:0:0:
57,141,67754,6,0,P|20:191|89:304,1,187.000005706787,4|8,0:0|0:0,0:0:0:0:
161,348,68163,1,0,0:0:0:0:
161,348,68300,2,0,L|281:349,1,93.5000028533936,2|2,0:0|0:0,0:0:0:0:
341,294,68572,2,0,P|352:237|331:191,1,93.5000028533936,8|0,0:0|0:0,0:0:0:0:
258,74,68845,6,0,P|219:155|283:254,1,187.000005706787,2|8,0:0|0:0,0:0:0:0:
353,122,69254,1,0,0:0:0:0:
353,122,69390,2,0,L|474:117,1,93.5000028533936,2|2,0:0|0:0,0:0:0:0:
257,237,69663,2,0,L|163:240,1,93.5000028533936,8|0,0:0|0:0,0:0:0:0:
98,144,69936,6,0,P|142:213|105:330,1,187.000005706787,2|8,0:0|0:0,0:0:0:0:
214,370,70345,1,0,0:0:0:0:
285,300,70481,2,0,L|383:298,1,93.5000028533936,2|2,0:0|0:0,0:0:0:0:
452,235,70754,2,0,P|462:178|440:133,1,93.5000028533936,8|0,0:0|0:0,0:0:0:0:
412,37,71027,6,0,P|366:96|247:72,1,187.000005706787,2|8,0:0|0:0,0:0:0:0:
164,23,71436,1,0,0:0:0:0:
82,94,71572,2,0,P|71:142|90:203,1,93.5000028533936,2|2,0:0|0:0,0:0:0:0:
168,292,71845,2,0,P|179:244|160:183,1,93.5000028533936,8|0,0:0|0:0,0:0:0:0:
85,72,72118,6,0,P|132:107|274:78,1,187.000005706787,6|8,0:0|0:0,0:0:0:0:
331,34,72527,1,0,0:0:0:0:
393,118,72663,2,0,P|409:174|402:220,1,93.5000028533936,2|2,0:0|0:0,0:0:0:0:
292,284,72936,2,0,P|289:237|304:193,1,93.5000028533936,8|0,0:0|0:0,0:0:0:0:
380,349,73209,6,0,L|165:324,1,187.000005706787,2|8,0:0|0:0,0:0:0:0:
115,261,73618,1,0,0:0:0:0:
56,323,73754,2,0,P|2:297|-18:251,1,93.5000028533936,2|2,0:0|0:0,0:0:0:0:
126,146,74027,2,0,P|136:208|134:256,1,93.5000028533936,8|0,0:0|0:0,0:0:0:0:
16,104,74300,6,0,L|208:91,1,187.000005706787,2|8,0:0|0:0,0:0:0:0:
281,30,74709,1,0,0:0:0:0:
281,30,74845,2,0,P|293:98|293:143,1,93.5000028533936,2|2,0:0|0:0,0:0:0:0:
215,183,75118,2,0,P|203:115|203:70,1,93.5000028533936,8|0,0:0|0:0,0:0:0:0:
365,26,75390,6,0,L|358:242,1,187.000005706787,2|8,0:0|0:0,0:0:0:0:
295,295,75800,1,0,0:0:0:0:
229,217,75936,2,0,P|165:214|134:228,1,93.5000028533936,2|2,0:0|0:0,0:0:0:0:
295,295,76209,2,0,P|359:298|390:284,1,93.5000028533936,8|0,0:0|0:0,0:0:0:0:
81,151,76481,6,0,P|48:233|104:324,1,187.000005706787,6|8,0:0|0:0,0:0:0:0:
198,348,76890,1,0,0:0:0:0:
198,348,77027,2,0,L|305:344,1,93.5000028533936,2|0,0:0|0:0,0:0:0:0:
420,255,77300,2,0,L|326:251,1,93.5000028533936,8|0,0:0|0:0,0:0:0:0:
209,130,77572,5,2,0:0:0:0:
315,251,77709,1,2,0:0:0:0:
321,119,77845,1,8,0:0:0:0:
201,248,77981,1,0,0:0:0:0:
106,146,78118,2,0,P|92:82|101:38,1,93.5000028533936,2|2,0:0|0:0,0:0:0:0:
221,246,78390,2,0,P|235:310|226:354,1,93.5000028533936,8|0,0:0|0:0,0:0:0:0:
65,226,78663,5,2,0:0:0:0:
201,346,78800,1,2,0:0:0:0:
204,170,78936,1,8,0:0:0:0:
100,310,79072,1,0,0:0:0:0:
106,146,79209,2,0,L|82:27,1,93.5000028533936,2|2,0:0|0:0,0:0:0:0:
204,170,79481,2,0,L|180:289,1,93.5000028533936,8|0,0:0|0:0,0:0:0:0:
336,254,79754,6,0,B|350:197|350:197|319:57,1,187.000005706787,2|8,0:0|0:0,0:0:0:0:
209,32,80163,1,0,0:0:0:0:
162,111,80300,2,0,P|101:117|61:111,1,93.5000028533936,2|2,0:0|0:0,0:0:0:0:
209,32,80572,2,0,P|270:26|310:32,1,93.5000028533936,8|0,0:0|0:0,0:0:0:0:
437,34,80845,6,0,B|401:145|401:145|435:222,1,187.000005706787,6|8,0:0|0:0,0:0:0:0:
496,300,81254,1,0,0:0:0:0:
396,334,81390,2,0,P|339:338|289:328,1,93.5000028533936,2|2,0:0|0:0,0:0:0:0:
246,250,81663,2,0,P|303:246|353:256,1,93.5000028533936,8|0,0:0|0:0,0:0:0:0:
165,318,81936,6,0,L|160:201,1,101.999996887207,4|0,0:0|0:0,0:0:0:0:
132,111,82481,2,0,P|96:134|26:38,1,178.499994552612,0|0,0:0|0:0,0:0:0:0:
59,37,83027,6,0,L|201:22,1,114.749996498108,6|0,0:0|0:0,0:0:0:0:
218,25,83287,2,0,P|196:83|204:144,1,114.749996498108,2|0,0:0|0:0,0:0:0:0:
227,158,83548,2,0,P|284:147|327:247,1,178.499994552612,8|0,0:0|0:0,0:0:0:0:
297,263,84070,2,0,L|272:397,1,114.749996498108,2|0,0:0|0:0,0:0:0:0:
221,362,84331,2,0,P|179:350|106:361,1,114.749996498108,2|0,0:0|0:0,0:0:0:0:
70,351,84592,2,0,B|46:285|46:285|77:168,1,178.499994552612,8|0,0:0|0:0,0:0:0:0:
101,145,85113,6,0,P|153:179|217:134,1,114.749996498108,2|0,0:0|0:0,0:0:0:0:
224,124,85374,2,0,P|277:108|321:141,1,114.749996498108,2|0,0:0|0:0,0:0:0:0:
344,171,85635,2,0,L|331:353,1,178.499994552612,8|0,0:0|0:0,0:0:0:0:
378,355,86157,2,0,P|426:367|491:323,1,114.749996498108,2|0,0:0|0:0,0:0:0:0:
494,293,86418,2,0,L|497:152,1,114.749996498108,2|0,0:0|0:0,0:0:0:0:
485,128,86679,2,0,P|426:158|309:123,1,178.499994552612,8|0,0:0|0:0,0:0:0:0:
303,91,87200,6,0,P|251:82|204:133,1,114.749996498108,2|0,0:0|0:0,0:0:0:0:
207,152,87461,2,0,L|218:283,1,114.749996498108,2|0,0:0|0:0,0:0:0:0:
209,303,87722,2,0,P|176:335|64:286,1,178.499994552612,8|0,0:0|0:0,0:0:0:0:
56,245,88244,6,0,L|39:121,1,114.749996498108,2|0,0:0|0:0,0:0:0:0:
46,91,88505,2,0,P|94:127|159:80,1,114.749996498108,2|0,0:0|0:0,0:0:0:0:
164,77,88766,2,0,L|360:54,1,178.499994552612,8|0,0:0|0:0,0:0:0:0:
393,52,89287,6,0,P|416:126|393:210,1,152.999995330811,2|2,0:0|0:0,0:0:0:0:
291,278,89679,1,0,0:0:0:0:
281,173,89809,1,8,0:0:0:0:
396,300,89940,2,0,P|350:333|305:298,1,101.999996887207,0|8,0:0|0:0,0:0:0:0:
290,295,90266,1,8,0:0:0:0:
290,295,90331,5,8,0:0:0:0:
238,164,90461,1,8,0:0:0:0:
392,233,90592,1,8,0:0:0:0:
249,328,90722,1,0,0:0:0:0:
141,229,90853,2,0,L|96:230,3,38.2499988327027,8|0|0|0,0:0|0:0|0:0|0:0,0:0:0:0:
187,159,91113,2,0,L|226:159,3,38.2499988327027,8|0|0|0,0:0|0:0|0:0|0:0,0:0:0:0:
268,157,91374,6,0,L|254:258,1,76.4999976654053,6|0,0:0|0:0,0:0:0:0:
187,159,91635,2,0,L|173:58,1,76.4999976654053,8|0,0:0|0:0,0:0:0:0:
302,185,91896,6,0,L|288:286,1,76.4999976654053,2|2,0:0|0:0,0:0:0:0:
161,153,92157,2,0,L|147:52,1,76.4999976654053,8|0,0:0|0:0,0:0:0:0:
378,152,92418,6,0,L|352:333,1,152.999995330811,2|8,0:0|0:0,0:0:0:0:
276,362,92809,1,0,0:0:0:0:
223,285,92940,2,0,P|173:280|136:296,1,76.4999976654053,2|2,0:0|0:0,0:0:0:0:
61,329,93200,2,0,P|59:289|59:242,1,76.4999976654053,8|0,0:0|0:0,0:0:0:0:
128,179,93461,6,0,L|226:176,1,76.4999976654053,2|0,0:0|0:0,0:0:0:0:
268,98,93722,2,0,L|170:101,1,76.4999976654053,8|0,0:0|0:0,0:0:0:0:
128,218,93983,6,0,L|226:215,1,76.4999976654053,2|2,0:0|0:0,0:0:0:0:
284,62,94244,2,0,L|186:65,1,76.4999976654053,8|0,0:0|0:0,0:0:0:0:
45,147,94505,6,0,L|66:326,1,152.999995330811,2|8,0:0|0:0,0:0:0:0:
154,349,94896,1,0,0:0:0:0:
232,291,95026,2,0,P|281:284|328:298,1,76.4999976654053,2|2,0:0|0:0,0:0:0:0:
390,326,95287,2,0,P|401:274|383:224,1,76.4999976654053,8|0,0:0|0:0,0:0:0:0:
317,204,95548,2,0,P|313:166|323:129,1,76.4999976654053,6|0,0:0|0:0,0:0:0:0:
480,46,95809,2,0,P|447:76|401:77,1,76.4999976654053,8|0,0:0|0:0,0:0:0:0:
289,52,96070,2,0,P|322:22|368:21,1,76.4999976654053,2|2,0:0|0:0,0:0:0:0:
323,129,96331,2,0,L|220:128,1,76.4999976654053,8|0,0:0|0:0,0:0:0:0:
157,58,96592,6,0,B|181:113|181:113|159:233,1,152.999995330811,2|8,0:0|0:0,0:0:0:0:
85,256,96983,1,0,0:0:0:0:
161,309,97113,2,0,P|203:318|246:308,1,76.4999976654053,2|2,0:0|0:0,0:0:0:0:
339,232,97374,2,0,P|297:223|254:233,1,76.4999976654053,8|0,0:0|0:0,0:0:0:0:
398,298,97635,6,0,B|417:250|417:250|401:121,1,152.999995330811,2|8,0:0|0:0,0:0:0:0:
333,61,98026,1,0,0:0:0:0:
264,140,98157,2,0,P|218:148|176:141,1,76.4999976654053,2|0,0:0|0:0,0:0:0:0:
111,72,98418,2,0,P|157:64|199:71,1,76.4999976654053,8|0,0:0|0:0,0:0:0:0:
295,148,98679,5,8,0:0:0:0:
291,178,98744,1,0,0:0:0:0:
284,207,98809,1,0,0:0:0:0:
277,236,98874,1,0,0:0:0:0:
272,266,98940,1,8,0:0:0:0:
167,179,99070,1,0,0:0:0:0:
40,81,99200,5,8,0:0:0:0:
45,111,99266,1,0,0:0:0:0:
52,140,99331,1,0,0:0:0:0:
59,169,99396,1,0,0:0:0:0:
63,199,99461,1,8,0:0:0:0:
148,311,99592,1,0,0:0:0:0:
272,266,99722,6,0,P|311:254|359:270,1,76.4999976654053,6|0,0:0|0:0,0:0:0:0:
444,337,99983,2,0,P|406:344|370:332,1,76.4999976654053,8|0,0:0|0:0,0:0:0:0:
352,231,100244,2,0,L|356:141,1,76.4999976654053,2|2,0:0|0:0,0:0:0:0:
444,102,100505,2,0,L|440:178,1,76.4999976654053,8|0,0:0|0:0,0:0:0:0:
317,76,100766,6,0,B|262:72|262:72|238:95|238:95|163:88,1,152.999995330811,2|8,0:0|0:0,0:0:0:0:
84,31,101157,1,0,0:0:0:0:
30,108,101287,2,0,P|19:166|34:205,1,76.4999976654053,2|2,0:0|0:0,0:0:0:0:
102,230,101548,2,0,P|106:267|94:303,1,76.4999976654053,8|0,0:0|0:0,0:0:0:0:
198,286,101809,6,0,P|231:266|280:262,1,76.4999976654053,2|0,0:0|0:0,0:0:0:0:
386,315,102070,2,0,P|353:335|304:339,1,76.4999976654053,8|0,0:0|0:0,0:0:0:0:
266,236,102331,2,0,L|269:148,1,76.4999976654053,2|0,0:0|0:0,0:0:0:0:
350,101,102592,2,0,L|347:177,1,76.4999976654053,8|0,0:0|0:0,0:0:0:0:
263,63,102853,6,0,B|226:57|226:57|197:72|197:72|146:37|106:92,1,152.999995330811,2|8,0:0|0:0,0:0:0:0:
153,139,103244,1,0,0:0:0:0:
62,167,103374,2,0,P|56:205|61:255,1,76.4999976654053,2|2,0:0|0:0,0:0:0:0:
130,307,103635,2,0,P|173:317|219:304,1,76.4999976654053,8|0,0:0|0:0,0:0:0:0:
266,241,103896,6,0,P|318:233|362:248,1,76.4999976654053,2|0,0:0|0:0,0:0:0:0:
398,318,104157,2,0,P|346:326|302:311,1,76.4999976654053,8|0,0:0|0:0,0:0:0:0:
266,241,104418,2,0,P|260:200|272:154,1,76.4999976654053,2|0,0:0|0:0,0:0:0:0:
341,163,104679,2,0,P|347:204|335:250,1,76.4999976654053,8|0,0:0|0:0,0:0:0:0:
244,317,104940,6,0,P|181:339|127:263,1,152.999995330811,2|8,0:0|0:0,0:0:0:0:
107,197,105331,1,0,0:0:0:0:
107,197,105461,2,0,L|91:93,1,76.4999976654053,2|2,0:0|0:0,0:0:0:0:
202,60,105722,2,0,L|186:164,1,76.4999976654053,8|0,0:0|0:0,0:0:0:0:
221,234,105983,1,8,0:0:0:0:
305,165,106113,2,0,P|351:144|408:232,1,152.999995330811,2|0,0:0|0:0,0:0:0:0:
442,300,106505,1,8,0:0:0:0:
363,344,106635,2,0,B|321:357|321:357|262:335|262:335|184:343,1,152.999995330811,2|0,0:0|0:0,0:0:0:0:
126,339,107026,6,0,P|117:287|120:254,1,76.4999976654053,10|0,0:0|0:0,0:0:0:0:
189,175,107287,2,0,P|198:227|195:260,1,76.4999976654053,0|0,0:0|0:0,0:0:0:0:
101,163,107548,2,0,L|92:70,1,76.4999976654053,8|8,0:0|0:0,0:0:0:0:
185,83,107809,2,0,L|271:78,1,76.4999976654053,8|0,0:0|0:0,0:0:0:0:
361,44,108070,5,4,0:0:0:0:
91,103,112113,5,0,0:0:0:0:
91,103,112179,1,0,0:0:0:0:
91,103,112244,2,0,L|98:216,1,102,8|0,0:0|0:0,0:0:0:0:
103,243,112505,2,0,P|141:263|208:228,1,102,8|0,0:0|0:0,0:0:0:0:
217,208,112766,2,0,P|248:185|316:209,1,102,8|0,0:0|0:0,0:0:0:0:
324,231,113026,2,0,L|324:348,1,102,8|0,0:0|0:0,0:0:0:0:
361,346,113287,2,0,P|401:363|461:301,1,114.749996498108,8|0,0:0|0:0,0:0:0:0:
453,279,113548,2,0,L|449:153,1,114.749996498108,8|0,0:0|0:0,0:0:0:0:
440,98,113809,2,0,P|384:128|328:117,1,114.749996498108,8|0,0:0|0:0,0:0:0:0:
306,79,114070,2,0,P|260:54|190:102,1,114.749996498108,8|0,0:0|0:0,0:0:0:0:
176,95,114331,6,0,L|195:253,1,127.5,8|0,0:0|0:0,0:0:0:0:
139,123,114592,2,0,L|158:281,1,127.5,8|0,0:0|0:0,0:0:0:0:
107,159,114853,2,0,L|126:317,1,127.5,8|0,0:0|0:0,0:0:0:0:
76,200,115113,2,0,L|95:358,1,127.5,8|0,0:0|0:0,0:0:0:0:
133,354,115374,6,0,L|244:347,1,93.5000028533936,8|0,0:0|0:0,0:0:0:0:
381,232,115635,1,8,0:0:0:0:
327,348,115766,1,0,0:0:0:0:
263,125,115896,1,8,0:0:0:0:
153,258,116026,1,8,0:0:0:0:
153,258,116418,5,6,0:0:0:0:
301,111,116548,1,0,0:0:0:0:
134,68,116679,5,10,0:0:0:0:
236,249,116809,1,0,0:0:0:0:
407,126,116940,5,10,0:0:0:0:
288,334,117070,1,0,0:0:0:0:
256,153,117200,5,10,0:0:0:0:
397,283,117331,1,0,0:0:0:0:
178,272,117461,6,0,L|68:261,1,93.5000028533936,2|10,0:0|0:0,0:0:0:0:
292,102,117722,1,10,0:0:0:0:
297,349,117853,1,10,0:0:0:0:
408,112,117983,1,2,0:0:0:0:
427,316,118113,1,2,0:0:0:0:
236,204,118244,1,8,0:0:0:0:
463,211,118374,1,0,0:0:0:0:
204,70,118505,6,0,P|159:43|43:108,3,187.000005706787,4|0|0|0,0:0|0:0|0:0|0:0,0:0:0:0:
111,214,119548,5,6,0:0:0:0:
122,234,119613,1,0,0:0:0:0:
134,254,119679,1,0,0:0:0:0:
145,274,119744,1,0,0:0:0:0:
168,276,119809,1,10,0:0:0:0:
191,278,119874,1,0,0:0:0:0:
214,281,119940,1,2,0:0:0:0:
237,281,120005,1,2,0:0:0:0:
270,255,120070,1,2,0:0:0:0:
307,235,120135,1,0,0:0:0:0:
347,226,120200,1,10,0:0:0:0:
394,248,120266,1,2,0:0:0:0:
418,293,120331,1,2,0:0:0:0:
390,336,120396,1,2,0:0:0:0:
338,339,120461,1,2,0:0:0:0:
305,299,120526,1,0,0:0:0:0:
314,252,120592,1,10,0:0:0:0:
325,206,120657,1,2,0:0:0:0:
327,159,120722,1,2,0:0:0:0:
310,115,120787,1,2,0:0:0:0:
267,94,120853,1,10,0:0:0:0:
222,108,120918,1,2,0:0:0:0:
192,143,120983,1,2,0:0:0:0:
159,175,121048,1,2,0:0:0:0:
114,162,121113,1,10,0:0:0:0:
101,126,121179,1,2,0:0:0:0:
119,93,121244,1,2,0:0:0:0:
155,85,121309,1,2,0:0:0:0:
180,111,121374,1,10,0:0:0:0:
175,153,121440,1,2,0:0:0:0:
161,192,121505,1,2,0:0:0:0:
136,225,121570,1,2,0:0:0:0:
145,251,121635,1,10,0:0:0:0:
153,277,121700,1,2,0:0:0:0:
162,303,121766,1,10,0:0:0:0:
171,329,121831,1,2,0:0:0:0:
208,347,121896,1,2,0:0:0:0:
259,344,121961,1,2,0:0:0:0:
306,324,122026,1,10,0:0:0:0:
338,283,122092,1,2,0:0:0:0:
338,231,122157,1,10,0:0:0:0:
310,187,122222,1,0,0:0:0:0:
258,189,122287,1,0,0:0:0:0:
222,227,122353,1,2,0:0:0:0:
218,278,122418,1,10,0:0:0:0:
239,324,122483,1,2,0:0:0:0:
286,343,122548,1,2,0:0:0:0:
337,346,122613,1,2,0:0:0:0:
380,341,122679,2,0,P|414:314|403:205,1,148.75,8|0,0:0|0:0,0:0:0:0:
394,166,123200,6,0,P|350:196|261:94,1,208.249993644715,0|0,0:0|0:0,0:0:0:0:
240,71,123722,6,0,P|189:57|137:76,1,93.5000028533936,4|0,3:1|0:0,0:0:0:0:
110,158,123983,2,0,P|161:172|213:153,1,93.5000028533936,8|0,0:0|0:0,0:0:0:0:
22,103,124244,2,0,L|19:213,1,93.5000028533936,2|2,0:0|0:0,0:0:0:0:
107,251,124505,2,0,L|109:157,1,93.5000028533936,8|0,0:0|0:0,0:0:0:0:
32,320,124766,6,0,P|124:364|200:305,1,187.000005706787,2|8,0:0|0:0,0:0:0:0:
251,237,125157,1,0,0:0:0:0:
251,237,125287,2,0,P|302:227|360:248,1,93.5000028533936,2|2,0:0|0:0,0:0:0:0:
424,321,125548,2,0,P|373:331|315:310,1,93.5000028533936,8|0,0:0|0:0,0:0:0:0:
485,197,125809,6,0,B|514:256|514:256|496:388,1,187.000005706787,2|8,0:0|0:0,0:0:0:0:
373,202,126200,1,0,0:0:0:0:
373,202,126331,2,0,P|360:152|393:83,1,93.5000028533936,2|2,0:0|0:0,0:0:0:0:
454,43,126592,2,0,P|467:93|434:162,1,93.5000028533936,8|0,0:0|0:0,0:0:0:0:
341,27,126853,6,0,L|226:22,1,93.5000028533936,2|0,0:0|0:0,0:0:0:0:
142,29,127113,1,8,0:0:0:0:
142,29,127244,2,0,P|161:85|154:135,1,93.5000028533936,0|2,0:0|0:0,0:0:0:0:
92,201,127505,2,0,P|73:145|80:95,1,93.5000028533936,2|8,0:0|0:0,0:0:0:0:
208,268,127766,1,0,0:0:0:0:
173,146,127896,5,2,0:0:0:0:
94,250,128026,1,0,0:0:0:0:
260,179,128157,2,0,P|312:162|376:273,1,187.000005706787,8|2,0:0|0:0,0:0:0:0:
318,328,128548,1,0,0:0:0:0:
225,281,128679,2,0,P|171:276|136:293,1,93.5000028533936,8|0,0:0|0:0,0:0:0:0:
46,367,128940,6,0,P|3:306|38:184,1,187.000005706787,2|8,0:0|0:0,0:0:0:0:
75,118,129331,1,0,0:0:0:0:
164,193,129461,2,0,P|216:210|300:122,1,187.000005706787,2|8,0:0|0:0,0:0:0:0:
214,123,129853,1,0,0:0:0:0:
108,38,129983,5,2,0:0:0:0:
82,288,130113,1,0,0:0:0:0:
253,26,130244,1,8,0:0:0:0:
21,169,130374,1,0,0:0:0:0:
249,258,130505,1,2,0:0:0:0:
108,130,130635,1,2,0:0:0:0:
336,157,130766,1,8,0:0:0:0:
119,321,130896,1,0,0:0:0:0:
379,86,131026,6,0,P|418:140|355:254,1,187.000005706787,2|8,0:0|0:0,0:0:0:0:
275,328,131418,1,0,0:0:0:0:
204,239,131548,2,0,P|146:229|103:245,1,93.5000028533936,2|2,0:0|0:0,0:0:0:0:
275,328,131809,2,0,P|320:338|365:327,1,93.5000028533936,8|0,0:0|0:0,0:0:0:0:
53,164,132070,6,0,P|23:258|79:350,1,187.000005706787,6|8,0:0|0:0,0:0:0:0:
160,326,132461,1,0,0:0:0:0:
204,238,132592,2,0,P|218:176|196:133,1,93.5000028533936,0|0,0:0|0:0,0:0:0:0:
132,58,132853,2,0,P|118:120|140:163,1,93.5000028533936,8|0,0:0|0:0,0:0:0:0:
244,64,133113,2,0,L|360:54,1,93.5000028533936,2|0,0:0|0:0,0:0:0:0:
441,21,133374,1,8,0:0:0:0:
401,107,133505,2,0,P|377:170|420:243,1,140.25000428009,0|0,0:0|0:0,0:0:0:0:
398,270,133766,2,0,P|341:284|298:273,1,93.5000028533936,2|8,0:0|0:0,0:0:0:0:
214,214,134026,1,0,0:0:0:0:
158,295,134157,6,0,P|96:302|45:173,1,187.000005706787,2|8,0:0|0:0,0:0:0:0:
78,109,134548,1,0,0:0:0:0:
78,109,134679,2,0,L|181:99,1,93.5000028533936,2|2,0:0|0:0,0:0:0:0:
262,29,134940,2,0,L|168:19,1,93.5000028533936,8|0,0:0|0:0,0:0:0:0:
353,24,135200,6,0,P|338:88|345:135,2,93.5000028533936,2|0|8,0:0|0:0|0:0,0:0:0:0:
424,116,135592,2,0,P|442:178|432:232,1,93.5000028533936,0|2,0:0|0:0,0:0:0:0:
353,281,135853,2,0,P|335:219|345:165,1,93.5000028533936,2|8,0:0|0:0,0:0:0:0:
422,333,136113,1,0,0:0:0:0:
422,333,136244,6,0,P|372:362|301:335,1,93.5000028533936,2|0,0:0|0:0,0:0:0:0:
246,263,136505,2,0,P|193:234|113:320,1,187.000005706787,8|2,0:0|0:0,0:0:0:0:
186,310,136896,1,0,0:0:0:0:
264,241,137026,2,0,P|278:178|261:132,1,93.5000028533936,8|0,0:0|0:0,0:0:0:0:
154,58,137287,6,0,B|206:82|206:82|263:58|263:58|348:76,1,187.000005706787,2|8,0:0|0:0,0:0:0:0:
408,20,137679,1,0,0:0:0:0:
464,117,137809,2,0,P|495:212|462:314,1,187.000005706787,2|8,0:0|0:0,0:0:0:0:
380,341,138200,1,0,0:0:0:0:
244,254,138331,6,0,L|135:249,1,93.5000028533936,10|0,0:0|0:0,0:0:0:0:
306,168,138592,2,0,L|399:172,1,93.5000028533936,10|2,0:0|0:0,0:0:0:0:
218,295,138853,2,0,L|124:290,1,93.5000028533936,10|2,0:0|0:0,0:0:0:0:
318,139,139113,2,0,L|411:143,1,93.5000028533936,8|0,0:0|0:0,0:0:0:0:
79,204,139374,6,0,P|44:261|95:379,1,187.000005706787,8|10,0:0|0:0,0:0:0:0:
267,185,139766,1,2,0:0:0:0:
267,185,139831,1,2,0:0:0:0:
267,185,139896,1,10,0:0:0:0:
124,290,140026,1,10,0:0:0:0:
175,112,140157,1,10,0:0:0:0:
245,307,140287,1,10,0:0:0:0:
47,42,140418,6,0,B|78:26|122:50|122:50|169:28|169:28|240:42,1,187.000005706787,6|8,0:0|0:0,0:0:0:0:
321,29,140809,1,0,0:0:0:0:
321,29,140940,2,0,P|342:92|337:125,1,93.5000028533936,2|2,0:0|0:0,0:0:0:0:
275,224,141200,2,0,P|254:161|259:128,1,93.5000028533936,8|0,0:0|0:0,0:0:0:0:
374,208,141461,6,0,P|388:270|357:321,1,93.5000028533936,2|0,0:0|0:0,0:0:0:0:
301,356,141722,2,0,L|193:359,1,93.5000028533936,8|0,0:0|0:0,0:0:0:0:
158,264,141983,2,0,L|251:266,1,93.5000028533936,2|2,0:0|0:0,0:0:0:0:
72,298,142244,2,0,P|60:222|76:171,1,93.5000028533936,8|0,0:0|0:0,0:0:0:0:
254,83,142505,6,0,B|270:141|270:141|249:278,1,187.000005706787,2|8,0:0|0:0,0:0:0:0:
158,140,142896,1,0,0:0:0:0:
199,40,143026,2,0,P|263:11|311:35,1,93.5000028533936,2|2,0:0|0:0,0:0:0:0:
402,77,143287,2,0,P|338:106|290:82,1,93.5000028533936,8|0,0:0|0:0,0:0:0:0:
479,29,143548,6,0,L|462:261,1,187.000005706787,2|8,0:0|0:0,0:0:0:0:
402,304,143940,1,0,0:0:0:0:
338,226,144070,2,0,P|275:218|222:237,1,93.5000028533936,2|2,0:0|0:0,0:0:0:0:
185,305,144331,2,0,P|230:313|276:306,1,93.5000028533936,8|2,0:0|0:0,0:0:0:0:
162,219,144592,6,0,P|119:247|131:379,1,187.000005706787,6|8,0:0|0:0,0:0:0:0:
246,224,144983,1,0,0:0:0:0:
246,224,145113,2,0,L|256:107,1,93.5000028533936,2|2,0:0|0:0,0:0:0:0:
154,46,145374,2,0,L|164:163,1,93.5000028533936,8|0,0:0|0:0,0:0:0:0:
261,95,145635,6,0,P|301:56|375:142,1,187.000005706787,2|8,0:0|0:0,0:0:0:0:
336,200,146026,1,0,0:0:0:0:
336,200,146157,2,0,P|331:261|331:300,1,93.5000028533936,2|0,0:0|0:0,0:0:0:0:
256,355,146418,2,0,P|197:359|162:345,1,93.5000028533936,8|0,0:0|0:0,0:0:0:0:
80,178,146679,6,0,P|169:179|193:290,1,187.000005706787,2|8,0:0|0:0,0:0:0:0:
85,282,147070,1,0,0:0:0:0:
35,185,147200,2,0,P|27:112|68:70,2,93.5000028533936,2|2|8,0:0|0:0|0:0,0:0:0:0:
129,57,147592,1,0,0:0:0:0:
129,57,147722,6,0,B|185:75|185:75|247:44|247:44|329:83,1,187.000005706787,2|8,0:0|0:0,0:0:0:0:
387,91,148113,1,0,0:0:0:0:
421,173,148244,2,0,P|431:228|425:278,1,93.5000028533936,2|2,0:0|0:0,0:0:0:0:
330,269,148505,2,0,P|320:214|326:164,1,93.5000028533936,8|0,0:0|0:0,0:0:0:0:
257,346,148766,6,0,P|211:352|165:318,1,93.5000028533936,6|0,0:0|0:0,0:0:0:0:
132,206,149026,2,0,P|178:200|224:234,1,93.5000028533936,8|0,0:0|0:0,0:0:0:0:
41,254,149287,2,0,P|29:197|46:157,1,93.5000028533936,2|2,0:0|0:0,0:0:0:0:
131,117,149548,2,0,P|143:174|126:214,1,93.5000028533936,8|0,0:0|0:0,0:0:0:0:
55,76,149809,5,2,0:0:0:0:
122,242,149940,1,2,0:0:0:0:
258,86,150070,1,8,0:0:0:0:
160,32,150200,1,0,0:0:0:0:
210,197,150331,2,0,L|209:317,1,93.5000028533936,2|0,0:0|0:0,0:0:0:0:
302,360,150592,2,0,P|366:370|410:348,1,93.5000028533936,8|0,0:0|0:0,0:0:0:0:
441,177,150853,5,2,0:0:0:0:
328,241,150983,1,0,0:0:0:0:
462,299,151113,1,8,0:0:0:0:
359,151,151244,1,0,0:0:0:0:
360,333,151374,1,2,0:0:0:0:
510,247,151505,1,2,0:0:0:0:
306,203,151635,2,0,L|201:200,1,93.5000028533936,8|0,0:0|0:0,0:0:0:0:
137,126,151896,6,0,P|180:203|118:315,1,187.000005706787,2|8,0:0|0:0,0:0:0:0:
58,176,152287,1,0,0:0:0:0:
61,61,152418,2,0,L|186:38,1,93.5000028533936,2|2,0:0|0:0,0:0:0:0:
324,132,152679,2,0,L|232:115,1,93.5000028533936,8|0,0:0|0:0,0:0:0:0:
419,53,152940,6,0,P|398:115|424:243,1,187.000005706787,6|8,0:0|0:0,0:0:0:0:
487,293,153331,1,0,0:0:0:0:
393,335,153461,2,0,P|332:347|306:329,1,93.5000028533936,2|2,0:0|0:0,0:0:0:0:
239,231,153722,2,0,P|300:219|326:237,1,93.5000028533936,8|0,0:0|0:0,0:0:0:0:
180,332,153983,6,0,P|112:340|80:209,1,187.000005706787,6|8,0:0|0:0,0:0:0:0:
199,77,154374,1,0,0:0:0:0:
197,323,154505,1,8,0:0:0:0:
86,91,154635,1,8,0:0:0:0:
288,187,154766,1,8,0:0:0:0:
50,249,154896,1,8,0:0:0:0:
313,278,155026,6,0,B|382:295|382:295|461:272|457:196|457:196|470:121|356:127|356:127|272:228|231:122|231:122|100:166|177:279,1,713.99997821045,4|0,0:0|0:0,0:0:0:0:
256,192,157113,12,4,159200,0:0:0:0:
83,52,167201,6,0,L|73:156,1,89.2499972763062,6|0,0:0|0:0,0:0:0:0:
73,187,167451,2,0,P|116:216|165:200,1,89.2499972763062,2|0,0:0|0:0,0:0:0:0:
179,168,167701,2,0,P|229:127|311:232,1,208.249993644715,10|0,0:0|0:0,0:0:0:0:
321,237,168201,6,0,L|309:345,1,89.2499972763062,2|0,0:0|0:0,0:0:0:0:
343,356,168451,2,0,P|396:365|441:343,1,89.2499972763062,2|0,0:0|0:0,0:0:0:0:
452,324,168701,2,0,B|472:275|472:275|448:111,1,208.249993644715,10|0,0:0|0:0,0:0:0:0:
432,77,169201,6,0,P|389:108|341:89,1,89.2499972763062,2|0,0:0|0:0,0:0:0:0:
339,65,169451,2,0,L|236:57,1,89.2499972763062,2|0,0:0|0:0,0:0:0:0:
210,36,169701,2,0,P|249:105|198:223,1,208.249993644715,10|0,0:0|0:0,0:0:0:0:
171,236,170201,2,0,L|178:333,1,89.2499972763062,2|0,0:0|0:0,0:0:0:0:
151,346,170451,2,0,P|111:359|67:336,1,89.2499972763062,2|0,0:0|0:0,0:0:0:0:
48,317,170701,2,0,L|38:191,1,118.999996368408,10|2,0:0|0:0,0:0:0:0:
77,93,171076,1,0,0:0:0:0:
142,173,171201,6,0,B|186:199|186:199|265:188,1,118.999996368408,6|0,0:0|0:0,0:0:0:0:
340,131,171576,1,0,0:0:0:0:
386,219,171701,2,0,P|411:273|396:348,1,118.999996368408,14|0,0:0|0:0,0:0:0:0:
315,362,172076,1,0,0:0:0:0:
245,292,172201,6,0,L|167:284,1,59.4999981842042,6|0,0:0|0:0,0:0:0:0:
125,208,172451,2,0,L|184:201,1,59.4999981842042,0|0,0:0|0:0,0:0:0:0:
45,267,172701,2,0,P|25:213|32:135,1,118.999996368408,14|0,0:0|0:0,0:0:0:0:
86,78,173076,1,0,0:0:0:0:
173,126,173201,6,0,L|238:116,1,59.4999981842042,6|0,0:0|0:0,0:0:0:0:
293,58,173451,2,0,L|234:48,1,59.4999981842042,0|0,0:0|0:0,0:0:0:0:
303,135,173701,2,0,L|303:211,1,59.4999981842042,14|0,0:0|0:0,0:0:0:0:
383,267,173951,2,0,L|383:191,1,59.4999981842042,2|0,0:0|0:0,0:0:0:0:
320,328,174201,6,0,P|274:337|244:325,1,59.4999981842042,8|8,0:0|0:0,0:0:0:0:
192,266,174451,1,8,0:0:0:0:
192,266,174701,2,0,P|156:290|99:196,1,178.499994552612,0|0,0:0|0:0,0:0:0:0:
114,170,175201,6,0,L|228:161,1,93.5000028533936,14|0,0:1|0:0,0:0:0:0:
321,80,175451,2,0,L|227:72,1,93.5000028533936,10|0,0:0|0:0,0:0:0:0:
134,36,175701,1,2,0:0:0:0:
219,188,175826,1,2,0:0:0:0:
223,33,175951,1,8,0:0:0:0:
84,153,176076,1,0,0:0:0:0:
354,51,176201,6,0,L|339:173,2,93.5000028533936,2|0|8,0:0|0:0|0:0,0:0:0:0:
423,129,176576,2,0,L|429:308,1,140.25000428009,0|0,0:0|0:0,0:0:0:0:
403,294,176826,2,0,P|351:308|286:278,1,93.5000028533936,2|8,0:0|0:0,0:0:0:0:
241,198,177076,1,0,0:0:0:0:
159,293,177201,6,0,P|92:296|67:187,1,187.000005706787,2|8,0:0|0:0,0:0:0:0:
92,70,177576,1,0,0:0:0:0:
175,163,177701,2,0,L|286:151,1,93.5000028533936,2|2,0:0|0:0,0:0:0:0:
342,69,177951,2,0,L|249:58,1,93.5000028533936,8|0,0:0|0:0,0:0:0:0:
434,204,178201,5,2,0:0:0:0:
353,19,178326,1,0,0:0:0:0:
278,148,178451,1,8,0:0:0:0:
451,74,178576,1,0,0:0:0:0:
196,29,178701,1,2,0:0:0:0:
321,245,178826,1,2,0:0:0:0:
372,64,178951,1,8,0:0:0:0:
206,141,179076,1,0,0:0:0:0:
339,273,179201,5,2,0:0:0:0:
405,86,179326,1,0,0:0:0:0:
209,266,179451,2,0,P|151:304|62:217,1,187.000005706787,8|2,0:0|0:0,0:0:0:0:
45,119,179826,1,2,0:0:0:0:
45,119,179951,2,0,P|93:82|142:82,1,93.5000028533936,8|0,0:0|0:0,0:0:0:0:
287,150,180201,6,0,P|208:202|121:154,1,187.000005706787,2|8,0:0|0:0,0:0:0:0:
196,14,180576,1,0,0:0:0:0:
375,50,180701,2,0,L|369:267,1,187.000005706787,2|8,0:0|0:0,0:0:0:0:
296,328,181076,1,0,0:0:0:0:
242,77,181201,5,10,0:0:0:0:
452,253,181326,1,2,0:0:0:0:
400,35,181451,5,10,0:0:0:0:
260,248,181576,1,2,0:0:0:0:
42,95,181701,5,10,0:0:0:0:
186,308,181826,1,0,0:0:0:0:
210,55,181951,5,10,0:0:0:0:
33,273,182076,1,0,0:0:0:0:
292,146,182201,6,0,P|392:112|443:203,1,187.000005706787,6|8,0:0|0:0,0:0:0:0:
353,283,182576,1,0,0:0:0:0:
250,151,182701,1,8,0:0:0:0:
455,217,182826,1,0,0:0:0:0:
233,328,182951,1,8,0:0:0:0:
296,86,183076,1,8,0:0:0:0:
150,234,183201,6,0,P|66:222|57:107,1,187.000005706787,6|8,0:0|0:0,0:0:0:0:
117,41,183576,1,0,0:0:0:0:
188,122,183701,2,0,L|294:112,1,93.5000028533936,2|2,0:0|0:0,0:0:0:0:
397,58,183951,2,0,P|366:109|365:150,1,93.5000028533936,8|0,0:0|0:0,0:0:0:0:
379,268,184201,5,2,0:0:0:0:
441,127,184326,1,0,0:0:0:0:
510,225,184451,1,8,0:0:0:0:
411,348,184576,2,0,P|345:385|281:324,1,140.25000428009,0|0,0:0|0:0,0:0:0:0:
267,313,184826,2,0,L|218:221,1,93.5000028533936,2|8,0:0|0:0,0:0:0:0:
297,149,185076,1,0,0:0:0:0:
158,289,185201,6,0,L|131:92,1,187.000005706787,2|8,0:0|0:0,0:0:0:0:
216,35,185576,1,0,0:0:0:0:
216,35,185701,2,0,P|291:29|324:44,1,93.5000028533936,2|2,0:0|0:0,0:0:0:0:
361,121,185951,2,0,P|286:127|253:112,1,93.5000028533936,8|0,0:0|0:0,0:0:0:0:
443,70,186201,6,0,L|453:181,1,93.5000028533936,2|0,0:0|0:0,0:0:0:0:
364,195,186451,1,8,0:0:0:0:
364,195,186576,2,0,L|344:304,1,93.5000028533936,0|2,0:0|0:0,0:0:0:0:
268,346,186826,2,0,P|215:353|180:333,1,93.5000028533936,2|8,0:0|0:0,0:0:0:0:
147,175,187076,1,0,0:0:0:0:
229,269,187201,5,2,0:0:0:0:
91,298,187326,1,0,0:0:0:0:
71,130,187451,2,0,P|100:94|226:140,1,187.000005706787,8|2,0:0|0:0,0:0:0:0:
271,224,187826,1,2,0:0:0:0:
340,125,187951,2,0,P|385:111|437:142,1,93.5000028533936,8|0,0:0|0:0,0:0:0:0:
262,264,188201,6,0,B|218:290|218:290|160:257|160:257|74:277,1,187.000005706787,2|8,0:0|0:0,0:0:0:0:
217,199,188576,1,0,0:0:0:0:
140,350,188701,2,0,P|78:359|35:338,1,93.5000028533936,2|2,0:0|0:0,0:0:0:0:
217,199,188951,2,0,P|279:190|322:211,1,93.5000028533936,8|0,0:0|0:0,0:0:0:0:
452,88,189201,5,14,0:0:0:0:
341,313,189326,1,0,0:0:0:0:
344,88,189451,1,12,0:0:0:0:
467,258,189576,1,8,0:0:0:0:
411,3,189701,1,6,0:0:0:0:
248,268,189826,1,0,0:0:0:0:
208,13,189951,1,14,0:0:0:0:
385,243,190076,1,0,0:0:0:0:
118,84,190201,6,0,P|40:76|95:154,1,187.000005706787,14|8,0:0|0:0,0:0:0:0:
213,319,190576,1,10,0:0:0:0:
240,85,190701,1,8,0:0:0:0:
96,297,190826,1,8,0:0:0:0:
349,221,190951,1,8,0:0:0:0:
90,42,191076,1,8,0:0:0:0:
206,340,191201,6,0,P|264:368|372:310,1,187.000005706787,14|8,0:1|0:0,0:0:0:0:
433,228,191576,1,0,0:0:0:0:
433,228,191701,2,0,L|448:127,1,93.5000028533936,2|2,0:0|0:0,0:0:0:0:
355,42,191951,2,0,L|370:143,1,93.5000028533936,8|0,0:0|0:0,0:0:0:0:
302,229,192201,6,0,P|256:247|205:227,1,93.5000028533936,6|0,0:0|0:0,0:0:0:0:
120,104,192451,1,8,0:0:0:0:
47,192,192576,2,0,P|9:276|82:341,1,170,4|2,0:0|0:0,0:0:0:0:
172,355,192951,2,0,L|287:353,1,93.5000028533936,8|0,0:0|0:0,0:0:0:0:
426,183,193201,6,0,P|320:200|287:279,1,187.000005706787,6|8,0:0|0:0,0:0:0:0:
376,272,193576,1,0,0:0:0:0:
456,193,193701,2,0,P|476:130|449:77,1,93.5000028533936,2|2,0:0|0:0,0:0:0:0:
376,39,193951,2,0,L|258:24,1,93.5000028533936,8|0,0:0|0:0,0:0:0:0:
201,86,194201,6,0,L|209:216,1,93.5000028533936,6|0,0:0|0:0,0:0:0:0:
166,278,194451,1,8,0:0:0:0:
94,171,194576,2,0,P|36:175|35:271,1,140.25000428009,4|0,0:0|0:0,0:0:0:0:
36,288,194826,2,0,L|39:403,2,93.5000028533936,0|8|0,0:0|0:0|0:0,0:0:0:0:
201,295,195201,5,6,0:0:0:0:
136,151,195326,1,0,0:0:0:0:
37,290,195451,2,0,L|231:281,1,187.000005706787,8|2,0:0|0:0,0:0:0:0:
318,333,195826,1,2,0:0:0:0:
383,249,195951,2,0,P|391:187|375:133,1,93.5000028533936,8|0,0:0|0:0,0:0:0:0:
249,21,196201,6,0,P|208:78|269:183,1,187.000005706787,6|8,0:0|0:0,0:0:0:0:
346,274,196576,1,4,0:0:0:0:
258,339,196701,2,0,P|205:356|130:249,1,187.000005706787,2|8,0:0|0:0,0:0:0:0:
208,261,197076,1,0,0:0:0:0:
267,32,197201,5,6,0:0:0:0:
94,228,197326,1,0,0:0:0:0:
147,63,197451,5,12,0:0:0:0:
259,200,197576,1,0,0:0:0:0:
389,75,197701,5,6,0:0:0:0:
202,338,197826,1,2,0:0:0:0:
254,118,197951,5,12,0:0:0:0:
362,288,198076,1,0,0:0:0:0:
149,323,198201,6,0,P|82:334|22:230,1,187.000005706787,6|8,0:0|0:0,0:0:0:0:
81,154,198576,1,0,0:0:0:0:
81,154,198701,2,0,P|136:134|191:153,1,93.5000028533936,10|0,0:0|0:0,0:0:0:0:
234,237,198951,2,0,P|188:242|145:223,1,93.5000028533936,8|8,0:0|0:0,0:0:0:0:
300,153,199201,6,0,B|326:234|326:234|306:378,1,187.000005706787,6|8,0:0|0:0,0:0:0:0:
187,139,199576,1,0,0:0:0:0:
187,139,199701,2,0,L|182:19,1,93.5000028533936,2|2,0:0|0:0,0:0:0:0:
300,153,199951,2,0,L|296:246,1,93.5000028533936,8|0,0:0|0:0,0:0:0:0:
209,326,200201,6,0,P|162:332|89:291,1,93.5000028533936,6|0,0:0|0:0,0:0:0:0:
43,230,200451,1,8,0:0:0:0:
96,135,200576,2,0,P|141:93|254:150,1,187.000005706787,4|2,0:0|0:0,0:0:0:0:
346,292,200951,1,8,0:0:0:0:
331,124,201076,1,0,0:0:0:0:
209,275,201201,6,0,B|148:269|148:269|121:293|93:313|93:313|31:284,1,187.000005706787,6|8,0:0|0:0,0:0:0:0:
92,210,201576,1,0,0:0:0:0:
202,190,201701,2,0,L|305:192,1,93.5000028533936,2|2,0:0|0:0,0:0:0:0:
382,286,201951,2,0,L|279:288,1,93.5000028533936,8|0,0:0|0:0,0:0:0:0:
421,201,202201,6,0,P|456:116|376:35,1,187.000005706787,6|8,0:0|0:0,0:0:0:0:
322,11,202576,1,4,0:0:0:0:
250,94,202701,2,0,P|194:117|158:106,1,93.5000028533936,2|2,0:0|0:0,0:0:0:0:
108,26,202951,2,0,P|153:19|193:41,1,93.5000028533936,8|0,0:0|0:0,0:0:0:0:
77,124,203201,6,0,L|79:261,1,93.5000028533936,6|0,0:0|0:0,0:0:0:0:
53,335,203451,2,0,P|92:291|220:314,1,187.000005706787,8|2,0:0|0:0,0:0:0:0:
291,364,203826,1,2,0:0:0:0:
375,303,203951,2,0,P|378:252|374:193,1,93.5000028533936,8|0,0:0|0:0,0:0:0:0:
276,75,204201,2,0,L|291:266,1,187.000005706787,6|8,0:0|0:0,0:0:0:0:
196,177,204576,1,4,0:0:0:0:
152,82,204701,2,0,P|102:44|101:137,1,187.000005706787,2|8,0:0|0:0,0:0:0:0:
87,246,205076,1,0,0:0:0:0:
230,298,205201,5,14,0:0:0:0:
220,93,205326,1,2,0:0:0:0:
110,301,205451,1,14,0:0:0:0:
51,71,205576,1,2,0:0:0:0:
308,252,205701,2,0,L|415:249,1,93.5000028533936,14|2,0:0|0:0,0:0:0:0:
253,333,205951,2,0,L|146:336,1,93.5000028533936,14|2,0:0|0:0,0:0:0:0:
246,28,206201,2,0,B|229:115|275:107|239:230,1,187.000005706787,12|8,0:0|0:0,0:0:0:0:
87,171,206576,1,8,0:0:0:0:
87,171,206638,1,8,0:0:0:0:
87,171,206701,1,8,0:0:0:0:
363,59,206826,1,8,0:0:0:0:
199,293,206951,1,8,0:0:0:0:
160,27,207076,1,8,0:0:0:0:
381,168,207201,6,0,P|423:229|355:339,1,187.000005706787,14|12,0:1|0:0,0:0:0:0:
294,361,207576,1,0,0:0:0:0:
221,276,207701,2,0,P|166:268|114:285,1,93.5000028533936,2|2,0:0|0:0,0:0:0:0:
38,301,207951,2,0,P|21:252|27:195,1,93.5000028533936,12|0,0:0|0:0,0:0:0:0:
99,110,208201,2,0,P|116:159|110:216,1,93.5000028533936,2|0,0:0|0:0,0:0:0:0:
26,76,208451,2,0,P|69:36|113:24,1,93.5000028533936,12|0,0:0|0:0,0:0:0:0:
189,149,208701,2,0,P|146:189|102:201,1,93.5000028533936,2|2,0:0|0:0,0:0:0:0:
219,71,208951,2,0,L|331:62,1,93.5000028533936,12|0,0:0|0:0,0:0:0:0:
416,29,209201,6,0,P|390:93|410:227,1,187.000005706787,2|12,0:0|0:0,0:0:0:0:
477,286,209576,1,0,0:0:0:0:
376,324,209701,2,0,P|326:338|271:312,1,93.5000028533936,2|2,0:0|0:0,0:0:0:0:
229,238,209951,2,0,P|273:225|317:239,1,93.5000028533936,12|0,0:0|0:0,0:0:0:0:
156,357,210201,6,0,B|128:304|128:304|137:167,1,187.000005706787,6|8,0:0|0:0,0:0:0:0:
231,124,210576,1,4,0:0:0:0:
231,124,210701,2,0,L|343:120,1,93.5000028533936,2|2,0:0|0:0,0:0:0:0:
223,48,210951,2,0,L|111:44,1,93.5000028533936,12|0,0:0|0:0,0:0:0:0:
366,46,211201,6,0,P|409:94|363:215,1,187.000005706787,14|12,0:1|0:0,0:0:0:0:
301,280,211576,1,0,0:0:0:0:
232,201,211701,2,0,P|195:183|141:192,1,93.5000028533936,2|2,0:0|0:0,0:0:0:0:
310,309,211951,2,0,P|355:316|397:298,1,93.5000028533936,12|0,0:0|0:0,0:0:0:0:
418,87,212201,6,0,P|360:130|350:242,1,187.000005706787,2|12,0:0|0:0,0:0:0:0:
425,180,212576,1,0,0:0:0:0:
297,79,212701,2,0,L|168:77,1,93.5000028533936,2|2,0:0|0:0,0:0:0:0:
81,46,212951,2,0,P|111:107|111:170,1,93.5000028533936,12|0,0:0|0:0,0:0:0:0:
31,240,213201,6,0,P|88:188|191:232,1,187.000005706787,2|12,0:0|0:0,0:0:0:0:
236,309,213576,1,0,0:0:0:0:
316,209,213701,2,0,L|421:203,1,93.5000028533936,2|2,0:0|0:0,0:0:0:0:
225,309,213951,2,0,L|120:315,1,93.5000028533936,12|0,0:0|0:0,0:0:0:0:
472,287,214201,6,0,B|491:224|491:224|464:96,1,187.000005706787,14|0,0:0|0:0,0:0:0:0:
374,27,214576,1,12,0:0:0:0:
296,118,214701,2,0,P|236:140|201:121,1,93.5000028533936,2|0,0:0|0:0,0:0:0:0:
119,12,214951,2,0,P|176:30|201:59,1,93.5000028533936,12|0,0:0|0:0,0:0:0:0:
86,133,215201,6,0,L|94:241,1,93.5000028533936,14|0,1:0|0:0,0:0:0:0:
186,301,215451,1,14,0:0:0:0:
203,315,215513,1,2,0:0:0:0:
221,329,215576,1,2,0:0:0:0:
238,343,215638,1,2,0:0:0:0:
256,358,215701,1,14,0:0:0:0:
274,315,215763,1,2,0:0:0:0:
308,282,215826,1,2,0:0:0:0:
349,261,215888,1,2,0:0:0:0:
395,255,215951,1,14,0:0:0:0:
391,277,216013,1,2,0:0:0:0:
387,300,216076,1,2,0:0:0:0:
384,323,216138,1,2,0:0:0:0:
382,346,216201,1,14,0:0:0:0:
181,183,216326,2,0,L|-10:164,2,187.000005706787,2|2|2,0:0|0:0|0:0,0:0:0:0:
278,103,216951,2,0,L|374:96,1,93.5000028533936,14|0,0:0|0:0,0:0:0:0:
482,210,217201,5,6,0:0:0:0:
475,232,217263,1,2,0:0:0:0:
468,254,217326,1,2,0:0:0:0:
327,328,217451,1,14,0:0:0:0:
167,107,217576,1,2,0:0:0:0:
158,85,217638,1,2,0:0:0:0:
148,63,217701,1,2,0:0:0:0:
376,191,217826,1,14,0:0:0:0:
176,298,217951,1,2,0:0:0:0:
245,71,218076,1,2,0:0:0:0:
364,333,218201,6,0,L|488:354,1,93.5000028533936,6|0,0:0|0:0,0:0:0:0:
254,253,218451,2,0,L|161:268,1,93.5000028533936,6|0,0:0|0:0,0:0:0:0:
376,152,218701,2,0,L|500:173,1,93.5000028533936,6|0,0:0|0:0,0:0:0:0:
289,45,218951,2,0,L|196:60,1,93.5000028533936,6|0,0:0|0:0,0:0:0:0:
47,247,219201,5,6,0:0:0:0:
237,176,219326,1,0,0:0:0:0:
84,89,219451,1,10,0:0:0:0:
166,293,219576,1,10,0:0:0:0:
218,80,219701,1,6,0:0:0:0:
17,179,219826,1,2,0:0:0:0:
276,264,219951,1,2,0:0:0:0:
293,50,220076,1,2,0:0:0:0:
66,222,220201,6,0,P|39:273|63:327,1,101.999996887207,6|0,0:0|0:0,0:0:0:0:
141,357,220701,2,0,L|320:370,1,178.499994552612,0|0,0:0|0:0,0:0:0:0:
363,333,221201,5,6,0:0:0:0:
