osu file format v14

[General]
AudioFilename: audio.mp3
AudioLeadIn: 0
PreviewTime: 174626
Countdown: 1
SampleSet: Soft
StackLeniency: 0.7
Mode: 0
LetterboxInBreaks: 0
WidescreenStoryboard: 1

[Editor]
Bookmarks: 222138
DistanceSpacing: 1.3
BeatDivisor: 4
GridSize: 8
TimelineZoom: 3.349998

[Metadata]
Title:Chiisana Koi no Uta (Synth Rock Cover)
TitleUnicode:小さな恋のうた(Synth Rock Cover)
Artist:Araki
ArtistUnicode:あらき
Creator:Shishou
Version:Expert
Source:
Tags:song of a small love mongol800 RVMathew omoi
BeatmapID:1304276
BeatmapSetID:613207

[Difficulty]
HPDrainRate:6
CircleSize:3.8
OverallDifficulty:8
ApproachRate:9.5
SliderMultiplier:1.7
SliderTickRate:1

[Events]
//Background and Video events
0,0,"bg.jpg",0,0
//Break Periods
2,108271,111589
2,159401,166551
//Storyboard Layer 0 (Background)
//Storyboard Layer 1 (Fail)
//Storyboard Layer 2 (Pass)
//Storyboard Layer 3 (Foreground)
//Storyboard Sound Samples

[TimingPoints]
2300,272.727272727273,4,2,1,70,1,0
2845,-125,4,2,1,70,0,0
3254,-100,4,2,1,70,0,0
3936,-125,4,2,1,70,0,0
4345,-100,4,2,1,70,0,0
5027,-125,4,2,1,70,0,0
5572,-100,4,2,1,70,0,0
6117,-125,4,2,1,70,0,0
6527,-100,4,2,1,70,0,0
10754,-166.666666666667,4,2,1,70,0,0
11027,-100,4,2,1,70,0,0
17572,-200,4,2,1,70,0,0
18663,-100,4,2,1,70,0,0
49754,-166.666666666667,4,2,1,70,0,0
50300,-90.9090909090909,4,2,1,70,0,1
81936,-166.666666666667,4,2,1,70,0,1
83027,260.869565217391,4,2,1,70,1,0
83027,-111.111111111111,4,2,1,70,0,0
83548,-166.666666666667,4,2,1,70,0,0
84070,-111.111111111111,4,2,1,70,0,0
84592,-166.666666666667,4,2,1,70,0,0
85113,-111.111111111111,4,2,1,70,0,0
85635,-166.666666666667,4,2,1,70,0,0
86157,-111.111111111111,4,2,1,70,0,0
86679,-166.666666666667,4,2,1,70,0,0
87200,-111.111111111111,4,2,1,70,0,0
87722,-166.666666666667,4,2,1,70,0,0
88244,-111.111111111111,4,2,1,70,0,0
88766,-166.666666666667,4,2,1,70,0,0
89287,-111.111111111111,4,2,1,70,0,0
89940,-166.666666666667,4,2,1,70,0,0
90331,-111.111111111111,4,2,1,70,0,0
112244,-125,4,2,1,70,0,0
112440,-125,4,2,1,5,0,0
112505,-125,4,2,1,70,0,0
112700,-125,4,2,1,5,0,0
112766,-125,4,2,1,70,0,0
112961,-125,4,2,1,5,0,0
113026,-125,4,2,1,70,0,0
113287,-111.111111111111,4,2,1,70,0,0
114331,-99.9999999999999,4,2,1,70,0,0
115374,-90.9090909090909,4,2,1,70,0,0
122679,-200,4,2,1,70,0,0
123200,-142.857142857143,4,2,1,70,0,0
123722,-90.9090909090909,4,2,1,70,0,1
155026,-90.9090909090909,4,2,1,70,0,0
159201,250,4,2,1,70,1,0
167200,-142.857142857143,4,2,1,70,0,0
174700,-166.666666666667,4,2,1,70,0,0
175201,-90.9090909090909,4,2,1,70,0,1
220201,-166.666666666667,4,2,1,70,0,0

[HitObjects]
128,96,2300,6,0,L|222:93,1,85
313,226,2573,2,0,P|272:213|242:177,1,85
406,130,2846,2,0,L|390:297,1,136
297,331,3255,1,0,0:0:0:0:
222,260,3391,6,0,P|182:251|108:257,1,85
323,140,3664,2,0,P|363:131|421:133,1,85
240,47,3937,2,0,B|245:94|245:94|236:143|236:143|241:193,1,136
244,306,4346,1,0,0:0:0:0:
160,191,4482,6,0,P|119:179|71:200,1,85
164,311,4755,2,0,P|204:326|248:314,1,85
345,247,5028,2,0,P|366:186|327:120,1,136
206,78,5437,1,0,0:0:0:0:
206,78,5573,6,0,L|192:199,1,85
89,140,5846,2,0,L|79:224,1,85
84,339,6118,2,0,P|121:322|231:340,1,136
344,339,6528,1,0,0:0:0:0:
344,339,6664,6,0,P|354:296|334:225,1,85
280,134,6937,2,0,P|271:188|283:227,1,85
451,228,7209,2,0,P|468:144|446:54,1,170
325,57,7618,1,0,0:0:0:0:
325,57,7755,6,0,L|217:57,1,85
155,24,8028,2,0,P|83:21|57:31,1,85
25,113,8300,2,0,P|13:164|34:208,1,85
116,264,8573,2,0,L|241:260,1,85
300,173,8846,6,0,L|182:173,2,85
391,251,9255,2,0,P|423:211|364:102,1,170
337,23,9664,1,0,0:0:0:0:
273,118,9800,1,0,0:0:0:0:
197,38,9937,6,0,P|143:30|89:50,1,85
53,143,10209,2,0,P|107:151|161:131,1,85
246,49,10482,2,0,P|277:78|225:141,1,127.5,2|0,0:0|0:0,0:0:0:0:
214,181,10755,2,0,L|213:257,1,76.4999976654053,2|0,0:0|0:0,0:0:0:0:
341,167,11028,6,0,L|462:163,1,85,6|0,0:0|0:0,0:0:0:0:
417,247,11300,2,0,L|538:243,1,85,2|0,0:0|0:0,0:0:0:0:
274,68,11572,2,0,L|189:70,1,85,2|0,0:0|0:0,0:0:0:0:
200,154,11845,2,0,L|115:156,1,85,2|0,0:0|0:0,0:0:0:0:
310,161,12118,6,0,B|302:223|302:223|315:272|315:272|307:341,1,170,2|0,0:0|0:0,0:0:0:0:
200,292,12528,1,0,0:0:0:0:
200,292,12663,2,0,P|152:301|115:283,1,85,2|0,0:0|0:0,0:0:0:0:
80,187,12936,2,0,L|77:79,1,85,2|0,0:0|0:0,0:0:0:0:
201,10,13209,6,0,L|203:114,1,85,2|0,0:0|0:0,0:0:0:0:
322,274,13482,2,0,L|323:189,1,85,2|0,0:0|0:0,0:0:0:0:
190,94,13754,2,0,P|140:89|105:108,1,85,2|0,0:0|0:0,0:0:0:0:
315,289,14027,2,0,P|365:294|400:275,1,85,2|0,0:0|0:0,0:0:0:0:
110,136,14300,6,0,B|94:198|94:198|109:323,1,170,2|2,0:0|0:0,0:0:0:0:
212,230,14709,1,0,0:0:0:0:
212,230,14846,2,0,P|264:216|313:234,1,85,2|0,0:0|0:0,0:0:0:0:
435,328,15118,2,0,P|390:318|358:279,1,85,2|0,0:0|0:0,0:0:0:0:
373,204,15390,2,0,L|383:105,1,85,2|0,0:0|0:0,0:0:0:0:
293,100,15663,2,0,L|219:57,1,85,2|0,0:0|0:0,0:0:0:0:
213,160,15936,2,0,L|131:186,1,85,2|0,0:0|0:0,0:0:0:0:
255,252,16209,2,0,L|336:293,1,85,2|0,0:0|0:0,0:0:0:0:
66,283,16481,6,0,B|46:235|46:235|66:103,1,170,2|2,0:0|0:0,0:0:0:0:
219,201,16891,1,0,0:0:0:0:
219,201,16959,1,0,0:0:0:0:
219,201,17027,1,2,0:0:0:0:
257,58,17163,1,0,0:0:0:0:
110,125,17300,1,2,0:0:0:0:
227,231,17436,1,0,0:0:0:0:
336,104,17572,6,0,P|385:85|418:237,1,255
212,202,18527,1,0,0:0:0:0:
212,202,18596,1,0,0:0:0:0:
212,202,18664,6,0,L|109:203,1,85,8|0,0:0|0:0,0:0:0:0:
300,48,18937,5,10,0:0:0:0:
181,293,19073,1,2,0:0:0:0:
179,40,19209,5,2,0:0:0:0:
319,261,19346,1,2,0:0:0:0:
321,20,19482,5,10,0:0:0:0:
201,231,19618,1,2,0:0:0:0:
86,44,19755,5,6,0:0:0:0:
256,192,19823,12,0,20573,0:0:0:0:
175,218,20845,6,0,P|116:208|79:231,1,85,6|0,0:0|0:0,0:0:0:0:
242,308,21118,2,0,P|293:312|336:300,1,85,8|0,0:0|0:0,0:0:0:0:
417,252,21390,2,0,L|422:159,1,85,2|2,0:0|0:0,0:0:0:0:
405,40,21663,1,8,0:0:0:0:
491,114,21800,1,0,0:0:0:0:
329,136,21937,6,0,L|149:173,1,170,2|8,0:0|0:0,0:0:0:0:
283,237,22346,1,0,0:0:0:0:
234,128,22482,2,0,L|143:101,1,85,2|2,0:0|0:0,0:0:0:0:
165,217,22755,2,0,L|282:250,1,85,8|0,0:0|0:0,0:0:0:0:
345,183,23028,6,0,L|318:271,1,85,2|0,0:0|0:0,0:0:0:0:
428,244,23300,2,0,L|525:241,1,85,8|0,0:0|0:0,0:0:0:0:
496,60,23573,2,0,L|512:167,1,85,2|2,0:0|0:0,0:0:0:0:
335,92,23846,2,0,L|441:82,1,85,8|0,0:0|0:0,0:0:0:0:
266,22,24118,6,0,L|77:25,1,170,2|8,0:0|0:0,0:0:0:0:
136,145,24528,1,0,0:0:0:0:
38,100,24664,2,0,L|19:192,1,85,2|2,0:0|0:0,0:0:0:0:
137,269,24937,2,0,P|81:258|31:273,1,85,8|0,0:0|0:0,0:0:0:0:
199,347,25209,6,0,P|257:353|307:335,1,85,2|0,0:0|0:0,0:0:0:0:
374,211,25482,2,0,P|320:234|298:271,1,85,8|0,0:0|0:0,0:0:0:0:
441,294,25754,2,0,L|458:197,1,85,2|2,0:0|0:0,0:0:0:0:
387,27,26027,2,0,L|396:122,1,85,8|0,0:0|0:0,0:0:0:0:
269,73,26300,6,0,L|91:59,1,170,2|8,0:0|0:0,0:0:0:0:
42,144,26709,1,0,0:0:0:0:
42,144,26845,2,0,P|32:198|44:233,1,85,2|2,0:0|0:0,0:0:0:0:
102,303,27118,2,0,P|141:319|190:300,1,85,8|0,0:0|0:0,0:0:0:0:
254,162,27390,6,0,P|187:153|152:247,1,170,2|8,0:0|0:0,0:0:0:0:
300,233,27800,1,0,0:0:0:0:
368,303,27936,2,0,L|466:296,1,85,2|2,0:0|0:0,0:0:0:0:
257,338,28209,2,0,L|172:331,1,85,8|0,0:0|0:0,0:0:0:0:
67,183,28482,6,0,L|59:371,2,170,2|8|2,0:0|0:0|0:0,0:0:0:0:
130,87,29164,1,2,0:0:0:0:
215,183,29300,2,0,P|270:191|322:175,1,85,8|0,0:0|0:0,0:0:0:0:
424,100,29573,6,0,L|408:205,1,85,6|0,0:0|0:0,0:0:0:0:
289,320,29846,2,0,L|301:219,1,85,8|0,0:0|0:0,0:0:0:0:
427,81,30118,2,0,L|411:186,1,85,2|2,0:0|0:0,0:0:0:0:
285,350,30391,2,0,L|297:249,1,85,8|0,0:0|0:0,0:0:0:0:
427,81,30664,6,0,P|382:111|245:102,1,170,2|8,0:0|0:0,0:0:0:0:
179,32,31073,1,0,0:0:0:0:
108,111,31209,2,0,L|97:209,1,85,2|2,0:0|0:0,0:0:0:0:
141,299,31482,2,0,P|199:311|243:295,1,85,8|0,0:0|0:0,0:0:0:0:
283,77,31755,6,0,L|258:186,1,85,2|0,0:0|0:0,0:0:0:0:
356,254,32028,2,0,P|419:266|454:253,1,85,8|0,0:0|0:0,0:0:0:0:
235,54,32300,2,0,L|211:153,1,85,2|2,0:0|0:0,0:0:0:0:
343,303,32573,2,0,P|410:321|449:311,1,85,8|0,0:0|0:0,0:0:0:0:
199,20,32846,6,0,L|157:205,1,170,2|8,0:0|0:0,0:0:0:0:
79,278,33255,1,0,0:0:0:0:
18,191,33391,2,0,P|9:151|32:101,2,85,2|2|8,0:0|0:0|0:0,0:0:0:0:
79,278,33800,1,0,0:0:0:0:
210,263,33937,6,0,L|335:253,1,85,2|0,0:0|0:0,0:0:0:0:
410,169,34209,2,0,B|296:179,1,85,8|0,0:0|0:0,0:0:0:0:
186,118,34482,6,0,L|280:113,1,85,2|2,0:0|0:0,0:0:0:0:
468,255,34755,2,0,B|354:265,1,85,8|0,0:0|0:0,0:0:0:0:
344,63,35028,6,0,L|335:265,1,170,2|8,0:0|0:0,0:0:0:0:
262,313,35437,1,0,0:0:0:0:
191,224,35573,2,0,P|131:223|75:242,1,85,2|2,0:0|0:0,0:0:0:0:
297,144,35846,2,0,P|357:139|399:149,1,85,8|0,0:0|0:0,0:0:0:0:
231,266,36118,6,0,B|201:214|201:214|202:85,1,170,2|8,0:0|0:0,0:0:0:0:
288,24,36528,1,0,0:0:0:0:
162,100,36664,2,0,P|111:106|70:97,1,85,2|2,0:0|0:0,0:0:0:0:
297,144,36937,2,0,P|357:139|399:149,1,85,8|0,0:0|0:0,0:0:0:0:
403,298,37209,6,0,P|357:264|352:215,1,85,2|0,0:0|0:0,0:0:0:0:
414,127,37482,1,8,0:0:0:0:
471,265,37618,1,8,0:0:0:0:
471,265,37687,1,8,0:0:0:0:
471,265,37755,1,10,0:0:0:0:
399,101,37891,1,10,0:0:0:0:
503,184,38028,1,2,0:0:0:0:
349,239,38164,1,2,0:0:0:0:
273,150,38300,6,0,P|190:139|75:140,1,170,6|8,0:0|0:0,0:0:0:0:
44,212,38709,1,0,0:0:0:0:
44,212,38846,2,0,P|30:269|47:310,1,85,2|2,0:0|0:0,0:0:0:0:
171,106,39118,2,0,P|180:166|166:209,1,85,8|0,0:0|0:0,0:0:0:0:
134,305,39391,6,0,P|216:276|311:316,1,170,2|8,0:0|0:0,0:0:0:0:
391,360,39800,1,0,0:0:0:0:
446,268,39937,2,0,P|456:196|440:158,1,85,2|2,0:0|0:0,0:0:0:0:
339,129,40209,2,0,P|329:201|345:239,1,85,8|0,0:0|0:0,0:0:0:0:
436,39,40482,6,0,P|366:86|255:46,1,170,2|8,0:0|0:0,0:0:0:0:
171,27,40891,1,0,0:0:0:0:
98,96,41028,2,0,P|84:143|114:199,1,85,2|2,0:0|0:0,0:0:0:0:
196,251,41300,2,0,P|210:204|180:148,1,85,8|2,0:0|0:0,0:0:0:0:
115,327,41573,6,0,P|177:360|287:308,1,170,2|8,0:0|0:0,0:0:0:0:
353,209,41982,1,0,0:0:0:0:
277,291,42118,1,2,0:0:0:0:
374,349,42255,1,2,0:0:0:0:
448,248,42391,2,0,P|467:198|432:103,1,127.5,8|0,0:0|0:0,0:0:0:0:
422,104,42664,6,0,L|306:111,1,85,6|0,0:0|0:0,0:0:0:0:
257,135,42937,2,0,L|172:126,1,85,8|0,0:0|0:0,0:0:0:0:
326,197,43209,2,0,P|335:250|325:290,1,85,2|2,0:0|0:0,0:0:0:0:
243,246,43482,2,0,P|204:263|173:292,1,85,8|0,0:0|0:0,0:0:0:0:
397,338,43755,6,0,P|416:256|389:176,1,170,2|8,0:0|0:0,0:0:0:0:
293,101,44164,1,0,0:0:0:0:
217,185,44300,2,0,P|177:200|120:174,1,85,2|2,0:0|0:0,0:0:0:0:
307,66,44573,2,0,L|287:178,1,85,8|0,0:0|0:0,0:0:0:0:
206,13,44846,6,0,L|220:124,1,85,2|0,0:0|0:0,0:0:0:0:
135,171,45118,1,8,0:0:0:0:
135,171,45255,2,0,P|83:167|37:180,1,85,0|2,0:0|0:0,0:0:0:0:
149,277,45528,1,2,0:0:0:0:
149,277,45664,2,0,P|210:283|253:270,1,85,8|0,3:2|0:0,0:0:0:0:
324,188,45937,6,0,P|378:173|459:259,1,170,6|8,0:0|0:0,0:0:0:0:
353,293,46346,1,0,0:0:0:0:
207,192,46482,2,0,L|100:193,1,85,2|2,0:0|0:0,0:0:0:0:
303,88,46755,2,0,L|388:88,1,85,8|0,0:0|0:0,0:0:0:0:
177,20,47028,6,0,L|166:129,1,85,2|0,0:0|0:0,0:0:0:0:
237,289,47300,2,0,L|246:200,1,85,8|0,0:0|0:0,0:0:0:0:
121,115,47573,2,0,P|58:112|2:130,1,85,2|2,0:0|0:0,0:0:0:0:
240,323,47846,2,0,P|282:327|324:321,1,85,8|0,0:0|0:0,0:0:0:0:
425,72,48118,5,10,0:0:0:0:
317,234,48255,1,0,0:0:0:0:
324,41,48391,5,8,0:0:0:0:
452,230,48528,1,0,0:0:0:0:
490,43,48664,5,10,0:0:0:0:
334,234,48800,1,2,0:0:0:0:
236,63,48937,5,8,0:0:0:0:
401,163,49073,1,8,0:0:0:0:
206,207,49209,5,4,0:0:0:0:
94,55,49755,6,0,B|92:111|92:111|104:171|104:171|99:233,1,178.499994552612
130,277,50300,6,0,P|177:291|240:278,1,93.5000028533936,4|0,0:1|0:0,0:0:0:0:
396,207,50573,2,0,P|309:205|277:224,1,93.5000028533936,8|0,0:0|0:0,0:0:0:0:
241,305,50846,1,2,0:0:0:0:
204,146,50982,1,2,0:0:0:0:
342,305,51118,1,8,0:0:0:0:
325,122,51255,1,0,0:0:0:0:
160,235,51391,6,0,L|59:226,1,93.5000028533936,2|0,0:0|0:0,0:0:0:0:
251,170,51664,1,8,0:0:0:0:
225,331,51800,2,0,L|128:322,1,93.5000028533936,0|2,0:0|0:0,0:0:0:0:
362,270,52073,2,0,L|265:261,1,93.5000028533936,2|8,0:0|0:0,0:0:0:0:
359,144,52346,1,0,0:0:0:0:
198,329,52482,6,0,P|167:260|230:176,1,187.000005706787,2|8,0:0|0:0,0:0:0:0:
326,95,52891,1,0,0:0:0:0:
326,95,53028,2,0,P|369:79|413:92,1,93.5000028533936,2|2,0:0|0:0,0:0:0:0:
226,177,53300,2,0,L|233:45,1,93.5000028533936,8|0,0:0|0:0,0:0:0:0:
399,258,53573,6,0,L|394:375,1,93.5000028533936,2|0,0:0|0:0,0:0:0:0:
331,183,53846,1,8,0:0:0:0:
306,296,53982,2,0,P|255:308|188:275,1,93.5000028533936,0|2,0:0|0:0,0:0:0:0:
129,159,54255,2,0,P|176:178|204:229,1,93.5000028533936,2|8,0:0|0:0,0:0:0:0:
119,326,54528,1,0,0:0:0:0:
59,210,54664,5,2,0:0:0:0:
165,136,54800,1,0,0:0:0:0:
165,136,54937,2,0,L|290:127,1,93.5000028533936,8|0,0:0|0:0,0:0:0:0:
378,214,55209,2,0,L|260:222,1,93.5000028533936,2|2,0:0|0:0,0:0:0:0:
440,162,55482,2,0,P|454:217|439:282,1,93.5000028533936,8|0,0:0|0:0,0:0:0:0:
269,313,55755,6,0,B|253:264|253:264|258:113,1,187.000005706787,2|8,0:0|0:0,0:0:0:0:
188,19,56164,1,0,0:0:0:0:
150,126,56300,2,0,L|36:129,1,93.5000028533936,2|2,0:0|0:0,0:0:0:0:
258,82,56573,2,0,L|372:79,1,93.5000028533936,8|0,0:0|0:0,0:0:0:0:
464,145,56845,6,0,L|435:254,1,93.5000028533936,2|0,0:0|0:0,0:0:0:0:
357,325,57118,2,0,L|329:220,1,93.5000028533936,8|0,0:0|0:0,0:0:0:0:
295,106,57390,2,0,L|203:137,1,93.5000028533936,2|2,0:0|0:0,0:0:0:0:
129,234,57663,1,8,0:0:0:0:
243,227,57800,1,0,0:0:0:0:
102,109,57936,6,0,B|85:166|85:166|102:328,1,187.000005706787,6|8,0:0|0:0,0:0:0:0:
288,119,58346,1,2,0:0:0:0:
220,296,58482,1,0,0:0:0:0:
213,51,58618,1,2,0:0:0:0:
370,226,58755,1,8,0:0:0:0:
141,123,58891,1,0,0:0:0:0:
415,20,59028,6,0,L|418:228,1,187.000005706787,4|8,0:0|0:0,0:0:0:0:
322,291,59437,1,0,0:0:0:0:
224,197,59573,2,0,P|211:145|226:103,1,93.5000028533936,2|2,0:0|0:0,0:0:0:0:
72,66,59846,2,0,P|85:112|67:177,1,93.5000028533936,8|0,0:0|0:0,0:0:0:0:
150,268,60118,6,0,P|248:226|320:279,1,187.000005706787,2|8,0:0|0:0,0:0:0:0:
408,336,60528,1,0,0:0:0:0:
466,243,60664,2,0,P|483:192|457:142,1,93.5000028533936,2|2,0:0|0:0,0:0:0:0:
403,68,60937,1,8,0:0:0:0:
321,144,61073,1,0,0:0:0:0:
264,45,61209,6,0,L|142:61,1,93.5000028533936,2|0,0:0|0:0,0:0:0:0:
114,193,61482,2,0,P|167:176|190:128,1,93.5000028533936,8|0,0:0|0:0,0:0:0:0:
45,128,61755,2,0,P|14:173|18:231,1,93.5000028533936,2|2,0:0|0:0,0:0:0:0:
91,297,62028,2,0,B|141:305|141:305|201:289,1,93.5000028533936,8|0,0:0|0:0,0:0:0:0:
291,141,62300,6,0,P|321:190|271:325,1,187.000005706787,2|8,0:0|0:0,0:0:0:0:
182,331,62709,1,0,0:0:0:0:
112,220,62846,2,0,P|45:215|-9:226,1,93.5000028533936,2|2,0:0|0:0,0:0:0:0:
291,141,63118,2,0,P|358:136|412:147,1,93.5000028533936,8|0,0:0|0:0,0:0:0:0:
238,215,63391,6,0,P|197:152|265:68,1,187.000005706787,2|8,0:0|0:0,0:0:0:0:
377,25,63800,1,0,0:0:0:0:
417,155,63937,2,0,P|428:206|405:271,1,93.5000028533936,2|2,0:0|0:0,0:0:0:0:
250,310,64209,2,0,P|291:252|338:242,1,93.5000028533936,8|0,0:0|0:0,0:0:0:0:
353,349,64482,6,0,L|153:346,1,187.000005706787,2|8,0:0|0:0,0:0:0:0:
48,328,64891,1,0,0:0:0:0:
42,205,65028,2,0,P|34:145|52:102,1,93.5000028533936,2|2,0:0|0:0,0:0:0:0:
241,256,65300,2,0,P|255:300|244:349,1,93.5000028533936,8|0,0:0|0:0,0:0:0:0:
366,80,65573,6,0,L|479:78,1,93.5000028533936,2|0,0:0|0:0,0:0:0:0:
138,224,65846,2,0,L|22:215,1,93.5000028533936,8|0,0:0|0:0,0:0:0:0:
196,85,66118,1,2,0:0:0:0:
282,273,66255,1,2,0:0:0:0:
337,80,66391,1,8,0:0:0:0:
181,213,66528,1,0,0:0:0:0:
413,210,66664,6,0,P|444:154|337:90,1,187.000005706787,10|8,0:0|0:0,0:0:0:0:
164,233,67073,1,8,0:0:0:0:
376,58,67209,1,8,0:0:0:0:
127,264,67346,1,8,0:0:0:0:
387,290,67482,1,8,0:0:0:0:
110,52,67618,1,8,0:0:0:0:
256,349,67755,6,0,B|254:280|254:280|278:231|278:231|275:133,1,187.000005706787,4|8,0:0|0:0,0:0:0:0:
163,70,68164,1,0,0:0:0:0:
155,206,68300,2,0,L|47:197,1,93.5000028533936,2|2,0:0|0:0,0:0:0:0:
242,81,68573,1,8,0:0:0:0:
155,206,68709,1,0,0:0:0:0:
297,152,68846,6,0,L|412:148,1,93.5000028533936,2|0,0:0|0:0,0:0:0:0:
390,27,69118,1,8,0:0:0:0:
297,152,69255,1,0,0:0:0:0:
438,212,69391,2,0,L|434:330,1,93.5000028533936,2|2,0:0|0:0,0:0:0:0:
258,275,69664,2,0,P|318:244|371:247,1,93.5000028533936,8|0,0:0|0:0,0:0:0:0:
184,352,69937,6,0,P|127:360|87:349,1,93.5000028533936,2|0,0:0|0:0,0:0:0:0:
38,177,70209,1,8,0:0:0:0:
92,321,70346,1,0,0:0:0:0:
154,166,70482,2,0,P|208:157|277:178,1,93.5000028533936,2|2,0:0|0:0,0:0:0:0:
363,82,70755,1,8,0:0:0:0:
409,196,70891,1,0,0:0:0:0:
281,244,71028,6,0,P|246:194|246:158,1,93.5000028533936,2|0,0:0|0:0,0:0:0:0:
396,289,71300,2,0,L|395:396,1,93.5000028533936,8|0,0:0|0:0,0:0:0:0:
245,267,71573,2,0,P|193:256|139:274,1,93.5000028533936,2|2,0:0|0:0,0:0:0:0:
62,350,71846,1,8,0:0:0:0:
195,345,71982,1,0,0:0:0:0:
68,234,72118,6,0,L|60:114,1,93.5000028533936,6|0,0:0|0:0,0:0:0:0:
179,50,72391,2,0,L|189:161,1,93.5000028533936,8|0,0:0|0:0,0:0:0:0:
278,251,72664,1,2,0:0:0:0:
296,128,72800,1,2,0:0:0:0:
223,300,72937,2,0,L|348:282,1,93.5000028533936,8|0,0:0|0:0,0:0:0:0:
420,168,73209,6,0,P|438:219|424:258,1,93.5000028533936,2|0,0:0|0:0,0:0:0:0:
300,38,73482,2,0,P|286:91|299:133,1,93.5000028533936,8|0,0:0|0:0,0:0:0:0:
330,277,73755,1,2,0:0:0:0:
396,129,73891,1,2,0:0:0:0:
264,201,74028,2,0,L|151:212,1,93.5000028533936,8|0,0:0|0:0,0:0:0:0:
93,55,74300,6,0,P|89:108|113:161,1,93.5000028533936,2|0,0:0|0:0,0:0:0:0:
100,264,74573,2,0,P|130:227|180:210,1,93.5000028533936,8|0,0:0|0:0,0:0:0:0:
265,91,74846,1,2,0:0:0:0:
279,229,74982,1,2,0:0:0:0:
177,121,75118,1,8,0:0:0:0:
211,279,75255,1,0,0:0:0:0:
325,157,75391,6,0,L|430:161,1,93.5000028533936,2|0,0:0|0:0,0:0:0:0:
377,322,75664,2,0,L|261:315,1,93.5000028533936,8|0,0:0|0:0,0:0:0:0:
176,254,75937,2,0,P|126:250|65:258,1,93.5000028533936,2|2,0:0|0:0,0:0:0:0:
119,105,76209,1,8,0:0:0:0:
186,242,76346,1,0,0:0:0:0:
250,87,76482,6,0,L|371:92,1,93.5000028533936,6|0,0:0|0:0,0:0:0:0:
447,202,76755,2,0,L|353:198,1,93.5000028533936,8|0,0:0|0:0,0:0:0:0:
238,287,77028,2,0,L|331:290,1,93.5000028533936,2|2,0:0|0:0,0:0:0:0:
158,322,77300,2,0,P|150:263|173:215,1,93.5000028533936,8|0,0:0|0:0,0:0:0:0:
265,65,77573,6,0,P|275:126|254:182,1,93.5000028533936,2|2,0:0|0:0,0:0:0:0:
152,93,77846,2,0,P|93:85|27:99,1,93.5000028533936,8|0,0:0|0:0,0:0:0:0:
176,244,78118,2,0,P|233:256|276:239,1,93.5000028533936,2|2,0:0|0:0,0:0:0:0:
384,130,78391,1,8,0:0:0:0:
267,156,78528,1,0,0:0:0:0:
358,251,78664,6,0,P|366:295|359:350,1,93.5000028533936,2|2,0:0|0:0,0:0:0:0:
246,333,78937,2,0,L|143:337,1,93.5000028533936,8|0,0:0|0:0,0:0:0:0:
126,171,79209,2,0,P|171:218|176:251,1,93.5000028533936,2|2,0:0|0:0,0:0:0:0:
52,307,79482,1,8,0:0:0:0:
204,258,79618,1,0,0:0:0:0:
21,140,79755,6,0,L|135:129,1,93.5000028533936,2|2,0:0|0:0,0:0:0:0:
203,17,80028,1,8,0:0:0:0:
111,88,80164,1,0,0:0:0:0:
218,151,80300,2,0,L|204:260,1,93.5000028533936,2|2,0:0|0:0,0:0:0:0:
278,343,80573,2,0,P|324:353|371:347,1,93.5000028533936,8|0,0:0|0:0,0:0:0:0:
434,181,80846,6,0,P|359:171|336:282,1,187.000005706787,6|8,0:0|0:0,0:0:0:0:
455,318,81255,1,0,0:0:0:0:
457,158,81391,2,0,P|465:99|449:68,1,93.5000028533936,2|2,0:0|0:0,0:0:0:0:
256,22,81664,2,0,P|243:71|259:122,1,93.5000028533936,8|0,0:0|0:0,0:0:0:0:
389,241,81937,6,0,B|376:259|344:254|344:254|334:276|298:261|298:261|282:277|245:287|213:250,1,178.499994552612,4|0,0:0|0:0,0:0:0:0:
226,185,82482,2,0,P|155:166|152:250,1,178.499994552612
227,263,83028,6,0,L|320:257,1,76.4999976654053,6|0,0:0|0:0,0:0:0:0:
391,242,83288,2,0,P|404:185|384:145,1,76.4999976654053,2|0,0:0|0:0,0:0:0:0:
326,100,83549,2,0,P|273:122|177:103,1,152.999995330811,8|0,0:0|0:0,0:0:0:0:
81,55,84071,6,0,L|63:148,1,76.4999976654053,2|0,0:0|0:0,0:0:0:0:
130,209,84332,2,0,L|137:300,1,76.4999976654053,2|0,0:0|0:0,0:0:0:0:
70,334,84593,2,0,P|146:316|233:329,1,152.999995330811,8|0,0:0|0:0,0:0:0:0:
334,312,85114,6,0,L|354:223,1,76.4999976654053,2|0,0:0|0:0,0:0:0:0:
270,175,85375,2,0,L|273:78,1,76.4999976654053,2|0,0:0|0:0,0:0:0:0:
348,30,85636,2,0,P|281:64|182:69,1,152.999995330811,8|0,0:0|0:0,0:0:0:0:
105,30,86158,6,0,P|56:28|14:38,1,76.4999976654053,2|0,0:0|0:0,0:0:0:0:
85,145,86419,2,0,P|134:150|170:144,1,76.4999976654053,2|0,0:0|0:0,0:0:0:0:
286,153,86680,2,0,B|300:194|300:194|294:314,1,152.999995330811,8|0,0:0|0:0,0:0:0:0:
191,294,87201,6,0,P|138:294|110:301,1,76.4999976654053,2|0,0:0|0:0,0:0:0:0:
293,335,87462,2,0,P|342:339|381:332,1,76.4999976654053,2|0,0:0|0:0,0:0:0:0:
462,265,87723,2,0,P|477:212|434:109,1,152.999995330811,8|0,0:0|0:0,0:0:0:0:
351,53,88245,6,0,P|308:77|267:80,1,76.4999976654053,2|0,0:0|0:0,0:0:0:0:
127,38,88506,2,0,P|189:24|219:33,1,76.4999976654053,2|0,0:0|0:0,0:0:0:0:
271,105,88767,2,0,L|254:269,1,152.999995330811,8|0,0:0|0:0,0:0:0:0:
174,336,89288,6,0,P|116:349|72:347,1,76.4999976654053,2|0,0:0|0:0,0:0:0:0:
275,245,89549,2,0,P|316:237|356:245,1,76.4999976654053,2|0,0:0|0:0,0:0:0:0:
427,334,89810,1,8,0:0:0:0:
445,187,89941,2,0,L|461:67,1,101.999996887207,0|8,0:0|0:0,0:0:0:0:
441,58,90267,1,8,0:0:0:0:
441,58,90332,5,8,0:0:0:0:
300,226,90462,1,8,0:0:0:0:
461,183,90593,1,8,0:0:0:0:
285,75,90723,1,0,0:0:0:0:
215,255,90854,2,0,L|198:325,3,38.2499988327027,8|0|0|0,0:0|0:0|0:0|0:0,0:0:0:0:
127,183,91114,2,0,L|110:113,3,38.2499988327027,8|0|0|0,0:0|0:0|0:0|0:0,0:0:0:0:
93,67,91375,6,0,P|83:125|75:236,1,152.999995330811,6|8,0:0|0:0,0:0:0:0:
135,337,91767,1,0,0:0:0:0:
215,228,91897,6,0,P|276:220|312:223,1,76.4999976654053,2|2,0:0|0:0,0:0:0:0:
420,286,92158,2,0,P|373:301|318:295,1,76.4999976654053,8|0,0:0|0:0,0:0:0:0:
450,209,92419,6,0,P|482:231|469:356,1,152.999995330811,2|8,0:0|0:0,0:0:0:0:
318,307,92810,1,0,0:0:0:0:
308,180,92941,2,0,L|317:71,1,76.4999976654053,2|2,0:0|0:0,0:0:0:0:
201,27,93201,2,0,L|194:103,1,76.4999976654053,8|0,0:0|0:0,0:0:0:0:
117,198,93462,6,0,P|67:204|15:191,1,76.4999976654053,2|0,0:0|0:0,0:0:0:0:
194,103,93723,2,0,P|244:97|296:110,1,76.4999976654053,8|0,0:0|0:0,0:0:0:0:
341,243,93984,1,2,0:0:0:0:
397,108,94114,1,2,0:0:0:0:
265,176,94245,1,8,0:0:0:0:
435,176,94375,1,0,0:0:0:0:
258,252,94506,6,0,B|211:258|211:258|80:248,1,152.999995330811,2|8,0:0|0:0,0:0:0:0:
28,323,94897,1,0,0:0:0:0:
9,226,95027,2,0,P|0:188|19:127,1,76.4999976654053,2|2,0:0|0:0,0:0:0:0:
65,61,95288,2,0,P|121:52|164:70,1,76.4999976654053,8|0,0:0|0:0,0:0:0:0:
249,160,95549,5,6,0:0:0:0:
156,46,95680,1,0,0:0:0:0:
127,166,95810,1,8,0:0:0:0:
257,48,95941,1,0,0:0:0:0:
198,229,96071,2,0,L|192:321,1,76.4999976654053,2|2,0:0|0:0,0:0:0:0:
334,162,96332,2,0,L|342:69,1,76.4999976654053,8|0,0:0|0:0,0:0:0:0:
402,232,96593,6,0,P|360:251|254:213,1,152.999995330811,2|8,0:0|0:0,0:0:0:0:
208,114,96984,1,0,0:0:0:0:
132,220,97114,2,0,P|76:226|32:208,1,76.4999976654053,2|2,0:0|0:0,0:0:0:0:
32,83,97375,2,0,P|88:77|132:95,1,76.4999976654053,8|0,0:0|0:0,0:0:0:0:
220,149,97636,6,0,B|229:188|229:188|215:310,1,152.999995330811,2|8,0:0|0:0,0:0:0:0:
306,357,98027,1,0,0:0:0:0:
379,253,98158,2,0,P|444:250|480:261,1,76.4999976654053,2|2,0:0|0:0,0:0:0:0:
296,149,98419,2,0,P|240:146|198:153,1,76.4999976654053,8|0,0:0|0:0,0:0:0:0:
114,228,98680,5,8,0:0:0:0:
80,221,98745,1,0,0:0:0:0:
53,199,98810,1,0,0:0:0:0:
45,165,98875,1,0,0:0:0:0:
44,130,98941,2,0,L|48:44,1,76.4999976654053,8|0,0:0|0:0,0:0:0:0:
254,243,99201,2,0,L|242:354,1,76.4999976654053,8|0,0:0|0:0,0:0:0:0:
227,340,99397,1,0,0:0:0:0:
227,340,99462,1,8,0:0:0:0:
332,269,99593,1,0,0:0:0:0:
198,167,99723,6,0,P|193:119|206:85,1,76.4999976654053,6|0,0:0|0:0,0:0:0:0:
364,71,99984,2,0,P|337:110|294:117,1,76.4999976654053,8|0,0:0|0:0,0:0:0:0:
203,56,100245,2,0,P|157:49|114:56,1,76.4999976654053,2|2,0:0|0:0,0:0:0:0:
146,231,100506,2,0,P|191:198|202:167,1,76.4999976654053,8|0,0:0|0:0,0:0:0:0:
68,164,100767,6,0,L|74:345,1,152.999995330811,2|8,0:0|0:0,0:0:0:0:
162,368,101158,1,0,0:0:0:0:
235,305,101288,2,0,P|279:288|338:301,1,76.4999976654053,2|2,0:0|0:0,0:0:0:0:
461,224,101549,2,0,P|406:223|368:236,1,76.4999976654053,8|0,0:0|0:0,0:0:0:0:
265,137,101810,5,2,0:0:0:0:
395,325,101941,1,0,0:0:0:0:
359,125,102071,1,8,0:0:0:0:
292,326,102201,1,0,0:0:0:0:
202,211,102332,2,0,L|117:201,1,76.4999976654053,2|2,0:0|0:0,0:0:0:0:
41,108,102593,2,0,L|116:116,1,76.4999976654053,8|0,0:0|0:0,0:0:0:0:
275,127,102854,6,0,B|321:109|321:109|343:147|312:240,1,152.999995330811,2|8,0:0|0:0,0:0:0:0:
292,326,103245,1,0,0:0:0:0:
394,274,103375,2,0,P|443:266|480:273,1,76.4999976654053,2|2,0:0|0:0,0:0:0:0:
292,326,103636,2,0,P|243:334|206:327,1,76.4999976654053,8|0,0:0|0:0,0:0:0:0:
131,253,103897,6,0,L|127:172,1,76.4999976654053,2|0,0:0|0:0,0:0:0:0:
245,66,104158,2,0,L|241:142,1,76.4999976654053,8|0,0:0|0:0,0:0:0:0:
148,72,104419,2,0,P|95:71|46:81,1,76.4999976654053,2|2,0:0|0:0,0:0:0:0:
219,233,104680,2,0,P|276:237|322:219,1,76.4999976654053,8|0,0:0|0:0,0:0:0:0:
380,158,104941,6,0,P|351:204|374:310,1,152.999995330811,2|8,0:0|0:0,0:0:0:0:
435,232,105332,1,0,0:0:0:0:
355,348,105462,2,0,P|319:361|269:339,1,76.4999976654053,2|2,0:0|0:0,0:0:0:0:
152,277,105723,2,0,P|205:267|243:285,1,76.4999976654053,8|0,0:0|0:0,0:0:0:0:
170,377,105984,5,8,0:0:0:0:
75,307,106114,2,0,B|53:256|53:256|75:149,1,152.999995330811,2|0,0:0|0:0,0:0:0:0:
132,60,106506,1,8,0:0:0:0:
198,148,106636,2,0,B|243:166|243:166|361:146,1,152.999995330811,2|0,0:0|0:0,0:0:0:0:
459,148,107027,6,0,L|454:255,1,76.4999976654053,10|0,0:0|0:0,0:0:0:0:
459,253,107223,1,0,0:0:0:0:
459,253,107288,1,8,0:0:0:0:
359,349,107419,1,0,0:0:0:0:
375,166,107549,1,8,0:0:0:0:
457,327,107680,1,8,0:0:0:0:
285,250,107810,2,0,L|199:253,1,76.4999976654053,8|0,0:0|0:0,0:0:0:0:
94,323,108071,5,4,0:0:0:0:
408,75,112114,5,0,0:0:0:0:
408,75,112180,1,0,0:0:0:0:
408,75,112245,6,0,P|413:97|387:190,1,102,8|0,0:0|0:0,0:0:0:0:
316,192,112506,2,0,P|273:187|202:193,1,102,8|0,0:0|0:0,0:0:0:0:
140,245,112767,2,0,P|82:251|27:236,1,102,8|0,0:0|0:0,0:0:0:0:
4,148,113027,2,0,L|4:38,1,102,8|0,0:0|0:0,0:0:0:0:
105,0,113288,6,0,L|91:125,1,114.749996498108,8|0,0:0|0:0,0:0:0:0:
180,69,113549,2,0,P|225:47|302:60,1,114.749996498108,8|0,0:0|0:0,0:0:0:0:
332,137,113810,2,0,P|385:153|450:124,1,114.749996498108,8|0,0:0|0:0,0:0:0:0:
491,66,114071,2,0,L|498:216,1,114.749996498108,8|0,0:0|0:0,0:0:0:0:
413,247,114332,6,0,P|368:244|277:265,1,127.5,8|0,0:0|0:0,0:0:0:0:
212,305,114593,2,0,P|166:318|61:300,1,127.5,8|0,0:0|0:0,0:0:0:0:
34,167,114854,2,0,P|112:202|135:253,1,127.5,8|0,0:0|0:0,0:0:0:0:
257,89,115114,2,0,P|205:148|195:217,1,127.5,8|0,0:0|0:0,0:0:0:0:
182,34,115375,6,0,L|347:24,1,140.25000428009,8|0,0:0|0:0,0:0:0:0:
455,101,115636,2,0,L|298:111,1,140.25000428009,8|0,0:0|0:0,0:0:0:0:
293,137,115897,1,8,0:0:0:0:
124,291,116027,1,8,0:0:0:0:
124,291,116419,6,0,L|221:298,1,93.5000028533936,6|0,0:0|0:0,0:0:0:0:
433,184,116680,2,0,L|309:179,1,93.5000028533936,10|0,0:0|0:0,0:0:0:0:
168,45,116941,2,0,L|154:156,1,93.5000028533936,10|0,0:0|0:0,0:0:0:0:
376,364,117201,2,0,L|389:246,1,93.5000028533936,10|0,0:0|0:0,0:0:0:0:
297,93,117462,5,2,0:0:0:0:
389,257,117593,1,10,0:0:0:0:
458,85,117723,1,10,0:0:0:0:
281,209,117854,1,10,0:0:0:0:
477,202,117984,1,2,0:0:0:0:
361,42,118114,1,2,0:0:0:0:
266,248,118245,2,0,L|160:223,1,93.5000028533936,8|0,0:0|0:0,0:0:0:0:
78,98,118506,5,4,0:0:0:0:
65,140,118767,1,0,0:0:0:0:
46,211,119027,1,0,0:0:0:0:
17,326,119288,1,0,0:0:0:0:
78,98,119549,6,0,P|62:160|81:198,1,93.5000028533936,6|0,0:0|0:0,0:0:0:0:
142,283,119810,2,2,L|214:286,5,46.7500014266968,10|2|2|2|2|2,0:0|0:0|0:0|0:0|0:0|0:0,0:0:0:0:
312,199,120201,2,2,L|264:198,5,46.7500014266968,10|2|2|2|2|2,0:0|0:0|0:0|0:0|0:0|0:0,0:0:0:0:
165,104,120593,6,2,L|212:105,3,46.7500014266968,10|2|2|2,0:0|0:0|0:0|0:0,0:0:0:0:
250,87,120854,1,10,0:0:0:0:
290,74,120919,1,2,0:0:0:0:
331,73,120984,1,2,0:0:0:0:
372,79,121049,1,2,0:0:0:0:
405,103,121114,2,2,L|419:155,3,46.7500014266968,10|2|2|2,0:0|0:0|0:0|0:0,0:0:0:0:
388,179,121375,2,2,L|378:246,3,46.7500014266968,10|2|2|2,0:0|0:0|0:0|0:0,0:0:0:0:
360,262,121636,5,10,0:0:0:0:
323,282,121701,1,2,0:0:0:0:
281,291,121767,1,10,0:0:0:0:
239,289,121832,1,2,0:0:0:0:
209,259,121897,1,2,0:0:0:0:
173,237,121962,1,2,0:0:0:0:
131,238,122027,1,10,0:0:0:0:
89,245,122093,1,2,0:0:0:0:
49,259,122158,2,2,L|55:337,3,46.7500014266968,10|2|2|2,0:0|0:0|0:0|0:0,0:0:0:0:
24,273,122419,1,10,0:0:0:0:
4,235,122484,1,2,0:0:0:0:
6,193,122549,1,2,0:0:0:0:
24,155,122614,1,2,0:0:0:0:
45,138,122680,6,0,B|145:149|145:149|101:123,1,148.75,8|0,0:0|0:0,0:0:0:0:
163,92,123201,2,0,B|218:95|218:95|276:106|276:106|392:101,1,208.249993644715
422,125,123723,6,0,P|409:183|424:256,1,93.5000028533936,4|0,3:1|0:0,0:0:0:0:
358,331,123984,2,0,P|305:341|257:326,1,93.5000028533936,8|0,0:0|0:0,0:0:0:0:
175,232,124245,2,0,P|230:217|265:233,1,93.5000028533936,2|2,0:0|0:0,0:0:0:0:
87,304,124506,1,8,0:0:0:0:
44,195,124636,1,0,0:0:0:0:
44,195,124767,6,0,L|35:89,1,93.5000028533936,2|0,0:0|0:0,0:0:0:0:
134,24,125027,1,8,0:0:0:0:
229,129,125158,2,0,L|118:137,1,93.5000028533936,0|2,0:0|0:0,0:0:0:0:
323,158,125419,1,2,0:0:0:0:
323,158,125549,2,0,P|342:217|321:275,1,93.5000028533936,8|0,0:0|0:0,0:0:0:0:
255,329,125810,6,0,P|338:281|417:345,1,187.000005706787,2|8,0:0|0:0,0:0:0:0:
200,223,126201,1,0,0:0:0:0:
147,312,126332,2,0,L|45:310,1,93.5000028533936,2|2,0:0|0:0,0:0:0:0:
45,108,126593,2,0,P|15:165|24:208,1,93.5000028533936,8|0,0:0|0:0,0:0:0:0:
131,40,126854,6,0,P|161:97|152:140,1,93.5000028533936,2|0,0:0|0:0,0:0:0:0:
46,228,127114,1,8,0:0:0:0:
199,216,127245,2,0,L|306:216,1,93.5000028533936,0|2,0:0|0:0,0:0:0:0:
445,125,127506,2,0,L|351:125,1,93.5000028533936,2|8,0:0|0:0,0:0:0:0:
249,58,127767,1,0,0:0:0:0:
296,232,127897,6,0,L|296:327,1,93.5000028533936,2|0,0:0|0:0,0:0:0:0:
113,305,128158,2,0,P|70:325|21:297,1,93.5000028533936,8|0,0:0|0:0,0:0:0:0:
223,194,128419,2,0,P|269:177|328:214,1,93.5000028533936,2|2,0:0|0:0,0:0:0:0:
128,278,128680,1,8,0:0:0:0:
42,163,128810,1,0,0:0:0:0:
164,80,128941,6,0,P|228:67|361:87,1,187.000005706787,2|8,0:0|0:0,0:0:0:0:
462,28,129332,1,0,0:0:0:0:
452,157,129462,2,0,B|465:198|465:198|457:255,1,93.5000028533936,2|2,0:0|0:0,0:0:0:0:
349,352,129723,2,0,B|336:311|336:311|344:254,1,93.5000028533936,8|0,0:0|0:0,0:0:0:0:
218,172,129984,6,0,L|90:158,1,93.5000028533936,2|0,0:0|0:0,0:0:0:0:
438,18,130245,2,0,L|415:113,1,93.5000028533936,8|0,0:0|0:0,0:0:0:0:
175,254,130506,2,0,L|48:241,1,93.5000028533936,2|2,0:0|0:0,0:0:0:0:
354,40,130767,2,0,L|321:147,1,93.5000028533936,8|0,0:0|0:0,0:0:0:0:
204,317,131027,6,0,P|156:335|89:224,1,187.000005706787,6|8,0:0|0:0,0:0:0:0:
39,143,131419,1,0,0:0:0:0:
143,76,131549,2,0,P|221:76|256:85,1,93.5000028533936,2|2,0:0|0:0,0:0:0:0:
373,227,131810,1,8,0:0:0:0:
189,161,131941,1,0,0:0:0:0:
298,27,132071,6,0,L|289:240,1,187.000005706787,6|8,0:0|0:0,0:0:0:0:
355,333,132462,1,0,0:0:0:0:
397,215,132593,2,0,P|455:202|489:217,1,93.5000028533936,2|2,0:0|0:0,0:0:0:0:
267,321,132854,2,0,P|222:337|162:311,1,93.5000028533936,8|0,0:0|0:0,0:0:0:0:
90,229,133114,6,0,P|78:171|104:118,1,93.5000028533936,2|0,0:0|0:0,0:0:0:0:
195,86,133375,1,8,0:0:0:0:
310,180,133506,2,0,L|215:181,1,93.5000028533936,0|2,0:0|0:0,0:0:0:0:
302,62,133767,1,2,0:0:0:0:
90,26,133897,2,0,L|192:28,1,93.5000028533936,8|0,0:0|0:0,0:0:0:0:
413,53,134158,6,0,B|384:113|384:113|389:249,1,187.000005706787,2|8,0:0|0:0,0:0:0:0:
454,352,134549,1,0,0:0:0:0:
319,343,134680,2,0,P|270:348|204:335,1,93.5000028533936,2|2,0:0|0:0,0:0:0:0:
113,204,134941,2,0,P|162:199|228:212,1,93.5000028533936,8|0,0:0|0:0,0:0:0:0:
24,274,135201,6,0,B|-7:225|-7:225|11:54,1,187.000005706787,2|8,0:0|0:0,0:0:0:0:
101,39,135593,2,0,P|154:34|219:50,1,93.5000028533936,0|2,0:0|0:0,0:0:0:0:
260,133,135854,1,2,0:0:0:0:
338,60,135984,2,0,L|449:53,1,93.5000028533936,8|0,0:0|0:0,0:0:0:0:
241,221,136245,6,0,P|249:282|241:335,1,93.5000028533936,2|0,0:0|0:0,0:0:0:0:
141,151,136506,2,0,P|76:146|14:164,1,93.5000028533936,8|0,0:0|0:0,0:0:0:0:
321,210,136767,2,0,P|380:202|428:207,1,93.5000028533936,2|2,0:0|0:0,0:0:0:0:
140,268,137027,2,0,P|75:263|13:281,1,93.5000028533936,8|0,0:0|0:0,0:0:0:0:
233,132,137288,6,0,B|213:190|248:241|248:241|255:307|232:348,1,187.000005706787,2|8,0:0|0:0,0:0:0:0:
364,349,137680,1,0,0:0:0:0:
417,197,137810,2,0,P|432:145|412:95,1,93.5000028533936,2|2,0:0|0:0,0:0:0:0:
305,43,138071,2,0,P|254:33|195:50,1,93.5000028533936,8|0,0:0|0:0,0:0:0:0:
49,120,138332,2,0,P|100:130|159:113,1,93.5000028533936,10|0,0:0|0:0,0:0:0:0:
302,189,138593,1,10,0:0:0:0:
143,43,138723,1,2,0:0:0:0:
187,266,138854,1,10,0:0:0:0:
310,74,138984,1,2,0:0:0:0:
128,169,139114,2,0,L|26:164,1,93.5000028533936,8|0,0:0|0:0,0:0:0:0:
338,57,139375,6,0,P|398:39|411:155,1,187.000005706787,8|10,0:0|0:0,0:0:0:0:
250,310,139767,1,2,0:0:0:0:
250,310,139832,1,2,0:0:0:0:
250,310,139897,1,10,0:0:0:0:
308,57,140027,1,10,0:0:0:0:
154,195,140158,1,10,0:0:0:0:
435,171,140288,1,10,0:0:0:0:
200,60,140419,6,0,P|148:38|55:128,1,187.000005706787,6|8,0:0|0:0,0:0:0:0:
53,247,140810,1,0,0:0:0:0:
195,177,140941,2,0,P|257:169|310:176,1,93.5000028533936,2|2,0:0|0:0,0:0:0:0:
448,264,141201,2,0,P|397:268|332:254,1,93.5000028533936,8|0,0:0|0:0,0:0:0:0:
292,144,141462,5,2,0:0:0:0:
345,307,141593,1,0,0:0:0:0:
433,155,141723,2,0,P|440:97|415:63,1,93.5000028533936,8|0,0:0|0:0,0:0:0:0:
312,7,141984,2,0,P|248:9|217:25,1,93.5000028533936,2|2,0:0|0:0,0:0:0:0:
218,126,142245,1,8,0:0:0:0:
343,37,142375,1,0,0:0:0:0:
139,79,142506,6,0,P|117:138|140:179,1,93.5000028533936,2|0,0:0|0:0,0:0:0:0:
142,295,142767,2,0,P|91:304|26:282,1,93.5000028533936,8|0,0:0|0:0,0:0:0:0:
231,201,143027,2,0,P|287:193|343:210,1,93.5000028533936,2|2,0:0|0:0,0:0:0:0:
432,327,143288,2,0,P|395:266|393:211,1,93.5000028533936,8|0,0:0|0:0,0:0:0:0:
387,148,143549,2,0,P|426:112|470:104,1,93.5000028533936,2|0,0:0|0:0,0:0:0:0:
296,293,143810,2,0,P|243:304|193:287,1,93.5000028533936,8|0,0:0|0:0,0:0:0:0:
107,247,144071,2,0,P|99:175|119:145,1,93.5000028533936,2|2,0:0|0:0,0:0:0:0:
177,22,144332,1,8,0:0:0:0:
52,70,144462,1,0,0:0:0:0:
232,117,144593,6,0,B|289:118|289:118|334:137|334:137|438:135,1,187.000005706787,6|8,0:0|0:0,0:0:0:0:
493,58,144984,1,0,0:0:0:0:
483,203,145114,2,0,P|497:258|471:302,1,93.5000028533936,2|2,0:0|0:0,0:0:0:0:
324,289,145375,2,0,P|359:254|407:249,1,93.5000028533936,8|0,0:0|0:0,0:0:0:0:
259,361,145636,6,0,B|210:370|210:370|154:354,1,93.5000028533936,2|0,0:0|0:0,0:0:0:0:
126,232,145897,1,8,0:0:0:0:
223,266,146027,1,0,0:0:0:0:
56,280,146158,2,0,P|42:223|63:179,1,93.5000028533936,2|2,0:0|0:0,0:0:0:0:
232,109,146419,2,0,P|179:146|132:140,1,93.5000028533936,8|0,0:0|0:0,0:0:0:0:
174,31,146680,6,0,P|235:12|322:84,1,187.000005706787,2|8,0:0|0:0,0:0:0:0:
362,207,147071,1,0,0:0:0:0:
419,106,147201,2,0,P|475:103|525:111,1,93.5000028533936,2|2,0:0|0:0,0:0:0:0:
359,230,147462,2,0,P|305:239|254:226,1,93.5000028533936,8|0,0:0|0:0,0:0:0:0:
156,144,147723,6,0,P|101:136|50:155,1,93.5000028533936,2|0,0:0|0:0,0:0:0:0:
148,307,147984,2,0,P|203:315|254:296,1,93.5000028533936,8|0,0:0|0:0,0:0:0:0:
361,229,148245,2,0,P|373:174|345:126,1,93.5000028533936,2|2,0:0|0:0,0:0:0:0:
273,38,148506,1,8,0:0:0:0:
167,56,148636,1,0,0:0:0:0:
161,178,148767,6,0,P|152:223|167:289,1,93.5000028533936,6|0,0:0|0:0,0:0:0:0:
285,333,149027,2,0,P|350:343|387:324,1,93.5000028533936,8|0,0:0|0:0,0:0:0:0:
455,211,149288,2,0,L|462:95,1,93.5000028533936,2|2,0:0|0:0,0:0:0:0:
332,56,149549,2,0,L|321:169,1,93.5000028533936,8|0,0:0|0:0,0:0:0:0:
249,258,149810,6,0,P|190:267|133:241,1,93.5000028533936,2|2,0:0|0:0,0:0:0:0:
50,206,150071,1,8,0:0:0:0:
14,105,150201,1,0,0:0:0:0:
119,69,150332,2,0,P|175:63|214:75,1,93.5000028533936,2|2,0:0|0:0,0:0:0:0:
277,148,150593,2,0,P|342:157|383:139,1,93.5000028533936,8|0,0:0|0:0,0:0:0:0:
481,5,150854,6,0,L|445:99,1,93.5000028533936,2|2,0:0|0:0,0:0:0:0:
468,264,151114,2,0,L|445:173,1,93.5000028533936,8|0,0:0|0:0,0:0:0:0:
316,169,151375,2,0,L|200:173,1,93.5000028533936,2|2,0:0|0:0,0:0:0:0:
268,306,151636,1,8,0:0:0:0:
341,139,151767,1,0,0:0:0:0:
154,84,151897,6,0,P|120:133|182:249,1,187.000005706787,2|8,0:0|0:0,0:0:0:0:
268,306,152288,1,0,0:0:0:0:
382,248,152419,2,0,P|441:238|489:246,1,93.5000028533936,2|2,0:0|0:0,0:0:0:0:
312,67,152680,2,0,L|304:165,1,93.5000028533936,8|0,0:0|0:0,0:0:0:0:
164,241,152941,6,0,P|102:244|48:230,1,93.5000028533936,6|0,0:0|0:0,0:0:0:0:
23,96,153201,2,0,P|85:93|139:107,1,93.5000028533936,8|0,0:0|0:0,0:0:0:0:
279,183,153462,1,2,0:0:0:0:
158,34,153593,1,2,0:0:0:0:
192,223,153723,1,8,0:0:0:0:
267,39,153854,1,0,0:0:0:0:
82,173,153984,6,0,L|-14:175,1,93.5000028533936,6|0,0:0|0:0,0:0:0:0:
290,313,154245,2,8,L|414:311,1,93.5000028533936
330,110,154506,1,8,0:0:0:0:
150,252,154636,1,8,0:0:0:0:
400,299,154767,1,8,0:0:0:0:
207,97,154897,1,8,0:0:0:0:
213,356,155027,1,4,0:0:0:0:
256,192,155093,12,0,156984,0:0:0:0:
256,192,157114,12,4,159201,0:0:0:0:
106,174,167076,5,2,0:0:0:0:
106,174,167201,6,0,P|165:157|208:173,1,89.2499972763062,6|0,0:0|0:0,0:0:0:0:
211,195,167451,2,0,L|315:204,1,89.2499972763062,2|0,0:0|0:0,0:0:0:0:
322,234,167701,1,10,0:0:0:0:
475,176,168076,1,2,0:0:0:0:
475,176,168201,6,0,P|492:131|461:82,1,89.2499972763062,2|0,0:0|0:0,0:0:0:0:
439,83,168451,2,0,B|396:99|396:99|340:75,1,89.2499972763062,2|0,0:0|0:0,0:0:0:0:
319,68,168701,1,10,0:0:0:0:
150,96,169076,1,2,0:0:0:0:
150,96,169201,6,0,P|105:109|56:103,1,89.2499972763062,2|0,0:0|0:0,0:0:0:0:
27,123,169451,2,0,L|21:220,1,89.2499972763062,2|0,0:0|0:0,0:0:0:0:
44,245,169701,1,10,0:0:0:0:
179,295,170076,1,2,0:0:0:0:
179,295,170201,6,0,P|233:295|293:308,1,89.2499972763062,2|0,0:0|0:0,0:0:0:0:
301,320,170451,2,0,B|336:329|336:329|404:325,1,89.2499972763062,2|0,0:0|0:0,0:0:0:0:
428,325,170701,2,0,P|444:286|420:203,1,118.999996368408,10|2,0:0|0:0,0:0:0:0:
406,109,171076,1,0,0:0:0:0:
320,154,171201,6,0,L|195:167,1,118.999996368408,6|0,0:0|0:0,0:0:0:0:
32,93,171701,2,0,L|150:80,1,118.999996368408,14|0,0:0|0:0,0:0:0:0:
252,247,172201,2,0,L|133:259,1,118.999996368408,6|0,0:0|0:0,0:0:0:0:
57,210,172576,1,0,0:0:0:0:
142,174,172701,2,0,L|214:164,1,59.4999981842042,14|0,0:0|0:0,0:0:0:0:
278,103,172951,2,0,L|348:95,1,59.4999981842042
421,37,173201,6,0,P|397:77|415:158,1,118.999996368408,6|0,0:0|0:0,0:0:0:0:
495,192,173576,1,0,0:0:0:0:
424,259,173701,2,0,P|380:273|344:265,1,59.4999981842042,14|0,0:0|0:0,0:0:0:0:
241,238,173951,2,0,P|277:220|315:218,1,59.4999981842042,2|0,0:0|0:0,0:0:0:0:
195,334,174201,5,8,0:0:0:0:
197,60,174326,1,8,0:0:0:0:
66,285,174451,1,8,0:0:0:0:
66,285,174701,2,0,P|102:265|245:288,1,178.499994552612
297,339,175201,6,0,L|413:345,1,93.5000028533936,14|0,0:1|0:0,0:0:0:0:
459,253,175451,2,0,P|476:194|455:149,1,93.5000028533936,10|0,0:0|0:0,0:0:0:0:
347,63,175701,2,0,P|330:122|351:167,1,93.5000028533936,2|2,0:0|0:0,0:0:0:0:
239,232,175951,2,0,L|133:220,1,93.5000028533936,8|0,0:0|0:0,0:0:0:0:
33,63,176201,5,2,0:0:0:0:
131,246,176326,1,0,0:0:0:0:
144,49,176451,1,8,0:0:0:0:
13,197,176576,2,0,P|-4:240|14:300,1,93.5000028533936,0|2,0:0|0:0,0:0:0:0:
86,377,176826,1,2,0:0:0:0:
187,310,176951,2,0,P|254:299|317:309,1,93.5000028533936,8|0,0:0|0:0,0:0:0:0:
476,182,177201,6,0,P|415:155|374:261,1,187.000005706787,2|8,0:0|0:0,0:0:0:0:
351,351,177576,1,0,0:0:0:0:
277,206,177701,2,0,P|235:194|171:211,1,93.5000028533936,2|2,0:0|0:0,0:0:0:0:
65,277,177951,1,8,0:0:0:0:
166,180,178076,1,0,0:0:0:0:
53,76,178201,6,0,P|38:127|54:167,1,93.5000028533936,2|0,0:0|0:0,0:0:0:0:
144,20,178451,1,8,0:0:0:0:
250,83,178576,2,0,L|355:84,1,93.5000028533936,0|2,0:0|0:0,0:0:0:0:
476,182,178826,1,2,0:0:0:0:
347,109,178951,1,8,0:0:0:0:
460,37,179076,1,0,0:0:0:0:
427,222,179201,6,0,L|430:325,1,93.5000028533936,2|0,0:0|0:0,0:0:0:0:
281,247,179451,2,0,P|214:231|109:314,1,187.000005706787,8|2,0:0|0:0,0:0:0:0:
214,339,179826,1,2,0:0:0:0:
78,287,179951,2,0,P|57:211|68:169,1,93.5000028533936,8|0,0:0|0:0,0:0:0:0:
113,75,180201,6,0,B|166:71|166:71|224:80,1,93.5000028533936,2|0,0:0|0:0,0:0:0:0:
395,207,180451,2,0,B|342:211|342:211|284:202,1,93.5000028533936,8|0,0:0|0:0,0:0:0:0:
247,57,180701,2,0,P|302:51|357:64,1,93.5000028533936,2|2,0:0|0:0,0:0:0:0:
271,203,180951,2,0,P|216:209|161:196,1,93.5000028533936,8|0,0:0|0:0,0:0:0:0:
74,36,181201,5,10,0:0:0:0:
160,217,181326,1,2,0:0:0:0:
216,23,181451,1,10,0:0:0:0:
43,162,181576,1,10,0:0:0:0:
248,129,181701,2,0,L|375:127,1,93.5000028533936,2|0,0:0|0:0,0:0:0:0:
492,219,181951,2,0,L|365:221,1,93.5000028533936,10|0,0:0|0:0,0:0:0:0:
232,112,182201,6,0,P|170:73|65:149,1,187.000005706787,6|8,0:0|0:0,0:0:0:0:
36,242,182576,1,0,0:0:0:0:
145,318,182701,2,0,P|206:331|256:311,1,93.5000028533936,10|8,0:0|0:0,0:0:0:0:
350,87,182951,2,0,L|314:206,1,93.5000028533936,8|0,0:0|0:0,0:0:0:0:
438,328,183201,6,0,B|433:261|433:261|449:207|449:207|444:115,1,187.000005706787,6|8,0:0|0:0,0:0:0:0:
335,52,183576,1,0,0:0:0:0:
234,132,183701,2,0,P|177:138|117:128,1,93.5000028533936,2|2,0:0|0:0,0:0:0:0:
37,201,183951,2,0,P|21:255|61:305,1,93.5000028533936,8|0,0:0|0:0,0:0:0:0:
168,353,184201,6,0,L|270:351,1,93.5000028533936,2|0,0:0|0:0,0:0:0:0:
364,374,184451,1,8,0:0:0:0:
407,242,184576,2,0,P|422:190|399:144,1,93.5000028533936,0|2,0:0|0:0,0:0:0:0:
238,21,184826,2,0,P|223:73|246:119,1,93.5000028533936,2|8,0:0|0:0,0:0:0:0:
308,267,185076,1,0,0:0:0:0:
469,104,185201,6,0,P|497:162|457:308,1,187.000005706787,2|8,0:0|0:0,0:0:0:0:
359,342,185576,1,0,0:0:0:0:
246,305,185701,2,0,L|147:305,1,93.5000028533936,2|2,0:0|0:0,0:0:0:0:
25,183,185951,2,0,L|118:183,1,93.5000028533936,8|0,0:0|0:0,0:0:0:0:
252,67,186201,6,0,B|302:46|302:46|345:67|310:192,1,187.000005706787,2|8,0:0|0:0,0:0:0:0:
247,327,186576,1,0,0:0:0:0:
207,158,186701,2,0,P|197:105|214:56,1,93.5000028533936,2|2,0:0|0:0,0:0:0:0:
392,250,186951,2,0,P|402:295|392:340,1,93.5000028533936,8|0,0:0|0:0,0:0:0:0:
300,183,187201,5,2,0:0:0:0:
364,356,187326,1,0,0:0:0:0:
187,268,187451,2,0,P|135:260|89:271,1,93.5000028533936,8|0,0:0|0:0,0:0:0:0:
21,152,187701,2,0,P|29:84|3:43,1,93.5000028533936,2|2,0:0|0:0,0:0:0:0:
146,18,187951,2,0,P|194:33|244:11,1,93.5000028533936,8|0,0:0|0:0,0:0:0:0:
355,154,188201,6,0,P|327:112|440:87,1,187.000005706787,2|8,0:0|0:0,0:0:0:0:
496,147,188576,1,0,0:0:0:0:
405,251,188701,2,0,P|404:304|398:369,1,93.5000028533936,2|2,0:0|0:0,0:0:0:0:
269,184,188951,2,0,P|316:157|363:155,1,93.5000028533936,8|0,0:0|0:0,0:0:0:0:
201,294,189201,6,0,L|102:289,1,93.5000028533936,14|0,0:0|0:0,0:0:0:0:
16,131,189451,1,12,0:0:0:0:
208,272,189576,1,8,0:0:0:0:
184,89,189701,1,6,0:0:0:0:
50,286,189826,1,0,0:0:0:0:
99,53,189951,2,0,L|92:163,1,93.5000028533936,14|0,0:0|0:0,0:0:0:0:
288,45,190201,6,0,P|358:22|448:106,1,187.000005706787,6|8,0:0|0:0,0:0:0:0:
303,207,190576,1,10,0:0:0:0:
474,98,190701,1,8,0:0:0:0:
389,299,190826,1,8,0:0:0:0:
288,88,190951,1,8,0:0:0:0:
470,208,191076,1,8,0:0:0:0:
262,195,191201,6,0,P|219:193|137:204,1,93.5000028533936,12|0,0:1|0:0,0:0:0:0:
28,308,191451,2,0,P|71:310|153:299,1,93.5000028533936,8|0,0:0|0:0,0:0:0:0:
154,156,191701,1,2,0:0:0:0:
19,276,191826,1,2,0:0:0:0:
151,352,191951,1,8,0:0:0:0:
29,146,192076,1,0,0:0:0:0:
261,274,192201,6,0,L|364:272,1,93.5000028533936,6|0,0:0|0:0,0:0:0:0:
468,181,192451,1,8,0:0:0:0:
337,77,192576,2,0,L|341:179,1,93.5000028533936,4|2,0:0|0:0,0:0:0:0:
218,46,192826,1,2,0:0:0:0:
135,163,192951,2,0,P|82:171|25:165,1,93.5000028533936,8|0,0:0|0:0,0:0:0:0:
203,13,193201,6,0,B|231:70|231:70|221:222,1,187.000005706787,6|8,0:0|0:0,0:0:0:0:
118,295,193576,1,0,0:0:0:0:
249,336,193701,2,0,P|320:326|370:334,1,93.5000028533936,2|2,0:0|0:0,0:0:0:0:
466,209,193951,2,0,P|420:199|374:201,1,93.5000028533936,8|0,0:0|0:0,0:0:0:0:
191,229,194201,6,0,P|128:188|207:117,1,187.000005706787,6|8,0:0|0:0,0:0:0:0:
300,57,194576,1,4,0:0:0:0:
365,201,194701,2,0,P|375:266|363:311,1,93.5000028533936,2|0,0:0|0:0,0:0:0:0:
249,336,194951,1,8,0:0:0:0:
286,196,195076,1,0,0:0:0:0:
189,86,195201,6,0,P|122:77|67:111,1,93.5000028533936,6|0,0:0|0:0,0:0:0:0:
17,185,195451,1,8,0:0:0:0:
67,311,195576,1,0,0:0:0:0:
199,238,195701,2,0,L|297:231,1,93.5000028533936,2|2,0:0|0:0,0:0:0:0:
487,98,195951,2,0,L|393:104,1,93.5000028533936,8|0,0:0|0:0,0:0:0:0:
172,147,196201,6,0,B|121:186|121:186|121:345,1,187.000005706787,6|8,0:0|0:0,0:0:0:0:
251,352,196576,1,4,0:0:0:0:
386,263,196701,2,0,P|473:256|512:269,1,93.5000028533936,2|2,0:0|0:0,0:0:0:0:
313,138,196951,2,0,P|228:138|181:161,1,93.5000028533936,8|0,0:0|0:0,0:0:0:0:
153,42,197201,5,6,0:0:0:0:
186,232,197326,1,0,0:0:0:0:
108,62,197451,1,12,0:0:0:0:
140,227,197576,1,0,0:0:0:0:
77,74,197701,1,6,0:0:0:0:
100,222,197826,1,2,0:0:0:0:
28,91,197951,1,12,0:0:0:0:
55,215,198076,1,0,0:0:0:0:
267,77,198201,6,0,P|323:63|436:144,1,187.000005706787,6|8,0:0|0:0,0:0:0:0:
357,294,198576,1,0,0:0:0:0:
223,245,198701,2,0,P|166:240|118:247,1,93.5000028533936,12|8,0:0|0:0,0:0:0:0:
329,189,198951,2,8,P|376:196|430:184,1,93.5000028533936
75,320,199201,6,0,P|40:239|94:168,1,187.000005706787,6|8,0:0|0:0,0:0:0:0:
213,118,199576,1,0,0:0:0:0:
330,215,199701,2,0,B|383:226|383:226|445:209,1,93.5000028533936,2|2,0:0|0:0,0:0:0:0:
211,91,199951,2,0,B|158:80|158:80|96:97,1,93.5000028533936,8|0,0:0|0:0,0:0:0:0:
309,235,200201,5,6,0:0:0:0:
221,55,200326,1,0,0:0:0:0:
145,218,200451,2,0,L|135:348,1,93.5000028533936,8|4,0:0|0:0,0:0:0:0:
269,349,200701,2,0,P|337:340|386:361,1,93.5000028533936,2|2,0:0|0:0,0:0:0:0:
467,241,200951,2,0,P|478:194|452:146,1,93.5000028533936,8|0,0:0|0:0,0:0:0:0:
316,27,201201,6,0,P|255:64|131:53,1,187.000005706787,6|8,0:0|0:0,0:0:0:0:
22,30,201576,1,0,0:0:0:0:
21,154,201701,2,0,L|15:285,1,93.5000028533936,2|2,0:0|0:0,0:0:0:0:
144,335,201951,1,8,0:0:0:0:
117,179,202076,1,0,0:0:0:0:
33,324,202201,6,0,L|147:315,1,93.5000028533936,6|0,0:0|0:0,0:0:0:0:
239,324,202451,1,8,0:0:0:0:
325,164,202576,2,0,L|304:281,1,93.5000028533936,4|2,0:0|0:0,0:0:0:0:
385,353,202826,1,2,0:0:0:0:
428,228,202951,2,0,L|448:118,1,93.5000028533936,8|0,0:0|0:0,0:0:0:0:
336,38,203201,6,0,B|281:73|281:73|124:52,1,187.000005706787,6|8,0:0|0:0,0:0:0:0:
55,34,203576,1,0,0:0:0:0:
65,165,203701,2,0,P|81:231|65:281,1,93.5000028533936,2|2,0:0|0:0,0:0:0:0:
197,329,203951,2,0,P|251:320|301:333,1,93.5000028533936,8|0,0:0|0:0,0:0:0:0:
396,257,204201,6,0,B|400:200|400:200|383:142|383:142|383:69,1,187.000005706787,6|8,0:0|0:0,0:0:0:0:
237,31,204576,1,4,0:0:0:0:
143,122,204701,2,0,L|47:117,1,93.5000028533936,2|2,0:0|0:0,0:0:0:0:
286,277,204951,2,0,L|379:281,1,93.5000028533936,8|0,0:0|0:0,0:0:0:0:
180,81,205201,5,14,0:0:0:0:
294,299,205326,1,2,0:0:0:0:
347,76,205451,1,14,0:0:0:0:
146,221,205576,1,2,0:0:0:0:
399,242,205701,1,14,0:0:0:0:
258,58,205826,1,2,0:0:0:0:
215,295,205951,1,14,0:0:0:0:
410,141,206076,1,2,0:0:0:0:
157,88,206201,6,0,P|84:77|17:166,1,187.000005706787,12|8,0:0|0:0,0:0:0:0:
149,253,206576,1,8,0:0:0:0:
180,234,206638,1,8,0:0:0:0:
214,223,206701,2,0,L|350:229,1,93.5000028533936,8|8,0:0|0:0,0:0:0:0:
437,112,206951,1,8,0:0:0:0:
462,319,207076,1,0,0:0:0:0:
243,330,207201,6,0,L|52:311,1,187.000005706787,12|14,0:1|0:0,0:0:0:0:
125,186,207576,1,0,0:0:0:0:
125,186,207701,2,0,P|175:175|236:215,1,93.5000028533936,2|2,0:0|0:0,0:0:0:0:
324,305,207951,2,0,P|280:316|232:293,1,93.5000028533936,14|0,0:0|0:0,0:0:0:0:
221,88,208201,5,2,0:0:0:0:
316,284,208326,1,0,0:0:0:0:
316,99,208451,1,12,0:0:0:0:
185,229,208576,1,0,0:0:0:0:
364,273,208701,2,0,L|463:281,1,93.5000028533936,2|2,0:0|0:0,0:0:0:0:
437,123,208951,2,0,P|390:159|379:190,1,93.5000028533936,12|0,0:0|0:0,0:0:0:0:
302,360,209201,6,0,L|178:354,1,93.5000028533936,6|0,0:0|0:0,0:0:0:0:
117,278,209451,2,0,P|108:223|127:177,1,93.5000028533936,12|0,0:0|0:0,0:0:0:0:
252,137,209701,1,2,0:0:0:0:
162,305,209826,1,2,0:0:0:0:
146,114,209951,1,12,0:0:0:0:
262,259,210076,1,0,0:0:0:0:
119,188,210201,6,0,P|60:187|1:210,1,93.5000028533936,2|0,0:0|0:0,0:0:0:0:
252,137,210451,2,0,P|297:125|341:145,1,93.5000028533936,12|0,0:0|0:0,0:0:0:0:
405,271,210701,2,0,P|416:330|395:373,1,93.5000028533936,2|2,0:0|0:0,0:0:0:0:
252,137,210951,2,8,P|243:66|260:40,1,93.5000028533936,12|0,0:0|0:0,0:0:0:0:
212,292,211201,6,0,L|110:297,1,93.5000028533936,14|0,0:1|0:0,0:0:0:0:
35,193,211451,2,0,P|22:132|41:93,1,93.5000028533936,12|0,0:0|0:0,0:0:0:0:
168,32,211701,2,0,P|181:93|162:132,1,93.5000028533936,2|2,0:0|0:0,0:0:0:0:
247,229,211951,2,0,L|372:220,1,93.5000028533936,12|0,0:0|0:0,0:0:0:0:
401,97,212201,5,2,0:0:0:0:
472,225,212326,1,0,0:0:0:0:
472,225,212451,2,0,P|485:283|464:330,1,93.5000028533936,12|0,0:0|0:0,0:0:0:0:
344,364,212701,1,2,0:0:0:0:
254,269,212826,1,2,0:0:0:0:
254,269,212951,2,0,L|161:276,1,93.5000028533936,12|0,0:0|0:0,0:0:0:0:
72,114,213201,6,0,L|178:111,1,93.5000028533936,6|0,0:0|0:0,0:0:0:0:
283,77,213451,2,0,P|291:134|278:183,1,93.5000028533936,12|0,0:0|0:0,0:0:0:0:
307,297,213701,2,0,L|409:294,1,93.5000028533936,2|2,0:0|0:0,0:0:0:0:
466,129,213951,1,12,0:0:0:0:
372,330,214076,1,0,0:0:0:0:
354,95,214201,5,14,0:0:0:0:
496,278,214326,1,0,0:0:0:0:
264,178,214451,2,0,P|193:176|145:188,1,93.5000028533936,0|12,0:0|0:0,0:0:0:0:
46,291,214701,2,0,P|92:296|138:293,1,93.5000028533936,2|0,0:0|0:0,0:0:0:0:
297,162,214951,1,12,0:0:0:0:
186,317,215076,1,0,0:0:0:0:
65,148,215201,6,0,L|63:38,1,93.5000028533936,14|0,0:1|0:0,0:0:0:0:
212,28,215451,1,14,0:0:0:0:
243,55,215513,1,2,0:0:0:0:
282,70,215576,1,2,0:0:0:0:
323,69,215638,1,2,0:0:0:0:
364,61,215701,2,2,L|439:40,3,46.7500014266968,14|2|2|2,0:0|0:0|0:0|0:0,0:0:0:0:
447,66,215951,2,2,L|501:58,3,46.7500014266968,14|2|2|2,0:0|0:0|0:0|0:0,0:0:0:0:
493,101,216201,6,2,L|488:215,1,93.5000028533936,14|2,0:0|0:0,0:0:0:0:
251,353,216576,1,2,0:0:0:0:
77,188,216826,1,2,0:0:0:0:
165,106,216951,2,2,P|221:89|298:114,1,140.25000428009,14|2,0:0|0:0,0:0:0:0:
314,153,217201,6,2,L|361:171,3,46.7500014266968,6|2|2|2,0:0|0:0|0:0|0:0,0:0:0:0:
200,255,217451,2,2,L|159:310,3,46.7500014266968,14|2|2|2,0:0|0:0|0:0|0:0,0:0:0:0:
326,265,217701,1,2,0:0:0:0:
326,265,217763,1,2,0:0:0:0:
326,265,217826,2,2,L|386:279,1,46.7500014266968,14|2,0:0|0:0,0:0:0:0:
103,153,217951,1,2,0:0:0:0:
103,153,218013,1,2,0:0:0:0:
103,153,218076,2,2,L|48:163,1,46.7500014266968
59,292,218201,5,6,0:0:0:0:
298,356,218451,1,6,0:0:0:0:
242,92,218701,1,6,0:0:0:0:
104,360,218951,1,6,0:0:0:0:
387,237,219201,6,0,P|403:169|381:118,1,93.5000028533936,6|0,0:0|0:0,0:0:0:0:
311,47,219451,1,10,0:0:0:0:
282,77,219513,1,10,0:0:0:0:
243,94,219576,1,10,0:0:0:0:
201,87,219638,1,10,0:0:0:0:
159,78,219701,2,2,L|81:64,3,46.7500014266968,6|2|2|2,0:0|0:0|0:0|0:0,0:0:0:0:
23,133,219951,2,2,L|70:149,3,46.7500014266968
129,210,220202,6,0,B|186:232|280:177|280:177|208:125|208:125|181:63|283:42|310:68,1,382.499988327027,6|0,0:0|0:0,0:0:0:0:
328,84,221201,5,6,0:0:0:0:
