osu file format v14

[General]
AudioFilename: audio.mp3
AudioLeadIn: 0
PreviewTime: 174626
Countdown: 1
SampleSet: Soft
StackLeniency: 0.7
Mode: 0
LetterboxInBreaks: 0
WidescreenStoryboard: 1

[Editor]
DistanceSpacing: 0.9
BeatDivisor: 2
GridSize: 4
TimelineZoom: 2.849998

[Metadata]
Title:Chiisana Koi no Uta (Synth Rock Cover)
TitleUnicode:小さな恋のうた(Synth Rock Cover)
Artist:Araki
ArtistUnicode:あらき
Creator:Shishou
Version:Easy
Source:
Tags:song of a small love mongol800 RVMathew omoi
BeatmapID:1306147
BeatmapSetID:613207

[Difficulty]
HPDrainRate:2.5
CircleSize:2.6
OverallDifficulty:2
ApproachRate:2.4
SliderMultiplier:0.5
SliderTickRate:1

[Events]
//Background and Video events
0,0,"bg.jpg",0,0
//Break Periods
2,108270,110733
2,159401,165690
//Storyboard Layer 0 (Background)
//Storyboard Layer 1 (Fail)
//Storyboard Layer 2 (Pass)
//Storyboard Layer 3 (Foreground)
//Storyboard Sound Samples

[TimingPoints]
2300,272.727272727273,4,2,1,70,1,0
2846,-100,4,2,1,70,0,0
50300,-100,4,2,1,70,0,1
81936,-100,4,2,1,70,0,0
83027,260.869565217391,4,2,1,70,1,0
123722,-100,4,2,1,70,0,1
155026,-100,4,2,1,70,0,0
159201,250,4,2,1,70,1,0
167201,-100,4,2,1,70,0,0
174701,-100,4,2,1,70,0,0
175201,-100,4,2,1,70,0,1
220201,-100,4,2,1,70,0,0

[HitObjects]
54,80,2300,6,0,P|106:57|169:158,1,200,0|0,0:0|0:0,0:0:0:0:
198,242,3936,1,0,0:0:0:0:
266,184,4481,6,0,P|310:171|463:196,1,200,0|0,0:0|0:0,0:0:0:0:
488,279,6118,1,0,0:0:0:0:
416,333,6663,6,0,B|378:352|378:352|215:334,1,200,0|0,0:0|0:0,0:0:0:0:
131,339,8300,1,0,0:0:0:0:
60,282,8845,6,0,P|16:201|88:126,1,200,0|0,0:0|0:0,0:0:0:0:
142,64,10481,1,2,0:0:0:0:
208,124,11027,6,0,P|253:128|321:128,1,100,6|2,0:0|0:0,0:0:0:0:
387,86,12118,1,2,0:0:0:0:
451,148,12663,1,2,0:0:0:0:
396,219,13209,2,0,P|383:271|414:324,1,100,2|2,0:0|0:0,0:0:0:0:
317,345,14300,5,2,0:0:0:0:
228,357,14845,1,2,0:0:0:0:
152,308,15390,2,0,P|144:274|154:191,1,100,2|2,0:0|0:0,0:0:0:0:
206,140,16481,2,0,P|227:132|320:154,2,100,2|2|4,0:0|0:0|0:0,0:0:0:0:
25,135,18663,6,0,P|8:232|72:325,1,200,4|4,0:0|0:0,0:0:0:0:
236,341,20845,6,0,P|282:346|340:339,1,100,6|10,0:0|0:0,0:0:0:0:
406,285,21936,2,0,P|420:243|387:182,1,100,2|10,0:0|0:0,0:0:0:0:
325,143,23027,2,0,L|210:144,1,100,2|10,0:0|0:0,0:0:0:0:
135,153,24118,2,0,P|124:202|141:266,1,100,2|10,0:0|0:0,0:0:0:0:
204,305,25209,6,0,P|249:318|302:305,2,100,2|10|2,0:0|0:0|0:0,0:0:0:0:
115,319,26845,1,10,0:0:0:0:
53,253,27390,2,0,P|42:205|56:153,2,100,2|10|2,0:0|0:0|0:0,0:0:0:0:
128,203,29027,1,10,0:0:0:0:
214,227,29572,6,0,L|329:224,1,100,6|10,0:0|0:0,0:0:0:0:
381,284,30663,1,2,0:0:0:0:
447,223,31209,1,10,0:0:0:0:
388,154,31754,6,0,L|392:38,1,100,2|10,0:0|0:0,0:0:0:0:
303,36,32845,2,0,P|265:60|197:61,1,100,2|10,0:0|0:0,0:0:0:0:
124,40,33936,1,2,0:0:0:0:
40,74,34481,1,10,0:0:0:0:
91,147,35027,6,0,P|102:180|76:258,1,100,2|10,0:0|0:0,0:0:0:0:
139,316,36118,2,0,L|256:317,1,100,2|10,0:0|0:0,0:0:0:0:
326,295,37209,2,0,P|344:252|313:186,1,100,2|10,0:0|0:0,0:0:0:0:
280,126,38300,6,0,P|227:90|110:144,1,200,6|2,0:0|0:0,0:0:0:0:
34,184,39936,1,10,0:0:0:0:
88,255,40481,6,0,B|178:285|178:285|284:266,1,200,2|2,0:0|0:0,0:0:0:0:
367,294,42118,1,10,0:0:0:0:
451,262,42663,2,0,P|470:227|416:75,1,200,6|2,0:0|0:0,0:0:0:0:
338,70,44300,1,10,0:0:0:0:
267,125,44845,6,0,P|224:151|126:108,1,150,2|8,0:0|3:2,0:0:0:0:
256,192,45936,12,4,49209,0:0:0:0:
75,125,50300,6,0,P|59:162|80:231,1,100,4|10,0:1|0:0,0:0:0:0:
141,274,51390,2,0,L|255:271,1,100,2|10,0:0|0:0,0:0:0:0:
329,252,52481,2,0,P|343:202|330:148,1,100,2|10,0:0|0:0,0:0:0:0:
268,93,53572,2,0,P|207:75|61:110,1,200,2|2,0:0|0:0,0:0:0:0:
30,178,55209,1,8,0:0:0:0:
106,224,55754,2,0,L|103:331,1,100,2|10,0:0|0:0,0:0:0:0:
192,334,56845,6,0,L|302:338,1,100,2|10,0:0|0:0,0:0:0:0:
379,318,57936,2,0,P|406:277|342:154,1,200,2|4,0:0|0:0,0:0:0:0:
266,113,59572,1,10,0:0:0:0:
184,151,60118,2,0,P|129:166|77:151,1,100,2|10,0:0|0:0,0:0:0:0:
10,203,61209,2,0,B|5:260|5:260|21:322,1,100,2|10,0:0|0:0,0:0:0:0:
96,341,62300,6,0,P|156:320|301:357,1,200,2|2,0:0|0:0,0:0:0:0:
376,348,63936,1,8,0:0:0:0:
449,295,64481,2,0,P|468:248|448:195,1,100,2|10,0:0|0:0,0:0:0:0:
383,147,65572,6,0,P|341:175|182:145,1,200,2|10,0:0|0:0,0:0:0:0:
140,90,67209,1,8,0:0:0:0:
72,149,67754,6,0,P|57:204|90:253,2,100,6|2|2,0:0|0:0|0:0,0:0:0:0:
140,90,69390,1,10,0:0:0:0:
210,145,69936,6,0,L|314:145,1,100,2|8,0:0|0:0,0:0:0:0:
395,174,71027,2,0,P|406:205|394:276,1,100,2|10,0:0|0:0,0:0:0:0:
339,339,72118,6,0,B|297:346|297:346|221:342,2,100,6|8|2,0:0|0:0|0:0,0:0:0:0:
308,254,73754,1,10,0:0:0:0:
219,236,74300,2,0,P|172:233|99:239,1,100,2|8,0:0|0:0,0:0:0:0:
31,216,75390,2,0,P|18:171|41:114,1,100,2|10,0:0|0:0,0:0:0:0:
113,78,76481,6,0,P|147:111|206:119,2,100,6|10|2,0:0|0:0|0:0,0:0:0:0:
191,33,78118,1,10,0:0:0:0:
275,62,78663,6,0,L|383:61,1,100,2|10,0:0|0:0,0:0:0:0:
450,110,79754,2,0,P|468:144|423:305,1,200,2|6,0:0|0:0,0:0:0:0:
352,328,81390,1,10,0:0:0:0:
289,262,81936,2,0,P|251:250|175:273,1,100,4|8,0:0|0:0,0:0:0:0:
100,276,83027,6,0,P|95:213|112:171,1,100,6|8,0:0|0:0,0:0:0:0:
151,100,84070,1,2,0:0:0:0:
239,117,84592,1,8,0:0:0:0:
297,185,85113,6,0,P|339:198|403:182,2,100,2|8|2,0:0|0:0|0:0,0:0:0:0:
239,117,86679,1,8,0:0:0:0:
161,161,87200,2,0,L|52:160,1,100,2|8,0:0|0:0,0:0:0:0:
20,240,88244,2,0,P|12:286|32:353,1,100,2|8,0:0|0:0,0:0:0:0:
113,338,89287,6,0,L|330:330,1,200,2|8,0:0|0:0,0:0:0:0:
402,335,90853,1,8,0:0:0:0:
439,253,91374,6,0,L|437:142,1,100,6|10,0:0|0:0,0:0:0:0:
361,103,92418,2,0,P|305:96|249:115,1,100,2|10,0:0|0:0,0:0:0:0:
214,182,93461,2,0,P|170:193|112:180,1,100,2|10,0:0|0:0,0:0:0:0:
27,186,94505,2,0,P|19:226|49:298,1,100,2|10,0:0|0:0,0:0:0:0:
116,322,95548,6,0,L|230:317,1,100,6|10,0:0|0:0,0:0:0:0:
298,353,96592,1,2,0:0:0:0:
379,315,97113,1,10,0:0:0:0:
328,240,97635,2,0,P|315:168|338:126,1,100,2|8,0:0|0:0,0:0:0:0:
248,95,98679,6,0,P|215:132|159:142,1,100,8|8,0:0|0:0,0:0:0:0:
83,111,99722,2,0,P|57:157|55:221,1,100,6|10,0:0|0:0,0:0:0:0:
80,289,100766,1,2,0:0:0:0:
169,279,101287,1,10,0:0:0:0:
245,231,101809,2,0,P|285:222|350:237,1,100,2|10,0:0|0:0,0:0:0:0:
430,249,102853,2,0,P|442:193|430:153,1,100,2|10,0:0|0:0,0:0:0:0:
356,101,103896,6,0,L|239:87,2,100,2|10|2,0:0|0:0|0:0,0:0:0:0:
430,153,105461,1,10,0:0:0:0:
420,242,105983,2,0,P|427:292|413:345,1,100,8|8,0:0|0:0,0:0:0:0:
329,313,107026,2,0,P|275:306|223:328,1,100,10|8,0:0|0:0,0:0:0:0:
146,345,108070,5,4,0:0:0:0:
71,331,112244,6,0,P|59:262|79:221,1,100,8|8,0:0|0:0,0:0:0:0:
124,165,113287,1,8,0:0:0:0:
198,214,113809,1,8,0:0:0:0:
270,161,114331,2,0,P|312:154|383:173,1,100,8|8,0:0|0:0,0:0:0:0:
428,231,115374,1,8,0:0:0:0:
475,154,115896,1,8,0:0:0:0:
415,86,116418,6,0,P|328:63|212:78,1,200,4|8,0:0|0:0,0:0:0:0:
131,58,117983,1,8,0:0:0:0:
82,133,118505,6,0,P|55:202|93:269,1,150,4|0,0:0|0:0,0:0:0:0:
256,192,119548,12,12,122679,0:0:0:0:
417,321,123722,6,0,L|423:213,1,100,4|10,3:1|0:0,0:0:0:0:
352,163,124766,2,0,P|305:149|240:164,1,100,2|10,0:0|0:0,0:0:0:0:
181,208,125809,2,0,P|138:219|72:188,1,100,2|10,0:0|0:0,0:0:0:0:
140,129,126853,6,0,P|210:95|321:135,1,200,2|2,0:0|0:0,0:0:0:0:
409,134,128418,1,8,0:0:0:0:
379,219,128940,6,0,L|378:338,2,100,2|10|2,0:0|0:0|0:0,0:0:0:0:
409,134,130505,1,10,0:0:0:0:
335,82,131026,2,0,P|275:58|138:89,1,200,6|6,0:0|0:0,0:0:0:0:
57,102,132592,1,10,0:0:0:0:
117,168,133113,6,0,P|117:214|116:269,1,100,2|10,0:0|0:0,0:0:0:0:
107,357,134157,1,2,0:0:0:0:
194,334,134679,1,10,0:0:0:0:
245,259,135200,6,0,P|299:249|359:273,1,100,2|10,0:0|0:0,0:0:0:0:
402,327,136244,1,2,0:0:0:0:
471,269,136766,1,8,0:0:0:0:
417,196,137287,6,0,L|427:82,2,100,2|10|10,0:0|0:0|0:0,0:0:0:0:
332,227,138853,1,10,0:0:0:0:
273,158,139374,2,0,P|244:145|170:169,1,100,8|10,0:0|0:0,0:0:0:0:
117,224,140418,6,0,L|115:330,2,100,6|8|2,0:0|0:0|0:0,0:0:0:0:
41,175,141983,1,10,0:0:0:0:
95,103,142505,2,0,P|141:95|199:108,1,100,2|8,0:0|0:0,0:0:0:0:
256,169,143548,2,0,P|320:179|354:171,1,100,2|10,0:0|0:0,0:0:0:0:
428,221,144592,6,0,P|438:266|416:329,2,100,6|8|2,0:0|0:0|0:0,0:0:0:0:
348,263,146157,1,10,0:0:0:0:
263,230,146679,2,8,P|229:222|158:229,1,100,2|8,0:0|0:0,0:0:0:0:
75,211,147722,2,0,P|59:159|82:103,1,100,2|10,0:0|0:0,0:0:0:0:
145,65,148766,6,0,P|181:105|232:122,2,100,6|10|2,0:0|0:0|0:0,0:0:0:0:
228,30,150331,1,10,0:0:0:0:
300,83,150853,2,0,L|414:81,1,100,2|10,0:0|0:0,0:0:0:0:
470,137,151896,2,0,P|511:256|479:323,1,200,2|6,0:0|0:0,0:0:0:0:
402,357,153461,1,10,0:0:0:0:
321,314,153983,6,0,P|267:294|178:327,1,150,6|0,0:0|0:0,0:0:0:0:
256,192,155026,12,4,159201,0:0:0:0:
96,301,167201,6,0,L|92:193,1,100,6|10,0:0|0:0,0:0:0:0:
142,126,168201,2,0,P|179:113|251:128,1,100,2|10,0:0|0:0,0:0:0:0:
313,170,169201,2,0,P|360:179|427:163,2,100,2|10|2,0:0|0:0|0:0,0:0:0:0:
238,121,170701,1,10,0:0:0:0:
175,186,171201,6,0,L|166:305,1,100,6|10,0:0|0:0,0:0:0:0:
240,337,172201,2,0,P|302:345|356:344,1,100,2|10,0:0|0:0,0:0:0:0:
429,337,173201,1,2,0:0:0:0:
491,272,173701,1,10,0:0:0:0:
417,220,174201,2,0,P|405:173|422:109,1,100,8|0,0:0|0:0,0:0:0:0:
337,76,175201,6,0,P|278:95|224:88,1,100,4|10,0:1|0:0,0:0:0:0:
165,43,176201,1,2,0:0:0:0:
83,80,176701,1,10,0:0:0:0:
143,146,177201,2,0,P|155:193|137:255,1,100,2|10,0:0|0:0,0:0:0:0:
106,324,178201,6,0,P|161:313|305:329,1,200,2|2,0:0|0:0,0:0:0:0:
386,362,179701,1,8,0:0:0:0:
458,309,180201,2,0,L|463:194,1,100,2|10,0:0|0:0,0:0:0:0:
390,155,181201,2,0,P|346:172|277:168,2,100,10|2|6,0:0|0:0|0:0,0:0:0:0:
331,86,182701,1,10,0:0:0:0:
242,69,183201,6,0,L|128:61,1,100,6|10,0:0|0:0,0:0:0:0:
62,103,184201,2,0,P|86:154|73:217,1,100,2|10,0:0|0:0,0:0:0:0:
106,283,185201,2,0,P|163:301|210:287,1,100,2|10,0:0|0:0,0:0:0:0:
283,255,186201,6,0,P|339:230|475:278,1,200,2|2,0:0|0:0,0:0:0:0:
489,181,187701,1,8,0:0:0:0:
416,127,188201,2,0,L|299:124,1,100,2|10,0:0|0:0,0:0:0:0:
232,156,189201,6,0,P|177:164|125:150,2,100,14|10|6,0:0|0:0|0:0,0:0:0:0:
316,124,190701,1,8,0:0:0:0:
380,187,191201,6,0,P|397:233|378:301,1,100,6|10,0:0|0:0,0:0:0:0:
317,337,192201,2,0,L|196:332,1,100,2|10,0:0|0:0,0:0:0:0:
134,297,193201,2,0,P|117:261|137:194,1,100,2|10,0:0|0:0,0:0:0:0:
194,142,194201,6,0,P|239:181|392:166,1,200,2|2,0:0|0:0,0:0:0:0:
419,102,195701,1,8,0:0:0:0:
473,174,196201,2,0,L|461:282,2,100,2|10|2,0:0|0:0|0:0,0:0:0:0:
419,102,197701,1,10,0:0:0:0:
334,71,198201,2,0,L|223:70,1,100,6|0,0:0|0:0,0:0:0:0:
153,109,199201,6,0,P|133:155|155:216,1,100,6|10,0:0|0:0,0:0:0:0:
201,271,200201,1,2,0:0:0:0:
287,245,200701,1,10,0:0:0:0:
358,299,201201,6,0,L|467:297,2,100,2|10|2,0:0|0:0|0:0,0:0:0:0:
287,245,202701,1,10,0:0:0:0:
362,195,203201,6,0,P|381:159|289:44,1,200,2|2,0:0|0:0,0:0:0:0:
218,80,204701,1,10,0:0:0:0:
135,44,205201,2,0,P|94:43|27:51,2,100,10|2|8,0:0|0:0|0:0,0:0:0:0:
218,80,206701,1,8,0:0:0:0:
227,169,207201,6,0,P|237:213|222:272,1,100,6|8,0:0|0:0,0:0:0:0:
155,322,208201,2,0,P|121:340|50:332,2,100,2|10|2,0:0|0:0|0:0,0:0:0:0:
225,265,209701,1,8,0:0:0:0:
292,324,210201,2,0,L|403:327,1,100,2|10,0:0|0:0,0:0:0:0:
457,265,211201,6,0,P|476:229|448:163,1,100,6|8,0:0|0:0,0:0:0:0:
383,128,212201,1,2,0:0:0:0:
302,167,212701,1,10,0:0:0:0:
227,115,213201,2,0,P|179:97|126:113,1,100,2|8,0:0|0:0,0:0:0:0:
81,182,214201,2,8,L|80:298,1,100,2|14,0:0|0:0,0:0:0:0:
161,320,215201,6,0,P|201:309|274:319,1,100,12|10,0:0|0:0,0:0:0:0:
340,352,216201,2,0,P|399:363|455:353,1,100,10|8,0:0|0:0,0:0:0:0:
476,276,217201,2,0,B|498:207|498:207|462:71,1,200,6|6,0:0|0:0,0:0:0:0:
377,100,218701,1,2,0:0:0:0:
294,63,219201,6,0,P|235:43|150:79,1,150,6|10,0:0|0:0,0:0:0:0:
132,111,220201,1,6,0:0:0:0:
165,287,221201,1,6,0:0:0:0:
