osu file format v14

[General]
AudioFilename: audio.mp3
AudioLeadIn: 0
PreviewTime: 174626
Countdown: 1
SampleSet: Soft
StackLeniency: 0.7
Mode: 0
LetterboxInBreaks: 0
WidescreenStoryboard: 1

[Editor]
Bookmarks: 222138
DistanceSpacing: 0.8
BeatDivisor: 4
GridSize: 4
TimelineZoom: 3.349998

[Metadata]
Title:Chiisana Koi no Uta (Synth Rock Cover)
TitleUnicode:小さな恋のうた(Synth Rock Cover)
Artist:Araki
ArtistUnicode:あらき
Creator:Shishou
Version:Another
Source:
Tags:song of a small love mongol800 RVMathew omoi
BeatmapID:1307401
BeatmapSetID:613207

[Difficulty]
HPDrainRate:5.4
CircleSize:3.8
OverallDifficulty:7
ApproachRate:9.2
SliderMultiplier:1.55
SliderTickRate:1

[Events]
//Background and Video events
0,0,"bg.jpg",0,0
//Break Periods
2,108270,111644
2,159401,166601
//Storyboard Layer 0 (Background)
//Storyboard Layer 1 (Fail)
//Storyboard Layer 2 (Pass)
//Storyboard Layer 3 (Foreground)
//Storyboard Sound Samples

[TimingPoints]
2300,272.727272727273,4,2,1,70,1,0
2845,-100,4,2,1,70,0,0
3254,-100,4,2,1,70,0,0
3936,-100,4,2,1,70,0,0
4345,-100,4,2,1,70,0,0
5027,-100,4,2,1,70,0,0
5572,-100,4,2,1,70,0,0
6118,-125,4,2,1,70,0,0
6527,-100,4,2,1,70,0,0
10754,-166.666666666667,4,2,1,70,0,0
11027,-100,4,2,1,70,0,0
17572,-142.857142857143,4,2,1,70,0,0
18663,-100,4,2,1,70,0,0
49754,-166.666666666667,4,2,1,70,0,0
50300,-90.9090909090909,4,2,1,70,0,1
81936,-166.666666666667,4,2,1,70,0,1
83027,260.869565217391,4,2,1,70,1,0
83027,-111.111111111111,4,2,1,70,0,0
83548,-166.666666666667,4,2,1,70,0,0
84070,-111.111111111111,4,2,1,70,0,0
84592,-166.666666666667,4,2,1,70,0,0
85113,-111.111111111111,4,2,1,70,0,0
85635,-166.666666666667,4,2,1,70,0,0
86157,-111.111111111111,4,2,1,70,0,0
86679,-166.666666666667,4,2,1,70,0,0
87200,-111.111111111111,4,2,1,70,0,0
87722,-166.666666666667,4,2,1,70,0,0
88244,-111.111111111111,4,2,1,70,0,0
88766,-166.666666666667,4,2,1,70,0,0
89287,-111.111111111111,4,2,1,70,0,0
89940,-166.666666666667,4,2,1,70,0,0
90331,-100,4,2,1,70,0,0
112245,-125,4,2,1,70,0,0
112440,-125,4,2,1,5,0,0
112505,-125,4,2,1,70,0,0
112700,-125,4,2,1,5,0,0
112766,-125,4,2,1,70,0,0
112961,-125,4,2,1,5,0,0
113026,-125,4,2,1,70,0,0
113287,-111.111111111111,4,2,1,70,0,0
114331,-99.9999999999999,4,2,1,70,0,0
115374,-90.9090909090909,4,2,1,70,0,0
122679,-200,4,2,1,70,0,0
123200,-142.857142857143,4,2,1,70,0,0
123722,-90.9090909090909,4,2,1,70,0,1
155026,-90.9090909090909,4,2,1,70,0,0
159201,250,4,2,1,70,1,0
167200,-142.857142857143,4,2,1,70,0,0
174700,-166.666666666667,4,2,1,70,0,0
175201,-90.9090909090909,4,2,1,70,0,1
220201,-166.666666666667,4,2,1,70,0,0

[HitObjects]
94,21,2300,6,0,L|86:204,1,155,0|0,0:0|0:0,0:0:0:0:
187,241,2709,1,0,0:0:0:0:
187,241,2845,2,0,P|240:224|293:244,1,77.5,0|0,0:0|0:0,0:0:0:0:
388,309,3118,2,0,P|332:316|282:306,1,77.5
261,208,3390,6,0,B|273:148|273:148|256:36,1,155
132,96,3800,1,0,0:0:0:0:
132,96,3936,2,0,P|117:154|146:275,1,155,0|0,0:0|0:0,0:0:0:0:
163,353,4345,1,0,0:0:0:0:
253,291,4481,6,0,P|307:285|334:293,1,77.5,0|0,0:0|0:0,0:0:0:0:
425,234,4754,2,0,P|418:180|425:138,1,77.5,0|0,0:0|0:0,0:0:0:0:
375,69,5027,2,0,P|338:95|218:91,1,155,0|0,0:0|0:0,0:0:0:0:
151,12,5436,1,0,0:0:0:0:
77,100,5572,6,0,B|85:142|85:142|75:183|75:183|84:280,1,155,0|0,0:0|0:0,0:0:0:0:
94,364,5981,1,0,0:0:0:0:
175,309,6118,2,0,P|230:301|258:313,1,62,0|0,0:0|0:0,0:0:0:0:
331,366,6390,2,0,P|371:374|403:353,1,62
478,250,6663,6,0,P|445:178|480:97,1,155
441,15,7072,1,0,0:0:0:0:
372,88,7209,2,0,P|290:114|221:71,1,155
148,30,7618,1,0,0:0:0:0:
80,131,7754,6,0,L|71:218,1,77.5,0|0,0:0|0:0,0:0:0:0:
160,246,8027,2,0,L|170:334,1,77.5,0|0,0:0|0:0,0:0:0:0:
272,296,8300,2,0,P|330:282|414:327,1,155
489,263,8709,1,0,0:0:0:0:
416,178,8845,6,0,P|410:116|426:77,1,77.5,0|0,0:0|0:0,0:0:0:0:
366,8,9118,1,0,0:0:0:0:
286,79,9254,2,0,B|236:106|236:106|119:98,1,155,0|0,0:0|0:0,0:0:0:0:
80,33,9663,1,0,0:0:0:0:
41,121,9800,2,0,P|23:181|55:281,1,155,0|0,0:0|0:0,0:0:0:0:
124,329,10209,2,0,L|217:327,1,77.5,0|0,0:0|0:0,0:0:0:0:
284,270,10481,2,0,L|374:280,1,77.5,2|0,0:0|0:0,0:0:0:0:
446,232,10754,2,0,L|451:158,1,69.749997871399,2|0,0:0|0:0,0:0:0:0:
474,82,11027,6,0,P|433:131|318:111,1,155,6|2,0:0|0:0,0:0:0:0:
258,57,11436,1,0,0:0:0:0:
206,152,11572,2,0,P|164:158|122:154,1,77.5,2|0,0:0|0:0,0:0:0:0:
50,30,11845,2,0,L|56:113,1,77.5,2|0,0:0|0:0,0:0:0:0:
260,30,12118,6,0,L|250:212,1,155,2|2,0:0|0:0,0:0:0:0:
333,274,12527,1,0,0:0:0:0:
402,185,12663,2,0,L|498:184,1,77.5,2|0,0:0|0:0,0:0:0:0:
302,300,12936,2,0,L|224:300,1,77.5,2|0,0:0|0:0,0:0:0:0:
127,198,13209,6,0,B|108:160|108:160|143:35,1,155,2|2,0:0|0:0,0:0:0:0:
230,135,13618,1,0,0:0:0:0:
125,285,13754,2,0,L|40:279,1,77.5,2|0,0:0|0:0,0:0:0:0:
239,174,14027,2,0,L|316:179,1,77.5,2|0,0:0|0:0,0:0:0:0:
477,36,14300,6,0,P|430:33|375:121,1,155,2|2,0:0|0:0,0:0:0:0:
329,262,14709,1,0,0:0:0:0:
243,172,14845,2,0,P|205:166|171:182,1,77.5,2|0,0:0|0:0,0:0:0:0:
78,313,15118,2,0,P|133:314|161:292,1,77.5,2|0,0:0|0:0,0:0:0:0:
153,104,15390,6,0,P|96:154|107:230,1,155,2|2,0:0|0:0,0:0:0:0:
174,324,15800,1,0,0:0:0:0:
256,254,15936,2,0,L|340:251,1,77.5,2|0,0:0|0:0,0:0:0:0:
431,151,16209,2,0,L|418:250,1,77.5,2|0,0:0|0:0,0:0:0:0:
295,118,16481,5,2,0:0:0:0:
394,312,16618,2,0,L|431:354,2,38.75,2|0|2,0:0|0:0|0:0,0:0:0:0:
242,196,16890,1,0,0:0:0:0:
376,119,17027,2,0,L|461:116,1,77.5,2|0,0:0|0:0,0:0:0:0:
300,270,17300,1,2,0:0:0:0:
253,93,17436,1,0,0:0:0:0:
476,215,17572,6,0,B|420:188|420:188|364:263|295:193|295:193|250:245|185:178,1,325.499990066529,2|0,0:0|0:0,0:0:0:0:
106,44,18527,1,8,0:0:0:0:
106,44,18595,1,8,0:0:0:0:
106,44,18663,6,0,L|101:128,1,77.5,8|0,0:0|0:0,0:0:0:0:
33,187,18936,2,0,L|42:294,1,77.5,10|2,0:0|0:0,0:0:0:0:
129,344,19209,2,0,P|181:358|227:344,1,77.5,2|2,0:0|0:0,0:0:0:0:
296,228,19481,1,10,0:0:0:0:
182,271,19618,1,2,0:0:0:0:
355,349,19754,5,6,0:0:0:0:
256,192,19822,12,0,20572,0:0:0:0:
437,318,20845,6,0,L|443:217,1,77.5,6|0,0:0|0:0,0:0:0:0:
375,77,21118,2,0,L|370:154,1,77.5,8|0,0:0|0:0,0:0:0:0:
282,209,21390,2,0,P|230:228|188:222,1,77.5,2|2,0:0|0:0,0:0:0:0:
109,112,21663,2,0,P|144:144|155:202,1,77.5,8|0,0:0|0:0,0:0:0:0:
30,244,21936,6,0,L|26:73,1,155,2|8,0:0|0:0,0:0:0:0:
99,18,22345,1,0,0:0:0:0:
181,73,22481,2,0,P|235:83|277:73,1,77.5,2|2,0:0|0:0,0:0:0:0:
428,26,22754,2,0,P|372:28|323:52,1,77.5,8|0,0:0|0:0,0:0:0:0:
382,194,23027,6,0,L|397:106,1,77.5,2|0,0:0|0:0,0:0:0:0:
273,199,23300,2,0,L|290:275,1,77.5,8|0,0:0|0:0,0:0:0:0:
160,171,23572,2,0,P|151:134|163:98,1,77.5,2|2,0:0|0:0,0:0:0:0:
36,203,23845,2,0,P|45:240|34:277,1,77.5,8|0,0:0|0:0,0:0:0:0:
155,69,24118,6,0,P|216:56|313:74,1,155,2|8,0:0|0:0,0:0:0:0:
375,167,24527,1,0,0:0:0:0:
475,61,24663,2,0,L|463:151,1,77.5,2|2,0:0|0:0,0:0:0:0:
381,193,24936,2,0,L|388:275,1,77.5,8|0,0:0|0:0,0:0:0:0:
253,295,25209,6,0,P|208:269|155:265,1,77.5,2|0,0:0|0:0,0:0:0:0:
55,340,25481,2,0,P|112:336|147:310,1,77.5,8|0,0:0|0:0,0:0:0:0:
86,154,25754,2,0,L|90:259,1,77.5,2|2,0:0|0:0,0:0:0:0:
203,71,26027,2,0,L|187:178,1,77.5,8|0,0:0|0:0,0:0:0:0:
311,30,26300,6,0,P|364:65|475:53,1,155,2|8,0:0|0:0,0:0:0:0:
476,148,26709,1,0,0:0:0:0:
372,169,26845,2,0,P|339:204|322:249,1,77.5,2|2,0:0|0:0,0:0:0:0:
373,367,27118,2,0,P|400:328|405:287,1,77.5,8|0,0:0|0:0,0:0:0:0:
297,228,27390,6,0,P|248:218|197:220,1,77.5,2|0,0:0|0:0,0:0:0:0:
146,315,27663,1,8,0:0:0:0:
72,229,27800,2,0,P|48:144|84:83,1,155,0|2,0:0|0:0,0:0:0:0:
166,26,28209,1,8,0:0:0:0:
212,118,28345,1,0,0:0:0:0:
314,50,28481,6,0,L|414:48,1,77.5,2|0,0:0|0:0,0:0:0:0:
484,145,28754,2,0,L|392:146,1,77.5,8|0,0:0|0:0,0:0:0:0:
292,165,29027,2,0,P|282:109|296:64,2,77.5,2|2|8,0:0|0:0|0:0,0:0:0:0:
301,262,29436,1,0,0:0:0:0:
397,257,29572,6,0,L|385:368,1,77.5,6|0,0:0|0:0,0:0:0:0:
255,337,29845,2,0,P|215:334|152:335,1,77.5,8|0,0:0|0:0,0:0:0:0:
76,268,30118,2,0,P|120:244|147:199,1,77.5,2|2,0:0|0:0,0:0:0:0:
52,82,30390,2,0,L|63:171,1,77.5,8|0,0:0|0:0,0:0:0:0:
182,117,30663,6,0,P|249:103|351:118,1,155,2|8,0:0|0:0,0:0:0:0:
427,54,31072,1,0,0:0:0:0:
456,151,31209,2,0,P|470:194|449:247,1,77.5,2|2,0:0|0:0,0:0:0:0:
314,284,31481,2,0,P|350:252|403:247,1,77.5,8|0,0:0|0:0,0:0:0:0:
241,338,31754,6,0,L|143:336,1,77.5,2|0,0:0|0:0,0:0:0:0:
33,241,32027,2,0,L|125:241,1,77.5,8|0,0:0|0:0,0:0:0:0:
201,191,32300,2,0,P|205:137|184:102,1,77.5,2|2,0:0|0:0,0:0:0:0:
49,49,32572,2,0,P|79:88|125:97,1,77.5,8|0,0:0|0:0,0:0:0:0:
240,30,32845,6,0,P|315:17|400:49,1,155,2|8,0:0|0:0,0:0:0:0:
498,64,33254,1,0,0:0:0:0:
427,147,33390,2,0,P|421:194|434:253,1,77.5,2|2,0:0|0:0,0:0:0:0:
341,329,33663,2,0,P|400:300|441:305,1,77.5,8|0,0:0|0:0,0:0:0:0:
285,237,33936,6,0,L|194:235,1,77.5,2|0,0:0|0:0,0:0:0:0:
58,314,34209,2,0,L|158:314,1,77.5,8|0,0:0|0:0,0:0:0:0:
208,217,34481,2,0,P|213:168|204:125,1,77.5,2|2,0:0|0:0,0:0:0:0:
93,68,34754,2,0,P|88:117|97:160,1,77.5,8|0,0:0|0:0,0:0:0:0:
319,169,35027,6,0,P|392:158|463:226,1,155,2|8,0:0|0:0,0:0:0:0:
480,327,35436,1,0,0:0:0:0:
360,323,35572,2,0,L|263:305,1,77.5,2|2,0:0|0:0,0:0:0:0:
191,256,35845,2,0,L|97:265,1,77.5,8|0,0:0|0:0,0:0:0:0:
40,169,36118,6,0,P|30:123|46:82,2,77.5,2|0|8,0:0|0:0|0:0,0:0:0:0:
145,124,36527,2,0,P|210:109|257:113,1,77.5,0|2,0:0|0:0,0:0:0:0:
371,218,36800,2,0,P|320:193|289:151,1,77.5,2|8,0:0|0:0,0:0:0:0:
354,46,37072,1,0,0:0:0:0:
450,173,37209,6,0,L|455:257,1,77.5,2|0,0:0|0:0,0:0:0:0:
388,340,37481,1,8,0:0:0:0:
287,262,37618,1,8,0:0:0:0:
287,262,37686,1,8,0:0:0:0:
287,262,37754,2,0,P|243:256|203:261,1,77.5,10|10,0:0|0:0,0:0:0:0:
75,337,38027,2,0,P|126:346|168:336,1,77.5,2|2,0:0|0:0,0:0:0:0:
148,103,38300,6,0,B|123:138|123:138|122:274,1,155,6|8,0:0|0:0,0:0:0:0:
228,161,38709,1,0,0:0:0:0:
306,249,38845,2,0,L|410:242,1,77.5,2|2,0:0|0:0,0:0:0:0:
465,124,39118,2,0,P|402:153|379:184,1,77.5,8|0,0:0|0:0,0:0:0:0:
465,351,39390,6,0,P|489:300|461:194,1,155,2|8,0:0|0:0,0:0:0:0:
437,85,39800,1,0,0:0:0:0:
325,125,39936,2,0,L|239:133,1,77.5,2|2,0:0|0:0,0:0:0:0:
111,16,40209,2,0,P|156:43|173:86,1,77.5,8|0,0:0|0:0,0:0:0:0:
103,226,40481,6,0,P|59:176|94:92,1,155,2|8,0:0|0:0,0:0:0:0:
210,146,40890,1,0,0:0:0:0:
197,256,41027,2,0,L|183:332,1,77.5,2|2,0:0|0:0,0:0:0:0:
302,230,41300,2,0,L|288:153,1,77.5,8|0,0:0|0:0,0:0:0:0:
404,28,41572,6,0,B|394:78|394:78|415:142|415:142|405:203,1,155,2|8,0:0|0:0,0:0:0:0:
320,269,41981,1,0,0:0:0:0:
266,137,42118,2,0,P|216:128|158:131,1,77.5,2|2,0:0|0:0,0:0:0:0:
73,249,42390,2,0,P|126:240|159:203,1,77.5,8|0,0:0|0:0,0:0:0:0:
97,14,42663,6,0,L|90:174,1,155,6|8,0:0|0:0,0:0:0:0:
172,250,43072,1,0,0:0:0:0:
271,198,43209,2,0,L|355:202,1,77.5,2|2,0:0|0:0,0:0:0:0:
491,133,43481,2,0,L|413:129,1,77.5,8|0,0:0|0:0,0:0:0:0:
226,127,43754,6,0,P|193:162|214:261,1,155,2|8,0:0|0:0,0:0:0:0:
308,322,44163,1,0,0:0:0:0:
199,340,44300,2,0,B|156:342|156:342|105:331,1,77.5,2|2,0:0|0:0,0:0:0:0:
59,249,44572,2,0,L|54:148,1,77.5,8|0,0:0|0:0,0:0:0:0:
128,84,44845,6,0,P|175:55|285:75,1,155,2|8,0:0|0:0,0:0:0:0:
350,166,45254,1,0,0:0:0:0:
391,80,45390,2,0,P|443:72|485:90,1,77.5,2|2,0:0|0:0,0:0:0:0:
312,183,45663,2,0,P|262:189|215:182,1,77.5,8|0,3:2|0:0,0:0:0:0:
461,126,45936,6,0,L|442:304,1,155,6|8,0:0|0:0,0:0:0:0:
374,353,46345,1,0,0:0:0:0:
293,279,46481,2,0,P|244:282|194:291,1,77.5,2|2,0:0|0:0,0:0:0:0:
94,332,46754,2,0,P|121:292|133:244,1,77.5,8|0,0:0|0:0,0:0:0:0:
50,150,47027,6,0,P|37:199|53:244,1,77.5,2|0,0:0|0:0,0:0:0:0:
121,102,47300,1,8,0:0:0:0:
185,180,47436,2,0,L|271:176,1,77.5,0|2,0:0|0:0,0:0:0:0:
325,248,47709,1,2,0:0:0:0:
372,141,47845,2,0,P|388:87|381:53,1,77.5,8|0,0:0|0:0,0:0:0:0:
256,227,48118,6,0,L|248:323,1,77.5,2|0,0:0|0:0,0:0:0:0:
186,141,48390,2,0,L|192:34,1,77.5,8|0,0:0|0:0,0:0:0:0:
86,197,48663,2,0,L|86:295,1,77.5,2|2,0:0|0:0,0:0:0:0:
215,133,48936,2,0,P|276:126|307:133,1,77.5,8|0,0:0|0:0,0:0:0:0:
117,295,49209,5,6,0:0:0:0:
117,295,49754,2,0,B|209:313|209:313|286:296,1,162.749995033264
342,249,50300,6,0,L|348:137,1,85.2500026016236,4|0,0:1|0:0,0:0:0:0:
255,53,50572,2,0,L|255:156,1,85.2500026016236,8|0,0:0|0:0,0:0:0:0:
143,91,50845,2,0,P|92:84|41:100,1,85.2500026016236,2|2,0:0|0:0,0:0:0:0:
207,211,51118,2,0,P|258:218|309:202,1,85.2500026016236,8|0,0:0|0:0,0:0:0:0:
399,98,51390,6,0,P|451:90|496:109,1,85.2500026016236,2|0,0:0|0:0,0:0:0:0:
494,209,51663,1,8,0:0:0:0:
357,162,51800,2,0,L|373:249,1,85.2500026016236,0|2,0:0|0:0,0:0:0:0:
406,335,52072,1,2,0:0:0:0:
294,307,52209,2,0,P|228:297|188:306,1,85.2500026016236,8|0,0:0|0:0,0:0:0:0:
135,206,52481,6,0,B|154:262|154:262|135:379,1,170.500005203247,2|8,0:0|0:0,0:0:0:0:
55,277,52890,1,0,0:0:0:0:
28,177,53027,2,0,P|25:117|49:69,1,85.2500026016236,2|2,0:0|0:0,0:0:0:0:
116,37,53300,2,0,P|156:64|198:61,1,85.2500026016236,8|0,0:0|0:0,0:0:0:0:
292,180,53572,6,0,L|298:70,1,85.2500026016236,2|0,0:0|0:0,0:0:0:0:
381,26,53845,1,8,0:0:0:0:
391,230,53981,2,0,L|410:137,1,85.2500026016236,0|2,0:0|0:0,0:0:0:0:
295,298,54254,2,0,L|276:205,1,85.2500026016236,2|8,0:0|0:0,0:0:0:0:
199,133,54527,1,0,0:0:0:0:
119,220,54663,5,2,0:0:0:0:
95,119,54800,1,0,0:0:0:0:
218,39,54936,2,0,P|270:78|378:64,1,170.500005203247,8|2,0:0|0:0,0:0:0:0:
471,12,55345,1,2,0:0:0:0:
437,123,55481,2,0,P|413:164|415:206,1,85.2500026016236,8|0,0:0|0:0,0:0:0:0:
405,318,55754,6,0,P|372:287|309:364,1,170.500005203247,2|8,0:0|0:0,0:0:0:0:
212,255,56163,1,0,0:0:0:0:
124,317,56300,2,0,P|74:320|31:296,1,85.2500026016236,2|2,0:0|0:0,0:0:0:0:
108,149,56572,2,0,P|143:190|142:225,1,85.2500026016236,8|0,0:0|0:0,0:0:0:0:
14,149,56845,6,0,L|17:52,1,85.2500026016236,2|0,0:0|0:0,0:0:0:0:
119,28,57118,1,8,0:0:0:0:
186,114,57254,1,0,0:0:0:0:
234,28,57390,2,0,L|352:22,1,85.2500026016236,2|2,0:0|0:0,0:0:0:0:
443,98,57663,2,0,L|341:102,1,85.2500026016236,8|0,0:0|0:0,0:0:0:0:
233,175,57936,6,0,P|199:216|246:322,1,170.500005203247,2|8,0:0|0:0,0:0:0:0:
343,357,58345,1,2,0:0:0:0:
397,261,58481,2,0,P|452:257|493:270,1,85.2500026016236,0|2,0:0|0:0,0:0:0:0:
233,175,58754,2,0,P|182:168|148:172,1,85.2500026016236,8|0,0:0|0:0,0:0:0:0:
278,248,59027,6,0,P|311:203|273:94,1,170.500005203247,6|8,0:0|0:0,0:0:0:0:
170,42,59436,1,0,0:0:0:0:
85,116,59572,2,0,L|95:217,1,85.2500026016236,2|2,0:0|0:0,0:0:0:0:
171,333,59845,2,0,P|178:286|193:233,1,85.2500026016236,8|0,0:0|0:0,0:0:0:0:
290,121,60118,6,0,P|353:150|444:113,1,170.500005203247,2|8,0:0|0:0,0:0:0:0:
357,27,60527,1,0,0:0:0:0:
227,50,60663,2,0,L|102:42,1,85.2500026016236,2|2,0:0|0:0,0:0:0:0:
38,121,60936,2,0,B|27:156|27:156|34:232,1,85.2500026016236,8|0,0:0|0:0,0:0:0:0:
138,332,61209,6,0,P|201:357|321:312,1,170.500005203247,2|8,0:0|0:0,0:0:0:0:
407,298,61618,1,0,0:0:0:0:
385,191,61754,2,0,L|374:88,1,85.2500026016236,2|2,0:0|0:0,0:0:0:0:
286,17,62027,2,0,L|267:133,1,85.2500026016236,8|0,0:0|0:0,0:0:0:0:
156,169,62300,6,0,P|91:174|51:146,1,85.2500026016236,2|0,0:0|0:0,0:0:0:0:
133,35,62572,1,8,0:0:0:0:
243,166,62709,2,0,L|244:269,1,85.2500026016236,0|2,0:0|0:0,0:0:0:0:
311,98,62981,2,0,P|379:88|423:102,1,85.2500026016236,2|8,0:0|0:0,0:0:0:0:
474,169,63254,1,0,0:0:0:0:
392,250,63390,6,0,L|396:348,1,85.2500026016236,2|0,0:0|0:0,0:0:0:0:
268,277,63663,2,0,P|200:249|98:264,1,170.500005203247,8|2,0:0|0:0,0:0:0:0:
34,339,64072,1,2,0:0:0:0:
22,218,64209,2,0,P|6:155|25:113,1,85.2500026016236,8|0,0:0|0:0,0:0:0:0:
98,68,64481,6,0,P|143:130|259:133,1,170.500005203247,2|8,0:0|0:0,0:0:0:0:
296,45,64890,1,0,0:0:0:0:
369,117,65027,2,0,P|386:192|375:227,1,85.2500026016236,2|2,0:0|0:0,0:0:0:0:
262,300,65300,2,0,P|285:254|324:231,1,85.2500026016236,8|0,0:0|0:0,0:0:0:0:
409,317,65572,6,0,L|498:311,2,85.2500026016236,2|0|8,0:0|0:0|0:0,0:0:0:0:
334,226,65981,1,0,0:0:0:0:
245,315,66118,2,0,P|194:329|142:320,1,85.2500026016236,2|2,0:0|0:0,0:0:0:0:
126,161,66390,2,0,P|141:205|132:262,1,85.2500026016236,8|0,0:0|0:0,0:0:0:0:
30,135,66663,6,0,P|49:93|173:67,1,170.500005203247,10|8,0:0|0:0,0:0:0:0:
277,20,67072,1,8,0:0:0:0:
353,113,67209,2,0,P|414:123|447:113,1,85.2500026016236,8|8,0:0|0:0,0:0:0:0:
255,121,67481,2,0,L|258:219,1,85.2500026016236,8|8,0:0|0:0,0:0:0:0:
357,293,67754,6,0,P|276:261|186:297,1,170.500005203247,4|8,0:0|0:0,0:0:0:0:
106,356,68163,1,0,0:0:0:0:
65,260,68300,2,0,P|49:214|63:160,1,85.2500026016236,2|2,0:0|0:0,0:0:0:0:
124,104,68572,2,0,P|185:112|235:98,1,85.2500026016236,8|0,0:0|0:0,0:0:0:0:
329,32,68845,6,0,P|388:9|492:67,1,170.500005203247,2|8,0:0|0:0,0:0:0:0:
477,155,69254,1,0,0:0:0:0:
379,208,69390,2,0,L|396:306,1,85.2500026016236,2|2,0:0|0:0,0:0:0:0:
259,290,69663,2,0,P|196:289|157:307,1,85.2500026016236,8|0,0:0|0:0,0:0:0:0:
59,352,69936,6,0,P|98:306|86:178,1,170.500005203247,2|8,0:0|0:0,0:0:0:0:
34,91,70345,1,0,0:0:0:0:
142,122,70481,2,0,P|188:137|254:129,1,85.2500026016236,2|2,0:0|0:0,0:0:0:0:
366,22,70754,2,0,P|301:37|267:63,1,85.2500026016236,8|0,0:0|0:0,0:0:0:0:
317,260,71027,6,0,P|361:227|341:102,1,170.500005203247,2|8,0:0|0:0,0:0:0:0:
240,41,71436,1,0,0:0:0:0:
141,139,71572,2,0,L|158:263,1,85.2500026016236,2|2,0:0|0:0,0:0:0:0:
264,356,71845,2,0,L|275:271,1,85.2500026016236,8|0,0:0|0:0,0:0:0:0:
230,70,72118,6,0,P|186:105|75:95,1,170.500005203247,6|8,0:0|0:0,0:0:0:0:
14,19,72527,1,0,0:0:0:0:
22,158,72663,2,0,P|43:213|34:269,1,85.2500026016236,2|2,0:0|0:0,0:0:0:0:
100,333,72936,2,0,P|139:346|197:332,1,85.2500026016236,8|0,0:0|0:0,0:0:0:0:
261,213,73209,6,0,P|312:208|325:322,1,170.500005203247,2|8,0:0|0:0,0:0:0:0:
271,369,73618,1,0,0:0:0:0:
430,318,73754,2,0,L|434:209,1,85.2500026016236,2|2,0:0|0:0,0:0:0:0:
380,129,74027,2,0,P|334:150|281:151,1,85.2500026016236,8|0,0:0|0:0,0:0:0:0:
178,82,74300,6,0,P|227:109|246:250,1,170.500005203247,2|8,0:0|0:0,0:0:0:0:
189,306,74709,1,0,0:0:0:0:
114,223,74845,2,0,L|27:221,2,85.2500026016236,2|2|8,0:0|0:0|0:0,0:0:0:0:
189,306,75254,1,0,0:0:0:0:
274,43,75390,6,0,L|259:230,1,170.500005203247,2|8,0:0|0:0,0:0:0:0:
310,300,75800,1,0,0:0:0:0:
216,137,75936,2,0,P|150:133|115:138,1,85.2500026016236,2|2,0:0|0:0,0:0:0:0:
289,242,76209,2,0,P|355:246|390:241,1,85.2500026016236,8|0,0:0|0:0,0:0:0:0:
465,147,76481,6,0,P|425:222|426:309,1,170.500005203247,6|8,0:0|0:0,0:0:0:0:
327,373,76890,1,0,0:0:0:0:
251,238,77027,2,0,P|197:234|143:241,1,85.2500026016236,2|2,0:0|0:0,0:0:0:0:
48,360,77300,2,0,P|105:361|135:338,1,85.2500026016236,8|0,0:0|0:0,0:0:0:0:
121,111,77572,6,0,B|90:169|90:169|85:278,1,170.500005203247,2|8,0:0|0:0,0:0:0:0:
210,358,77981,1,0,0:0:0:0:
316,302,78118,2,0,L|423:306,1,85.2500026016236,2|2,0:0|0:0,0:0:0:0:
478,170,78390,1,8,0:0:0:0:
371,201,78527,1,0,0:0:0:0:
308,108,78663,6,0,L|134:117,1,170.500005203247,2|8,0:0|0:0,0:0:0:0:
61,18,79072,1,0,0:0:0:0:
40,123,79209,2,0,P|21:180|32:217,2,85.2500026016236,2|2|8,0:0|0:0|0:0,0:0:0:0:
163,30,79618,1,0,0:0:0:0:
262,178,79754,6,0,L|452:164,1,170.500005203247,2|8,0:0|0:0,0:0:0:0:
480,75,80163,1,0,0:0:0:0:
484,236,80300,2,0,P|494:280|470:341,1,85.2500026016236,2|2,0:0|0:0,0:0:0:0:
311,332,80572,2,0,P|345:297|385:284,1,85.2500026016236,8|0,0:0|0:0,0:0:0:0:
213,349,80845,6,0,P|194:311|250:171,1,170.500005203247,6|8,0:0|0:0,0:0:0:0:
320,110,81254,1,0,0:0:0:0:
246,43,81390,2,0,L|143:38,1,85.2500026016236,2|2,0:0|0:0,0:0:0:0:
86,118,81663,2,0,P|103:157|84:218,1,85.2500026016236,8|0,0:0|0:0,0:0:0:0:
32,314,81936,6,0,P|83:288|125:293,1,92.9999971618653,4|0,0:0|0:0,0:0:0:0:
267,284,82481,2,0,L|435:269,1,162.749995033264,0|0,0:0|0:0,0:0:0:0:
477,191,83027,6,0,L|489:97,1,69.749997871399,6|0,0:0|0:0,0:0:0:0:
412,43,83287,2,0,P|348:69|330:66,1,69.749997871399,2|0,0:0|0:0,0:0:0:0:
247,20,83548,2,0,P|291:67|278:156,1,139.499995742798,8|0,0:0|0:0,0:0:0:0:
174,106,84070,6,0,P|134:99|79:121,1,69.749997871399,2|0,0:0|0:0,0:0:0:0:
146,235,84331,2,0,P|185:218|201:187,1,69.749997871399,2|0,0:0|0:0,0:0:0:0:
44,189,84592,2,0,L|43:340,1,139.499995742798,8|0,0:0|0:0,0:0:0:0:
146,353,85113,6,0,P|188:360|228:356,1,69.749997871399,2|0,0:0|0:0,0:0:0:0:
319,250,85374,2,0,P|270:262|246:288,1,69.749997871399,2|0,0:0|0:0,0:0:0:0:
372,343,85635,2,0,L|382:187,1,139.499995742798,8|0,0:0|0:0,0:0:0:0:
414,69,86157,6,0,P|452:66|495:76,1,69.749997871399,2|0,0:0|0:0,0:0:0:0:
333,125,86418,2,0,P|288:128|252:114,1,69.749997871399,2|0,0:0|0:0,0:0:0:0:
195,33,86679,2,0,B|217:76|217:76|218:186,1,139.499995742798,8|0,0:0|0:0,0:0:0:0:
131,235,87200,6,0,P|83:244|43:234,1,69.749997871399,2|0,0:0|0:0,0:0:0:0:
235,183,87461,2,0,L|226:276,1,69.749997871399,2|0,0:0|0:0,0:0:0:0:
258,351,87722,2,0,P|311:326|400:330,1,139.499995742798,8|0,0:0|0:0,0:0:0:0:
463,249,88244,6,0,P|476:204|465:158,1,69.749997871399,2|0,0:0|0:0,0:0:0:0:
347,148,88505,2,0,P|388:191|412:201,1,69.749997871399,2|0,0:0|0:0,0:0:0:0:
403,96,88766,2,0,L|254:81,1,139.499995742798,8|0,0:0|0:0,0:0:0:0:
175,18,89287,6,0,L|105:38,1,69.749997871399,2|0,0:0|0:0,0:0:0:0:
175,188,89548,2,0,L|181:108,1,69.749997871399,2|0,0:0|0:0,0:0:0:0:
62,131,89809,1,8,0:0:0:0:
62,131,89940,2,0,L|71:223,1,92.9999971618653,0|8,0:0|0:0,0:0:0:0:
80,264,90266,1,8,0:0:0:0:
88,304,90331,6,0,P|138:287|187:289,1,77.5,8|8,0:0|0:0,0:0:0:0:
331,355,90592,2,0,P|290:353|235:329,1,77.5,8|0,0:0|0:0,0:0:0:0:
223,208,90853,2,0,L|232:163,3,38.75,8|0|0|0,0:0|0:0|0:0|0:0,0:0:0:0:
302,95,91113,1,8,0:0:0:0:
331,84,91179,1,0,0:0:0:0:
361,81,91244,1,0,0:0:0:0:
390,91,91309,1,0,0:0:0:0:
417,106,91374,6,0,L|423:183,1,77.5,6|0,0:0|0:0,0:0:0:0:
303,278,91635,2,0,L|309:200,1,77.5,8|0,0:0|0:0,0:0:0:0:
273,56,91896,2,0,P|224:47|175:64,1,77.5,2|2,0:0|0:0,0:0:0:0:
107,173,92157,2,0,P|173:170|206:155,1,77.5,8|0,0:0|0:0,0:0:0:0:
52,90,92418,6,0,L|59:276,1,155,2|8,0:0|0:0,0:0:0:0:
143,343,92809,1,0,0:0:0:0:
220,270,92940,2,0,P|278:255|318:265,1,77.5,2|2,0:0|0:0,0:0:0:0:
430,348,93200,2,0,P|373:344|345:325,1,77.5,8|0,0:0|0:0,0:0:0:0:
401,147,93461,6,0,L|405:250,1,77.5,2|0,0:0|0:0,0:0:0:0:
276,46,93722,2,0,L|268:129,1,77.5,8|0,0:0|0:0,0:0:0:0:
159,201,93983,2,0,P|97:213|49:205,1,77.5,2|2,0:0|0:0,0:0:0:0:
55,48,94244,2,0,P|97:80|108:128,1,77.5,8|0,0:0|0:0,0:0:0:0:
195,317,94505,6,0,P|144:284|180:188,1,155,2|8,0:0|0:0,0:0:0:0:
288,175,94896,1,0,0:0:0:0:
351,265,95026,2,0,L|343:350,1,77.5,2|2,0:0|0:0,0:0:0:0:
254,60,95287,2,0,L|261:147,1,77.5,8|0,0:0|0:0,0:0:0:0:
413,98,95548,6,0,P|463:92|502:100,1,77.5,6|0,0:0|0:0,0:0:0:0:
241,176,95809,2,0,P|194:176|155:157,1,77.5,8|0,0:0|0:0,0:0:0:0:
97,26,96070,2,0,L|103:124,1,77.5,2|2,0:0|0:0,0:0:0:0:
13,235,96331,2,0,P|46:207|95:177,1,77.5,8|0,0:0|0:0,0:0:0:0:
213,70,96592,6,0,L|200:259,1,155,2|8,0:0|0:0,0:0:0:0:
274,327,96983,1,0,0:0:0:0:
325,250,97113,2,0,P|373:231|422:240,1,77.5,2|2,0:0|0:0,0:0:0:0:
256,354,97374,2,0,P|210:361|162:356,1,77.5,8|0,0:0|0:0,0:0:0:0:
90,274,97635,6,0,L|74:173,1,77.5,2|0,0:0|0:0,0:0:0:0:
106,97,97896,1,8,0:0:0:0:
210,140,98026,2,0,P|291:150|374:106,2,155,0|0|0,0:0|0:0|0:0,0:0:0:0:
102,55,98679,5,8,0:0:0:0:
71,48,98744,1,0,0:0:0:0:
41,57,98809,1,0,0:0:0:0:
21,81,98874,1,0,0:0:0:0:
16,112,98940,2,0,L|30:208,1,77.5,8|0,0:0|0:0,0:0:0:0:
114,237,99200,2,0,L|107:322,1,77.5,8|0,0:0|0:0,0:0:0:0:
157,320,99396,1,0,0:0:0:0:
193,318,99461,2,0,P|236:305|288:315,1,77.5,8|0,0:0|0:0,0:0:0:0:
388,362,99722,6,0,P|363:318|406:211,1,155,6|8,0:0|0:0,0:0:0:0:
436,104,100113,1,0,0:0:0:0:
308,133,100244,2,0,P|236:148|212:148,1,77.5,2|2,0:0|0:0,0:0:0:0:
159,22,100505,2,0,P|203:45|236:89,1,77.5,8|0,0:0|0:0,0:0:0:0:
135,240,100766,6,0,P|108:183|154:94,1,155,2|8,0:0|0:0,0:0:0:0:
249,177,101157,1,0,0:0:0:0:
133,266,101287,2,0,P|77:278|41:275,1,77.5,2|2,0:0|0:0,0:0:0:0:
257,196,101548,2,0,L|244:289,1,77.5,8|0,0:0|0:0,0:0:0:0:
348,326,101809,6,0,L|368:144,1,155,2|8,0:0|0:0,0:0:0:0:
315,53,102200,1,0,0:0:0:0:
230,103,102331,2,0,P|187:128|142:129,1,77.5,2|2,0:0|0:0,0:0:0:0:
52,31,102592,2,0,P|103:45|135:68,1,77.5,8|0,0:0|0:0,0:0:0:0:
62,264,102853,6,0,B|48:217|48:217|65:99,1,155,2|8,0:0|0:0,0:0:0:0:
154,227,103244,1,0,0:0:0:0:
234,160,103374,2,0,P|286:155|326:164,1,77.5,2|2,0:0|0:0,0:0:0:0:
364,311,103635,2,0,P|336:281|326:240,1,77.5,8|0,0:0|0:0,0:0:0:0:
400,57,103896,6,0,B|422:107|422:107|410:237,1,155,2|8,0:0|0:0,0:0:0:0:
366,333,104287,1,0,0:0:0:0:
281,220,104418,2,0,P|230:220|190:238,1,77.5,2|2,0:0|0:0,0:0:0:0:
121,364,104679,2,0,P|182:339|201:307,1,77.5,8|0,0:0|0:0,0:0:0:0:
152,139,104940,6,0,B|126:184|126:184|127:304,1,155,2|8,0:0|0:0,0:0:0:0:
253,155,105331,1,0,0:0:0:0:
160,55,105461,2,0,P|112:49|63:60,1,77.5,2|2,0:0|0:0,0:0:0:0:
258,160,105722,2,0,P|310:157|342:125,1,77.5,8|0,0:0|0:0,0:0:0:0:
453,37,105983,5,8,0:0:0:0:
425,128,106113,2,0,B|406:168|406:168|419:291,1,155,2|0,0:0|0:0,0:0:0:0:
354,360,106505,1,8,0:0:0:0:
280,309,106635,2,0,P|231:290|120:324,1,155,2|0,0:0|0:0,0:0:0:0:
39,149,107026,5,10,0:0:0:0:
117,205,107157,2,0,B|170:219|170:219|288:200,1,155,0|0,0:0|0:0,0:0:0:0:
366,156,107548,2,0,L|462:169,1,77.5,8|8,0:0|0:0,0:0:0:0:
268,115,107809,1,8,0:0:0:0:
372,269,107940,1,0,0:0:0:0:
447,131,108070,5,4,0:0:0:0:
88,79,112244,6,0,P|65:140|110:206,1,116.25,8|0,0:0|0:0,0:0:0:0:
103,213,112505,2,0,L|200:209,1,93,8|0,0:0|0:0,0:0:0:0:
226,191,112766,1,8,0:0:0:0:
316,326,113026,1,8,0:0:0:0:
403,212,113287,6,0,L|408:95,1,104.624996807098,8|0,0:0|0:0,0:0:0:0:
403,69,113548,2,0,P|355:87|293:52,1,104.624996807098,8|0,0:0|0:0,0:0:0:0:
283,43,113809,1,8,0:0:0:0:
128,71,114070,1,8,0:0:0:0:
76,181,114331,6,0,B|58:263|58:263|76:324,1,116.25,8|0,0:0|0:0,0:0:0:0:
99,324,114592,2,0,P|152:340|217:314,1,116.25,8|0,0:0|0:0,0:0:0:0:
234,288,114853,1,8,0:0:0:0:
363,351,115113,1,8,0:0:0:0:
425,242,115374,6,0,L|440:149,1,85.2500026016236,8|0,0:0|0:0,0:0:0:0:
397,68,115635,2,0,P|356:105|235:84,1,170.500005203247,8|8,0:0|0:0,0:0:0:0:
108,21,116026,1,8,0:0:0:0:
108,21,116418,6,0,L|89:114,1,85.2500026016236,6|0,0:0|0:0,0:0:0:0:
174,196,116679,2,0,L|192:292,1,85.2500026016236,10|0,0:0|0:0,0:0:0:0:
49,123,116940,2,0,L|30:216,1,85.2500026016236,10|0,0:0|0:0,0:0:0:0:
227,271,117200,2,0,L|245:367,1,85.2500026016236,10|0,0:0|0:0,0:0:0:0:
319,197,117461,6,0,P|377:180|425:186,1,85.2500026016236,2|10,0:0|0:0,0:0:0:0:
475,290,117722,1,10,0:0:0:0:
308,231,117853,1,10,0:0:0:0:
423,145,117983,1,2,0:0:0:0:
393,320,118113,1,2,0:0:0:0:
276,122,118244,2,0,L|176:115,1,85.2500026016236,8|0,0:0|0:0,0:0:0:0:
75,59,118505,6,0,P|96:120|71:234,2,170.500005203247,4|0|0,0:0|0:0|0:0,0:0:0:0:
187,241,119287,1,0,0:0:0:0:
256,192,119548,12,10,121374,0:0:0:0:
401,328,121635,6,0,L|408:237,1,85.2500026016236,10|10,0:0|0:0,0:0:0:0:
341,141,121896,1,2,0:0:0:0:
265,244,122026,2,0,P|214:260|175:257,1,85.2500026016236,10|10,0:0|0:0,0:0:0:0:
102,101,122287,2,0,P|151:135|163:172,1,85.2500026016236,0|10,0:0|0:0,0:0:0:0:
59,249,122548,1,2,0:0:0:0:
235,97,122679,5,8,0:0:0:0:
234,120,123200,2,0,P|293:136|381:48,1,189.874994205475,0|0,0:0|0:0,0:0:0:0:
438,36,123722,6,0,L|433:150,1,85.2500026016236,4|0,3:1|0:0,0:0:0:0:
341,235,123983,2,0,P|311:180|316:129,1,85.2500026016236,8|0,0:0|0:0,0:0:0:0:
448,232,124244,2,0,L|443:328,1,85.2500026016236,2|2,0:0|0:0,0:0:0:0:
343,355,124505,2,0,P|297:345|249:352,1,85.2500026016236,8|0,0:0|0:0,0:0:0:0:
164,214,124766,6,0,L|179:313,1,85.2500026016236,2|0,0:0|0:0,0:0:0:0:
67,288,125026,1,8,0:0:0:0:
56,109,125157,2,0,L|42:212,1,85.2500026016236,0|2,0:0|0:0,0:0:0:0:
120,35,125418,1,2,0:0:0:0:
194,113,125548,2,0,P|246:140|288:130,1,85.2500026016236,8|0,0:0|0:0,0:0:0:0:
376,81,125809,6,0,P|324:115|289:236,1,170.500005203247,2|8,0:0|0:0,0:0:0:0:
394,271,126200,1,0,0:0:0:0:
285,308,126331,2,0,P|238:320|189:318,1,85.2500026016236,2|2,0:0|0:0,0:0:0:0:
97,176,126592,2,0,P|143:213|160:266,1,85.2500026016236,8|0,0:0|0:0,0:0:0:0:
27,125,126853,6,0,L|18:28,2,85.2500026016236,2|0|8,0:0|0:0|0:0,0:0:0:0:
128,82,127244,2,0,L|230:91,1,85.2500026016236,0|2,0:0|0:0,0:0:0:0:
359,6,127505,2,0,P|317:28|278:72,1,85.2500026016236,2|8,0:0|0:0,0:0:0:0:
261,196,127766,1,0,0:0:0:0:
262,63,127896,5,2,0:0:0:0:
369,179,128026,1,0,0:0:0:0:
369,179,128157,2,0,P|401:226|360:351,1,170.500005203247,8|2,0:0|0:0,0:0:0:0:
295,360,128548,1,0,0:0:0:0:
195,302,128679,2,0,P|141:299|97:322,1,85.2500026016236,8|0,0:0|0:0,0:0:0:0:
20,220,128940,6,0,P|60:169|27:62,1,170.500005203247,2|8,0:0|0:0,0:0:0:0:
130,8,129331,1,0,0:0:0:0:
200,100,129461,2,0,P|281:119|297:113,1,85.2500026016236,2|2,0:0|0:0,0:0:0:0:
430,2,129722,2,0,P|387:43|366:75,1,85.2500026016236,8|0,0:0|0:0,0:0:0:0:
414,186,129983,6,0,L|427:286,1,85.2500026016236,2|0,0:0|0:0,0:0:0:0:
274,282,130244,2,0,P|298:240|346:223,1,85.2500026016236,8|0,0:0|0:0,0:0:0:0:
204,326,130505,2,0,P|147:319|94:340,1,85.2500026016236,2|2,0:0|0:0,0:0:0:0:
31,264,130766,2,0,P|49:203|36:153,1,85.2500026016236,8|0,0:0|0:0,0:0:0:0:
100,72,131026,6,0,P|137:114|257:109,1,170.500005203247,6|8,0:0|0:0,0:0:0:0:
332,30,131418,1,0,0:0:0:0:
409,109,131548,2,0,L|404:207,1,85.2500026016236,2|2,0:0|0:0,0:0:0:0:
281,328,131809,2,0,L|289:211,1,85.2500026016236,8|0,0:0|0:0,0:0:0:0:
245,116,132070,6,0,P|191:97|85:146,1,170.500005203247,6|8,0:0|0:0,0:0:0:0:
23,213,132461,1,0,0:0:0:0:
117,270,132592,2,0,P|130:333|109:385,2,85.2500026016236,2|2|8,0:0|0:0|0:0,0:0:0:0:
23,212,132983,1,0,0:0:0:0:
90,138,133113,6,0,L|90:32,1,85.2500026016236,2|0,0:0|0:0,0:0:0:0:
180,194,133374,1,8,0:0:0:0:
180,194,133505,2,0,L|169:289,1,85.2500026016236,0|2,0:0|0:0,0:0:0:0:
259,352,133766,1,2,0:0:0:0:
336,291,133896,2,0,P|407:274|438:280,1,85.2500026016236,8|0,0:0|0:0,0:0:0:0:
275,189,134157,6,0,B|292:133|292:133|283:9,1,170.500005203247,2|8,0:0|0:0,0:0:0:0:
179,21,134548,1,0,0:0:0:0:
116,106,134679,2,0,P|59:108|22:84,1,85.2500026016236,2|2,0:0|0:0,0:0:0:0:
209,124,134940,2,0,P|186:168|196:233,1,85.2500026016236,8|0,0:0|0:0,0:0:0:0:
311,289,135200,6,0,L|417:287,1,85.2500026016236,2|0,0:0|0:0,0:0:0:0:
388,148,135461,1,8,0:0:0:0:
175,213,135592,2,0,L|179:332,1,85.2500026016236,0|2,0:0|0:0,0:0:0:0:
306,43,135853,2,0,L|297:154,1,85.2500026016236,2|8,0:0|0:0,0:0:0:0:
299,253,136113,1,0,0:0:0:0:
175,175,136244,6,0,P|141:167|68:176,1,85.2500026016236,2|0,0:0|0:0,0:0:0:0:
216,309,136505,2,0,B|282:327|282:327|397:318,1,170.500005203247,8|2,0:0|0:0,0:0:0:0:
500,282,136896,1,0,0:0:0:0:
421,200,137026,2,0,P|413:141|422:101,1,85.2500026016236,8|0,0:0|0:0,0:0:0:0:
326,30,137287,6,0,P|290:66|160:66,1,170.500005203247,2|8,0:0|0:0,0:0:0:0:
90,11,137679,1,0,0:0:0:0:
49,110,137809,2,0,L|37:211,1,85.2500026016236,2|2,0:0|0:0,0:0:0:0:
179,256,138070,2,0,L|132:177,1,85.2500026016236,8|0,0:0|0:0,0:0:0:0:
62,331,138331,6,0,L|160:333,1,85.2500026016236,10|0,0:0|0:0,0:0:0:0:
316,184,138592,2,0,L|270:292,1,85.2500026016236,10|2,0:0|0:0,0:0:0:0:
415,315,138853,1,10,0:0:0:0:
342,154,138983,1,2,0:0:0:0:
440,220,139113,1,8,0:0:0:0:
302,336,139244,1,0,0:0:0:0:
220,206,139374,6,0,P|180:132|239:56,1,170.500005203247,8|10,0:0|0:0,0:0:0:0:
338,28,139766,1,2,0:0:0:0:
338,28,139831,1,2,0:0:0:0:
338,28,139896,2,0,L|434:24,1,85.2500026016236,10|10,0:0|0:0,0:0:0:0:
205,224,140157,2,0,P|142:237|115:222,1,85.2500026016236,10|10,0:0|0:0,0:0:0:0:
311,139,140418,6,0,L|304:331,1,170.500005203247,6|8,0:0|0:0,0:0:0:0:
395,228,140809,1,0,0:0:0:0:
165,159,140940,2,0,P|116:150|53:174,1,85.2500026016236,2|2,0:0|0:0,0:0:0:0:
189,333,141200,2,0,P|238:342|301:318,1,85.2500026016236,8|0,0:0|0:0,0:0:0:0:
409,243,141461,6,0,P|381:178|423:84,1,170.500005203247,2|8,0:0|0:0,0:0:0:0:
331,15,141853,1,0,0:0:0:0:
270,106,141983,2,0,P|215:132|166:136,1,85.2500026016236,2|2,0:0|0:0,0:0:0:0:
76,11,142244,2,0,P|129:34|154:62,1,85.2500026016236,8|0,0:0|0:0,0:0:0:0:
130,235,142505,6,0,P|55:178|84:103,1,170.500005203247,2|8,0:0|0:0,0:0:0:0:
196,62,142896,1,0,0:0:0:0:
230,189,143026,2,0,P|240:247|230:304,1,85.2500026016236,2|2,0:0|0:0,0:0:0:0:
108,341,143287,1,8,0:0:0:0:
142,209,143418,1,0,0:0:0:0:
259,350,143548,6,0,B|317:363|317:363|446:351,1,170.500005203247,2|8,0:0|0:0,0:0:0:0:
481,273,143940,1,0,0:0:0:0:
366,221,144070,2,0,P|358:146|383:113,1,85.2500026016236,2|2,0:0|0:0,0:0:0:0:
400,17,144331,1,8,0:0:0:0:
486,100,144461,1,0,0:0:0:0:
298,46,144592,6,0,P|234:18|128:75,1,170.500005203247,6|8,0:0|0:0,0:0:0:0:
36,46,144983,1,0,0:0:0:0:
65,167,145113,2,0,L|83:286,1,85.2500026016236,2|2,0:0|0:0,0:0:0:0:
192,257,145374,2,0,L|173:368,1,85.2500026016236,8|0,0:0|0:0,0:0:0:0:
312,292,145635,6,0,P|360:324|485:266,1,170.500005203247,2|8,0:0|0:0,0:0:0:0:
501,190,146026,1,0,0:0:0:0:
416,121,146157,2,0,P|405:69|434:24,1,85.2500026016236,2|2,0:0|0:0,0:0:0:0:
383,200,146418,2,0,P|339:207|280:189,1,85.2500026016236,8|0,0:0|0:0,0:0:0:0:
220,110,146679,6,0,P|254:150|230:272,1,170.500005203247,2|8,0:0|0:0,0:0:0:0:
164,335,147070,1,0,0:0:0:0:
101,235,147200,2,0,P|56:240|17:256,2,85.2500026016236,2|2|8,0:0|0:0|0:0,0:0:0:0:
164,335,147592,1,0,0:0:0:0:
240,260,147722,6,0,P|316:249|419:289,1,170.500005203247,2|8,0:0|0:0,0:0:0:0:
480,353,148113,1,0,0:0:0:0:
493,232,148244,2,0,L|497:131,1,85.2500026016236,2|2,0:0|0:0,0:0:0:0:
435,39,148505,2,0,P|388:83|337:96,1,85.2500026016236,8|0,0:0|0:0,0:0:0:0:
250,43,148766,6,0,P|294:63|350:193,1,170.500005203247,6|8,0:0|0:0,0:0:0:0:
315,280,149157,1,0,0:0:0:0:
202,158,149287,2,0,L|94:157,1,85.2500026016236,2|2,0:0|0:0,0:0:0:0:
92,317,149548,2,0,P|145:286|160:229,1,85.2500026016236,8|0,0:0|0:0,0:0:0:0:
33,66,149809,6,0,P|15:135|42:246,1,170.500005203247,2|8,0:0|0:0,0:0:0:0:
105,342,150200,1,0,0:0:0:0:
199,251,150331,2,0,P|262:231|360:274,1,170.500005203247,2|8,0:0|0:0,0:0:0:0:
431,337,150722,1,0,0:0:0:0:
452,216,150853,6,0,L|458:110,1,85.2500026016236,2|2,0:0|0:0,0:0:0:0:
329,26,151113,2,0,L|352:129,1,85.2500026016236,8|0,0:0|0:0,0:0:0:0:
446,21,151374,1,2,0:0:0:0:
350,127,151505,1,2,0:0:0:0:
261,62,151635,2,0,P|212:57|146:73,1,85.2500026016236,8|0,0:0|0:0,0:0:0:0:
89,248,151896,6,0,P|148:234|177:124,1,170.500005203247,2|8,0:0|0:0,0:0:0:0:
65,98,152287,1,0,0:0:0:0:
52,251,152418,2,0,L|39:346,1,85.2500026016236,2|2,0:0|0:0,0:0:0:0:
161,310,152679,2,0,P|206:297|266:311,1,85.2500026016236,8|0,0:0|0:0,0:0:0:0:
375,358,152940,6,0,P|329:310|366:202,1,170.500005203247,6|8,0:0|0:0,0:0:0:0:
458,149,153331,1,0,0:0:0:0:
372,38,153461,2,0,L|391:145,1,85.2500026016236,2|2,0:0|0:0,0:0:0:0:
266,200,153722,2,0,L|308:106,1,85.2500026016236,8|0,0:0|0:0,0:0:0:0:
205,58,153983,6,0,B|158:26|158:26|15:44,1,170.500005203247,6|8,0:0|0:0,0:0:0:0:
108,235,154374,1,0,0:0:0:0:
160,123,154505,1,8,0:0:0:0:
37,115,154635,1,8,0:0:0:0:
55,284,154766,2,0,L|158:279,1,85.2500026016236,8|8,0:0|0:0,0:0:0:0:
310,193,155026,5,4,0:0:0:0:
256,192,155092,12,0,157048,0:0:0:0:
256,192,157113,12,4,159201,0:0:0:0:
212,308,167201,6,0,P|168:322|124:304,1,81.3749975166321,6|0,0:0|0:0,0:0:0:0:
106,291,167451,1,2,0:0:0:0:
43,142,167701,2,0,B|125:126|125:126|226:146,1,162.749995033264,10|2,0:0|0:0,0:0:0:0:
361,82,168201,6,0,L|357:183,1,81.3749975166321,2|0,0:0|0:0,0:0:0:0:
350,198,168451,1,2,0:0:0:0:
471,15,168701,2,0,L|458:194,1,162.749995033264,10|2,0:0|0:0,0:0:0:0:
417,298,169201,6,0,P|369:278|322:283,1,81.3749975166321,2|0,0:0|0:0,0:0:0:0:
315,305,169451,1,2,0:0:0:0:
186,322,169701,2,0,P|142:289|187:198,1,162.749995033264,10|2,0:0|0:0,0:0:0:0:
244,81,170201,6,0,L|146:73,1,81.3749975166321,2|0,0:0|0:0,0:0:0:0:
129,93,170451,1,2,0:0:0:0:
285,165,170701,2,0,L|418:164,1,108.499996688843,10|2,0:0|0:0,0:0:0:0:
460,81,171076,1,0,0:0:0:0:
501,177,171201,6,0,P|510:219|502:299,1,108.499996688843,6|0,0:0|0:0,0:0:0:0:
417,353,171701,2,0,L|295:352,1,108.499996688843,14|0,0:0|0:0,0:0:0:0:
204,289,172201,5,6,0:0:0:0:
115,360,172451,1,0,0:0:0:0:
63,255,172701,2,0,L|59:139,1,108.499996688843,14|0,0:0|0:0,0:0:0:0:
161,60,173201,6,0,P|205:94|267:93,1,108.499996688843,6|0,0:0|0:0,0:0:0:0:
425,29,173701,2,0,P|385:23|316:60,1,108.499996688843,14|2,0:0|0:0,0:0:0:0:
317,187,174201,6,0,L|319:263,1,54.2499983444214,8|8,0:0|0:0,0:0:0:0:
285,343,174451,2,0,P|243:332|201:346,1,81.3749975166321,8|0,0:0|0:0,0:0:0:0:
169,333,174701,6,0,B|169:284|169:284|190:253|190:253|187:174,1,162.749995033264,0|0,0:0|0:0,0:0:0:0:
154,152,175201,6,0,P|105:175|44:168,1,85.2500026016236,4|0,0:1|0:0,0:0:0:0:
169,51,175451,2,0,P|212:37|272:46,1,85.2500026016236,10|0,0:0|0:0,0:0:0:0:
383,125,175701,1,2,0:0:0:0:
344,22,175826,1,2,0:0:0:0:
289,155,175951,2,0,L|274:260,1,85.2500026016236,8|0,0:0|0:0,0:0:0:0:
355,308,176201,6,0,P|400:320|457:313,1,85.2500026016236,2|0,0:0|0:0,0:0:0:0:
168,233,176451,1,8,0:0:0:0:
195,325,176576,2,0,P|262:346|314:331,1,85.2500026016236,0|2,0:0|0:0,0:0:0:0:
66,335,176826,1,2,0:0:0:0:
74,227,176951,2,0,L|65:117,1,85.2500026016236,8|0,0:0|0:0,0:0:0:0:
142,64,177201,6,0,P|185:112|288:107,1,170.500005203247,2|8,0:0|0:0,0:0:0:0:
383,28,177576,1,0,0:0:0:0:
364,175,177701,2,0,P|333:233|333:269,1,85.2500026016236,2|2,0:0|0:0,0:0:0:0:
455,337,177951,2,0,P|440:298|409:257,1,85.2500026016236,8|0,0:0|0:0,0:0:0:0:
255,340,178201,6,0,L|163:343,1,85.2500026016236,2|0,0:0|0:0,0:0:0:0:
156,228,178451,1,8,0:0:0:0:
48,158,178576,2,0,L|61:267,1,85.2500026016236,0|2,0:0|0:0,0:0:0:0:
160,44,178826,2,0,L|148:138,1,85.2500026016236,2|8,0:0|0:0,0:0:0:0:
264,190,179076,1,0,0:0:0:0:
296,37,179201,5,2,0:0:0:0:
165,157,179326,1,0,0:0:0:0:
358,101,179451,2,0,P|438:102|501:197,1,170.500005203247,8|2,0:0|0:0,0:0:0:0:
481,279,179826,1,2,0:0:0:0:
390,320,179951,2,0,P|340:335|296:332,1,85.2500026016236,8|0,0:0|0:0,0:0:0:0:
166,185,180201,6,0,P|225:228|216:345,1,170.500005203247,2|8,0:0|0:0,0:0:0:0:
108,338,180576,1,0,0:0:0:0:
64,236,180701,2,0,P|60:185|68:135,1,85.2500026016236,2|2,0:0|0:0,0:0:0:0:
210,35,180951,2,0,P|205:102|184:149,1,85.2500026016236,8|0,0:0|0:0,0:0:0:0:
99,38,181201,6,0,P|45:33|0:53,2,85.2500026016236,10|2|10,0:0|0:0|0:0,0:0:0:0:
173,154,181576,1,10,0:0:0:0:
296,112,181701,2,0,L|407:110,1,85.2500026016236,2|0,0:0|0:0,0:0:0:0:
465,273,181951,2,0,L|391:207,1,85.2500026016236,10|0,0:0|0:0,0:0:0:0:
426,48,182201,6,0,P|405:130|404:246,1,170.500005203247,6|8,0:0|0:0,0:0:0:0:
355,340,182576,1,0,0:0:0:0:
290,240,182701,2,0,P|237:233|166:247,1,85.2500026016236,10|8,0:0|0:0,0:0:0:0:
47,262,182951,1,8,0:0:0:0:
142,338,183076,1,0,0:0:0:0:
134,188,183201,6,0,B|116:113|116:113|161:20,1,170.500005203247,6|8,0:0|0:0,0:0:0:0:
274,37,183576,1,0,0:0:0:0:
361,137,183701,2,0,P|412:138|459:115,1,85.2500026016236,2|2,0:0|0:0,0:0:0:0:
474,4,183951,2,0,P|422:22|378:73,1,85.2500026016236,8|0,0:0|0:0,0:0:0:0:
471,244,184201,6,0,L|477:136,1,85.2500026016236,2|0,0:0|0:0,0:0:0:0:
395,343,184451,1,8,0:0:0:0:
321,242,184576,2,0,L|321:143,1,85.2500026016236,0|2,0:0|0:0,0:0:0:0:
292,357,184826,1,2,0:0:0:0:
227,241,184951,2,0,P|166:236|114:257,1,85.2500026016236,8|0,0:0|0:0,0:0:0:0:
74,343,185201,6,0,P|111:278|83:175,1,170.500005203247,2|8,0:0|0:0,0:0:0:0:
49,78,185576,1,0,0:0:0:0:
150,134,185701,2,0,P|209:148|258:128,1,85.2500026016236,2|2,0:0|0:0,0:0:0:0:
366,32,185951,2,0,P|310:36|261:72,1,85.2500026016236,8|0,0:0|0:0,0:0:0:0:
425,160,186201,6,0,L|422:253,1,85.2500026016236,2|0,0:0|0:0,0:0:0:0:
267,141,186451,1,8,0:0:0:0:
326,262,186576,2,0,L|325:358,1,85.2500026016236,0|2,0:0|0:0,0:0:0:0:
230,134,186826,2,0,L|231:16,1,85.2500026016236,2|8,0:0|0:0,0:0:0:0:
90,219,187076,1,0,0:0:0:0:
119,85,187201,5,2,0:0:0:0:
199,214,187326,1,0,0:0:0:0:
134,307,187451,2,0,P|83:351|39:267,1,170.500005203247,8|2,0:0|0:0,0:0:0:0:
58,155,187826,1,2,0:0:0:0:
221,251,187951,2,0,L|316:245,1,85.2500026016236,8|0,0:0|0:0,0:0:0:0:
406,177,188201,6,0,P|365:129|423:40,1,170.500005203247,2|8,0:0|0:0,0:0:0:0:
404,272,188576,1,0,0:0:0:0:
271,112,188701,2,0,P|207:98|105:145,1,170.500005203247,2|8,0:0|0:0,0:0:0:0:
127,286,189076,1,0,0:0:0:0:
20,190,189201,5,14,0:0:0:0:
42,350,189326,1,0,0:0:0:0:
197,240,189451,2,0,L|316:232,1,85.2500026016236,12|8,0:0|0:0,0:0:0:0:
439,338,189701,2,0,P|388:333|354:298,1,85.2500026016236,6|0,0:0|0:0,0:0:0:0:
426,134,189951,2,0,L|421:235,1,85.2500026016236,14|0,0:0|0:0,0:0:0:0:
379,23,190201,6,0,P|355:63|235:91,1,170.500005203247,6|8,0:0|0:0,0:0:0:0:
88,31,190576,1,10,0:0:0:0:
190,179,190701,1,8,0:0:0:0:
194,10,190826,1,8,0:0:0:0:
78,141,190951,1,8,0:0:0:0:
241,93,191076,1,8,0:0:0:0:
15,93,191201,6,0,P|51:146|39:280,1,170.500005203247,6|8,0:0|0:0,0:0:0:0:
103,348,191576,1,0,0:0:0:0:
194,296,191701,2,0,P|246:287|300:305,1,85.2500026016236,2|2,0:0|0:0,0:0:0:0:
406,303,191951,2,0,P|376:238|385:198,1,85.2500026016236,8|0,0:0|0:0,0:0:0:0:
481,98,192201,6,0,L|464:209,1,85.2500026016236,6|0,0:0|0:0,0:0:0:0:
404,29,192451,1,8,0:0:0:0:
310,125,192576,2,0,L|216:122,1,85.2500026016236,4|2,0:0|0:0,0:0:0:0:
166,18,192826,1,2,0:0:0:0:
105,122,192951,2,0,P|89:186|123:226,1,85.2500026016236,8|0,0:0|0:0,0:0:0:0:
237,304,193201,6,0,P|248:235|160:162,1,170.500005203247,6|8,0:0|0:0,0:0:0:0:
106,320,193576,1,0,0:0:0:0:
237,304,193701,2,0,P|300:304|342:314,1,85.2500026016236,2|2,0:0|0:0,0:0:0:0:
414,246,193951,2,0,P|405:197|414:160,1,85.2500026016236,8|0,0:0|0:0,0:0:0:0:
411,51,194201,6,0,P|368:86|326:103,1,85.2500026016236,6|0,0:0|0:0,0:0:0:0:
245,26,194451,1,8,0:0:0:0:
190,113,194576,2,0,L|89:110,1,85.2500026016236,4|2,0:0|0:0,0:0:0:0:
167,214,194826,1,0,0:0:0:0:
20,106,194951,2,0,P|9:171|32:221,1,85.2500026016236,8|0,0:0|0:0,0:0:0:0:
103,313,195201,5,6,0:0:0:0:
0,292,195326,1,0,0:0:0:0:
197,187,195451,2,0,P|259:161|367:211,1,170.500005203247,8|2,0:0|0:0,0:0:0:0:
420,315,195826,1,2,0:0:0:0:
455,212,195951,2,0,L|462:113,1,85.2500026016236,8|0,0:0|0:0,0:0:0:0:
265,77,196201,6,0,L|268:283,1,170.500005203247,6|8,0:0|0:0,0:0:0:0:
170,301,196576,1,4,0:0:0:0:
149,155,196701,2,0,P|107:136|34:219,1,170.500005203247,2|8,0:0|0:0,0:0:0:0:
78,353,197076,1,0,0:0:0:0:
205,296,197201,6,0,P|258:279|302:280,1,85.2500026016236,6|0,0:0|0:0,0:0:0:0:
449,344,197451,2,0,P|390:346|345:322,1,85.2500026016236,12|0,0:0|0:0,0:0:0:0:
419,150,197701,2,0,L|408:266,1,85.2500026016236,6|2,0:0|0:0,0:0:0:0:
305,60,197951,2,0,L|315:173,1,85.2500026016236,12|0,0:0|0:0,0:0:0:0:
181,128,198201,6,0,P|116:113|32:184,1,170.500005203247,6|8,0:0|0:0,0:0:0:0:
54,300,198576,1,0,0:0:0:0:
199,258,198701,2,0,P|249:256|285:270,1,85.2500026016236,12|8,0:0|0:0,0:0:0:0:
350,359,198951,1,8,0:0:0:0:
457,322,199076,1,8,0:0:0:0:
399,224,199201,6,0,L|405:52,1,170.500005203247,6|8,0:0|0:0,0:0:0:0:
275,132,199576,1,0,0:0:0:0:
183,69,199701,2,0,P|136:60|81:79,1,85.2500026016236,2|2,0:0|0:0,0:0:0:0:
142,244,199951,2,0,P|186:216|200:157,1,85.2500026016236,8|0,0:0|0:0,0:0:0:0:
31,190,200201,6,0,L|40:310,1,85.2500026016236,6|0,0:0|0:0,0:0:0:0:
112,344,200451,1,8,0:0:0:0:
209,298,200576,2,0,P|260:287|315:296,1,85.2500026016236,4|2,0:0|0:0,0:0:0:0:
381,357,200826,1,2,0:0:0:0:
439,270,200951,2,0,L|444:166,1,85.2500026016236,8|0,0:0|0:0,0:0:0:0:
460,75,201201,6,0,P|425:109|304:103,1,170.500005203247,6|8,0:0|0:0,0:0:0:0:
238,25,201576,1,0,0:0:0:0:
175,122,201701,2,0,P|129:131|83:118,1,85.2500026016236,2|2,0:0|0:0,0:0:0:0:
28,204,201951,2,0,L|26:300,1,85.2500026016236,8|0,0:0|0:0,0:0:0:0:
156,244,202201,6,0,L|258:256,1,85.2500026016236,6|0,0:0|0:0,0:0:0:0:
323,350,202451,1,8,0:0:0:0:
325,166,202576,2,0,L|326:255,1,85.2500026016236,4|2,0:0|0:0,0:0:0:0:
435,119,202826,2,0,L|419:228,1,85.2500026016236,2|8,0:0|0:0,0:0:0:0:
412,343,203076,1,0,0:0:0:0:
293,253,203201,5,6,0:0:0:0:
440,222,203326,1,0,0:0:0:0:
294,104,203451,2,0,P|231:87|126:131,1,170.500005203247,8|2,0:0|0:0,0:0:0:0:
34,79,203826,1,2,0:0:0:0:
43,192,203951,2,0,L|29:302,1,85.2500026016236,8|0,0:0|0:0,0:0:0:0:
133,351,204201,6,0,P|172:366|303:340,1,170.500005203247,6|8,0:0|0:0,0:0:0:0:
401,286,204576,1,4,0:0:0:0:
336,193,204701,2,0,P|316:141|391:53,1,170.500005203247,2|8,0:0|0:0,0:0:0:0:
448,141,205076,1,0,0:0:0:0:
294,225,205201,6,0,L|186:220,1,85.2500026016236,14|2,0:0|0:0,0:0:0:0:
85,129,205451,2,0,L|181:133,1,85.2500026016236,14|2,0:0|0:0,0:0:0:0:
227,261,205701,1,14,0:0:0:0:
196,82,205826,1,2,0:0:0:0:
114,233,205951,1,14,0:0:0:0:
274,151,206076,1,2,0:0:0:0:
75,62,206201,6,0,L|71:248,1,170.500005203247,12|8,0:0|0:0,0:0:0:0:
154,332,206576,1,8,0:0:0:0:
261,260,206701,2,0,P|311:254|355:260,1,85.2500026016236,8|8,0:0|0:0,0:0:0:0:
467,353,206951,2,0,P|422:309|409:264,1,85.2500026016236,8|0,0:0|0:0,0:0:0:0:
390,117,207201,6,0,P|336:84|218:113,1,170.500005203247,6|12,0:0|0:0,0:0:0:0:
153,175,207576,1,0,0:0:0:0:
95,87,207701,2,0,P|34:78|-5:93,1,85.2500026016236,2|2,0:0|0:0,0:0:0:0:
77,251,207951,2,0,P|120:202|125:149,1,85.2500026016236,12|0,0:0|0:0,0:0:0:0:
10,341,208201,6,0,L|194:327,1,170.500005203247,2|12,0:0|0:0,0:0:0:0:
279,276,208576,1,0,0:0:0:0:
397,295,208701,2,0,P|410:223|393:178,1,85.2500026016236,2|2,0:0|0:0,0:0:0:0:
263,113,208951,2,0,P|289:172|325:197,1,85.2500026016236,12|0,0:0|0:0,0:0:0:0:
358,74,209201,6,0,L|172:69,1,170.500005203247,2|12,0:0|0:0,0:0:0:0:
87,10,209576,1,0,0:0:0:0:
50,120,209701,2,0,P|35:172|45:226,1,85.2500026016236,2|2,0:0|0:0,0:0:0:0:
166,295,209951,2,0,P|152:245|116:208,1,85.2500026016236,12|0,0:0|0:0,0:0:0:0:
75,337,210201,6,0,L|277:335,1,170.500005203247,6|8,0:0|0:0,0:0:0:0:
353,366,210576,1,4,0:0:0:0:
389,270,210701,2,0,P|404:230|383:178,1,85.2500026016236,2|2,0:0|0:0,0:0:0:0:
241,100,210951,2,0,P|269:147|315:179,1,85.2500026016236,12|0,0:0|0:0,0:0:0:0:
429,82,211201,6,0,L|237:82,1,170.500005203247,4|12,0:0|0:0,0:0:0:0:
154,19,211576,1,0,0:0:0:0:
93,116,211701,2,0,P|84:173|89:233,1,85.2500026016236,2|2,0:0|0:0,0:0:0:0:
231,281,211951,2,0,P|191:233|164:219,1,85.2500026016236,12|0,0:0|0:0,0:0:0:0:
69,301,212201,6,0,B|121:324|121:324|234:321,1,170.500005203247,2|12,0:0|0:0,0:0:0:0:
353,380,212576,1,0,0:0:0:0:
405,281,212701,2,0,P|423:230|399:170,1,85.2500026016236,2|2,0:0|0:0,0:0:0:0:
310,160,212951,1,12,0:0:0:0:
378,288,213076,1,0,0:0:0:0:
378,125,213201,6,0,L|182:120,1,170.500005203247,2|12,0:0|0:0,0:0:0:0:
111,42,213576,1,0,0:0:0:0:
85,143,213701,2,0,P|70:195|90:259,1,85.2500026016236,2|2,0:0|0:0,0:0:0:0:
157,359,213951,1,12,0:0:0:0:
51,313,214076,1,0,0:0:0:0:
203,268,214201,6,0,L|390:259,1,170.500005203247,14|0,0:0|0:0,0:0:0:0:
458,348,214576,1,12,0:0:0:0:
463,231,214701,2,0,L|467:130,1,85.2500026016236,2|0,0:0|0:0,0:0:0:0:
323,72,214951,2,0,L|373:170,1,85.2500026016236,12|0,0:0|0:0,0:0:0:0:
225,140,215201,6,0,P|160:140|134:126,1,85.2500026016236,8|0,0:0|0:0,0:0:0:0:
38,45,215451,2,0,L|22:124,3,42.6250013008118,14|2|2|2,0:0|0:0|0:0|0:0,0:0:0:0:
81,165,215701,2,0,L|85:218,3,42.6250013008118,14|2|2|2,0:0|0:0|0:0|0:0,0:0:0:0:
65,236,215951,1,14,0:0:0:0:
55,268,216013,1,2,0:0:0:0:
60,301,216076,1,2,0:0:0:0:
83,325,216138,1,2,0:0:0:0:
114,338,216201,5,14,0:0:0:0:
267,308,216326,2,0,L|447:317,2,170.500005203247,2|2|2,0:0|0:0|0:0,0:0:0:0:
175,227,216951,2,0,P|174:160|180:121,1,85.2500026016236,14|0,0:0|0:0,0:0:0:0:
302,76,217201,6,0,L|323:33,3,42.6250013008118,6|2|2|2,0:0|0:0|0:0|0:0,0:0:0:0:
408,80,217451,2,0,L|467:69,3,42.6250013008118,14|2|2|2,0:0|0:0|0:0|0:0,0:0:0:0:
450,186,217701,2,0,L|466:232,3,42.6250013008118,2|2|14|2,0:0|0:0|0:0|0:0,0:0:0:0:
455,259,217951,1,2,0:0:0:0:
425,276,218013,1,2,0:0:0:0:
390,280,218076,1,2,0:0:0:0:
357,271,218138,1,2,0:0:0:0:
326,255,218201,6,0,P|267:236|195:320,1,170.500005203247,6|6,0:0|0:0,0:0:0:0:
102,357,218576,1,0,0:0:0:0:
51,255,218701,2,0,L|43:155,1,85.2500026016236,6|0,0:0|0:0,0:0:0:0:
154,98,218951,2,0,L|132:191,1,85.2500026016236,6|0,0:0|0:0,0:0:0:0:
274,53,219201,6,0,P|316:100|428:78,1,170.500005203247,6|10,0:0|0:0,0:0:0:0:
503,18,219576,1,10,0:0:0:0:
430,175,219701,2,0,P|396:222|392:278,1,85.2500026016236,6|2,0:0|0:0,0:0:0:0:
348,353,219951,1,2,0:0:0:0:
305,224,220076,1,2,0:0:0:0:
442,321,220201,6,0,L|246:308,1,185.999994323731,6|0,0:0|0:0,0:0:0:0:
58,149,221201,1,6,0:0:0:0:
