osu file format v14

[General]
AudioFilename: Inochi no Karakuri.mp3
AudioLeadIn: 0
PreviewTime: -1
Countdown: 1
SampleSet: None
StackLeniency: 0.7
Mode: 1
LetterboxInBreaks: 1
WidescreenStoryboard: 1

[Editor]
Bookmarks: 13424,19539,25653,56226,68456,80685,92914,99029,105144,232787
DistanceSpacing: 0.1
BeatDivisor: 4
GridSize: 32
TimelineZoom: 3.549998

[Metadata]
Title:Inochi no Karakuri
TitleUnicode:イノチノカラクリ
Artist:Arakawa Miho
ArtistUnicode:荒川 美穂
Creator:Bnyuu
Version:Kantan
Source:悪魔のリドル
Tags:akuma no riddle
BeatmapID:875776
BeatmapSetID:402751

[Difficulty]
HPDrainRate:6
CircleSize:5
OverallDifficulty:5
ApproachRate:10
SliderMultiplier:1.4
SliderTickRate:4

[Events]
//Background and Video events
0,0,"1491-72901-2.jpg",0,0
//Break Periods
//Storyboard Layer 0 (Background)
//Storyboard Layer 1 (Fail)
//Storyboard Layer 2 (Pass)
//Storyboard Layer 3 (Foreground)
//Storyboard Sound Samples

[TimingPoints]
-333.591599040129,382.165605095541,4,1,0,100,1,0
4634,-66.6666666666667,4,1,0,100,0,0
7309,-50,4,1,0,100,0,0
141832,-66.6666666666667,4,1,0,100,0,0
154061,-50,4,1,0,100,0,0
179284,-100,4,1,0,100,0,0
189029,-66.6666666666667,4,1,0,100,0,0
196863,-50,4,1,0,100,0,0

[HitObjects]
256,192,1195,5,4,0:0:0:0:
256,192,1959,1,8,0:0:0:0:
256,192,2341,1,8,0:0:0:0:
256,192,2723,1,4,0:0:0:0:
256,192,3488,1,8,0:0:0:0:
256,192,3870,1,0,0:0:0:0:
256,192,4252,1,4,0:0:0:0:
256,192,4825,1,0,0:0:0:0:
256,192,4889,1,0,0:0:0:0:
256,192,4953,1,0,0:0:0:0:
256,192,5016,1,8,0:0:0:0:
256,192,5112,5,0,0:0:0:0:
256,192,5207,1,0,0:0:0:0:
256,192,5303,1,8,0:0:0:0:
256,192,5398,1,0,0:0:0:0:
256,192,5494,1,0,0:0:0:0:
256,192,5589,5,8,0:0:0:0:
256,192,5685,1,0,0:0:0:0:
256,192,5781,1,8,0:0:0:0:
256,192,5972,1,0,0:0:0:0:
256,192,6067,1,8,0:0:0:0:
256,192,6258,1,0,0:0:0:0:
256,192,6354,1,8,0:0:0:0:
160,96,6545,2,0,L|480:96,1,315.000012016297
256,192,7309,1,4,0:0:0:0:
256,192,7405,1,0,0:0:0:0:
256,192,7500,1,8,0:0:0:0:
256,192,7596,1,0,0:0:0:0:
256,192,7691,1,0,0:0:0:0:
256,192,7787,1,0,0:0:0:0:
256,192,7882,1,8,0:0:0:0:
256,192,7930,1,0,0:0:0:0:
256,192,7978,1,0,0:0:0:0:
256,192,8026,1,0,0:0:0:0:
256,192,8074,1,8,0:0:0:0:
256,192,8169,1,0,0:0:0:0:
256,192,8265,1,0,0:0:0:0:
256,192,8360,1,8,0:0:0:0:
256,192,8456,1,0,0:0:0:0:
256,192,8551,1,0,0:0:0:0:
256,192,8647,1,8,0:0:0:0:
256,192,8742,1,8,0:0:0:0:
256,192,8838,1,0,0:0:0:0:
256,192,8933,1,0,0:0:0:0:
256,192,9029,1,8,0:0:0:0:
256,192,9077,1,8,0:0:0:0:
256,192,9125,1,0,0:0:0:0:
256,192,9220,1,0,0:0:0:0:
256,192,9316,1,0,0:0:0:0:
256,192,9411,1,8,0:0:0:0:
256,192,9507,1,0,0:0:0:0:
256,192,9554,1,0,0:0:0:0:
256,192,9602,1,0,0:0:0:0:
256,192,9698,1,8,0:0:0:0:
256,192,9793,1,8,0:0:0:0:
256,192,9889,1,0,0:0:0:0:
256,192,9984,1,8,0:0:0:0:
256,192,10080,1,0,0:0:0:0:
256,192,10175,1,8,0:0:0:0:
256,192,10271,1,8,0:0:0:0:
256,192,10367,1,0,0:0:0:0:
256,192,10462,1,8,0:0:0:0:
256,192,10558,1,8,0:0:0:0:
256,192,10653,1,0,0:0:0:0:
256,192,10749,1,0,0:0:0:0:
256,192,10844,1,0,0:0:0:0:
256,192,10892,1,0,0:0:0:0:
256,192,10940,1,8,0:0:0:0:
256,192,11035,1,0,0:0:0:0:
256,192,11083,1,0,0:0:0:0:
256,192,11131,1,8,0:0:0:0:
256,192,11226,1,0,0:0:0:0:
256,192,11322,1,0,0:0:0:0:
256,192,11418,1,8,0:0:0:0:
256,192,11465,1,0,0:0:0:0:
256,192,11513,1,0,0:0:0:0:
256,192,11561,1,0,0:0:0:0:
256,192,11609,1,8,0:0:0:0:
256,192,11704,1,8,0:0:0:0:
256,192,11800,1,0,0:0:0:0:
224,192,11895,1,0,0:0:0:0:
256,192,11991,1,8,0:0:0:0:
256,192,12039,1,8,0:0:0:0:
256,192,12086,1,8,0:0:0:0:
224,192,12134,1,8,0:0:0:0:
224,192,12182,1,0,0:0:0:0:
224,192,12277,1,0,0:0:0:0:
224,192,12325,1,8,0:0:0:0:
224,192,12373,1,8,0:0:0:0:
224,192,12421,1,8,0:0:0:0:
224,192,12468,1,0,0:0:0:0:
256,192,12564,1,0,0:0:0:0:
256,192,12660,1,8,0:0:0:0:
256,256,12755,1,0,0:0:0:0:
256,192,12851,1,0,0:0:0:0:
256,192,12946,1,8,0:0:0:0:
256,192,13042,5,0,0:0:0:0:
256,192,13137,1,0,0:0:0:0:
256,192,13233,1,8,0:0:0:0:
256,192,13328,1,8,0:0:0:0:
256,192,13424,1,4,0:0:0:0:
256,192,13520,1,0,0:0:0:0:
256,192,13615,1,8,0:0:0:0:
256,192,13711,1,0,0:0:0:0:
256,192,13806,1,0,0:0:0:0:
256,192,13902,1,0,0:0:0:0:
256,192,13997,1,8,0:0:0:0:
256,192,14045,1,0,0:0:0:0:
256,192,14093,1,0,0:0:0:0:
256,192,14141,1,0,0:0:0:0:
256,192,14189,1,8,0:0:0:0:
256,192,14284,1,0,0:0:0:0:
256,192,14380,1,0,0:0:0:0:
256,192,14475,1,8,0:0:0:0:
256,192,14571,1,0,0:0:0:0:
256,192,14666,1,0,0:0:0:0:
256,192,14762,1,8,0:0:0:0:
256,192,14857,1,8,0:0:0:0:
256,192,14953,1,0,0:0:0:0:
256,192,15048,1,0,0:0:0:0:
256,192,15144,1,8,0:0:0:0:
256,192,15192,1,8,0:0:0:0:
256,192,15240,1,0,0:0:0:0:
256,192,15335,1,0,0:0:0:0:
256,192,15431,1,0,0:0:0:0:
256,192,15526,1,8,0:0:0:0:
256,192,15622,1,0,0:0:0:0:
256,192,15669,1,0,0:0:0:0:
256,192,15717,1,0,0:0:0:0:
256,192,15813,1,8,0:0:0:0:
256,192,15908,1,8,0:0:0:0:
256,192,16004,1,0,0:0:0:0:
256,192,16099,1,8,0:0:0:0:
256,192,16195,1,0,0:0:0:0:
256,192,16290,1,8,0:0:0:0:
256,192,16386,1,8,0:0:0:0:
256,192,16482,1,0,0:0:0:0:
256,192,16577,1,8,0:0:0:0:
256,192,16673,1,8,0:0:0:0:
256,192,16768,1,0,0:0:0:0:
256,192,16864,1,0,0:0:0:0:
256,192,16959,1,0,0:0:0:0:
256,192,17007,1,0,0:0:0:0:
256,192,17055,1,8,0:0:0:0:
256,192,17150,1,0,0:0:0:0:
256,192,17198,1,0,0:0:0:0:
256,192,17246,1,8,0:0:0:0:
256,192,17341,1,0,0:0:0:0:
256,192,17437,1,0,0:0:0:0:
256,192,17533,1,8,0:0:0:0:
256,192,17580,1,0,0:0:0:0:
256,192,17628,1,0,0:0:0:0:
256,192,17676,1,0,0:0:0:0:
256,192,17724,1,8,0:0:0:0:
256,192,17819,1,8,0:0:0:0:
256,192,17915,1,0,0:0:0:0:
224,192,18010,1,0,0:0:0:0:
256,192,18106,1,8,0:0:0:0:
256,192,18154,1,8,0:0:0:0:
256,192,18201,1,8,0:0:0:0:
224,192,18249,1,8,0:0:0:0:
224,192,18297,1,0,0:0:0:0:
224,192,18392,1,0,0:0:0:0:
224,192,18440,1,8,0:0:0:0:
224,192,18488,1,8,0:0:0:0:
224,192,18536,1,8,0:0:0:0:
224,192,18583,1,0,0:0:0:0:
256,192,18679,1,0,0:0:0:0:
256,192,18775,1,8,0:0:0:0:
256,256,18870,1,0,0:0:0:0:
256,192,18966,1,0,0:0:0:0:
256,192,19061,1,8,0:0:0:0:
256,192,19157,5,0,0:0:0:0:
256,192,19252,1,0,0:0:0:0:
256,192,19348,1,8,0:0:0:0:
256,192,19443,1,8,0:0:0:0:
256,192,19539,1,4,0:0:0:0:
256,192,19730,1,8,0:0:0:0:
256,192,19825,1,0,0:0:0:0:
256,192,19921,1,0,0:0:0:0:
256,192,20016,1,0,0:0:0:0:
256,192,20112,1,8,0:0:0:0:
256,192,20303,1,0,0:0:0:0:
256,192,20398,1,0,0:0:0:0:
256,192,20494,1,8,0:0:0:0:
256,192,20589,1,0,0:0:0:0:
256,192,20685,1,0,0:0:0:0:
256,192,20781,1,0,0:0:0:0:
256,192,20876,1,8,0:0:0:0:
256,192,20972,1,8,0:0:0:0:
256,192,21067,1,0,0:0:0:0:
256,192,21163,1,0,0:0:0:0:
256,192,21258,1,8,0:0:0:0:
256,192,21449,1,0,0:0:0:0:
256,192,21545,1,0,0:0:0:0:
256,192,21640,1,8,0:0:0:0:
256,192,21736,1,8,0:0:0:0:
256,192,21832,1,0,0:0:0:0:
256,192,21927,1,0,0:0:0:0:
256,192,22023,1,8,0:0:0:0:
256,192,22118,1,0,0:0:0:0:
256,192,22214,1,0,0:0:0:0:
256,192,22309,1,0,0:0:0:0:
256,192,22405,1,8,0:0:0:0:
256,192,22500,1,8,0:0:0:0:
256,192,22596,1,0,0:0:0:0:
256,192,22787,1,8,0:0:0:0:
256,192,22882,1,8,0:0:0:0:
256,192,22978,1,0,0:0:0:0:
256,192,23074,1,0,0:0:0:0:
256,192,23169,1,8,0:0:0:0:
256,192,23265,1,0,0:0:0:0:
256,192,23360,1,0,0:0:0:0:
256,192,23456,1,0,0:0:0:0:
256,192,23551,1,8,0:0:0:0:
256,192,23742,1,8,0:0:0:0:
256,192,23838,1,0,0:0:0:0:
256,192,23933,1,8,0:0:0:0:
256,192,23981,1,8,0:0:0:0:
256,192,24029,1,0,0:0:0:0:
256,192,24125,1,0,0:0:0:0:
256,192,24220,1,0,0:0:0:0:
256,192,24316,1,8,0:0:0:0:
256,192,24507,1,0,0:0:0:0:
256,192,24602,1,0,0:0:0:0:
256,192,24698,1,8,0:0:0:0:
256,192,24793,1,0,0:0:0:0:
256,192,24889,1,12,0:0:0:0:
256,192,25080,1,0,0:0:0:0:
256,192,25175,1,12,0:0:0:0:
256,192,25367,1,0,0:0:0:0:
256,192,25462,1,12,0:0:0:0:
256,192,25653,1,4,0:0:0:0:
256,192,25749,1,0,0:0:0:0:
256,192,25844,1,8,0:0:0:0:
256,192,25940,1,8,0:0:0:0:
256,192,26035,1,0,0:0:0:0:
256,192,26131,1,0,0:0:0:0:
256,192,26226,1,8,0:0:0:0:
256,192,26322,1,0,0:0:0:0:
256,192,26418,1,0,0:0:0:0:
256,192,26513,1,0,0:0:0:0:
256,192,26609,1,8,0:0:0:0:
256,192,26704,1,8,0:0:0:0:
256,192,26752,1,8,0:0:0:0:
256,192,26800,1,0,0:0:0:0:
256,192,26895,1,0,0:0:0:0:
256,192,26991,1,8,0:0:0:0:
256,192,27086,1,0,0:0:0:0:
256,192,27182,1,0,0:0:0:0:
256,192,27373,1,8,0:0:0:0:
256,192,27468,1,0,0:0:0:0:
256,192,27564,1,0,0:0:0:0:
256,192,27660,1,0,0:0:0:0:
256,192,27755,1,8,0:0:0:0:
256,192,27946,1,0,0:0:0:0:
256,192,28042,1,0,0:0:0:0:
256,192,28137,1,8,0:0:0:0:
256,192,28233,1,0,0:0:0:0:
256,192,28281,1,0,0:0:0:0:
256,192,28328,1,8,0:0:0:0:
256,192,28424,1,0,0:0:0:0:
256,192,28519,1,8,0:0:0:0:
256,192,28615,1,8,0:0:0:0:
256,192,28710,1,0,0:0:0:0:
256,192,28902,1,8,0:0:0:0:
256,192,28997,1,0,0:0:0:0:
256,192,29093,1,0,0:0:0:0:
256,192,29188,1,0,0:0:0:0:
256,192,29284,1,8,0:0:0:0:
256,192,29379,1,8,0:0:0:0:
256,192,29475,1,0,0:0:0:0:
256,192,29666,1,0,0:0:0:0:
256,192,29730,1,0,0:0:0:0:
256,192,29793,1,0,0:0:0:0:
256,192,29857,1,8,0:0:0:0:
256,192,30048,1,0,0:0:0:0:
256,192,30239,1,8,0:0:0:0:
256,192,30335,1,0,0:0:0:0:
256,192,30430,1,0,0:0:0:0:
256,192,30526,1,0,0:0:0:0:
256,192,30621,1,0,0:0:0:0:
256,192,30717,1,0,0:0:0:0:
256,192,30812,1,8,0:0:0:0:
256,192,31099,1,0,0:0:0:0:
256,192,31195,1,0,0:0:0:0:
256,192,31290,1,0,0:0:0:0:
256,192,31386,1,8,0:0:0:0:
256,192,31513,1,8,0:0:0:0:
256,192,31640,1,8,0:0:0:0:
256,192,31768,1,4,0:0:0:0:
256,192,31959,1,8,0:0:0:0:
256,192,32150,5,0,0:0:0:0:
256,192,32246,1,0,0:0:0:0:
256,192,32341,1,8,0:0:0:0:
256,192,32437,1,0,0:0:0:0:
256,192,32532,1,0,0:0:0:0:
256,192,32628,1,0,0:0:0:0:
256,192,32723,1,8,0:0:0:0:
256,192,32819,1,8,0:0:0:0:
256,192,32914,1,0,0:0:0:0:
256,192,33105,1,8,0:0:0:0:
256,192,33201,1,8,0:0:0:0:
256,192,33296,1,0,0:0:0:0:
256,192,33392,1,8,0:0:0:0:
256,192,33488,1,0,0:0:0:0:
256,192,33583,1,0,0:0:0:0:
256,192,33631,1,8,0:0:0:0:
256,192,33679,1,8,0:0:0:0:
256,192,33774,1,0,0:0:0:0:
256,192,33870,1,8,0:0:0:0:
256,192,33965,1,8,0:0:0:0:
256,192,34061,1,0,0:0:0:0:
256,192,34156,1,0,0:0:0:0:
256,192,34252,1,8,0:0:0:0:
256,192,34347,1,0,0:0:0:0:
256,192,34443,1,0,0:0:0:0:
256,192,34539,1,0,0:0:0:0:
256,192,34634,1,8,0:0:0:0:
256,192,34730,1,8,0:0:0:0:
256,192,34825,1,0,0:0:0:0:
256,192,34921,1,0,0:0:0:0:
256,192,35016,1,8,0:0:0:0:
256,192,35112,1,0,0:0:0:0:
256,192,35207,1,0,0:0:0:0:
256,192,35303,1,0,0:0:0:0:
256,192,35398,1,8,0:0:0:0:
256,192,35494,1,8,0:0:0:0:
256,192,35589,1,0,0:0:0:0:
256,192,35781,1,8,0:0:0:0:
256,192,35876,1,0,0:0:0:0:
256,192,36067,5,0,0:0:0:0:
256,192,36163,1,8,0:0:0:0:
256,192,36258,1,0,0:0:0:0:
256,192,36354,1,0,0:0:0:0:
256,192,36449,1,0,0:0:0:0:
256,192,36545,1,8,0:0:0:0:
256,192,36640,1,0,0:0:0:0:
256,192,36688,1,0,0:0:0:0:
256,192,36736,1,0,0:0:0:0:
256,192,36832,1,0,0:0:0:0:
256,192,36927,1,8,0:0:0:0:
256,192,37023,1,0,0:0:0:0:
256,192,37118,1,12,0:0:0:0:
256,192,37309,1,0,0:0:0:0:
256,192,37405,1,12,0:0:0:0:
256,192,37596,1,0,0:0:0:0:
256,192,37691,1,12,0:0:0:0:
256,192,37882,1,4,0:0:0:0:
256,192,37978,1,0,0:0:0:0:
256,192,38073,1,8,0:0:0:0:
256,192,38169,1,8,0:0:0:0:
256,192,38264,1,0,0:0:0:0:
256,192,38360,1,0,0:0:0:0:
256,192,38455,1,8,0:0:0:0:
256,192,38551,1,0,0:0:0:0:
256,192,38647,1,0,0:0:0:0:
256,192,38742,1,0,0:0:0:0:
256,192,38838,1,8,0:0:0:0:
256,192,38933,1,8,0:0:0:0:
256,192,38981,1,8,0:0:0:0:
256,192,39029,1,0,0:0:0:0:
256,192,39124,1,0,0:0:0:0:
256,192,39220,1,8,0:0:0:0:
256,192,39315,1,0,0:0:0:0:
256,192,39411,1,0,0:0:0:0:
256,192,39602,1,8,0:0:0:0:
256,192,39698,1,0,0:0:0:0:
256,192,39793,1,0,0:0:0:0:
256,192,39889,1,0,0:0:0:0:
256,192,39984,1,8,0:0:0:0:
256,192,40080,1,8,0:0:0:0:
256,192,40175,1,0,0:0:0:0:
256,192,40367,1,8,0:0:0:0:
256,192,40462,1,8,0:0:0:0:
256,192,40558,1,0,0:0:0:0:
256,192,40653,1,0,0:0:0:0:
256,192,40749,1,8,0:0:0:0:
256,192,40844,1,8,0:0:0:0:
256,192,40940,1,0,0:0:0:0:
256,192,41131,1,8,0:0:0:0:
256,192,41226,1,0,0:0:0:0:
256,192,41322,1,0,0:0:0:0:
256,192,41418,1,0,0:0:0:0:
256,192,41513,1,8,0:0:0:0:
256,192,41704,1,8,0:0:0:0:
256,192,41895,1,0,0:0:0:0:
256,192,41959,1,0,0:0:0:0:
256,192,42023,1,0,0:0:0:0:
256,192,42086,1,8,0:0:0:0:
256,192,42150,1,0,0:0:0:0:
256,192,42214,1,0,0:0:0:0:
256,192,42277,1,0,0:0:0:0:
256,192,42341,1,0,0:0:0:0:
256,192,42405,1,0,0:0:0:0:
256,192,42468,1,8,0:0:0:0:
256,192,42564,1,0,0:0:0:0:
256,192,42660,1,0,0:0:0:0:
256,192,42755,1,8,0:0:0:0:
256,192,42851,1,0,0:0:0:0:
256,192,42946,1,0,0:0:0:0:
256,192,43042,1,8,0:0:0:0:
256,192,43328,1,8,0:0:0:0:
256,192,43424,5,0,0:0:0:0:
256,192,43519,1,0,0:0:0:0:
256,192,43615,1,8,0:0:0:0:
256,192,43710,1,8,0:0:0:0:
256,160,43806,1,0,0:0:0:0:
256,160,43902,1,0,0:0:0:0:
256,160,43997,1,4,0:0:0:0:
256,192,44188,1,8,0:0:0:0:
256,192,44284,1,0,0:0:0:0:
256,192,44379,1,0,0:0:0:0:
256,192,44475,1,0,0:0:0:0:
256,192,44570,1,8,0:0:0:0:
256,192,44761,1,0,0:0:0:0:
256,192,44857,1,0,0:0:0:0:
256,192,44953,1,8,0:0:0:0:
256,192,45048,1,0,0:0:0:0:
256,192,45096,1,8,0:0:0:0:
256,192,45144,1,8,0:0:0:0:
256,192,45239,1,0,0:0:0:0:
256,192,45335,1,8,0:0:0:0:
256,192,45430,1,0,0:0:0:0:
256,192,45526,1,0,0:0:0:0:
256,192,45717,1,8,0:0:0:0:
256,192,45812,1,8,0:0:0:0:
256,192,45908,1,0,0:0:0:0:
256,192,46003,1,0,0:0:0:0:
256,192,46099,1,8,0:0:0:0:
256,192,46290,5,0,0:0:0:0:
256,192,46386,1,0,0:0:0:0:
256,192,46481,1,8,0:0:0:0:
256,192,46577,1,0,0:0:0:0:
256,192,46672,1,8,0:0:0:0:
256,192,46768,1,0,0:0:0:0:
256,192,46863,1,8,0:0:0:0:
256,192,46959,1,0,0:0:0:0:
256,192,47054,1,0,0:0:0:0:
256,192,47246,1,8,0:0:0:0:
256,192,47341,1,8,0:0:0:0:
256,192,47437,1,0,0:0:0:0:
256,192,47532,1,0,0:0:0:0:
256,192,47628,1,8,0:0:0:0:
256,192,47723,1,0,0:0:0:0:
256,192,47771,1,0,0:0:0:0:
256,192,47819,1,0,0:0:0:0:
256,192,47914,1,8,0:0:0:0:
256,192,48010,1,8,0:0:0:0:
256,192,48105,1,0,0:0:0:0:
256,192,48296,1,0,0:0:0:0:
256,192,48392,1,8,0:0:0:0:
256,192,48488,1,0,0:0:0:0:
256,192,48583,1,0,0:0:0:0:
256,192,48774,1,8,0:0:0:0:
256,192,48870,1,0,0:0:0:0:
256,192,48965,1,0,0:0:0:0:
256,192,49061,1,0,0:0:0:0:
256,192,49156,1,8,0:0:0:0:
256,192,49347,1,0,0:0:0:0:
256,192,49443,1,0,0:0:0:0:
256,192,49539,1,8,0:0:0:0:
256,192,49634,1,0,0:0:0:0:
256,192,49825,1,0,0:0:0:0:
256,192,49921,1,8,0:0:0:0:
256,192,50016,1,8,0:0:0:0:
256,192,50112,1,0,0:0:0:0:
256,192,50303,1,8,0:0:0:0:
256,192,50398,1,0,0:0:0:0:
256,192,50494,1,0,0:0:0:0:
256,192,50589,1,0,0:0:0:0:
256,192,50685,1,8,0:0:0:0:
256,192,50781,1,8,0:0:0:0:
256,192,50828,1,0,0:0:0:0:
256,192,50876,1,0,0:0:0:0:
256,192,50972,1,0,0:0:0:0:
256,192,51067,1,8,0:0:0:0:
256,192,51163,1,8,0:0:0:0:
256,192,51258,1,0,0:0:0:0:
256,192,51354,1,0,0:0:0:0:
256,192,51449,1,8,0:0:0:0:
256,192,51545,1,8,0:0:0:0:
256,192,51640,1,8,0:0:0:0:
256,192,51832,1,8,0:0:0:0:
256,192,51927,1,0,0:0:0:0:
256,192,52023,1,0,0:0:0:0:
256,192,52118,1,0,0:0:0:0:
256,192,52214,1,8,0:0:0:0:
256,192,52261,1,0,0:0:0:0:
256,192,52309,1,0,0:0:0:0:
256,192,52405,1,0,0:0:0:0:
256,192,52500,1,0,0:0:0:0:
256,192,52596,1,8,0:0:0:0:
256,192,52691,1,8,0:0:0:0:
256,192,52787,1,0,0:0:0:0:
256,192,52882,1,0,0:0:0:0:
256,192,52978,1,8,0:0:0:0:
256,192,53169,1,12,0:0:0:0:
256,192,53265,1,0,0:0:0:0:
256,192,53360,1,0,0:0:0:0:
256,192,53456,1,8,0:0:0:0:
256,192,53551,1,0,0:0:0:0:
256,192,53647,1,0,0:0:0:0:
256,192,53742,1,8,0:0:0:0:
256,192,53838,1,0,0:0:0:0:
256,192,53933,1,12,0:0:0:0:
256,192,54029,1,0,0:0:0:0:
256,192,54125,1,0,0:0:0:0:
256,192,54220,1,8,0:0:0:0:
256,192,54316,1,0,0:0:0:0:
256,192,54411,1,0,0:0:0:0:
256,192,54507,1,8,0:0:0:0:
256,192,54602,1,0,0:0:0:0:
256,192,54698,1,12,0:0:0:0:
128,64,54889,2,0,L|288:64,3,140,0|0|0|0,0:0|0:0|0:0|0:0,0:0:0:0:
256,192,55653,1,0,0:0:0:0:
256,192,55717,1,0,0:0:0:0:
256,192,55781,1,0,0:0:0:0:
256,192,55844,1,8,0:0:0:0:
256,192,56035,1,8,0:0:0:0:
256,192,56226,1,4,0:0:0:0:
256,192,56322,1,0,0:0:0:0:
256,192,56418,1,0,0:0:0:0:
256,192,56513,1,8,0:0:0:0:
256,192,56561,1,0,0:0:0:0:
256,192,56609,1,0,0:0:0:0:
256,192,56704,1,0,0:0:0:0:
256,192,56800,1,8,0:0:0:0:
256,192,56895,1,8,0:0:0:0:
256,192,56991,1,0,0:0:0:0:
256,192,57086,1,0,0:0:0:0:
256,192,57182,1,8,0:0:0:0:
256,192,57277,1,0,0:0:0:0:
256,192,57373,1,0,0:0:0:0:
256,192,57468,1,0,0:0:0:0:
256,192,57564,1,8,0:0:0:0:
256,192,57612,1,8,0:0:0:0:
256,192,57660,1,0,0:0:0:0:
256,192,57755,1,0,0:0:0:0:
256,192,57851,1,0,0:0:0:0:
256,192,57946,1,8,0:0:0:0:
256,192,58042,1,0,0:0:0:0:
256,192,58137,1,0,0:0:0:0:
256,192,58233,1,0,0:0:0:0:
256,192,58328,1,8,0:0:0:0:
256,192,58424,1,8,0:0:0:0:
256,192,58519,1,0,0:0:0:0:
256,192,58615,1,0,0:0:0:0:
256,192,58710,1,8,0:0:0:0:
256,192,58758,1,0,0:0:0:0:
256,192,58806,1,0,0:0:0:0:
256,192,58854,1,0,0:0:0:0:
256,192,58902,1,8,0:0:0:0:
256,192,58997,1,0,0:0:0:0:
256,192,59093,1,8,0:0:0:0:
256,192,59188,1,8,0:0:0:0:
256,192,59284,1,0,0:0:0:0:
256,192,59379,1,0,0:0:0:0:
256,192,59475,1,8,0:0:0:0:
256,192,59523,1,8,0:0:0:0:
256,192,59570,1,0,0:0:0:0:
256,192,59618,1,0,0:0:0:0:
256,192,59666,1,8,0:0:0:0:
256,192,59761,1,0,0:0:0:0:
256,192,59857,1,8,0:0:0:0:
256,192,59953,1,0,0:0:0:0:
256,192,60048,1,8,0:0:0:0:
256,192,60144,1,0,0:0:0:0:
256,192,60239,1,8,0:0:0:0:
256,192,60287,1,8,0:0:0:0:
256,192,60335,1,8,0:0:0:0:
256,192,60382,1,8,0:0:0:0:
256,192,60430,1,0,0:0:0:0:
256,192,60526,1,0,0:0:0:0:
256,192,60621,1,8,0:0:0:0:
256,192,60717,1,8,0:0:0:0:
256,192,60812,1,0,0:0:0:0:
256,192,60860,1,0,0:0:0:0:
256,192,60908,1,0,0:0:0:0:
256,192,60956,1,0,0:0:0:0:
256,192,61003,1,8,0:0:0:0:
256,192,61051,1,8,0:0:0:0:
256,192,61099,1,0,0:0:0:0:
256,192,61195,1,8,0:0:0:0:
256,192,61290,1,0,0:0:0:0:
256,192,61386,1,8,0:0:0:0:
256,192,61481,1,0,0:0:0:0:
256,192,61577,1,0,0:0:0:0:
256,192,61672,1,8,0:0:0:0:
256,192,61768,1,8,0:0:0:0:
256,192,61863,1,8,0:0:0:0:
256,192,61959,1,0,0:0:0:0:
256,192,62054,1,0,0:0:0:0:
256,192,62150,1,8,0:0:0:0:
256,192,62198,1,8,0:0:0:0:
256,192,62246,1,8,0:0:0:0:
256,192,62293,1,8,0:0:0:0:
256,192,62341,1,0,0:0:0:0:
256,192,62437,1,0,0:0:0:0:
256,192,62532,1,8,0:0:0:0:
256,192,62628,1,0,0:0:0:0:
256,192,62723,1,0,0:0:0:0:
256,192,62819,1,0,0:0:0:0:
256,192,62914,1,8,0:0:0:0:
256,192,63010,1,0,0:0:0:0:
256,192,63105,1,8,0:0:0:0:
256,192,63201,1,0,0:0:0:0:
256,192,63296,1,8,0:0:0:0:
256,192,63344,1,8,0:0:0:0:
256,192,63392,1,0,0:0:0:0:
256,192,63488,1,0,0:0:0:0:
256,192,63583,1,8,0:0:0:0:
256,192,63679,1,8,0:0:0:0:
256,192,63726,1,8,0:0:0:0:
256,192,63774,1,8,0:0:0:0:
256,192,63822,1,0,0:0:0:0:
256,192,63870,1,0,0:0:0:0:
256,192,63965,1,0,0:0:0:0:
256,192,64061,1,8,0:0:0:0:
256,192,64156,1,0,0:0:0:0:
256,192,64252,1,0,0:0:0:0:
256,192,64347,1,8,0:0:0:0:
256,192,64443,1,8,0:0:0:0:
256,192,64539,1,0,0:0:0:0:
256,192,64634,1,0,0:0:0:0:
256,192,64730,1,8,0:0:0:0:
256,192,64825,1,8,0:0:0:0:
256,192,64921,1,8,0:0:0:0:
256,192,65016,1,0,0:0:0:0:
256,192,65064,1,0,0:0:0:0:
256,192,65112,1,0,0:0:0:0:
256,192,65160,1,8,0:0:0:0:
256,192,65207,1,8,0:0:0:0:
256,192,65303,1,8,0:0:0:0:
256,192,65398,1,0,0:0:0:0:
256,192,65494,1,0,0:0:0:0:
256,192,65589,1,8,0:0:0:0:
256,192,65685,1,0,0:0:0:0:
256,192,65781,1,0,0:0:0:0:
256,192,65876,1,8,0:0:0:0:
256,192,65972,1,8,0:0:0:0:
256,192,66067,1,8,0:0:0:0:
256,192,66163,1,0,0:0:0:0:
256,192,66354,1,8,0:0:0:0:
256,192,66449,1,0,0:0:0:0:
256,192,66545,1,8,0:0:0:0:
256,192,66640,1,8,0:0:0:0:
256,192,66736,1,0,0:0:0:0:
256,192,66832,1,8,0:0:0:0:
256,192,66927,1,8,0:0:0:0:
256,192,67023,1,0,0:0:0:0:
256,192,67070,1,0,0:0:0:0:
256,192,67118,1,0,0:0:0:0:
256,192,67214,1,8,0:0:0:0:
256,192,67309,1,0,0:0:0:0:
256,192,67357,1,0,0:0:0:0:
256,192,67405,1,0,0:0:0:0:
256,192,67453,1,0,0:0:0:0:
256,192,67500,1,8,0:0:0:0:
256,192,67596,1,0,0:0:0:0:
256,192,67691,1,8,0:0:0:0:
256,192,67739,1,8,0:0:0:0:
256,192,67787,1,8,0:0:0:0:
256,192,67882,1,0,0:0:0:0:
256,192,67978,1,8,0:0:0:0:
256,192,68074,1,0,0:0:0:0:
256,192,68169,1,0,0:0:0:0:
256,192,68265,1,8,0:0:0:0:
256,192,68312,1,8,0:0:0:0:
256,192,68360,1,8,0:0:0:0:
256,192,68408,1,8,0:0:0:0:
256,192,68456,1,0,0:0:0:0:
256,192,68551,1,8,0:0:0:0:
256,192,68647,1,0,0:0:0:0:
256,192,68742,1,8,0:0:0:0:
256,192,68838,1,0,0:0:0:0:
256,192,68933,1,8,0:0:0:0:
256,192,69029,1,8,0:0:0:0:
256,192,69077,1,8,0:0:0:0:
256,192,69125,1,0,0:0:0:0:
256,192,69220,1,0,0:0:0:0:
256,192,69316,1,0,0:0:0:0:
256,192,69411,1,8,0:0:0:0:
256,192,69507,1,0,0:0:0:0:
256,192,69602,1,8,0:0:0:0:
256,192,69650,1,0,0:0:0:0:
256,192,69698,1,0,0:0:0:0:
256,192,69793,1,8,0:0:0:0:
256,192,69889,1,0,0:0:0:0:
256,192,69984,1,0,0:0:0:0:
256,192,70080,1,0,0:0:0:0:
256,192,70175,1,8,0:0:0:0:
256,192,70223,1,8,0:0:0:0:
256,192,70271,1,8,0:0:0:0:
256,192,70367,1,0,0:0:0:0:
256,192,70462,1,0,0:0:0:0:
256,192,70558,1,8,0:0:0:0:
256,192,70605,1,8,0:0:0:0:
256,192,70653,1,8,0:0:0:0:
256,192,70701,1,0,0:0:0:0:
256,192,70749,1,0,0:0:0:0:
256,192,70844,1,0,0:0:0:0:
256,192,70940,1,8,0:0:0:0:
256,192,71035,1,0,0:0:0:0:
256,192,71131,1,8,0:0:0:0:
256,192,71226,1,0,0:0:0:0:
256,192,71322,1,8,0:0:0:0:
256,192,71418,1,8,0:0:0:0:
256,192,71513,1,0,0:0:0:0:
256,192,71609,1,0,0:0:0:0:
256,192,71704,1,8,0:0:0:0:
256,192,71752,1,8,0:0:0:0:
256,192,71800,1,0,0:0:0:0:
256,192,71895,1,0,0:0:0:0:
256,192,71991,1,0,0:0:0:0:
256,192,72086,1,8,0:0:0:0:
256,192,72134,1,0,0:0:0:0:
256,192,72182,1,0,0:0:0:0:
256,192,72277,1,8,0:0:0:0:
256,192,72373,1,0,0:0:0:0:
256,192,72468,1,8,0:0:0:0:
256,192,72516,1,0,0:0:0:0:
256,192,72564,1,0,0:0:0:0:
256,192,72612,1,0,0:0:0:0:
256,192,72660,1,8,0:0:0:0:
256,192,72755,1,0,0:0:0:0:
256,192,72851,1,8,0:0:0:0:
256,192,72946,1,0,0:0:0:0:
256,192,73042,1,8,0:0:0:0:
256,192,73089,1,0,0:0:0:0:
256,192,73137,1,0,0:0:0:0:
256,192,73185,1,0,0:0:0:0:
256,192,73233,1,8,0:0:0:0:
256,192,73328,1,8,0:0:0:0:
256,192,73424,1,8,0:0:0:0:
256,192,73519,1,0,0:0:0:0:
256,192,73615,1,8,0:0:0:0:
256,192,73710,1,0,0:0:0:0:
256,192,73806,1,8,0:0:0:0:
256,192,73854,1,0,0:0:0:0:
256,192,73902,1,0,0:0:0:0:
256,192,73997,1,8,0:0:0:0:
256,192,74093,1,8,0:0:0:0:
256,192,74188,1,0,0:0:0:0:
256,192,74284,1,0,0:0:0:0:
256,192,74332,1,0,0:0:0:0:
256,192,74379,1,8,0:0:0:0:
256,192,74427,1,8,0:0:0:0:
256,192,74475,1,8,0:0:0:0:
256,192,74523,1,8,0:0:0:0:
256,192,74570,1,0,0:0:0:0:
256,192,74666,1,0,0:0:0:0:
256,192,74761,1,8,0:0:0:0:
256,192,74857,1,0,0:0:0:0:
256,192,74953,1,0,0:0:0:0:
256,192,75048,1,0,0:0:0:0:
256,192,75144,1,8,0:0:0:0:
256,192,75191,1,8,0:0:0:0:
256,192,75239,1,8,0:0:0:0:
256,192,75335,1,0,0:0:0:0:
256,192,75430,1,0,0:0:0:0:
256,192,75526,1,8,0:0:0:0:
256,192,75589,1,0,0:0:0:0:
256,192,75653,1,0,0:0:0:0:
256,192,75717,1,8,0:0:0:0:
256,192,75781,1,0,0:0:0:0:
256,192,75844,1,0,0:0:0:0:
256,192,75908,1,8,0:0:0:0:
256,192,75972,1,8,0:0:0:0:
256,192,76035,1,0,0:0:0:0:
256,192,76099,1,8,0:0:0:0:
256,192,76195,1,8,0:0:0:0:
256,192,76290,1,0,0:0:0:0:
256,192,76386,1,0,0:0:0:0:
256,192,76481,1,8,0:0:0:0:
256,192,76529,1,8,0:0:0:0:
256,192,76577,1,0,0:0:0:0:
256,192,76672,1,8,0:0:0:0:
256,192,76768,1,4,0:0:0:0:
256,192,76959,1,0,0:0:0:0:
256,192,77054,1,8,0:0:0:0:
256,192,77150,1,0,0:0:0:0:
256,192,77246,1,0,0:0:0:0:
256,192,77341,1,0,0:0:0:0:
256,192,77437,1,8,0:0:0:0:
256,192,77532,1,0,0:0:0:0:
256,192,77628,1,12,0:0:0:0:
256,192,77819,1,0,0:0:0:0:
256,192,77914,1,12,0:0:0:0:
256,192,78105,1,0,0:0:0:0:
256,192,78201,1,12,0:0:0:0:
256,192,78392,1,12,0:0:0:0:
256,192,78488,1,0,0:0:0:0:
256,192,78583,1,0,0:0:0:0:
256,192,78679,1,12,0:0:0:0:
256,192,78774,1,0,0:0:0:0:
256,192,78870,1,0,0:0:0:0:
256,192,78965,1,12,0:0:0:0:
256,192,79061,1,0,0:0:0:0:
256,192,79156,1,12,0:0:0:0:
256,192,80685,1,4,0:0:0:0:
256,192,80781,1,0,0:0:0:0:
256,192,80876,1,8,0:0:0:0:
256,192,80972,1,0,0:0:0:0:
256,192,81067,1,0,0:0:0:0:
256,192,81163,1,0,0:0:0:0:
256,192,81258,1,8,0:0:0:0:
256,192,81306,1,0,0:0:0:0:
256,192,81354,1,0,0:0:0:0:
256,192,81450,1,8,0:0:0:0:
256,192,81545,1,0,0:0:0:0:
256,192,81641,1,0,0:0:0:0:
256,192,81736,1,8,0:0:0:0:
256,192,81832,1,0,0:0:0:0:
256,192,81927,1,0,0:0:0:0:
256,192,82023,1,8,0:0:0:0:
256,192,82118,1,8,0:0:0:0:
256,192,82214,1,0,0:0:0:0:
256,192,82309,1,0,0:0:0:0:
256,192,82405,1,8,0:0:0:0:
256,192,82501,1,0,0:0:0:0:
256,192,82596,1,0,0:0:0:0:
256,192,82692,1,0,0:0:0:0:
256,192,82787,1,8,0:0:0:0:
256,192,82835,1,8,0:0:0:0:
256,192,82883,1,0,0:0:0:0:
256,192,82978,1,0,0:0:0:0:
256,192,83074,1,8,0:0:0:0:
256,192,83169,1,8,0:0:0:0:
256,192,83265,1,0,0:0:0:0:
256,192,83360,1,8,0:0:0:0:
256,192,83408,1,0,0:0:0:0:
256,192,83456,1,0,0:0:0:0:
256,192,83551,1,8,0:0:0:0:
256,192,83647,1,8,0:0:0:0:
256,192,83743,1,0,0:0:0:0:
256,192,83838,1,8,0:0:0:0:
256,192,83934,1,8,0:0:0:0:
256,192,84029,1,0,0:0:0:0:
256,192,84125,1,0,0:0:0:0:
256,192,84220,1,0,0:0:0:0:
256,192,84316,1,8,0:0:0:0:
256,192,84411,1,0,0:0:0:0:
256,192,84507,1,8,0:0:0:0:
256,192,84602,1,0,0:0:0:0:
256,192,84698,1,0,0:0:0:0:
256,192,84793,1,8,0:0:0:0:
256,192,84889,1,0,0:0:0:0:
256,192,84937,1,8,0:0:0:0:
256,192,84985,1,8,0:0:0:0:
256,192,85080,1,8,0:0:0:0:
256,192,85176,1,0,0:0:0:0:
256,192,85271,1,8,0:0:0:0:
256,192,85367,1,8,0:0:0:0:
256,192,85462,1,0,0:0:0:0:
256,192,85558,1,0,0:0:0:0:
256,192,85653,1,8,0:0:0:0:
256,192,85701,1,0,0:0:0:0:
256,192,85749,1,0,0:0:0:0:
256,192,85844,1,8,0:0:0:0:
256,192,85940,1,0,0:0:0:0:
256,192,86036,1,0,0:0:0:0:
256,192,86131,1,8,0:0:0:0:
256,192,86227,1,0,0:0:0:0:
256,192,86322,1,8,0:0:0:0:
256,192,86418,1,0,0:0:0:0:
256,192,86513,1,8,0:0:0:0:
256,192,86561,1,8,0:0:0:0:
256,192,86609,1,0,0:0:0:0:
256,192,86704,1,8,0:0:0:0:
256,192,86800,1,4,0:0:0:0:
256,192,86896,1,0,0:0:0:0:
256,192,86991,1,8,0:0:0:0:
256,192,87087,1,0,0:0:0:0:
256,192,87182,1,0,0:0:0:0:
256,192,87278,1,0,0:0:0:0:
256,192,87373,1,8,0:0:0:0:
256,192,87421,1,0,0:0:0:0:
256,192,87469,1,0,0:0:0:0:
256,192,87517,1,0,0:0:0:0:
256,192,87565,1,8,0:0:0:0:
256,192,87660,1,0,0:0:0:0:
256,192,87756,1,0,0:0:0:0:
256,192,87851,1,8,0:0:0:0:
256,192,87947,1,0,0:0:0:0:
256,192,88042,1,0,0:0:0:0:
256,192,88138,1,8,0:0:0:0:
256,192,88233,1,8,0:0:0:0:
256,192,88329,1,0,0:0:0:0:
256,192,88424,1,0,0:0:0:0:
256,192,88520,1,8,0:0:0:0:
256,192,88616,1,0,0:0:0:0:
256,192,88711,1,0,0:0:0:0:
256,192,88807,1,0,0:0:0:0:
256,192,88902,1,8,0:0:0:0:
256,192,88998,1,0,0:0:0:0:
256,192,89045,1,0,0:0:0:0:
256,192,89093,1,0,0:0:0:0:
256,192,89189,1,8,0:0:0:0:
256,192,89284,1,8,0:0:0:0:
256,192,89380,1,0,0:0:0:0:
256,192,89475,1,8,0:0:0:0:
256,192,89571,1,0,0:0:0:0:
256,192,89666,1,8,0:0:0:0:
256,192,89762,1,8,0:0:0:0:
256,192,89858,1,0,0:0:0:0:
256,192,89953,1,8,0:0:0:0:
256,192,90049,1,8,0:0:0:0:
256,192,90144,1,0,0:0:0:0:
256,192,90240,1,0,0:0:0:0:
256,192,90335,1,0,0:0:0:0:
256,192,90383,1,0,0:0:0:0:
256,192,90431,1,8,0:0:0:0:
256,192,90526,1,0,0:0:0:0:
256,192,90622,1,8,0:0:0:0:
256,192,90717,1,0,0:0:0:0:
256,192,90813,1,0,0:0:0:0:
256,192,90909,1,8,0:0:0:0:
256,192,91004,1,0,0:0:0:0:
256,192,91100,1,8,0:0:0:0:
256,192,91195,1,8,0:0:0:0:
256,192,91291,1,0,0:0:0:0:
256,192,91386,1,0,0:0:0:0:
256,192,91482,1,0,0:0:0:0:
256,192,91530,1,8,0:0:0:0:
256,192,91577,1,8,0:0:0:0:
256,192,91625,1,8,0:0:0:0:
256,192,91673,1,0,0:0:0:0:
256,192,91768,1,0,0:0:0:0:
256,192,91816,1,8,0:0:0:0:
256,192,91864,1,8,0:0:0:0:
256,192,91912,1,8,0:0:0:0:
256,192,91959,1,0,0:0:0:0:
256,192,92054,1,0,0:0:0:0:
256,192,92150,1,0,0:0:0:0:
256,192,92246,1,0,0:0:0:0:
256,192,92341,1,0,0:0:0:0:
256,192,92437,1,8,0:0:0:0:
256,192,92532,1,8,0:0:0:0:
256,192,92628,1,0,0:0:0:0:
256,192,92724,1,8,0:0:0:0:
256,192,92819,1,8,0:0:0:0:
256,192,92915,1,4,0:0:0:0:
256,192,93105,1,8,0:0:0:0:
256,192,93201,1,0,0:0:0:0:
256,192,93296,1,0,0:0:0:0:
256,192,93392,1,0,0:0:0:0:
256,192,93488,1,8,0:0:0:0:
256,192,93679,1,0,0:0:0:0:
256,192,93774,1,0,0:0:0:0:
256,192,93870,1,8,0:0:0:0:
256,192,93965,1,8,0:0:0:0:
256,192,94061,1,0,0:0:0:0:
256,192,94156,1,0,0:0:0:0:
256,192,94252,1,8,0:0:0:0:
256,192,94300,1,8,0:0:0:0:
256,192,94347,1,8,0:0:0:0:
256,192,94443,1,0,0:0:0:0:
256,192,94634,1,8,0:0:0:0:
256,192,94730,1,0,0:0:0:0:
256,192,94825,1,0,0:0:0:0:
256,192,94921,1,0,0:0:0:0:
256,192,95016,1,8,0:0:0:0:
256,192,95207,1,0,0:0:0:0:
256,192,95303,1,0,0:0:0:0:
256,192,95398,1,8,0:0:0:0:
256,192,95494,1,8,0:0:0:0:
256,192,95589,1,0,0:0:0:0:
256,192,95685,1,0,0:0:0:0:
256,192,95781,1,8,0:0:0:0:
256,192,95876,1,8,0:0:0:0:
256,192,95972,1,0,0:0:0:0:
256,192,96163,1,8,0:0:0:0:
256,192,96258,1,0,0:0:0:0:
256,192,96354,1,0,0:0:0:0:
256,192,96449,1,0,0:0:0:0:
256,192,96545,1,8,0:0:0:0:
256,192,96593,1,0,0:0:0:0:
256,192,96640,1,0,0:0:0:0:
256,192,96736,1,0,0:0:0:0:
256,192,96832,1,8,0:0:0:0:
256,192,96927,1,8,0:0:0:0:
256,192,97023,1,8,0:0:0:0:
256,192,97118,1,0,0:0:0:0:
256,192,97214,1,0,0:0:0:0:
256,192,97309,1,8,0:0:0:0:
256,192,97357,1,8,0:0:0:0:
256,192,97405,1,8,0:0:0:0:
256,192,97500,1,0,0:0:0:0:
256,192,97596,1,0,0:0:0:0:
256,192,97691,1,8,0:0:0:0:
256,192,97787,1,0,0:0:0:0:
256,192,97882,1,0,0:0:0:0:
256,192,97978,1,0,0:0:0:0:
256,192,98074,1,8,0:0:0:0:
256,192,98169,1,0,0:0:0:0:
256,192,98265,1,12,0:0:0:0:
256,192,98360,1,0,0:0:0:0:
256,192,98456,1,0,0:0:0:0:
256,192,98551,1,12,0:0:0:0:
256,192,98647,1,0,0:0:0:0:
256,192,98742,1,0,0:0:0:0:
256,192,98838,1,12,0:0:0:0:
256,192,99029,1,4,0:0:0:0:
256,192,99125,1,0,0:0:0:0:
256,192,99220,1,8,0:0:0:0:
256,192,99316,1,0,0:0:0:0:
256,192,99411,1,0,0:0:0:0:
256,192,99507,1,0,0:0:0:0:
256,192,99602,1,8,0:0:0:0:
256,192,99650,1,0,0:0:0:0:
256,192,99698,1,0,0:0:0:0:
256,192,99794,1,0,0:0:0:0:
256,192,99889,1,0,0:0:0:0:
256,192,99985,1,8,0:0:0:0:
256,192,100080,1,8,0:0:0:0:
256,192,100176,1,0,0:0:0:0:
256,192,100271,1,0,0:0:0:0:
256,192,100367,1,8,0:0:0:0:
256,192,100414,1,0,0:0:0:0:
256,192,100462,1,0,0:0:0:0:
256,192,100558,1,0,0:0:0:0:
256,192,100749,1,8,0:0:0:0:
256,192,100845,1,0,0:0:0:0:
256,192,100940,1,0,0:0:0:0:
256,192,101036,1,0,0:0:0:0:
256,192,101131,1,8,0:0:0:0:
256,192,101179,1,8,0:0:0:0:
256,192,101227,1,8,0:0:0:0:
256,192,101274,1,8,0:0:0:0:
256,192,101322,1,0,0:0:0:0:
256,192,101514,1,8,0:0:0:0:
256,192,101609,1,8,0:0:0:0:
256,192,101705,1,0,0:0:0:0:
256,192,101800,1,0,0:0:0:0:
256,192,101896,1,8,0:0:0:0:
256,192,101991,1,8,0:0:0:0:
256,192,102087,1,0,0:0:0:0:
256,192,102278,1,8,0:0:0:0:
256,192,102373,1,0,0:0:0:0:
256,192,102469,1,0,0:0:0:0:
256,192,102565,1,0,0:0:0:0:
256,192,102660,1,8,0:0:0:0:
256,192,102755,1,0,0:0:0:0:
256,192,102851,1,8,0:0:0:0:
256,192,103042,1,0,0:0:0:0:
256,192,103106,1,0,0:0:0:0:
256,192,103170,1,0,0:0:0:0:
256,192,103233,1,8,0:0:0:0:
256,192,103297,1,0,0:0:0:0:
256,192,103361,1,0,0:0:0:0:
256,192,103424,1,0,0:0:0:0:
256,192,103488,1,0,0:0:0:0:
256,192,103552,1,0,0:0:0:0:
256,192,103615,1,8,0:0:0:0:
256,192,103711,1,0,0:0:0:0:
256,192,103807,1,0,0:0:0:0:
256,192,103902,1,8,0:0:0:0:
256,192,103998,1,0,0:0:0:0:
256,192,104093,1,0,0:0:0:0:
256,192,104189,1,8,0:0:0:0:
256,192,104475,1,8,0:0:0:0:
256,192,104571,5,0,0:0:0:0:
256,192,104666,1,0,0:0:0:0:
256,192,104762,1,8,0:0:0:0:
256,192,104857,1,8,0:0:0:0:
256,192,104953,1,0,0:0:0:0:
256,192,105049,1,0,0:0:0:0:
256,192,105144,1,4,0:0:0:0:
256,192,105335,1,8,0:0:0:0:
256,192,105431,1,0,0:0:0:0:
256,192,105526,1,0,0:0:0:0:
256,192,105622,1,0,0:0:0:0:
256,192,105717,1,8,0:0:0:0:
256,192,105908,1,0,0:0:0:0:
256,192,106004,1,0,0:0:0:0:
256,192,106100,1,8,0:0:0:0:
256,192,106195,1,0,0:0:0:0:
256,192,106243,1,0,0:0:0:0:
256,192,106291,1,8,0:0:0:0:
256,192,106386,1,0,0:0:0:0:
256,192,106482,1,8,0:0:0:0:
256,192,106577,1,0,0:0:0:0:
256,192,106673,1,0,0:0:0:0:
256,192,106864,1,8,0:0:0:0:
256,192,106959,1,8,0:0:0:0:
256,192,107055,1,0,0:0:0:0:
256,192,107150,1,0,0:0:0:0:
256,192,107246,1,8,0:0:0:0:
256,192,107437,5,0,0:0:0:0:
256,192,107533,1,0,0:0:0:0:
256,192,107628,1,8,0:0:0:0:
256,192,107724,1,0,0:0:0:0:
256,192,107819,1,8,0:0:0:0:
256,192,107915,1,8,0:0:0:0:
256,192,108010,1,0,0:0:0:0:
256,192,108106,1,0,0:0:0:0:
256,192,108201,1,8,0:0:0:0:
256,192,108393,1,8,0:0:0:0:
256,192,108488,1,8,0:0:0:0:
256,192,108584,1,0,0:0:0:0:
256,192,108679,1,0,0:0:0:0:
256,192,108775,1,8,0:0:0:0:
256,192,108870,1,0,0:0:0:0:
256,192,108918,1,0,0:0:0:0:
256,192,108966,1,0,0:0:0:0:
256,192,109061,1,8,0:0:0:0:
256,192,109157,1,8,0:0:0:0:
256,192,109252,1,0,0:0:0:0:
256,192,109443,1,0,0:0:0:0:
256,192,109539,1,8,0:0:0:0:
256,192,109635,1,0,0:0:0:0:
256,192,109730,1,0,0:0:0:0:
256,192,109921,1,8,0:0:0:0:
256,192,110017,1,0,0:0:0:0:
256,192,110112,1,0,0:0:0:0:
256,192,110208,1,0,0:0:0:0:
256,192,110303,1,8,0:0:0:0:
256,192,110494,1,0,0:0:0:0:
256,192,110590,1,0,0:0:0:0:
256,192,110686,1,8,0:0:0:0:
256,192,110781,1,0,0:0:0:0:
256,192,110972,1,0,0:0:0:0:
256,192,111068,1,8,0:0:0:0:
256,192,111163,1,8,0:0:0:0:
256,192,111259,1,0,0:0:0:0:
256,192,111450,1,8,0:0:0:0:
256,192,111545,1,0,0:0:0:0:
256,192,111641,1,0,0:0:0:0:
256,192,111736,1,0,0:0:0:0:
256,192,111832,1,8,0:0:0:0:
256,192,111928,1,8,0:0:0:0:
256,192,111975,1,0,0:0:0:0:
256,192,112023,1,0,0:0:0:0:
256,192,112119,1,0,0:0:0:0:
256,192,112214,1,8,0:0:0:0:
256,192,112310,1,8,0:0:0:0:
256,192,112405,1,0,0:0:0:0:
256,192,112501,1,0,0:0:0:0:
256,192,112596,1,8,0:0:0:0:
256,192,112692,1,8,0:0:0:0:
256,192,112787,1,8,0:0:0:0:
256,192,112979,1,8,0:0:0:0:
256,192,113074,1,0,0:0:0:0:
256,192,113170,1,0,0:0:0:0:
256,192,113265,1,0,0:0:0:0:
256,192,113361,1,8,0:0:0:0:
256,192,113408,1,0,0:0:0:0:
256,192,113456,1,0,0:0:0:0:
256,192,113552,1,0,0:0:0:0:
256,192,113647,1,0,0:0:0:0:
256,192,113743,1,8,0:0:0:0:
256,192,113838,1,8,0:0:0:0:
256,192,113934,1,0,0:0:0:0:
256,192,114029,1,0,0:0:0:0:
256,192,114125,1,8,0:0:0:0:
256,192,114316,1,12,0:0:0:0:
256,192,114412,1,0,0:0:0:0:
256,192,114507,1,0,0:0:0:0:
256,192,114603,1,8,0:0:0:0:
256,192,114698,1,0,0:0:0:0:
256,192,114794,1,0,0:0:0:0:
256,192,114889,1,8,0:0:0:0:
256,192,114985,1,0,0:0:0:0:
256,192,115080,1,12,0:0:0:0:
256,192,115176,1,0,0:0:0:0:
256,192,115272,1,0,0:0:0:0:
256,192,115367,1,8,0:0:0:0:
256,192,115463,1,0,0:0:0:0:
256,192,115558,1,0,0:0:0:0:
256,192,115654,1,8,0:0:0:0:
256,192,115749,1,0,0:0:0:0:
256,192,115845,1,4,0:0:0:0:
256,64,116035,2,0,L|416:64,3,140
256,192,116800,1,0,0:0:0:0:
256,192,116863,1,0,0:0:0:0:
256,192,116927,1,0,0:0:0:0:
256,192,116991,1,8,0:0:0:0:
256,192,117182,1,8,0:0:0:0:
256,192,117373,1,4,0:0:0:0:
256,192,117469,1,0,0:0:0:0:
256,192,117565,1,0,0:0:0:0:
256,192,117660,1,8,0:0:0:0:
256,192,117708,1,0,0:0:0:0:
256,192,117756,1,0,0:0:0:0:
256,192,117851,1,0,0:0:0:0:
256,192,117947,1,8,0:0:0:0:
256,192,118042,1,8,0:0:0:0:
256,192,118138,1,0,0:0:0:0:
256,192,118233,1,0,0:0:0:0:
256,192,118329,1,8,0:0:0:0:
256,192,118424,1,0,0:0:0:0:
256,192,118520,1,0,0:0:0:0:
256,192,118615,1,0,0:0:0:0:
256,192,118711,1,8,0:0:0:0:
256,192,118759,1,8,0:0:0:0:
256,192,118807,1,0,0:0:0:0:
256,192,118902,1,0,0:0:0:0:
256,192,118998,1,0,0:0:0:0:
256,192,119093,1,8,0:0:0:0:
256,192,119189,1,0,0:0:0:0:
256,192,119284,1,0,0:0:0:0:
256,192,119380,1,0,0:0:0:0:
256,192,119475,1,8,0:0:0:0:
256,192,119571,1,8,0:0:0:0:
256,192,119666,1,0,0:0:0:0:
256,192,119762,1,0,0:0:0:0:
256,192,119857,1,8,0:0:0:0:
256,192,119905,1,0,0:0:0:0:
256,192,119953,1,0,0:0:0:0:
256,192,120001,1,0,0:0:0:0:
256,192,120049,1,8,0:0:0:0:
256,192,120144,1,0,0:0:0:0:
256,192,120240,1,8,0:0:0:0:
256,192,120335,1,8,0:0:0:0:
256,192,120431,1,0,0:0:0:0:
256,192,120526,1,0,0:0:0:0:
256,192,120622,1,8,0:0:0:0:
256,192,120670,1,8,0:0:0:0:
256,192,120717,1,0,0:0:0:0:
256,192,120765,1,0,0:0:0:0:
256,192,120813,1,8,0:0:0:0:
256,192,120908,1,0,0:0:0:0:
256,192,121004,1,8,0:0:0:0:
256,192,121100,1,0,0:0:0:0:
256,192,121195,1,8,0:0:0:0:
256,192,121291,1,0,0:0:0:0:
256,192,121386,1,8,0:0:0:0:
256,192,121434,1,8,0:0:0:0:
256,192,121482,1,8,0:0:0:0:
256,192,121529,1,8,0:0:0:0:
256,192,121577,1,8,0:0:0:0:
256,192,121673,1,0,0:0:0:0:
256,192,121768,1,8,0:0:0:0:
256,192,121864,1,8,0:0:0:0:
256,192,121959,1,0,0:0:0:0:
256,192,122007,1,0,0:0:0:0:
256,192,122055,1,0,0:0:0:0:
256,192,122103,1,0,0:0:0:0:
256,192,122150,1,8,0:0:0:0:
256,192,122198,1,0,0:0:0:0:
256,192,122246,1,0,0:0:0:0:
256,192,122293,1,0,0:0:0:0:
256,192,122342,1,8,0:0:0:0:
256,192,122437,1,0,0:0:0:0:
256,192,122533,1,8,0:0:0:0:
256,192,122628,1,0,0:0:0:0:
256,192,122724,1,0,0:0:0:0:
256,192,122819,1,8,0:0:0:0:
256,192,122915,1,8,0:0:0:0:
256,192,123010,1,8,0:0:0:0:
256,192,123106,1,0,0:0:0:0:
256,192,123201,1,0,0:0:0:0:
256,192,123297,1,8,0:0:0:0:
256,192,123345,1,8,0:0:0:0:
256,192,123393,1,8,0:0:0:0:
256,192,123440,1,8,0:0:0:0:
256,192,123488,1,0,0:0:0:0:
256,192,123584,1,0,0:0:0:0:
256,192,123679,1,8,0:0:0:0:
256,192,123775,1,0,0:0:0:0:
256,192,123870,1,0,0:0:0:0:
256,192,123966,1,0,0:0:0:0:
256,192,124061,1,8,0:0:0:0:
256,192,124157,1,0,0:0:0:0:
256,192,124252,1,8,0:0:0:0:
256,192,124348,1,0,0:0:0:0:
256,192,124443,1,8,0:0:0:0:
256,192,124491,1,8,0:0:0:0:
256,192,124539,1,0,0:0:0:0:
256,192,124635,1,0,0:0:0:0:
256,192,124730,1,8,0:0:0:0:
256,192,124826,1,8,0:0:0:0:
256,192,124873,1,8,0:0:0:0:
256,192,124921,1,8,0:0:0:0:
256,192,124969,1,0,0:0:0:0:
256,192,125017,1,0,0:0:0:0:
256,192,125112,1,0,0:0:0:0:
256,192,125208,1,8,0:0:0:0:
256,192,125303,1,0,0:0:0:0:
256,192,125399,1,0,0:0:0:0:
256,192,125494,1,8,0:0:0:0:
256,192,125590,1,8,0:0:0:0:
256,192,125686,1,0,0:0:0:0:
256,192,125877,1,0,0:0:0:0:
256,192,125972,1,8,0:0:0:0:
256,192,126068,1,8,0:0:0:0:
256,192,126163,1,0,0:0:0:0:
256,192,126211,1,0,0:0:0:0:
256,192,126259,1,0,0:0:0:0:
256,192,126354,1,8,0:0:0:0:
256,192,126450,1,8,0:0:0:0:
256,192,126545,1,0,0:0:0:0:
256,192,126641,1,0,0:0:0:0:
256,192,126736,1,8,0:0:0:0:
256,192,126832,1,0,0:0:0:0:
256,192,126928,1,0,0:0:0:0:
256,192,127023,1,8,0:0:0:0:
256,192,127119,1,8,0:0:0:0:
256,192,127214,1,8,0:0:0:0:
256,192,127310,1,0,0:0:0:0:
256,192,127501,1,8,0:0:0:0:
256,192,127596,1,0,0:0:0:0:
256,192,127692,1,8,0:0:0:0:
256,192,127787,1,8,0:0:0:0:
256,192,127883,1,0,0:0:0:0:
256,192,127979,1,8,0:0:0:0:
256,192,128074,1,8,0:0:0:0:
256,192,128170,1,0,0:0:0:0:
256,192,128217,1,0,0:0:0:0:
256,192,128265,1,0,0:0:0:0:
256,192,128361,1,8,0:0:0:0:
256,192,128456,1,0,0:0:0:0:
256,192,128504,1,0,0:0:0:0:
256,192,128552,1,0,0:0:0:0:
256,192,128600,1,0,0:0:0:0:
256,192,128647,1,8,0:0:0:0:
256,192,128743,1,0,0:0:0:0:
256,192,128838,1,8,0:0:0:0:
256,192,128886,1,8,0:0:0:0:
256,192,128934,1,8,0:0:0:0:
256,192,129029,1,0,0:0:0:0:
256,192,129125,1,8,0:0:0:0:
256,192,129221,1,0,0:0:0:0:
256,192,129316,1,0,0:0:0:0:
256,192,129412,1,8,0:0:0:0:
256,192,129459,1,8,0:0:0:0:
256,192,129507,1,8,0:0:0:0:
256,192,129555,1,8,0:0:0:0:
256,192,129603,1,0,0:0:0:0:
256,192,129698,1,8,0:0:0:0:
256,192,129794,1,0,0:0:0:0:
256,192,129889,1,8,0:0:0:0:
256,192,129985,1,0,0:0:0:0:
256,192,130080,1,8,0:0:0:0:
256,192,130176,1,8,0:0:0:0:
256,192,130224,1,8,0:0:0:0:
256,192,130272,1,0,0:0:0:0:
256,192,130367,1,0,0:0:0:0:
256,192,130463,1,0,0:0:0:0:
256,192,130558,1,8,0:0:0:0:
256,192,130654,1,0,0:0:0:0:
256,192,130749,1,8,0:0:0:0:
256,192,130797,1,0,0:0:0:0:
256,192,130845,1,0,0:0:0:0:
256,192,130940,1,8,0:0:0:0:
256,192,131036,1,0,0:0:0:0:
256,192,131131,1,0,0:0:0:0:
256,192,131227,1,0,0:0:0:0:
256,192,131322,1,8,0:0:0:0:
256,192,131370,1,8,0:0:0:0:
256,192,131418,1,8,0:0:0:0:
256,192,131514,1,0,0:0:0:0:
256,192,131609,1,0,0:0:0:0:
256,192,131705,1,8,0:0:0:0:
256,192,131752,1,8,0:0:0:0:
256,192,131800,1,8,0:0:0:0:
256,192,131848,1,0,0:0:0:0:
256,192,131896,1,0,0:0:0:0:
256,192,131991,1,0,0:0:0:0:
256,192,132087,1,8,0:0:0:0:
256,192,132182,1,0,0:0:0:0:
256,192,132278,1,8,0:0:0:0:
256,192,132373,1,0,0:0:0:0:
256,192,132469,1,8,0:0:0:0:
256,192,132565,1,8,0:0:0:0:
256,192,132660,1,0,0:0:0:0:
256,192,132756,1,0,0:0:0:0:
256,192,132851,1,8,0:0:0:0:
256,192,132899,1,8,0:0:0:0:
256,192,132947,1,0,0:0:0:0:
256,192,133042,1,0,0:0:0:0:
256,192,133138,1,0,0:0:0:0:
256,192,133233,1,8,0:0:0:0:
256,192,133281,1,0,0:0:0:0:
256,192,133329,1,0,0:0:0:0:
256,192,133424,1,8,0:0:0:0:
256,192,133520,1,0,0:0:0:0:
256,192,133615,1,8,0:0:0:0:
256,192,133663,1,0,0:0:0:0:
256,192,133711,1,0,0:0:0:0:
256,192,133759,1,0,0:0:0:0:
256,192,133807,1,8,0:0:0:0:
256,192,133902,1,8,0:0:0:0:
256,192,133998,1,8,0:0:0:0:
256,192,134093,1,0,0:0:0:0:
256,192,134189,1,8,0:0:0:0:
256,192,134236,1,0,0:0:0:0:
256,192,134284,1,0,0:0:0:0:
256,192,134332,1,0,0:0:0:0:
256,192,134380,1,8,0:0:0:0:
256,192,134428,1,0,0:0:0:0:
256,192,134475,1,0,0:0:0:0:
256,192,134523,1,0,0:0:0:0:
256,192,134571,1,8,0:0:0:0:
256,192,134666,1,0,0:0:0:0:
256,192,134762,1,8,0:0:0:0:
256,192,134857,1,0,0:0:0:0:
256,192,134953,1,8,0:0:0:0:
256,192,135001,1,0,0:0:0:0:
256,192,135049,1,0,0:0:0:0:
256,192,135144,1,8,0:0:0:0:
256,192,135240,1,8,0:0:0:0:
256,192,135287,1,0,0:0:0:0:
256,192,135335,1,0,0:0:0:0:
256,192,135431,1,0,0:0:0:0:
256,192,135479,1,0,0:0:0:0:
256,192,135526,1,8,0:0:0:0:
256,192,135574,1,8,0:0:0:0:
256,192,135622,1,8,0:0:0:0:
256,192,135670,1,8,0:0:0:0:
256,192,135717,1,0,0:0:0:0:
256,192,135813,1,0,0:0:0:0:
256,192,135908,1,8,0:0:0:0:
256,192,136004,1,0,0:0:0:0:
256,192,136100,1,0,0:0:0:0:
256,192,136195,1,0,0:0:0:0:
256,192,136291,1,8,0:0:0:0:
256,192,136338,1,8,0:0:0:0:
256,192,136386,1,8,0:0:0:0:
256,192,136482,1,0,0:0:0:0:
256,192,136577,1,0,0:0:0:0:
256,192,136673,1,8,0:0:0:0:
256,192,136736,1,0,0:0:0:0:
256,192,136800,1,0,0:0:0:0:
256,192,136864,1,8,0:0:0:0:
256,192,136928,1,0,0:0:0:0:
256,192,136991,1,0,0:0:0:0:
256,192,137055,1,8,0:0:0:0:
256,192,137119,1,8,0:0:0:0:
256,192,137182,1,0,0:0:0:0:
256,192,137246,1,8,0:0:0:0:
256,192,137342,1,8,0:0:0:0:
256,192,137437,1,0,0:0:0:0:
256,192,137533,1,0,0:0:0:0:
256,192,137628,1,8,0:0:0:0:
256,192,137676,1,8,0:0:0:0:
256,192,137724,1,8,0:0:0:0:
256,192,137819,1,8,0:0:0:0:
256,192,137915,1,0,0:0:0:0:
256,192,138106,1,0,0:0:0:0:
256,192,138201,1,8,0:0:0:0:
256,192,138297,1,0,0:0:0:0:
256,192,138393,1,0,0:0:0:0:
256,192,138488,1,0,0:0:0:0:
256,192,138584,1,8,0:0:0:0:
256,192,138679,1,0,0:0:0:0:
256,192,138775,1,12,0:0:0:0:
256,192,138966,1,0,0:0:0:0:
256,192,139061,1,12,0:0:0:0:
256,192,139252,1,0,0:0:0:0:
256,192,139348,1,12,0:0:0:0:
256,192,139539,1,12,0:0:0:0:
256,192,139635,1,0,0:0:0:0:
256,192,139730,1,0,0:0:0:0:
256,192,139825,1,12,0:0:0:0:
256,192,139921,1,0,0:0:0:0:
256,192,140017,1,0,0:0:0:0:
256,192,140112,1,12,0:0:0:0:
256,192,140208,1,0,0:0:0:0:
256,192,140303,1,12,0:0:0:0:
256,192,141832,1,4,0:0:0:0:
256,192,142596,1,0,0:0:0:0:
256,192,142978,1,0,0:0:0:0:
256,192,143360,1,0,0:0:0:0:
256,192,144125,1,0,0:0:0:0:
256,192,144698,1,0,0:0:0:0:
256,192,144889,1,0,0:0:0:0:
256,192,145271,1,0,0:0:0:0:
256,192,145653,1,0,0:0:0:0:
256,192,146035,1,0,0:0:0:0:
256,192,146418,1,0,0:0:0:0:
256,192,146991,1,0,0:0:0:0:
256,192,147054,1,0,0:0:0:0:
256,192,147118,1,0,0:0:0:0:
256,192,147182,1,8,0:0:0:0:
256,192,147309,1,0,0:0:0:0:
256,192,147437,1,8,0:0:0:0:
256,192,147564,1,0,0:0:0:0:
256,192,147691,1,0,0:0:0:0:
256,192,147819,1,0,0:0:0:0:
256,192,147946,1,12,0:0:0:0:
256,192,148201,1,0,0:0:0:0:
256,192,148328,1,8,0:0:0:0:
256,192,148456,1,0,0:0:0:0:
256,192,148583,1,0,0:0:0:0:
256,192,148710,1,8,0:0:0:0:
256,192,148965,1,8,0:0:0:0:
256,192,149093,1,0,0:0:0:0:
256,192,149220,1,8,0:0:0:0:
256,192,149347,1,0,0:0:0:0:
256,192,149475,1,8,0:0:0:0:
256,192,149602,1,8,0:0:0:0:
256,192,149730,1,0,0:0:0:0:
256,192,149857,1,8,0:0:0:0:
256,192,149984,1,0,0:0:0:0:
256,192,150112,1,8,0:0:0:0:
256,192,150239,1,0,0:0:0:0:
256,192,150494,1,0,0:0:0:0:
256,192,150621,1,8,0:0:0:0:
256,192,150749,1,8,0:0:0:0:
256,192,150876,1,0,0:0:0:0:
256,192,151003,1,8,0:0:0:0:
256,192,151131,1,0,0:0:0:0:
256,192,151258,1,0,0:0:0:0:
256,192,151386,1,8,0:0:0:0:
256,192,151513,1,0,0:0:0:0:
256,192,151640,1,0,0:0:0:0:
256,192,151768,1,8,0:0:0:0:
256,192,151895,1,0,0:0:0:0:
256,192,152023,1,0,0:0:0:0:
256,192,152150,1,8,0:0:0:0:
256,192,152277,1,0,0:0:0:0:
256,192,152341,1,0,0:0:0:0:
256,192,152405,1,0,0:0:0:0:
256,192,152468,1,0,0:0:0:0:
256,192,152532,1,8,0:0:0:0:
256,192,154061,1,4,0:0:0:0:
256,192,154252,1,8,0:0:0:0:
256,192,154347,1,0,0:0:0:0:
256,192,154443,1,0,0:0:0:0:
256,192,154539,1,0,0:0:0:0:
256,192,154634,1,8,0:0:0:0:
256,192,154825,1,0,0:0:0:0:
256,192,154921,1,0,0:0:0:0:
256,192,155016,1,8,0:0:0:0:
256,192,155112,1,0,0:0:0:0:
256,192,155207,1,0,0:0:0:0:
256,192,155303,1,0,0:0:0:0:
256,192,155398,1,8,0:0:0:0:
256,192,155589,1,8,0:0:0:0:
256,192,155685,1,0,0:0:0:0:
256,192,155781,1,0,0:0:0:0:
256,192,155876,1,0,0:0:0:0:
256,192,155972,1,8,0:0:0:0:
256,192,156067,1,8,0:0:0:0:
256,192,156163,1,8,0:0:0:0:
256,192,156258,1,0,0:0:0:0:
256,192,156354,1,0,0:0:0:0:
256,192,156449,1,8,0:0:0:0:
256,192,156545,1,8,0:0:0:0:
256,192,156640,1,0,0:0:0:0:
256,192,156736,1,8,0:0:0:0:
256,192,156832,1,8,0:0:0:0:
256,192,156927,1,8,0:0:0:0:
256,192,157023,1,0,0:0:0:0:
256,192,157118,1,8,0:0:0:0:
256,192,157309,1,8,0:0:0:0:
256,192,157405,1,0,0:0:0:0:
256,192,157500,1,0,0:0:0:0:
256,192,157596,1,0,0:0:0:0:
256,192,157691,1,8,0:0:0:0:
256,192,157882,1,8,0:0:0:0:
256,192,157978,1,0,0:0:0:0:
256,192,158074,1,8,0:0:0:0:
256,192,158169,1,0,0:0:0:0:
256,192,158265,1,0,0:0:0:0:
256,192,158360,1,0,0:0:0:0:
256,192,158456,1,8,0:0:0:0:
256,192,158551,1,0,0:0:0:0:
256,192,158647,1,8,0:0:0:0:
256,192,158742,1,0,0:0:0:0:
256,192,158838,1,0,0:0:0:0:
256,192,158933,1,8,0:0:0:0:
256,192,159029,1,0,0:0:0:0:
256,192,159125,1,0,0:0:0:0:
256,192,159220,1,8,0:0:0:0:
256,192,159316,1,0,0:0:0:0:
256,192,159411,1,8,0:0:0:0:
256,192,159507,1,0,0:0:0:0:
256,192,159602,1,0,0:0:0:0:
256,192,159698,1,8,0:0:0:0:
256,192,159793,1,0,0:0:0:0:
256,192,159889,1,0,0:0:0:0:
256,192,159984,1,8,0:0:0:0:
256,192,160175,1,0,0:0:0:0:
256,192,160271,1,8,0:0:0:0:
256,192,160367,1,8,0:0:0:0:
256,192,160462,1,0,0:0:0:0:
256,192,160558,1,0,0:0:0:0:
256,192,160653,1,8,0:0:0:0:
256,192,160749,1,8,0:0:0:0:
256,192,160844,1,8,0:0:0:0:
256,192,160940,1,0,0:0:0:0:
256,192,161035,1,8,0:0:0:0:
256,192,161131,1,8,0:0:0:0:
256,192,161226,1,8,0:0:0:0:
256,192,161322,1,0,0:0:0:0:
256,192,161418,1,8,0:0:0:0:
256,192,161513,1,8,0:0:0:0:
256,192,161609,1,0,0:0:0:0:
256,192,161704,1,0,0:0:0:0:
256,192,161800,1,8,0:0:0:0:
256,192,161895,1,8,0:0:0:0:
256,192,161959,1,0,0:0:0:0:
256,192,162023,1,0,0:0:0:0:
256,192,162086,1,8,0:0:0:0:
256,192,162182,1,0,0:0:0:0:
256,192,162277,1,8,0:0:0:0:
256,192,162373,1,8,0:0:0:0:
256,192,162468,1,0,0:0:0:0:
256,192,162564,1,0,0:0:0:0:
256,192,162660,1,8,0:0:0:0:
256,192,162755,1,8,0:0:0:0:
256,192,162851,1,0,0:0:0:0:
256,192,162914,1,8,0:0:0:0:
256,192,162978,1,8,0:0:0:0:
256,192,163042,1,0,0:0:0:0:
256,192,163105,1,0,0:0:0:0:
256,192,163169,1,8,0:0:0:0:
256,192,163233,1,0,0:0:0:0:
256,192,163424,1,8,0:0:0:0:
256,192,163519,1,0,0:0:0:0:
256,192,163615,1,0,0:0:0:0:
256,192,163679,1,0,0:0:0:0:
256,192,163742,1,0,0:0:0:0:
256,192,163806,1,8,0:0:0:0:
256,192,163902,1,0,0:0:0:0:
256,192,163997,1,8,0:0:0:0:
256,192,164061,1,8,0:0:0:0:
256,192,164125,1,8,0:0:0:0:
256,192,164188,1,8,0:0:0:0:
256,192,164252,1,0,0:0:0:0:
256,192,164316,1,0,0:0:0:0:
256,192,164379,1,0,0:0:0:0:
256,192,164443,1,0,0:0:0:0:
256,192,164507,1,8,0:0:0:0:
256,192,164570,1,8,0:0:0:0:
256,192,164634,1,8,0:0:0:0:
256,192,164698,1,0,0:0:0:0:
256,192,164761,1,8,0:0:0:0:
256,192,164857,1,0,0:0:0:0:
256,192,164953,1,0,0:0:0:0:
256,192,165048,1,8,0:0:0:0:
256,192,165144,1,0,0:0:0:0:
256,192,165239,1,0,0:0:0:0:
256,192,165335,1,8,0:0:0:0:
256,192,165430,1,0,0:0:0:0:
256,192,165526,1,8,0:0:0:0:
256,192,165621,1,8,0:0:0:0:
256,192,165717,1,0,0:0:0:0:
256,192,165812,1,8,0:0:0:0:
256,192,165908,1,0,0:0:0:0:
256,192,166003,1,0,0:0:0:0:
256,192,166099,1,8,0:0:0:0:
256,192,166290,1,8,0:0:0:0:
256,192,166386,1,8,0:0:0:0:
256,192,166481,1,0,0:0:0:0:
256,192,166577,1,0,0:0:0:0:
256,192,166672,1,8,0:0:0:0:
256,192,166768,1,8,0:0:0:0:
256,192,166863,1,0,0:0:0:0:
256,192,166959,1,0,0:0:0:0:
256,192,167054,1,8,0:0:0:0:
256,192,167118,1,0,0:0:0:0:
256,192,167182,1,0,0:0:0:0:
256,192,167246,1,8,0:0:0:0:
256,192,167309,1,0,0:0:0:0:
256,192,167373,1,0,0:0:0:0:
256,192,167437,1,8,0:0:0:0:
256,192,167532,1,8,0:0:0:0:
256,192,167628,1,8,0:0:0:0:
256,192,167723,1,0,0:0:0:0:
256,192,167819,1,8,0:0:0:0:
256,192,167914,1,0,0:0:0:0:
256,192,168010,1,8,0:0:0:0:
256,192,168105,1,0,0:0:0:0:
256,192,168201,1,8,0:0:0:0:
256,192,168296,1,0,0:0:0:0:
256,192,168392,1,8,0:0:0:0:
256,192,168488,1,8,0:0:0:0:
256,192,168583,1,0,0:0:0:0:
256,192,168679,1,0,0:0:0:0:
256,192,168774,1,8,0:0:0:0:
256,192,168838,1,0,0:0:0:0:
256,192,168902,1,0,0:0:0:0:
256,192,168965,1,8,0:0:0:0:
256,192,169029,1,0,0:0:0:0:
256,192,169093,1,0,0:0:0:0:
256,192,169156,1,8,0:0:0:0:
256,192,169252,1,8,0:0:0:0:
256,192,169347,1,8,0:0:0:0:
256,192,169443,1,0,0:0:0:0:
256,192,169539,1,8,0:0:0:0:
256,192,169634,1,0,0:0:0:0:
256,192,169730,1,0,0:0:0:0:
256,192,169825,1,0,0:0:0:0:
256,192,169921,1,8,0:0:0:0:
256,192,170016,1,8,0:0:0:0:
256,192,170112,1,0,0:0:0:0:
256,192,170207,1,0,0:0:0:0:
256,192,170303,1,8,0:0:0:0:
256,192,170398,1,0,0:0:0:0:
256,192,170494,1,0,0:0:0:0:
256,192,170589,1,8,0:0:0:0:
256,192,170685,1,0,0:0:0:0:
256,192,170781,1,8,0:0:0:0:
256,192,170876,1,8,0:0:0:0:
256,192,170972,1,0,0:0:0:0:
256,192,171067,1,0,0:0:0:0:
256,192,171163,1,8,0:0:0:0:
256,192,171258,1,0,0:0:0:0:
256,192,171354,1,0,0:0:0:0:
256,192,171449,1,8,0:0:0:0:
256,192,171545,1,0,0:0:0:0:
256,192,171640,1,8,0:0:0:0:
256,192,171736,1,0,0:0:0:0:
256,192,171832,1,0,0:0:0:0:
256,192,171927,1,8,0:0:0:0:
256,192,172023,1,0,0:0:0:0:
256,192,172118,1,0,0:0:0:0:
256,192,172214,1,8,0:0:0:0:
256,192,172405,1,0,0:0:0:0:
256,192,172500,1,8,0:0:0:0:
256,192,172596,1,8,0:0:0:0:
256,192,172691,1,0,0:0:0:0:
256,192,172787,1,8,0:0:0:0:
256,192,172882,1,8,0:0:0:0:
256,192,172978,1,0,0:0:0:0:
256,192,173074,1,0,0:0:0:0:
256,192,173169,1,8,0:0:0:0:
256,192,173265,1,0,0:0:0:0:
256,192,173360,1,8,0:0:0:0:
256,192,173456,1,8,0:0:0:0:
256,192,173551,1,0,0:0:0:0:
256,192,173647,1,0,0:0:0:0:
256,192,173742,1,8,0:0:0:0:
256,192,173838,1,0,0:0:0:0:
256,192,173933,1,8,0:0:0:0:
256,192,174029,1,0,0:0:0:0:
256,192,174125,1,8,0:0:0:0:
256,192,174188,1,8,0:0:0:0:
256,192,174252,1,8,0:0:0:0:
256,192,174316,1,0,0:0:0:0:
256,192,174411,1,0,0:0:0:0:
256,192,174507,1,8,0:0:0:0:
256,192,174602,1,0,0:0:0:0:
256,192,174698,1,8,0:0:0:0:
256,192,174889,1,8,0:0:0:0:
256,192,174984,1,0,0:0:0:0:
256,192,175080,1,0,0:0:0:0:
256,192,175175,1,0,0:0:0:0:
256,192,175271,1,8,0:0:0:0:
256,192,175367,1,8,0:0:0:0:
256,192,175462,1,0,0:0:0:0:
256,192,175558,1,0,0:0:0:0:
256,192,175653,1,8,0:0:0:0:
256,192,175749,1,0,0:0:0:0:
256,192,175844,1,0,0:0:0:0:
256,192,175940,1,0,0:0:0:0:
256,192,176035,1,8,0:0:0:0:
256,192,176131,1,0,0:0:0:0:
256,192,176226,1,8,0:0:0:0:
256,192,176322,1,0,0:0:0:0:
256,192,176418,1,0,0:0:0:0:
256,192,176513,1,8,0:0:0:0:
256,192,176609,1,0,0:0:0:0:
256,192,176704,1,0,0:0:0:0:
256,192,176800,1,8,0:0:0:0:
256,192,176895,1,0,0:0:0:0:
256,192,176991,1,8,0:0:0:0:
256,192,177086,1,8,0:0:0:0:
256,192,177182,1,8,0:0:0:0:
256,192,177277,1,0,0:0:0:0:
256,192,177373,1,0,0:0:0:0:
256,192,177468,1,0,0:0:0:0:
256,192,177564,1,8,0:0:0:0:
256,192,177660,1,0,0:0:0:0:
256,192,177755,1,8,0:0:0:0:
256,192,177851,1,8,0:0:0:0:
256,192,177946,1,0,0:0:0:0:
256,192,178010,1,0,0:0:0:0:
256,192,178074,1,0,0:0:0:0:
256,192,178137,1,8,0:0:0:0:
256,192,178265,1,0,0:0:0:0:
256,192,178392,1,0,0:0:0:0:
256,192,178519,1,8,0:0:0:0:
256,192,179284,1,8,0:0:0:0:
256,192,179411,1,0,0:0:0:0:
256,192,179539,1,0,0:0:0:0:
256,192,179666,1,0,0:0:0:0:
256,192,180048,1,12,0:0:0:0:
256,192,181577,1,0,0:0:0:0:
256,192,183105,1,8,0:0:0:0:
256,192,184634,1,0,0:0:0:0:
256,192,186163,1,8,0:0:0:0:
256,192,186927,1,0,0:0:0:0:
256,192,187309,1,0,0:0:0:0:
256,192,187691,1,8,0:0:0:0:
256,192,188074,1,0,0:0:0:0:
256,192,188456,1,0,0:0:0:0:
256,192,188838,1,8,0:0:0:0:
256,192,189029,5,0,0:0:0:0:
256,192,189093,1,0,0:0:0:0:
256,192,189156,1,0,0:0:0:0:
256,192,189220,1,8,0:0:0:0:
256,192,189411,1,0,0:0:0:0:
256,192,189507,1,8,0:0:0:0:
256,192,189698,1,0,0:0:0:0:
256,192,189793,1,8,0:0:0:0:
256,192,189889,1,0,0:0:0:0:
256,192,189984,1,8,0:0:0:0:
256,192,190175,1,0,0:0:0:0:
256,192,190271,1,8,0:0:0:0:
256,192,190462,1,0,0:0:0:0:
256,192,190558,1,0,0:0:0:0:
256,192,190653,1,0,0:0:0:0:
256,192,190749,1,8,0:0:0:0:
256,192,190940,12,0,193042,0:0:0:0:
256,192,193233,5,0,0:0:0:0:
256,192,193424,5,8,0:0:0:0:
256,192,193806,1,4,0:0:0:0:
256,192,193997,1,0,0:0:0:0:
256,192,194093,1,8,0:0:0:0:
256,192,194284,1,8,0:0:0:0:
256,192,194379,1,8,0:0:0:0:
256,192,194570,1,8,0:0:0:0:
256,192,194666,1,0,0:0:0:0:
256,192,194761,1,0,0:0:0:0:
256,192,194857,1,8,0:0:0:0:
256,192,194953,1,0,0:0:0:0:
256,192,195048,1,0,0:0:0:0:
256,192,195144,1,8,0:0:0:0:
256,192,195335,1,4,0:0:0:0:
256,192,195430,1,0,0:0:0:0:
256,192,195526,1,8,0:0:0:0:
256,192,195621,1,0,0:0:0:0:
256,192,195717,1,0,0:0:0:0:
256,192,195812,1,8,0:0:0:0:
256,192,195908,1,0,0:0:0:0:
256,192,196099,1,0,0:0:0:0:
256,192,196195,1,0,0:0:0:0:
256,192,196290,1,0,0:0:0:0:
256,192,196354,1,0,0:0:0:0:
256,192,196418,1,0,0:0:0:0:
256,192,196481,1,8,0:0:0:0:
256,192,196863,1,12,0:0:0:0:
256,192,196959,1,0,0:0:0:0:
256,192,197054,1,0,0:0:0:0:
256,192,197150,1,8,0:0:0:0:
256,192,197246,1,0,0:0:0:0:
256,192,197341,1,0,0:0:0:0:
256,192,197437,1,8,0:0:0:0:
256,192,197532,1,0,0:0:0:0:
256,192,197628,1,8,0:0:0:0:
256,192,197723,1,0,0:0:0:0:
256,192,197819,1,8,0:0:0:0:
256,192,197914,1,0,0:0:0:0:
256,192,198010,1,8,0:0:0:0:
256,192,198058,1,8,0:0:0:0:
256,192,198105,1,8,0:0:0:0:
256,192,198201,1,0,0:0:0:0:
256,192,198296,1,0,0:0:0:0:
256,192,198392,1,8,0:0:0:0:
256,192,198488,1,8,0:0:0:0:
256,192,198583,1,0,0:0:0:0:
256,192,198679,1,8,0:0:0:0:
256,192,198774,1,8,0:0:0:0:
256,192,198870,1,0,0:0:0:0:
256,192,198965,1,8,0:0:0:0:
256,192,199061,1,0,0:0:0:0:
256,192,199156,1,8,0:0:0:0:
256,192,199204,1,8,0:0:0:0:
256,192,199252,1,8,0:0:0:0:
256,192,199347,1,0,0:0:0:0:
256,192,199443,1,8,0:0:0:0:
256,192,199539,1,0,0:0:0:0:
256,192,199634,1,0,0:0:0:0:
256,192,199730,1,8,0:0:0:0:
256,192,199825,1,0,0:0:0:0:
256,192,199921,1,8,0:0:0:0:
256,192,200016,1,8,0:0:0:0:
256,192,200112,1,0,0:0:0:0:
256,192,200207,1,8,0:0:0:0:
256,192,200303,1,0,0:0:0:0:
256,192,200398,1,0,0:0:0:0:
256,192,200494,1,8,0:0:0:0:
256,192,200589,1,0,0:0:0:0:
256,192,200685,1,8,0:0:0:0:
256,192,200781,1,0,0:0:0:0:
256,192,200876,1,8,0:0:0:0:
256,192,200972,1,0,0:0:0:0:
256,192,201067,1,8,0:0:0:0:
256,192,201163,1,8,0:0:0:0:
256,192,201258,1,0,0:0:0:0:
256,192,201354,1,0,0:0:0:0:
256,192,201449,1,8,0:0:0:0:
256,192,201497,1,0,0:0:0:0:
256,192,201545,1,0,0:0:0:0:
256,192,201593,1,0,0:0:0:0:
256,192,201640,1,8,0:0:0:0:
256,192,201736,1,8,0:0:0:0:
256,192,201832,1,8,0:0:0:0:
256,192,201927,1,0,0:0:0:0:
256,192,202023,1,8,0:0:0:0:
256,192,202118,1,8,0:0:0:0:
256,192,202214,1,0,0:0:0:0:
256,192,202309,1,8,0:0:0:0:
256,192,202405,1,8,0:0:0:0:
256,192,202500,1,0,0:0:0:0:
256,192,202596,1,8,0:0:0:0:
256,192,202644,1,8,0:0:0:0:
256,192,202691,1,8,0:0:0:0:
256,192,202787,1,8,0:0:0:0:
256,192,202882,1,8,0:0:0:0:
256,192,202978,1,0,0:0:0:0:
256,192,203074,1,0,0:0:0:0:
256,192,203169,1,8,0:0:0:0:
256,192,203265,1,0,0:0:0:0:
256,192,203360,1,0,0:0:0:0:
256,192,203456,1,0,0:0:0:0:
256,192,203551,1,8,0:0:0:0:
256,192,203647,1,0,0:0:0:0:
256,192,203742,1,8,0:0:0:0:
256,192,203838,1,0,0:0:0:0:
256,192,203933,1,8,0:0:0:0:
256,192,204029,1,0,0:0:0:0:
256,192,204125,1,8,0:0:0:0:
256,192,204220,1,0,0:0:0:0:
256,192,204316,1,0,0:0:0:0:
256,192,204411,1,0,0:0:0:0:
256,192,204507,1,8,0:0:0:0:
256,192,204554,1,0,0:0:0:0:
256,192,204602,1,0,0:0:0:0:
256,192,204698,1,0,0:0:0:0:
256,192,204793,1,8,0:0:0:0:
256,192,204841,1,0,0:0:0:0:
256,192,204889,1,0,0:0:0:0:
256,192,204984,1,0,0:0:0:0:
256,192,205080,1,8,0:0:0:0:
256,192,205128,1,0,0:0:0:0:
256,192,205175,1,0,0:0:0:0:
256,192,205271,1,8,0:0:0:0:
256,192,205319,1,0,0:0:0:0:
256,192,205367,1,0,0:0:0:0:
256,192,205414,1,0,0:0:0:0:
256,192,205462,1,8,0:0:0:0:
256,192,205558,1,8,0:0:0:0:
256,192,205653,1,8,0:0:0:0:
256,192,205749,1,0,0:0:0:0:
256,192,205844,1,8,0:0:0:0:
256,192,205940,1,0,0:0:0:0:
256,192,206035,1,4,0:0:0:0:
256,192,206131,1,0,0:0:0:0:
256,192,206226,1,8,0:0:0:0:
256,192,206322,1,8,0:0:0:0:
256,192,206418,1,0,0:0:0:0:
256,192,206513,1,8,0:0:0:0:
256,192,206609,1,8,0:0:0:0:
256,192,206656,1,0,0:0:0:0:
256,192,206704,1,0,0:0:0:0:
256,192,206800,1,8,0:0:0:0:
256,192,206895,1,0,0:0:0:0:
256,192,206991,1,0,0:0:0:0:
256,192,207086,1,0,0:0:0:0:
256,192,207182,1,8,0:0:0:0:
256,192,207277,1,0,0:0:0:0:
256,192,207373,1,8,0:0:0:0:
256,192,207468,1,0,0:0:0:0:
256,192,207564,1,8,0:0:0:0:
256,192,207660,1,8,0:0:0:0:
256,192,207755,1,0,0:0:0:0:
256,192,207851,1,0,0:0:0:0:
256,192,207946,1,0,0:0:0:0:
256,192,208042,1,8,0:0:0:0:
256,192,208137,1,8,0:0:0:0:
256,192,208185,1,0,0:0:0:0:
256,192,208233,1,0,0:0:0:0:
256,192,208328,1,0,0:0:0:0:
256,192,208424,1,0,0:0:0:0:
256,192,208519,1,8,0:0:0:0:
256,192,208615,1,0,0:0:0:0:
256,192,208710,1,8,0:0:0:0:
256,192,208806,1,0,0:0:0:0:
256,192,208902,1,0,0:0:0:0:
256,192,208997,1,0,0:0:0:0:
256,192,209093,1,8,0:0:0:0:
256,192,209140,1,8,0:0:0:0:
256,192,209188,1,0,0:0:0:0:
256,192,209284,1,8,0:0:0:0:
256,192,209379,1,8,0:0:0:0:
256,192,209475,1,0,0:0:0:0:
256,192,209570,1,0,0:0:0:0:
256,192,209666,1,8,0:0:0:0:
256,192,209761,1,0,0:0:0:0:
256,192,209857,1,8,0:0:0:0:
256,192,209905,1,0,0:0:0:0:
256,192,209953,1,0,0:0:0:0:
256,192,210000,1,0,0:0:0:0:
256,192,210048,1,8,0:0:0:0:
256,192,210144,1,8,0:0:0:0:
256,192,210239,1,8,0:0:0:0:
256,192,210335,1,0,0:0:0:0:
256,192,210430,1,0,0:0:0:0:
256,192,210526,1,0,0:0:0:0:
256,192,210621,1,8,0:0:0:0:
256,192,210669,1,8,0:0:0:0:
256,192,210717,1,8,0:0:0:0:
256,192,210812,1,0,0:0:0:0:
256,192,210908,1,8,0:0:0:0:
256,192,211003,1,8,0:0:0:0:
256,192,211099,1,0,0:0:0:0:
256,192,211195,1,8,0:0:0:0:
256,192,211290,1,8,0:0:0:0:
256,192,211386,1,0,0:0:0:0:
256,192,211433,1,0,0:0:0:0:
256,192,211481,1,0,0:0:0:0:
256,192,211577,1,0,0:0:0:0:
256,192,211672,1,8,0:0:0:0:
256,192,211768,1,0,0:0:0:0:
256,192,211863,1,0,0:0:0:0:
256,192,211959,1,8,0:0:0:0:
256,192,212054,1,0,0:0:0:0:
256,192,212150,1,8,0:0:0:0:
256,192,212246,1,0,0:0:0:0:
256,192,212341,1,8,0:0:0:0:
256,192,212437,1,8,0:0:0:0:
256,192,212532,1,0,0:0:0:0:
256,192,212628,1,0,0:0:0:0:
256,192,212723,1,8,0:0:0:0:
256,192,212819,1,0,0:0:0:0:
256,192,212914,1,8,0:0:0:0:
256,192,212978,1,8,0:0:0:0:
256,192,213042,1,0,0:0:0:0:
256,192,213105,1,0,0:0:0:0:
256,192,213169,1,0,0:0:0:0:
256,192,213233,1,0,0:0:0:0:
256,192,213296,1,8,0:0:0:0:
256,192,213360,1,8,0:0:0:0:
256,192,213424,1,8,0:0:0:0:
256,192,213488,1,8,0:0:0:0:
256,192,213583,1,0,0:0:0:0:
256,192,213679,1,8,0:0:0:0:
256,192,213774,1,0,0:0:0:0:
256,192,213870,1,0,0:0:0:0:
256,192,213965,1,0,0:0:0:0:
256,192,214061,1,8,0:0:0:0:
256,192,214109,1,0,0:0:0:0:
256,192,214156,1,0,0:0:0:0:
256,192,214252,1,8,0:0:0:0:
256,192,214347,1,8,0:0:0:0:
256,192,214539,1,0,0:0:0:0:
256,192,214586,1,0,0:0:0:0:
256,192,214634,1,8,0:0:0:0:
256,192,214730,1,0,0:0:0:0:
256,192,214777,1,0,0:0:0:0:
256,192,214825,1,8,0:0:0:0:
256,192,214921,1,0,0:0:0:0:
256,192,215016,1,8,0:0:0:0:
256,192,215112,1,0,0:0:0:0:
256,192,215207,1,8,0:0:0:0:
256,192,215303,1,0,0:0:0:0:
256,192,215398,1,8,0:0:0:0:
256,192,215494,1,8,0:0:0:0:
256,192,215589,1,0,0:0:0:0:
256,192,215685,1,8,0:0:0:0:
256,192,215781,1,8,0:0:0:0:
256,192,215876,1,0,0:0:0:0:
256,192,215972,1,8,0:0:0:0:
256,192,216019,1,8,0:0:0:0:
256,192,216067,1,8,0:0:0:0:
256,192,216115,1,8,0:0:0:0:
256,192,216163,1,0,0:0:0:0:
256,192,216258,1,8,0:0:0:0:
256,192,216354,1,0,0:0:0:0:
256,192,216449,1,0,0:0:0:0:
256,192,216545,1,8,0:0:0:0:
256,192,216593,1,0,0:0:0:0:
256,192,216640,1,0,0:0:0:0:
256,192,216688,1,0,0:0:0:0:
256,192,216736,1,8,0:0:0:0:
256,192,219220,1,0,0:0:0:0:
256,192,219284,1,0,0:0:0:0:
256,192,219347,1,0,0:0:0:0:
256,192,219411,1,8,0:0:0:0:
256,192,219793,1,4,0:0:0:0:
256,192,219889,1,0,0:0:0:0:
256,192,219984,1,8,0:0:0:0:
256,192,220080,1,0,0:0:0:0:
256,192,220175,1,0,0:0:0:0:
256,192,220271,1,0,0:0:0:0:
256,192,220366,1,8,0:0:0:0:
256,192,220414,1,0,0:0:0:0:
256,192,220462,1,0,0:0:0:0:
256,192,220510,1,0,0:0:0:0:
256,192,220558,1,8,0:0:0:0:
256,192,220653,1,0,0:0:0:0:
256,192,220749,1,0,0:0:0:0:
256,192,220844,1,8,0:0:0:0:
256,192,220940,1,0,0:0:0:0:
256,192,220988,1,0,0:0:0:0:
256,192,221035,1,0,0:0:0:0:
256,192,221083,1,0,0:0:0:0:
256,192,221131,1,8,0:0:0:0:
256,192,221226,1,8,0:0:0:0:
256,192,221322,1,0,0:0:0:0:
256,192,221417,1,0,0:0:0:0:
256,192,221465,1,0,0:0:0:0:
256,192,221513,1,0,0:0:0:0:
256,192,221609,1,8,0:0:0:0:
256,192,221704,1,0,0:0:0:0:
256,192,221800,1,0,0:0:0:0:
256,192,221895,1,8,0:0:0:0:
256,192,221991,1,0,0:0:0:0:
256,192,222038,1,0,0:0:0:0:
256,192,222086,1,0,0:0:0:0:
256,192,222182,1,8,0:0:0:0:
256,192,222277,1,8,0:0:0:0:
256,192,222373,1,0,0:0:0:0:
256,192,222468,1,8,0:0:0:0:
256,192,222564,1,0,0:0:0:0:
256,192,222659,1,8,0:0:0:0:
256,192,222755,1,8,0:0:0:0:
256,192,222851,1,0,0:0:0:0:
256,192,222898,1,0,0:0:0:0:
256,192,222946,1,0,0:0:0:0:
256,192,222994,1,0,0:0:0:0:
256,192,223042,1,8,0:0:0:0:
256,192,223137,1,8,0:0:0:0:
256,192,223233,1,0,0:0:0:0:
256,192,223328,1,0,0:0:0:0:
256,192,223376,1,0,0:0:0:0:
256,192,223424,1,8,0:0:0:0:
256,192,223519,1,0,0:0:0:0:
256,192,223567,1,0,0:0:0:0:
256,192,223615,1,8,0:0:0:0:
256,192,223710,1,0,0:0:0:0:
256,192,223806,1,0,0:0:0:0:
256,192,223902,1,8,0:0:0:0:
256,192,223949,1,0,0:0:0:0:
256,192,223997,1,0,0:0:0:0:
256,192,224045,1,0,0:0:0:0:
256,192,224093,1,8,0:0:0:0:
256,192,224188,1,8,0:0:0:0:
256,192,224284,1,0,0:0:0:0:
256,192,224379,1,8,0:0:0:0:
256,192,224427,1,8,0:0:0:0:
256,192,224475,1,8,0:0:0:0:
256,192,224523,1,8,0:0:0:0:
256,192,224570,1,0,0:0:0:0:
256,192,224666,1,8,0:0:0:0:
256,192,224714,1,8,0:0:0:0:
256,192,224761,1,8,0:0:0:0:
256,192,224809,1,8,0:0:0:0:
256,192,224857,1,0,0:0:0:0:
256,192,224952,1,8,0:0:0:0:
256,192,225048,1,0,0:0:0:0:
256,192,225144,1,0,0:0:0:0:
256,192,225239,1,8,0:0:0:0:
256,192,225335,1,0,0:0:0:0:
256,192,225430,1,8,0:0:0:0:
256,192,225526,1,0,0:0:0:0:
256,192,225621,1,8,0:0:0:0:
256,192,225717,1,0,0:0:0:0:
256,192,225812,1,8,0:0:0:0:
256,192,225908,1,4,0:0:0:0:
256,192,226004,1,0,0:0:0:0:
256,192,226099,1,8,0:0:0:0:
256,192,226195,1,0,0:0:0:0:
256,192,226242,1,0,0:0:0:0:
256,192,226290,1,0,0:0:0:0:
256,192,226386,1,0,0:0:0:0:
256,192,226481,1,8,0:0:0:0:
256,192,226529,1,0,0:0:0:0:
256,192,226577,1,0,0:0:0:0:
256,192,226625,1,0,0:0:0:0:
256,192,226673,1,8,0:0:0:0:
256,192,226768,1,0,0:0:0:0:
256,192,226864,1,0,0:0:0:0:
256,192,226959,1,8,0:0:0:0:
256,192,227055,1,0,0:0:0:0:
256,192,227102,1,0,0:0:0:0:
256,192,227150,1,0,0:0:0:0:
256,192,227198,1,0,0:0:0:0:
256,192,227246,1,8,0:0:0:0:
256,192,227341,1,0,0:0:0:0:
256,192,227437,1,0,0:0:0:0:
256,192,227532,1,0,0:0:0:0:
256,192,227628,1,8,0:0:0:0:
256,192,227676,1,8,0:0:0:0:
256,192,227724,1,0,0:0:0:0:
256,192,227819,1,0,0:0:0:0:
256,192,227915,1,0,0:0:0:0:
256,192,228010,1,8,0:0:0:0:
256,192,228106,1,0,0:0:0:0:
256,192,228153,1,0,0:0:0:0:
256,192,228201,1,0,0:0:0:0:
256,192,228297,1,8,0:0:0:0:
256,192,228392,1,8,0:0:0:0:
256,192,228488,1,0,0:0:0:0:
256,192,228583,1,8,0:0:0:0:
256,192,228631,1,8,0:0:0:0:
256,192,228679,1,8,0:0:0:0:
256,192,228726,1,8,0:0:0:0:
256,192,228774,1,8,0:0:0:0:
256,192,228870,1,8,0:0:0:0:
256,192,228966,1,0,0:0:0:0:
256,192,229061,1,8,0:0:0:0:
256,192,229157,1,8,0:0:0:0:
256,192,229252,1,0,0:0:0:0:
256,192,229300,1,0,0:0:0:0:
256,192,229348,1,0,0:0:0:0:
256,192,229443,1,0,0:0:0:0:
256,192,229539,1,8,0:0:0:0:
256,192,229634,1,0,0:0:0:0:
256,192,229682,1,0,0:0:0:0:
256,192,229730,1,8,0:0:0:0:
256,192,229825,1,0,0:0:0:0:
256,192,229921,1,0,0:0:0:0:
256,192,230017,1,8,0:0:0:0:
256,192,230064,1,0,0:0:0:0:
256,192,230112,1,0,0:0:0:0:
256,192,230208,1,8,0:0:0:0:
256,192,230303,1,8,0:0:0:0:
256,192,230399,1,0,0:0:0:0:
256,192,230494,1,8,0:0:0:0:
256,192,230558,1,0,0:0:0:0:
256,192,230621,1,0,0:0:0:0:
256,192,230685,1,8,0:0:0:0:
256,192,230781,1,8,0:0:0:0:
256,192,230876,1,0,0:0:0:0:
256,192,230940,1,0,0:0:0:0:
256,192,231003,1,0,0:0:0:0:
256,192,231067,1,8,0:0:0:0:
256,192,231163,1,0,0:0:0:0:
256,192,231258,1,8,0:0:0:0:
256,192,231322,1,0,0:0:0:0:
256,192,231386,1,0,0:0:0:0:
256,192,231449,1,0,0:0:0:0:
256,192,231513,1,8,0:0:0:0:
256,192,231640,1,0,0:0:0:0:
256,192,231704,1,0,0:0:0:0:
256,192,231768,1,0,0:0:0:0:
256,192,231832,1,8,0:0:0:0:
256,192,231927,1,8,0:0:0:0:
256,192,232023,1,0,0:0:0:0:
256,192,232150,1,0,0:0:0:0:
256,192,232341,1,0,0:0:0:0:
256,192,232787,1,0,0:0:0:0:
256,192,232914,12,0,238137,0:0:0:0:
