osu file format v14

[General]
AudioFilename: 240bpm.mp3
AudioLeadIn: 0
PreviewTime: 70122
Countdown: 0
SampleSet: Drum
StackLeniency: 0.7
Mode: 3
LetterboxInBreaks: 0
SpecialStyle: 0
WidescreenStoryboard: 0

[Editor]
Bookmarks: 143409
DistanceSpacing: 0.8
BeatDivisor: 4
GridSize: 32
TimelineZoom: 2.999999

[Metadata]
Title:Wanderflux
TitleUnicode:Wanderflux
Artist:Aquellex
ArtistUnicode:Aquellex
Creator:lemonguy
Version:Annihilation (240 bpm ver)
Source:
Tags:Electronic Instrumental Chiptunes = WIN: Volume 5 ChipWIN 5 gammablaster ffr flashflashrevolution chiptune breakcore etterna stepmania lemonguy Speed Drum & Bass William mania world cup mwc19 mwc2019
BeatmapID:1933949
BeatmapSetID:925899

[Difficulty]
HPDrainRate:7
CircleSize:7
OverallDifficulty:7
ApproachRate:5
SliderMultiplier:1.4
SliderTickRate:1

[Events]
//Background and Video events
0,0,"ctwv5.jpg",0,0
//Break Periods
//Storyboard Layer 0 (Background)
//Storyboard Layer 1 (Fail)
//Storyboard Layer 2 (Pass)
//Storyboard Layer 3 (Foreground)
//Storyboard Layer 4 (Overlay)
//Storyboard Sound Samples

[TimingPoints]
142,250.001718761817,4,3,0,40,1,0

[HitObjects]
256,192,142,128,0,266:0:0:0:0:
36,192,142,128,0,266:0:0:0:0:
475,192,142,128,0,266:0:0:0:0:
329,192,266,1,0,0:0:0:0:
402,192,266,1,0,0:0:0:0:
182,192,329,1,0,0:0:0:0:
109,192,329,1,0,0:0:0:0:
329,192,391,1,0,0:0:0:0:
475,192,391,1,0,0:0:0:0:
182,192,516,1,0,0:0:0:0:
36,192,516,1,0,0:0:0:0:
109,192,641,128,0,704:0:0:0:0:
475,192,704,128,0,766:0:0:0:0:
182,192,766,1,0,0:0:0:0:
36,192,766,1,0,0:0:0:0:
329,192,766,1,0,0:0:0:0:
256,192,766,1,0,0:0:0:0:
36,192,891,1,0,0:0:0:0:
182,192,891,1,0,0:0:0:0:
329,192,891,1,0,0:0:0:0:
256,192,891,1,0,0:0:0:0:
36,192,1016,1,0,0:0:0:0:
182,192,1016,1,0,0:0:0:0:
329,192,1016,1,0,0:0:0:0:
256,192,1016,1,0,0:0:0:0:
402,192,1142,128,0,1204:0:0:0:0:
109,192,1204,128,0,1266:0:0:0:0:
402,192,1266,128,0,1329:0:0:0:0:
109,192,1329,128,0,1391:0:0:0:0:
329,192,1391,1,0,0:0:0:0:
475,192,1391,1,0,0:0:0:0:
402,192,1391,1,0,0:0:0:0:
109,192,1454,1,0,0:0:0:0:
182,192,1454,1,0,0:0:0:0:
36,192,1454,1,0,0:0:0:0:
329,192,1517,1,0,0:0:0:0:
402,192,1517,1,0,0:0:0:0:
475,192,1517,1,0,0:0:0:0:
182,192,1578,1,0,0:0:0:0:
36,192,1578,1,0,0:0:0:0:
109,192,1578,1,0,0:0:0:0:
475,192,1641,1,0,0:0:0:0:
402,192,1641,1,0,0:0:0:0:
329,192,1641,1,0,0:0:0:0:
109,192,1704,128,0,1829:0:0:0:0:
36,192,1704,128,0,1829:0:0:0:0:
256,192,1766,128,0,1829:0:0:0:0:
329,192,1829,128,0,1892:0:0:0:0:
36,192,1892,1,0,0:0:0:0:
182,192,1892,1,0,0:0:0:0:
109,192,1892,1,0,0:0:0:0:
402,192,1953,128,0,2079:0:0:0:0:
475,192,1953,128,0,2079:0:0:0:0:
256,192,2016,128,0,2079:0:0:0:0:
182,192,2079,128,0,2141:0:0:0:0:
329,192,2141,128,0,2267:0:0:0:0:
402,192,2141,128,0,2267:0:0:0:0:
475,192,2141,128,0,2267:0:0:0:0:
36,192,2141,128,0,2267:0:0:0:0:
109,192,2141,128,0,2267:0:0:0:0:
256,192,2267,1,0,0:0:0:0:
256,192,2328,1,0,0:0:0:0:
182,192,2391,128,0,2516:0:0:0:0:
109,192,2391,128,0,2516:0:0:0:0:
329,192,2516,128,0,2641:0:0:0:0:
402,192,2516,128,0,2641:0:0:0:0:
256,192,2641,1,0,0:0:0:0:
182,192,2673,1,0,0:0:0:0:
109,192,2703,1,0,0:0:0:0:
36,192,2735,1,0,0:0:0:0:
329,192,2766,1,0,0:0:0:0:
256,192,2798,1,0,0:0:0:0:
182,192,2829,1,0,0:0:0:0:
109,192,2860,1,0,0:0:0:0:
402,192,2891,1,0,0:0:0:0:
329,192,2922,1,0,0:0:0:0:
256,192,2954,1,0,0:0:0:0:
182,192,2985,1,0,0:0:0:0:
475,192,3016,1,0,0:0:0:0:
402,192,3048,1,0,0:0:0:0:
329,192,3078,1,0,0:0:0:0:
256,192,3110,1,0,0:0:0:0:
109,192,3141,128,0,3579:0:0:0:0:
402,192,3141,128,0,3579:0:0:0:0:
475,192,3141,128,0,4078:0:0:0:0:
36,192,3141,128,0,4141:0:0:0:0:
182,192,3267,128,0,3391:0:0:0:0:
256,192,3329,128,0,3454:0:0:0:0:
329,192,3391,128,0,3516:0:0:0:0:
182,192,3454,128,0,3891:0:0:0:0:
256,192,3516,128,0,4078:0:0:0:0:
329,192,3579,128,0,3829:0:0:0:0:
402,192,3642,128,0,4078:0:0:0:0:
109,192,3642,128,0,4141:0:0:0:0:
329,192,3891,128,0,3954:0:0:0:0:
182,192,3954,128,0,4017:0:0:0:0:
329,192,4017,128,0,4078:0:0:0:0:
182,192,4078,128,0,4141:0:0:0:0:
329,192,4141,1,0,0:0:0:0:
402,192,4141,128,0,4266:0:0:0:0:
475,192,4141,128,0,4266:0:0:0:0:
256,192,4141,1,0,0:0:0:0:
182,192,4266,1,0,0:0:0:0:
36,192,4266,1,0,0:0:0:0:
256,192,4392,1,0,0:0:0:0:
109,192,4392,1,0,0:0:0:0:
475,192,4392,1,0,0:0:0:0:
402,192,4392,1,0,0:0:0:0:
109,192,4516,128,0,4766:0:0:0:0:
182,192,4516,128,0,4641:0:0:0:0:
329,192,4516,128,0,4641:0:0:0:0:
402,192,4641,1,0,0:0:0:0:
329,192,4704,1,0,0:0:0:0:
182,192,4766,1,0,0:0:0:0:
475,192,4766,128,0,4828:0:0:0:0:
256,192,4828,1,0,0:0:0:0:
36,192,4891,1,0,0:0:0:0:
329,192,4891,128,0,4954:0:0:0:0:
402,192,4891,1,0,0:0:0:0:
109,192,4954,1,0,0:0:0:0:
475,192,5016,1,0,0:0:0:0:
182,192,5016,128,0,5079:0:0:0:0:
402,192,5079,1,0,0:0:0:0:
36,192,5141,128,0,5266:0:0:0:0:
109,192,5141,128,0,5266:0:0:0:0:
256,192,5141,1,0,0:0:0:0:
329,192,5266,1,0,0:0:0:0:
475,192,5266,1,0,0:0:0:0:
402,192,5392,1,0,0:0:0:0:
256,192,5392,1,0,0:0:0:0:
36,192,5392,1,0,0:0:0:0:
109,192,5392,1,0,0:0:0:0:
329,192,5516,128,0,5641:0:0:0:0:
402,192,5516,128,0,5767:0:0:0:0:
182,192,5516,128,0,5641:0:0:0:0:
109,192,5641,1,0,0:0:0:0:
182,192,5704,1,0,0:0:0:0:
329,192,5767,1,0,0:0:0:0:
36,192,5767,128,0,5828:0:0:0:0:
475,192,5891,1,0,0:0:0:0:
109,192,5891,1,0,0:0:0:0:
182,192,5891,128,0,5954:0:0:0:0:
329,192,6016,128,0,6079:0:0:0:0:
256,192,6016,1,0,0:0:0:0:
36,192,6142,128,0,6266:0:0:0:0:
109,192,6142,1,0,0:0:0:0:
402,192,6142,1,0,0:0:0:0:
182,192,6266,128,0,6391:0:0:0:0:
329,192,6391,128,0,6517:0:0:0:0:
109,192,6517,128,0,6641:0:0:0:0:
182,192,6517,1,0,0:0:0:0:
475,192,6517,1,0,0:0:0:0:
256,192,6641,128,0,6766:0:0:0:0:
402,192,6766,128,0,6891:0:0:0:0:
36,192,6891,1,0,0:0:0:0:
182,192,6891,1,0,0:0:0:0:
36,192,7016,1,0,0:0:0:0:
182,192,7016,1,0,0:0:0:0:
475,192,7141,128,0,7266:0:0:0:0:
402,192,7141,1,0,0:0:0:0:
109,192,7141,1,0,0:0:0:0:
329,192,7266,128,0,7391:0:0:0:0:
182,192,7391,128,0,7517:0:0:0:0:
402,192,7517,128,0,7641:0:0:0:0:
329,192,7517,1,0,0:0:0:0:
36,192,7517,1,0,0:0:0:0:
256,192,7641,128,0,7766:0:0:0:0:
109,192,7766,128,0,7892:0:0:0:0:
329,192,7892,1,0,0:0:0:0:
402,192,7892,1,0,0:0:0:0:
475,192,7892,1,0,0:0:0:0:
36,192,7953,1,0,0:0:0:0:
109,192,7953,1,0,0:0:0:0:
182,192,7953,1,0,0:0:0:0:
329,192,8016,1,0,0:0:0:0:
402,192,8016,1,0,0:0:0:0:
475,192,8016,1,0,0:0:0:0:
36,192,8079,1,0,0:0:0:0:
109,192,8079,1,0,0:0:0:0:
182,192,8079,1,0,0:0:0:0:
402,192,8141,128,0,8267:0:0:0:0:
475,192,8141,128,0,8267:0:0:0:0:
329,192,8141,1,0,0:0:0:0:
256,192,8141,1,0,0:0:0:0:
182,192,8267,1,0,0:0:0:0:
36,192,8267,1,0,0:0:0:0:
256,192,8391,1,0,0:0:0:0:
109,192,8391,1,0,0:0:0:0:
475,192,8391,1,0,0:0:0:0:
402,192,8391,1,0,0:0:0:0:
109,192,8516,128,0,8766:0:0:0:0:
182,192,8516,128,0,8642:0:0:0:0:
329,192,8516,128,0,8642:0:0:0:0:
402,192,8642,1,0,0:0:0:0:
329,192,8703,1,0,0:0:0:0:
182,192,8766,1,0,0:0:0:0:
475,192,8766,128,0,8829:0:0:0:0:
256,192,8829,1,0,0:0:0:0:
36,192,8891,1,0,0:0:0:0:
329,192,8891,128,0,8954:0:0:0:0:
402,192,8891,1,0,0:0:0:0:
109,192,8954,1,0,0:0:0:0:
475,192,9016,1,0,0:0:0:0:
182,192,9016,128,0,9078:0:0:0:0:
402,192,9078,1,0,0:0:0:0:
36,192,9141,128,0,9267:0:0:0:0:
109,192,9141,128,0,9267:0:0:0:0:
256,192,9141,1,0,0:0:0:0:
329,192,9267,1,0,0:0:0:0:
475,192,9267,1,0,0:0:0:0:
402,192,9391,1,0,0:0:0:0:
256,192,9391,1,0,0:0:0:0:
36,192,9391,1,0,0:0:0:0:
109,192,9391,1,0,0:0:0:0:
329,192,9516,128,0,9642:0:0:0:0:
402,192,9516,128,0,9766:0:0:0:0:
182,192,9516,128,0,9642:0:0:0:0:
109,192,9642,1,0,0:0:0:0:
182,192,9704,1,0,0:0:0:0:
329,192,9766,1,0,0:0:0:0:
36,192,9766,128,0,9829:0:0:0:0:
475,192,9891,1,0,0:0:0:0:
109,192,9891,1,0,0:0:0:0:
182,192,9891,128,0,9954:0:0:0:0:
329,192,10017,128,0,10078:0:0:0:0:
256,192,10017,1,0,0:0:0:0:
475,192,10141,128,0,10266:0:0:0:0:
36,192,10141,128,0,10266:0:0:0:0:
182,192,10266,1,0,0:0:0:0:
329,192,10266,1,0,0:0:0:0:
182,192,10392,1,0,0:0:0:0:
329,192,10392,1,0,0:0:0:0:
109,192,10392,1,0,0:0:0:0:
402,192,10392,1,0,0:0:0:0:
256,192,10453,1,0,0:0:0:0:
36,192,10516,1,0,0:0:0:0:
475,192,10516,1,0,0:0:0:0:
109,192,10516,1,0,0:0:0:0:
402,192,10516,1,0,0:0:0:0:
256,192,10641,128,0,10891:0:0:0:0:
182,192,10641,128,0,10767:0:0:0:0:
402,192,10704,1,0,0:0:0:0:
329,192,10767,128,0,10891:0:0:0:0:
109,192,10828,1,0,0:0:0:0:
402,192,10891,128,0,10954:0:0:0:0:
475,192,10891,128,0,10954:0:0:0:0:
109,192,10954,128,0,11016:0:0:0:0:
36,192,10954,128,0,11016:0:0:0:0:
402,192,11016,128,0,11079:0:0:0:0:
475,192,11016,128,0,11079:0:0:0:0:
36,192,11079,128,0,11141:0:0:0:0:
109,192,11079,128,0,11141:0:0:0:0:
182,192,11141,128,0,11266:0:0:0:0:
256,192,11141,128,0,11266:0:0:0:0:
329,192,11141,128,0,11392:0:0:0:0:
475,192,11266,128,0,11392:0:0:0:0:
402,192,11266,128,0,11392:0:0:0:0:
256,192,11392,128,0,11641:0:0:0:0:
182,192,11392,128,0,11516:0:0:0:0:
109,192,11392,128,0,11516:0:0:0:0:
402,192,11516,128,0,11641:0:0:0:0:
329,192,11516,128,0,11641:0:0:0:0:
182,192,11641,128,0,11891:0:0:0:0:
36,192,11641,128,0,11767:0:0:0:0:
109,192,11641,128,0,11767:0:0:0:0:
329,192,11767,128,0,11891:0:0:0:0:
256,192,11767,128,0,11891:0:0:0:0:
36,192,11891,128,0,11954:0:0:0:0:
109,192,11891,128,0,11954:0:0:0:0:
402,192,11954,128,0,12016:0:0:0:0:
475,192,11954,128,0,12016:0:0:0:0:
36,192,12016,128,0,12079:0:0:0:0:
109,192,12016,128,0,12079:0:0:0:0:
402,192,12079,128,0,12142:0:0:0:0:
475,192,12079,128,0,12142:0:0:0:0:
36,192,12142,1,0,0:0:0:0:
109,192,12142,1,0,0:0:0:0:
182,192,12142,1,0,0:0:0:0:
329,192,12142,1,0,0:0:0:0:
256,192,12266,1,0,0:0:0:0:
182,192,12329,1,0,0:0:0:0:
329,192,12391,1,0,0:0:0:0:
402,192,12391,1,0,0:0:0:0:
475,192,12391,1,0,0:0:0:0:
109,192,12391,1,0,0:0:0:0:
256,192,12454,1,0,0:0:0:0:
36,192,12517,1,0,0:0:0:0:
182,192,12517,1,0,0:0:0:0:
475,192,12517,1,0,0:0:0:0:
329,192,12578,1,0,0:0:0:0:
36,192,12641,128,0,12704:0:0:0:0:
109,192,12641,128,0,12704:0:0:0:0:
402,192,12641,1,0,0:0:0:0:
182,192,12704,1,0,0:0:0:0:
329,192,12766,1,0,0:0:0:0:
475,192,12766,1,0,0:0:0:0:
256,192,12829,1,0,0:0:0:0:
182,192,12892,128,0,12953:0:0:0:0:
402,192,12892,1,0,0:0:0:0:
36,192,12892,128,0,12953:0:0:0:0:
109,192,12892,1,0,0:0:0:0:
256,192,12953,1,0,0:0:0:0:
329,192,13016,1,0,0:0:0:0:
402,192,13079,1,0,0:0:0:0:
182,192,13141,128,0,13204:0:0:0:0:
475,192,13141,1,0,0:0:0:0:
36,192,13141,1,0,0:0:0:0:
109,192,13141,128,0,13204:0:0:0:0:
329,192,13204,1,0,0:0:0:0:
256,192,13266,1,0,0:0:0:0:
182,192,13328,1,0,0:0:0:0:
402,192,13391,128,0,13454:0:0:0:0:
475,192,13391,128,0,13454:0:0:0:0:
329,192,13391,1,0,0:0:0:0:
109,192,13391,1,0,0:0:0:0:
256,192,13454,1,0,0:0:0:0:
36,192,13517,1,0,0:0:0:0:
402,192,13517,1,0,0:0:0:0:
182,192,13517,1,0,0:0:0:0:
256,192,13579,1,0,0:0:0:0:
329,192,13641,128,0,13704:0:0:0:0:
475,192,13641,128,0,13704:0:0:0:0:
36,192,13641,1,0,0:0:0:0:
109,192,13704,1,0,0:0:0:0:
402,192,13766,1,0,0:0:0:0:
256,192,13766,1,0,0:0:0:0:
182,192,13829,1,0,0:0:0:0:
329,192,13892,128,0,13954:0:0:0:0:
402,192,13892,128,0,13954:0:0:0:0:
475,192,13892,1,0,0:0:0:0:
109,192,13892,1,0,0:0:0:0:
256,192,13954,1,0,0:0:0:0:
182,192,14016,1,0,0:0:0:0:
109,192,14079,1,0,0:0:0:0:
329,192,14141,1,0,0:0:0:0:
475,192,14141,1,0,0:0:0:0:
36,192,14141,1,0,0:0:0:0:
402,192,14141,1,0,0:0:0:0:
182,192,14204,1,0,0:0:0:0:
256,192,14267,1,0,0:0:0:0:
329,192,14328,1,0,0:0:0:0:
36,192,14391,1,0,0:0:0:0:
402,192,14391,1,0,0:0:0:0:
182,192,14391,1,0,0:0:0:0:
109,192,14391,1,0,0:0:0:0:
256,192,14454,1,0,0:0:0:0:
36,192,14516,1,0,0:0:0:0:
329,192,14516,1,0,0:0:0:0:
475,192,14516,1,0,0:0:0:0:
182,192,14579,1,0,0:0:0:0:
109,192,14642,1,0,0:0:0:0:
402,192,14642,128,0,14703:0:0:0:0:
475,192,14642,128,0,14703:0:0:0:0:
329,192,14703,1,0,0:0:0:0:
36,192,14766,1,0,0:0:0:0:
182,192,14766,1,0,0:0:0:0:
256,192,14829,1,0,0:0:0:0:
402,192,14891,1,0,0:0:0:0:
329,192,14891,128,0,14954:0:0:0:0:
109,192,14891,1,0,0:0:0:0:
475,192,14891,1,0,0:0:0:0:
182,192,14954,128,0,15017:0:0:0:0:
329,192,15017,128,0,15078:0:0:0:0:
182,192,15078,128,0,15141:0:0:0:0:
475,192,15141,1,0,0:0:0:0:
402,192,15141,128,0,15204:0:0:0:0:
329,192,15141,128,0,15204:0:0:0:0:
36,192,15141,1,0,0:0:0:0:
109,192,15204,1,0,0:0:0:0:
256,192,15266,1,0,0:0:0:0:
329,192,15329,1,0,0:0:0:0:
36,192,15391,128,0,15453:0:0:0:0:
182,192,15391,1,0,0:0:0:0:
109,192,15391,128,0,15453:0:0:0:0:
402,192,15391,1,0,0:0:0:0:
256,192,15453,1,0,0:0:0:0:
109,192,15516,1,0,0:0:0:0:
475,192,15516,1,0,0:0:0:0:
329,192,15516,1,0,0:0:0:0:
256,192,15579,1,0,0:0:0:0:
36,192,15642,128,0,15704:0:0:0:0:
182,192,15642,128,0,15704:0:0:0:0:
475,192,15642,1,0,0:0:0:0:
402,192,15704,1,0,0:0:0:0:
256,192,15766,1,0,0:0:0:0:
109,192,15766,1,0,0:0:0:0:
329,192,15829,1,0,0:0:0:0:
36,192,15891,1,0,0:0:0:0:
402,192,15891,1,0,0:0:0:0:
182,192,15891,128,0,15954:0:0:0:0:
109,192,15891,128,0,15954:0:0:0:0:
256,192,15954,1,0,0:0:0:0:
329,192,16017,1,0,0:0:0:0:
402,192,16079,1,0,0:0:0:0:
36,192,16141,1,0,0:0:0:0:
109,192,16141,1,0,0:0:0:0:
182,192,16141,1,0,0:0:0:0:
475,192,16141,1,0,0:0:0:0:
256,192,16266,1,0,0:0:0:0:
182,192,16329,1,0,0:0:0:0:
329,192,16392,1,0,0:0:0:0:
475,192,16392,1,0,0:0:0:0:
109,192,16392,128,0,16453:0:0:0:0:
402,192,16392,128,0,16453:0:0:0:0:
256,192,16453,1,0,0:0:0:0:
475,192,16516,1,0,0:0:0:0:
182,192,16516,1,0,0:0:0:0:
36,192,16516,1,0,0:0:0:0:
329,192,16579,1,0,0:0:0:0:
402,192,16641,1,0,0:0:0:0:
109,192,16641,1,0,0:0:0:0:
256,192,16641,128,0,16704:0:0:0:0:
182,192,16704,1,0,0:0:0:0:
475,192,16767,1,0,0:0:0:0:
329,192,16767,1,0,0:0:0:0:
36,192,16767,1,0,0:0:0:0:
256,192,16828,1,0,0:0:0:0:
36,192,16891,1,0,0:0:0:0:
182,192,16891,1,0,0:0:0:0:
109,192,16891,128,0,16954:0:0:0:0:
402,192,16891,128,0,16954:0:0:0:0:
256,192,16954,1,0,0:0:0:0:
329,192,17016,1,0,0:0:0:0:
402,192,17079,1,0,0:0:0:0:
36,192,17142,1,0,0:0:0:0:
182,192,17142,128,0,17203:0:0:0:0:
475,192,17142,1,0,0:0:0:0:
109,192,17142,1,0,0:0:0:0:
329,192,17203,128,0,17266:0:0:0:0:
182,192,17266,128,0,17329:0:0:0:0:
329,192,17329,128,0,17391:0:0:0:0:
109,192,17391,128,0,17454:0:0:0:0:
402,192,17391,128,0,17454:0:0:0:0:
182,192,17391,1,0,0:0:0:0:
36,192,17391,1,0,0:0:0:0:
256,192,17454,1,0,0:0:0:0:
36,192,17516,1,0,0:0:0:0:
329,192,17516,1,0,0:0:0:0:
475,192,17516,1,0,0:0:0:0:
182,192,17578,1,0,0:0:0:0:
256,192,17641,1,0,0:0:0:0:
402,192,17641,128,0,17704:0:0:0:0:
475,192,17641,1,0,0:0:0:0:
109,192,17704,128,0,17767:0:0:0:0:
402,192,17767,128,0,17829:0:0:0:0:
109,192,17829,128,0,17891:0:0:0:0:
329,192,17891,128,0,17954:0:0:0:0:
36,192,17891,1,0,0:0:0:0:
402,192,17891,1,0,0:0:0:0:
475,192,17891,128,0,17954:0:0:0:0:
256,192,17954,1,0,0:0:0:0:
182,192,18016,1,0,0:0:0:0:
36,192,18079,1,0,0:0:0:0:
402,192,18142,128,0,18204:0:0:0:0:
475,192,18142,128,0,18204:0:0:0:0:
256,192,18204,128,0,18266:0:0:0:0:
109,192,18204,128,0,18266:0:0:0:0:
402,192,18266,128,0,18329:0:0:0:0:
475,192,18266,128,0,18329:0:0:0:0:
256,192,18329,128,0,18391:0:0:0:0:
109,192,18329,128,0,18391:0:0:0:0:
329,192,18391,128,0,18454:0:0:0:0:
475,192,18391,128,0,18454:0:0:0:0:
182,192,18454,128,0,18517:0:0:0:0:
109,192,18454,128,0,18517:0:0:0:0:
329,192,18517,128,0,18578:0:0:0:0:
475,192,18517,128,0,18578:0:0:0:0:
182,192,18578,128,0,18641:0:0:0:0:
109,192,18578,128,0,18641:0:0:0:0:
329,192,18641,128,0,18704:0:0:0:0:
402,192,18641,128,0,18704:0:0:0:0:
182,192,18704,128,0,18766:0:0:0:0:
36,192,18704,128,0,18766:0:0:0:0:
329,192,18766,128,0,18829:0:0:0:0:
402,192,18766,128,0,18829:0:0:0:0:
182,192,18829,128,0,18892:0:0:0:0:
36,192,18829,128,0,18892:0:0:0:0:
256,192,18892,128,0,18953:0:0:0:0:
402,192,18892,128,0,18953:0:0:0:0:
36,192,18953,128,0,19016:0:0:0:0:
109,192,18953,128,0,19016:0:0:0:0:
256,192,19016,128,0,19079:0:0:0:0:
402,192,19016,128,0,19079:0:0:0:0:
109,192,19079,128,0,19141:0:0:0:0:
36,192,19079,128,0,19141:0:0:0:0:
329,192,19141,128,0,19391:0:0:0:0:
256,192,19141,128,0,19267:0:0:0:0:
182,192,19141,128,0,19267:0:0:0:0:
402,192,19267,128,0,19391:0:0:0:0:
475,192,19267,128,0,19391:0:0:0:0:
109,192,19391,128,0,19517:0:0:0:0:
182,192,19391,128,0,19517:0:0:0:0:
256,192,19391,128,0,19641:0:0:0:0:
329,192,19517,128,0,19641:0:0:0:0:
402,192,19517,128,0,19641:0:0:0:0:
36,192,19641,128,0,19766:0:0:0:0:
109,192,19641,128,0,19766:0:0:0:0:
182,192,19641,128,0,19892:0:0:0:0:
329,192,19766,128,0,19892:0:0:0:0:
256,192,19766,128,0,19892:0:0:0:0:
36,192,19892,128,0,19954:0:0:0:0:
109,192,19892,128,0,19954:0:0:0:0:
402,192,19954,128,0,20016:0:0:0:0:
475,192,19954,128,0,20016:0:0:0:0:
36,192,20016,128,0,20079:0:0:0:0:
109,192,20016,128,0,20079:0:0:0:0:
402,192,20079,128,0,20141:0:0:0:0:
475,192,20079,128,0,20141:0:0:0:0:
36,192,20141,1,0,0:0:0:0:
109,192,20141,1,0,0:0:0:0:
182,192,20141,1,0,0:0:0:0:
329,192,20141,1,0,0:0:0:0:
256,192,20267,1,0,0:0:0:0:
182,192,20329,1,0,0:0:0:0:
109,192,20391,1,0,0:0:0:0:
329,192,20391,1,0,0:0:0:0:
402,192,20391,1,0,0:0:0:0:
475,192,20391,1,0,0:0:0:0:
256,192,20454,1,0,0:0:0:0:
182,192,20516,1,0,0:0:0:0:
36,192,20516,1,0,0:0:0:0:
402,192,20516,1,0,0:0:0:0:
329,192,20579,1,0,0:0:0:0:
475,192,20642,1,0,0:0:0:0:
109,192,20642,128,0,20703:0:0:0:0:
256,192,20642,128,0,20703:0:0:0:0:
402,192,20703,1,0,0:0:0:0:
182,192,20766,1,0,0:0:0:0:
329,192,20766,1,0,0:0:0:0:
109,192,20829,1,0,0:0:0:0:
256,192,20891,128,0,20954:0:0:0:0:
402,192,20891,128,0,20954:0:0:0:0:
36,192,20891,1,0,0:0:0:0:
475,192,20891,1,0,0:0:0:0:
182,192,20954,1,0,0:0:0:0:
329,192,21017,1,0,0:0:0:0:
256,192,21078,1,0,0:0:0:0:
36,192,21141,1,0,0:0:0:0:
475,192,21141,1,0,0:0:0:0:
182,192,21141,1,0,0:0:0:0:
402,192,21141,128,0,21204:0:0:0:0:
256,192,21204,128,0,21266:0:0:0:0:
109,192,21266,1,0,0:0:0:0:
182,192,21329,1,0,0:0:0:0:
475,192,21392,1,0,0:0:0:0:
36,192,21392,1,0,0:0:0:0:
109,192,21392,128,0,21453:0:0:0:0:
329,192,21392,1,0,0:0:0:0:
256,192,21453,128,0,21516:0:0:0:0:
475,192,21516,1,0,0:0:0:0:
182,192,21516,1,0,0:0:0:0:
402,192,21516,1,0,0:0:0:0:
329,192,21579,1,0,0:0:0:0:
36,192,21642,1,0,0:0:0:0:
109,192,21642,1,0,0:0:0:0:
475,192,21704,128,0,22017:0:0:0:0:
256,192,21704,1,0,0:0:0:0:
402,192,21766,128,0,21954:0:0:0:0:
182,192,21766,1,0,0:0:0:0:
109,192,21829,1,0,0:0:0:0:
329,192,21829,128,0,21891:0:0:0:0:
36,192,21891,128,0,22079:0:0:0:0:
256,192,21891,1,0,0:0:0:0:
109,192,21954,128,0,22079:0:0:0:0:
329,192,21954,1,0,0:0:0:0:
402,192,22017,1,0,0:0:0:0:
182,192,22017,128,0,22079:0:0:0:0:
256,192,22079,1,0,0:0:0:0:
475,192,22079,1,0,0:0:0:0:
36,192,22141,1,0,0:0:0:0:
109,192,22141,1,0,0:0:0:0:
182,192,22141,1,0,0:0:0:0:
329,192,22141,1,0,0:0:0:0:
402,192,22204,1,0,0:0:0:0:
256,192,22266,1,0,0:0:0:0:
329,192,22329,1,0,0:0:0:0:
109,192,22392,1,0,0:0:0:0:
182,192,22392,1,0,0:0:0:0:
36,192,22392,1,0,0:0:0:0:
402,192,22392,1,0,0:0:0:0:
256,192,22454,1,0,0:0:0:0:
329,192,22516,1,0,0:0:0:0:
475,192,22516,1,0,0:0:0:0:
109,192,22516,1,0,0:0:0:0:
182,192,22579,1,0,0:0:0:0:
256,192,22641,128,0,22704:0:0:0:0:
402,192,22641,128,0,22704:0:0:0:0:
36,192,22641,1,0,0:0:0:0:
109,192,22704,1,0,0:0:0:0:
182,192,22767,1,0,0:0:0:0:
329,192,22767,1,0,0:0:0:0:
402,192,22828,1,0,0:0:0:0:
109,192,22891,128,0,22954:0:0:0:0:
256,192,22891,128,0,22954:0:0:0:0:
36,192,22891,1,0,0:0:0:0:
475,192,22891,1,0,0:0:0:0:
329,192,22954,1,0,0:0:0:0:
182,192,23016,1,0,0:0:0:0:
256,192,23079,1,0,0:0:0:0:
402,192,23142,128,0,23203:0:0:0:0:
475,192,23142,128,0,23203:0:0:0:0:
36,192,23203,128,0,23266:0:0:0:0:
109,192,23203,128,0,23266:0:0:0:0:
402,192,23266,128,0,23329:0:0:0:0:
475,192,23266,128,0,23329:0:0:0:0:
36,192,23329,128,0,23391:0:0:0:0:
109,192,23329,128,0,23391:0:0:0:0:
329,192,23391,128,0,23454:0:0:0:0:
402,192,23391,128,0,23454:0:0:0:0:
109,192,23454,128,0,23517:0:0:0:0:
182,192,23454,128,0,23517:0:0:0:0:
329,192,23517,128,0,23578:0:0:0:0:
402,192,23517,128,0,23578:0:0:0:0:
109,192,23578,128,0,23641:0:0:0:0:
182,192,23578,128,0,23641:0:0:0:0:
475,192,23641,1,0,0:0:0:0:
402,192,23641,1,0,0:0:0:0:
36,192,23704,128,0,24016:0:0:0:0:
256,192,23704,1,0,0:0:0:0:
329,192,23767,1,0,0:0:0:0:
109,192,23767,128,0,23954:0:0:0:0:
402,192,23829,1,0,0:0:0:0:
182,192,23829,128,0,23891:0:0:0:0:
256,192,23891,1,0,0:0:0:0:
475,192,23891,128,0,24079:0:0:0:0:
182,192,23954,1,0,0:0:0:0:
402,192,23954,128,0,24079:0:0:0:0:
109,192,24016,1,0,0:0:0:0:
329,192,24016,128,0,24079:0:0:0:0:
36,192,24079,1,0,0:0:0:0:
256,192,24079,1,0,0:0:0:0:
182,192,24142,1,0,0:0:0:0:
329,192,24142,1,0,0:0:0:0:
475,192,24142,1,0,0:0:0:0:
402,192,24142,1,0,0:0:0:0:
109,192,24204,1,0,0:0:0:0:
256,192,24266,1,0,0:0:0:0:
182,192,24329,1,0,0:0:0:0:
109,192,24391,1,0,0:0:0:0:
36,192,24391,1,0,0:0:0:0:
475,192,24391,1,0,0:0:0:0:
329,192,24391,1,0,0:0:0:0:
256,192,24454,1,0,0:0:0:0:
109,192,24517,1,0,0:0:0:0:
182,192,24517,1,0,0:0:0:0:
402,192,24517,1,0,0:0:0:0:
329,192,24579,1,0,0:0:0:0:
256,192,24641,1,0,0:0:0:0:
475,192,24641,1,0,0:0:0:0:
36,192,24641,1,0,0:0:0:0:
109,192,24704,1,0,0:0:0:0:
182,192,24766,1,0,0:0:0:0:
329,192,24766,1,0,0:0:0:0:
256,192,24829,1,0,0:0:0:0:
36,192,24892,1,0,0:0:0:0:
109,192,24892,1,0,0:0:0:0:
475,192,24892,1,0,0:0:0:0:
402,192,24892,1,0,0:0:0:0:
182,192,24953,1,0,0:0:0:0:
329,192,24953,1,0,0:0:0:0:
109,192,25016,1,0,0:0:0:0:
402,192,25016,1,0,0:0:0:0:
182,192,25079,1,0,0:0:0:0:
329,192,25079,1,0,0:0:0:0:
475,192,25141,1,0,0:0:0:0:
36,192,25141,1,0,0:0:0:0:
256,192,25141,1,0,0:0:0:0:
402,192,25204,1,0,0:0:0:0:
329,192,25267,1,0,0:0:0:0:
182,192,25267,1,0,0:0:0:0:
256,192,25328,1,0,0:0:0:0:
475,192,25391,1,0,0:0:0:0:
36,192,25391,1,0,0:0:0:0:
402,192,25391,1,0,0:0:0:0:
109,192,25391,1,0,0:0:0:0:
329,192,25454,1,0,0:0:0:0:
182,192,25454,1,0,0:0:0:0:
109,192,25516,1,0,0:0:0:0:
402,192,25516,1,0,0:0:0:0:
182,192,25579,1,0,0:0:0:0:
329,192,25579,1,0,0:0:0:0:
475,192,25642,1,0,0:0:0:0:
36,192,25642,1,0,0:0:0:0:
256,192,25642,1,0,0:0:0:0:
109,192,25703,1,0,0:0:0:0:
402,192,25703,1,0,0:0:0:0:
329,192,25766,1,0,0:0:0:0:
182,192,25766,1,0,0:0:0:0:
256,192,25829,1,0,0:0:0:0:
36,192,25892,1,0,0:0:0:0:
182,192,25892,1,0,0:0:0:0:
475,192,25892,1,0,0:0:0:0:
109,192,25892,1,0,0:0:0:0:
329,192,25892,1,0,0:0:0:0:
402,192,25892,1,0,0:0:0:0:
182,192,26016,128,0,26141:0:0:0:0:
329,192,26016,128,0,26141:0:0:0:0:
36,192,26141,1,0,0:0:0:0:
109,192,26141,1,0,0:0:0:0:
402,192,26141,1,0,0:0:0:0:
475,192,26141,1,0,0:0:0:0:
182,192,26267,128,0,26516:0:0:0:0:
329,192,26267,128,0,26516:0:0:0:0:
109,192,26516,1,0,0:0:0:0:
402,192,26516,1,0,0:0:0:0:
256,192,26642,128,0,26891:0:0:0:0:
402,192,26891,128,0,26954:0:0:0:0:
329,192,26891,128,0,26954:0:0:0:0:
475,192,26891,128,0,26954:0:0:0:0:
109,192,26954,128,0,27017:0:0:0:0:
182,192,26954,128,0,27017:0:0:0:0:
36,192,26954,128,0,27017:0:0:0:0:
329,192,27017,128,0,27078:0:0:0:0:
402,192,27017,128,0,27078:0:0:0:0:
182,192,27078,128,0,27141:0:0:0:0:
109,192,27078,128,0,27141:0:0:0:0:
329,192,27141,128,0,27204:0:0:0:0:
256,192,27204,128,0,27266:0:0:0:0:
36,192,27266,128,0,27329:0:0:0:0:
109,192,27266,128,0,27329:0:0:0:0:
182,192,27266,128,0,27329:0:0:0:0:
329,192,27329,128,0,27392:0:0:0:0:
402,192,27329,128,0,27392:0:0:0:0:
475,192,27329,128,0,27392:0:0:0:0:
109,192,27392,128,0,27453:0:0:0:0:
182,192,27392,128,0,27453:0:0:0:0:
329,192,27453,128,0,27516:0:0:0:0:
402,192,27453,128,0,27516:0:0:0:0:
182,192,27516,128,0,27579:0:0:0:0:
256,192,27579,128,0,27642:0:0:0:0:
329,192,27642,1,0,0:0:0:0:
402,192,27642,1,0,0:0:0:0:
475,192,27642,1,0,0:0:0:0:
36,192,27642,1,0,0:0:0:0:
109,192,27642,1,0,0:0:0:0:
109,192,27767,128,0,28079:0:0:0:0:
256,192,27829,128,0,27954:0:0:0:0:
402,192,27891,128,0,28079:0:0:0:0:
182,192,27954,128,0,28141:0:0:0:0:
256,192,28017,128,0,28141:0:0:0:0:
329,192,28079,128,0,28141:0:0:0:0:
36,192,28141,1,0,0:0:0:0:
475,192,28141,1,0,0:0:0:0:
109,192,28141,1,0,0:0:0:0:
402,192,28141,1,0,0:0:0:0:
256,192,28266,128,0,28516:0:0:0:0:
329,192,28266,128,0,28516:0:0:0:0:
36,192,28516,1,0,0:0:0:0:
109,192,28516,1,0,0:0:0:0:
475,192,28516,1,0,0:0:0:0:
402,192,28516,1,0,0:0:0:0:
182,192,28641,128,0,28891:0:0:0:0:
256,192,28641,128,0,28891:0:0:0:0:
36,192,28891,1,0,0:0:0:0:
402,192,28891,1,0,0:0:0:0:
475,192,28891,1,0,0:0:0:0:
109,192,28891,1,0,0:0:0:0:
182,192,29016,128,0,29266:0:0:0:0:
329,192,29016,128,0,29266:0:0:0:0:
402,192,29266,1,0,0:0:0:0:
109,192,29266,1,0,0:0:0:0:
256,192,29266,1,0,0:0:0:0:
36,192,29266,1,0,0:0:0:0:
182,192,29391,128,0,29641:0:0:0:0:
475,192,29391,128,0,29641:0:0:0:0:
36,192,29641,1,0,0:0:0:0:
109,192,29641,1,0,0:0:0:0:
402,192,29641,1,0,0:0:0:0:
256,192,29641,1,0,0:0:0:0:
475,192,29767,128,0,30016:0:0:0:0:
329,192,29767,128,0,30016:0:0:0:0:
36,192,30016,1,0,0:0:0:0:
402,192,30016,1,0,0:0:0:0:
256,192,30016,1,0,0:0:0:0:
109,192,30016,1,0,0:0:0:0:
329,192,30142,128,0,30391:0:0:0:0:
182,192,30142,128,0,30391:0:0:0:0:
109,192,30391,1,0,0:0:0:0:
256,192,30391,1,0,0:0:0:0:
402,192,30391,1,0,0:0:0:0:
475,192,30391,1,0,0:0:0:0:
329,192,30517,128,0,30766:0:0:0:0:
36,192,30517,128,0,30766:0:0:0:0:
109,192,30766,1,0,0:0:0:0:
256,192,30766,1,0,0:0:0:0:
402,192,30766,1,0,0:0:0:0:
475,192,30766,1,0,0:0:0:0:
36,192,30892,128,0,31141:0:0:0:0:
182,192,30892,128,0,31141:0:0:0:0:
402,192,31141,128,0,31204:0:0:0:0:
475,192,31141,128,0,31204:0:0:0:0:
109,192,31204,128,0,31267:0:0:0:0:
36,192,31204,128,0,31267:0:0:0:0:
329,192,31267,128,0,31328:0:0:0:0:
475,192,31267,128,0,31328:0:0:0:0:
36,192,31328,128,0,31391:0:0:0:0:
182,192,31328,128,0,31391:0:0:0:0:
402,192,31391,128,0,31454:0:0:0:0:
329,192,31391,128,0,31454:0:0:0:0:
109,192,31454,128,0,31516:0:0:0:0:
182,192,31454,128,0,31516:0:0:0:0:
402,192,31516,128,0,31579:0:0:0:0:
475,192,31516,128,0,31579:0:0:0:0:
109,192,31579,128,0,31642:0:0:0:0:
36,192,31579,128,0,31642:0:0:0:0:
256,192,31642,1,0,0:0:0:0:
182,192,31703,1,0,0:0:0:0:
329,192,31703,1,0,0:0:0:0:
36,192,31766,1,0,0:0:0:0:
475,192,31766,1,0,0:0:0:0:
182,192,31829,1,0,0:0:0:0:
329,192,31829,1,0,0:0:0:0:
256,192,31892,128,0,31954:0:0:0:0:
109,192,31892,128,0,31954:0:0:0:0:
402,192,31892,128,0,31954:0:0:0:0:
256,192,32017,128,0,32079:0:0:0:0:
36,192,32017,128,0,32079:0:0:0:0:
475,192,32017,128,0,32079:0:0:0:0:
256,192,32141,128,0,32204:0:0:0:0:
182,192,32141,128,0,32204:0:0:0:0:
329,192,32141,128,0,32204:0:0:0:0:
475,192,32267,1,0,0:0:0:0:
402,192,32287,1,0,0:0:0:0:
329,192,32308,1,0,0:0:0:0:
182,192,32329,1,0,0:0:0:0:
109,192,32349,1,0,0:0:0:0:
36,192,32371,1,0,0:0:0:0:
256,192,32391,128,0,32516:0:0:0:0:
182,192,32642,128,0,32766:0:0:0:0:
402,192,32642,128,0,32766:0:0:0:0:
329,192,32766,128,0,32829:0:0:0:0:
256,192,32891,128,0,33017:0:0:0:0:
475,192,32891,128,0,33017:0:0:0:0:
329,192,33017,128,0,33079:0:0:0:0:
109,192,33141,128,0,33266:0:0:0:0:
402,192,33141,128,0,33266:0:0:0:0:
182,192,33392,128,0,33516:0:0:0:0:
329,192,33392,128,0,33516:0:0:0:0:
109,192,33641,128,0,33767:0:0:0:0:
402,192,33641,128,0,33767:0:0:0:0:
256,192,33891,128,0,34017:0:0:0:0:
475,192,33891,128,0,34017:0:0:0:0:
182,192,34017,128,0,34079:0:0:0:0:
36,192,34142,128,0,34266:0:0:0:0:
329,192,34142,128,0,34266:0:0:0:0:
475,192,34392,128,0,34516:0:0:0:0:
182,192,34392,128,0,34516:0:0:0:0:
36,192,34641,128,0,34767:0:0:0:0:
475,192,34641,128,0,34767:0:0:0:0:
329,192,34767,128,0,34829:0:0:0:0:
182,192,34891,128,0,35016:0:0:0:0:
402,192,34891,128,0,35016:0:0:0:0:
36,192,35016,128,0,35079:0:0:0:0:
475,192,35142,128,0,35266:0:0:0:0:
109,192,35142,128,0,35266:0:0:0:0:
256,192,35266,128,0,35329:0:0:0:0:
402,192,35391,128,0,35517:0:0:0:0:
36,192,35391,128,0,35517:0:0:0:0:
475,192,35641,128,0,35766:0:0:0:0:
402,192,35641,128,0,35766:0:0:0:0:
256,192,35766,128,0,35829:0:0:0:0:
109,192,35892,128,0,36016:0:0:0:0:
329,192,35892,128,0,36016:0:0:0:0:
256,192,36016,128,0,36079:0:0:0:0:
402,192,36142,128,0,36267:0:0:0:0:
36,192,36142,128,0,36267:0:0:0:0:
182,192,36267,128,0,36329:0:0:0:0:
109,192,36391,128,0,36517:0:0:0:0:
329,192,36391,128,0,36470:0:0:0:0:
256,192,36470,128,0,36547:0:0:0:0:
329,192,36547,1,0,0:0:0:0:
402,192,36641,128,0,36766:0:0:0:0:
329,192,36641,128,0,36766:0:0:0:0:
329,192,36892,128,0,37016:0:0:0:0:
475,192,36892,128,0,37016:0:0:0:0:
36,192,37016,128,0,37079:0:0:0:0:
329,192,37141,128,0,37267:0:0:0:0:
109,192,37141,128,0,37267:0:0:0:0:
402,192,37391,128,0,37516:0:0:0:0:
182,192,37391,128,0,37516:0:0:0:0:
329,192,37642,128,0,37766:0:0:0:0:
109,192,37642,128,0,37766:0:0:0:0:
402,192,37892,128,0,38017:0:0:0:0:
475,192,37892,128,0,38017:0:0:0:0:
182,192,38017,128,0,38079:0:0:0:0:
256,192,38141,128,0,38267:0:0:0:0:
36,192,38141,128,0,38267:0:0:0:0:
182,192,38392,128,0,38516:0:0:0:0:
109,192,38392,128,0,38516:0:0:0:0:
256,192,38642,128,0,38766:0:0:0:0:
329,192,38642,128,0,38766:0:0:0:0:
475,192,38891,128,0,39017:0:0:0:0:
402,192,38891,128,0,39017:0:0:0:0:
256,192,39017,128,0,39079:0:0:0:0:
182,192,39141,128,0,39266:0:0:0:0:
402,192,39141,128,0,39266:0:0:0:0:
329,192,39392,128,0,39516:0:0:0:0:
182,192,39392,128,0,39516:0:0:0:0:
36,192,39516,128,0,39579:0:0:0:0:
182,192,39641,128,0,39767:0:0:0:0:
329,192,39641,128,0,39767:0:0:0:0:
475,192,39891,128,0,40017:0:0:0:0:
36,192,39891,128,0,39954:0:0:0:0:
182,192,39954,128,0,40017:0:0:0:0:
256,192,40017,128,0,40079:0:0:0:0:
329,192,40079,128,0,40142:0:0:0:0:
109,192,40142,128,0,40266:0:0:0:0:
475,192,40142,128,0,40266:0:0:0:0:
256,192,40266,128,0,40329:0:0:0:0:
182,192,40392,128,0,40517:0:0:0:0:
36,192,40392,128,0,40517:0:0:0:0:
109,192,40641,128,0,40767:0:0:0:0:
329,192,40641,128,0,40767:0:0:0:0:
256,192,40767,128,0,40829:0:0:0:0:
182,192,40891,128,0,40970:0:0:0:0:
329,192,40891,128,0,41016:0:0:0:0:
475,192,40970,128,0,41048:0:0:0:0:
109,192,41048,1,0,0:0:0:0:
36,192,41142,128,0,41266:0:0:0:0:
256,192,41142,128,0,41266:0:0:0:0:
182,192,41391,128,0,41517:0:0:0:0:
475,192,41391,128,0,41517:0:0:0:0:
36,192,41641,128,0,41766:0:0:0:0:
109,192,41641,128,0,41766:0:0:0:0:
182,192,41892,128,0,42016:0:0:0:0:
402,192,41892,128,0,42016:0:0:0:0:
329,192,42016,128,0,42079:0:0:0:0:
475,192,42142,128,0,42267:0:0:0:0:
256,192,42142,128,0,42267:0:0:0:0:
402,192,42391,128,0,42517:0:0:0:0:
182,192,42391,128,0,42517:0:0:0:0:
475,192,42642,128,0,42766:0:0:0:0:
36,192,42642,128,0,42766:0:0:0:0:
475,192,42892,128,0,43016:0:0:0:0:
109,192,42892,128,0,43016:0:0:0:0:
329,192,43016,128,0,43079:0:0:0:0:
402,192,43141,128,0,43267:0:0:0:0:
256,192,43141,128,0,43267:0:0:0:0:
329,192,43391,128,0,43516:0:0:0:0:
182,192,43391,128,0,43516:0:0:0:0:
402,192,43642,128,0,43766:0:0:0:0:
475,192,43642,128,0,43766:0:0:0:0:
182,192,43766,128,0,43829:0:0:0:0:
475,192,43891,128,0,44017:0:0:0:0:
256,192,43891,128,0,44017:0:0:0:0:
109,192,44017,128,0,44141:0:0:0:0:
329,192,44141,128,0,44267:0:0:0:0:
36,192,44141,128,0,44267:0:0:0:0:
256,192,44392,128,0,44516:0:0:0:0:
109,192,44392,128,0,44516:0:0:0:0:
329,192,44642,128,0,44767:0:0:0:0:
182,192,44642,128,0,44767:0:0:0:0:
402,192,44767,128,0,44829:0:0:0:0:
182,192,44891,128,0,45017:0:0:0:0:
475,192,44891,128,0,45017:0:0:0:0:
109,192,45017,128,0,45079:0:0:0:0:
256,192,45141,128,0,45266:0:0:0:0:
329,192,45141,128,0,45266:0:0:0:0:
475,192,45392,128,0,45516:0:0:0:0:
182,192,45392,128,0,45516:0:0:0:0:
256,192,45641,128,0,45767:0:0:0:0:
475,192,45641,128,0,45767:0:0:0:0:
329,192,45767,128,0,45830:0:0:0:0:
182,192,45891,128,0,46017:0:0:0:0:
402,192,45891,128,0,46017:0:0:0:0:
36,192,46017,128,0,46079:0:0:0:0:
182,192,46142,128,0,46266:0:0:0:0:
329,192,46142,128,0,46266:0:0:0:0:
475,192,46392,128,0,46517:0:0:0:0:
256,192,46392,128,0,46517:0:0:0:0:
182,192,46641,128,0,46767:0:0:0:0:
475,192,46641,128,0,46767:0:0:0:0:
402,192,46767,128,0,46829:0:0:0:0:
109,192,46892,128,0,47016:0:0:0:0:
329,192,46892,128,0,47016:0:0:0:0:
36,192,47016,128,0,47079:0:0:0:0:
109,192,47142,128,0,47266:0:0:0:0:
256,192,47142,128,0,47266:0:0:0:0:
402,192,47142,128,0,47266:0:0:0:0:
329,192,47266,128,0,47329:0:0:0:0:
182,192,47266,128,0,47329:0:0:0:0:
475,192,47391,128,0,47517:0:0:0:0:
182,192,47391,128,0,47517:0:0:0:0:
329,192,47391,128,0,47517:0:0:0:0:
402,192,47517,128,0,47579:0:0:0:0:
256,192,47517,128,0,47579:0:0:0:0:
256,192,47641,128,0,47704:0:0:0:0:
402,192,47641,128,0,47704:0:0:0:0:
182,192,47704,128,0,47766:0:0:0:0:
329,192,47704,128,0,47766:0:0:0:0:
109,192,47766,128,0,47829:0:0:0:0:
256,192,47766,128,0,47829:0:0:0:0:
36,192,47829,128,0,47892:0:0:0:0:
182,192,47829,128,0,47892:0:0:0:0:
109,192,47892,128,0,48016:0:0:0:0:
475,192,47892,128,0,48391:0:0:0:0:
402,192,48016,128,0,48391:0:0:0:0:
182,192,48016,128,0,48142:0:0:0:0:
109,192,48142,128,0,48391:0:0:0:0:
36,192,48142,128,0,48391:0:0:0:0:
329,192,48142,128,0,48391:0:0:0:0:
182,192,48267,128,0,48391:0:0:0:0:
256,192,48391,128,0,48517:0:0:0:0:
182,192,48642,128,0,48766:0:0:0:0:
402,192,48642,128,0,48766:0:0:0:0:
329,192,48766,128,0,48829:0:0:0:0:
256,192,48892,128,0,49017:0:0:0:0:
475,192,48892,128,0,49017:0:0:0:0:
329,192,49017,128,0,49079:0:0:0:0:
109,192,49141,128,0,49267:0:0:0:0:
402,192,49141,128,0,49267:0:0:0:0:
182,192,49391,128,0,49516:0:0:0:0:
329,192,49391,128,0,49516:0:0:0:0:
109,192,49642,128,0,49766:0:0:0:0:
402,192,49642,128,0,49766:0:0:0:0:
256,192,49891,128,0,50017:0:0:0:0:
475,192,49891,128,0,50017:0:0:0:0:
182,192,50017,128,0,50080:0:0:0:0:
36,192,50141,128,0,50267:0:0:0:0:
329,192,50141,128,0,50267:0:0:0:0:
475,192,50392,128,0,50516:0:0:0:0:
182,192,50392,128,0,50516:0:0:0:0:
36,192,50642,128,0,50767:0:0:0:0:
475,192,50642,128,0,50767:0:0:0:0:
329,192,50767,128,0,50829:0:0:0:0:
182,192,50891,128,0,51017:0:0:0:0:
402,192,50891,128,0,51017:0:0:0:0:
36,192,51017,128,0,51079:0:0:0:0:
109,192,51142,128,0,51829:0:0:0:0:
475,192,51142,128,0,51579:0:0:0:0:
256,192,51266,128,0,51704:0:0:0:0:
402,192,51392,128,0,51579:0:0:0:0:
36,192,51392,128,0,52079:0:0:0:0:
475,192,51641,128,0,52829:0:0:0:0:
402,192,51641,128,0,52079:0:0:0:0:
256,192,51767,128,0,51954:0:0:0:0:
109,192,51891,128,0,52329:0:0:0:0:
329,192,51891,128,0,52329:0:0:0:0:
256,192,52016,128,0,52392:0:0:0:0:
36,192,52142,128,0,52954:0:0:0:0:
402,192,52142,128,0,52548:0:0:0:0:
182,192,52266,128,0,53329:0:0:0:0:
329,192,52392,128,0,52470:0:0:0:0:
109,192,52392,128,0,53079:0:0:0:0:
256,192,52470,128,0,54079:0:0:0:0:
329,192,52548,1,0,0:0:0:0:
329,192,52641,128,0,52829:0:0:0:0:
402,192,52641,128,0,53329:0:0:0:0:
475,192,52892,128,0,53829:0:0:0:0:
329,192,52892,128,0,53079:0:0:0:0:
36,192,53016,128,0,54079:0:0:0:0:
109,192,53142,128,0,53579:0:0:0:0:
329,192,53142,128,0,53579:0:0:0:0:
182,192,53391,128,0,53954:0:0:0:0:
402,192,53391,128,0,53829:0:0:0:0:
329,192,53641,128,0,54579:0:0:0:0:
109,192,53641,128,0,54330:0:0:0:0:
402,192,53892,128,0,54829:0:0:0:0:
475,192,53892,128,0,54829:0:0:0:0:
182,192,54016,128,0,54330:0:0:0:0:
256,192,54141,128,0,54579:0:0:0:0:
36,192,54141,128,0,55454:0:0:0:0:
182,192,54391,128,0,55079:0:0:0:0:
109,192,54391,128,0,56080:0:0:0:0:
256,192,54642,128,0,54954:0:0:0:0:
329,192,54642,128,0,55329:0:0:0:0:
475,192,54892,128,0,55829:0:0:0:0:
402,192,54892,128,0,55079:0:0:0:0:
256,192,55017,128,0,55954:0:0:0:0:
402,192,55141,128,0,56141:0:0:0:0:
182,192,55141,128,0,55329:0:0:0:0:
182,192,55392,128,0,55579:0:0:0:0:
329,192,55392,128,0,55579:0:0:0:0:
36,192,55516,128,0,55829:0:0:0:0:
182,192,55642,128,0,55891:0:0:0:0:
329,192,55642,128,0,56017:0:0:0:0:
475,192,55891,128,0,56080:0:0:0:0:
36,192,55891,128,0,56141:0:0:0:0:
182,192,55954,128,0,56141:0:0:0:0:
256,192,56017,128,0,56141:0:0:0:0:
329,192,56080,128,0,56141:0:0:0:0:
475,192,56141,128,0,56267:0:0:0:0:
109,192,56141,128,0,56267:0:0:0:0:
256,192,56267,128,0,56329:0:0:0:0:
182,192,56392,1,0,0:0:0:0:
36,192,56392,1,0,0:0:0:0:
329,192,56455,1,0,0:0:0:0:
402,192,56516,1,0,0:0:0:0:
182,192,56579,1,0,0:0:0:0:
109,192,56642,1,0,0:0:0:0:
402,192,56642,1,0,0:0:0:0:
256,192,56642,1,0,0:0:0:0:
329,192,56704,1,0,0:0:0:0:
109,192,56767,1,0,0:0:0:0:
182,192,56829,1,0,0:0:0:0:
329,192,56891,1,0,0:0:0:0:
475,192,56891,1,0,0:0:0:0:
182,192,56954,1,0,0:0:0:0:
402,192,56970,1,0,0:0:0:0:
109,192,57017,1,0,0:0:0:0:
329,192,57079,1,0,0:0:0:0:
475,192,57142,1,0,0:0:0:0:
36,192,57142,1,0,0:0:0:0:
256,192,57142,1,0,0:0:0:0:
182,192,57204,1,0,0:0:0:0:
475,192,57266,1,0,0:0:0:0:
329,192,57329,1,0,0:0:0:0:
109,192,57392,1,0,0:0:0:0:
36,192,57392,1,0,0:0:0:0:
329,192,57454,1,0,0:0:0:0:
475,192,57517,1,0,0:0:0:0:
182,192,57579,1,0,0:0:0:0:
36,192,57641,1,0,0:0:0:0:
256,192,57641,1,0,0:0:0:0:
475,192,57641,1,0,0:0:0:0:
329,192,57704,1,0,0:0:0:0:
36,192,57767,1,0,0:0:0:0:
182,192,57829,1,0,0:0:0:0:
402,192,57891,1,0,0:0:0:0:
475,192,57891,1,0,0:0:0:0:
182,192,57954,1,0,0:0:0:0:
36,192,58016,1,0,0:0:0:0:
402,192,58016,1,0,0:0:0:0:
329,192,58079,1,0,0:0:0:0:
36,192,58142,1,0,0:0:0:0:
256,192,58142,1,0,0:0:0:0:
475,192,58142,1,0,0:0:0:0:
109,192,58205,1,0,0:0:0:0:
475,192,58266,1,0,0:0:0:0:
402,192,58329,1,0,0:0:0:0:
182,192,58392,1,0,0:0:0:0:
109,192,58392,1,0,0:0:0:0:
402,192,58454,1,0,0:0:0:0:
475,192,58517,1,0,0:0:0:0:
109,192,58580,1,0,0:0:0:0:
36,192,58641,1,0,0:0:0:0:
475,192,58641,1,0,0:0:0:0:
256,192,58641,1,0,0:0:0:0:
402,192,58704,1,0,0:0:0:0:
36,192,58767,1,0,0:0:0:0:
109,192,58829,1,0,0:0:0:0:
329,192,58892,1,0,0:0:0:0:
402,192,58892,1,0,0:0:0:0:
109,192,58954,1,0,0:0:0:0:
36,192,59016,1,0,0:0:0:0:
329,192,59016,1,0,0:0:0:0:
402,192,59079,1,0,0:0:0:0:
256,192,59142,1,0,0:0:0:0:
36,192,59142,128,0,59267:0:0:0:0:
475,192,59142,128,0,59267:0:0:0:0:
329,192,59391,128,0,59517:0:0:0:0:
182,192,59391,128,0,59517:0:0:0:0:
256,192,59517,128,0,60141:0:0:0:0:
402,192,59642,128,0,59829:0:0:0:0:
475,192,59642,128,0,60079:0:0:0:0:
109,192,59766,128,0,59954:0:0:0:0:
36,192,59766,128,0,60079:0:0:0:0:
402,192,59892,128,0,60079:0:0:0:0:
329,192,59892,128,0,60079:0:0:0:0:
109,192,60016,128,0,60141:0:0:0:0:
182,192,60016,128,0,60141:0:0:0:0:
36,192,60141,1,0,0:0:0:0:
329,192,60141,1,0,0:0:0:0:
402,192,60141,1,0,0:0:0:0:
475,192,60141,1,0,0:0:0:0:
182,192,60204,1,0,0:0:0:0:
329,192,60267,1,0,0:0:0:0:
256,192,60330,1,0,0:0:0:0:
36,192,60391,1,0,0:0:0:0:
475,192,60391,1,0,0:0:0:0:
402,192,60391,1,0,0:0:0:0:
109,192,60391,1,0,0:0:0:0:
182,192,60517,1,0,0:0:0:0:
329,192,60517,1,0,0:0:0:0:
256,192,60579,1,0,0:0:0:0:
109,192,60642,1,0,0:0:0:0:
36,192,60642,1,0,0:0:0:0:
402,192,60642,1,0,0:0:0:0:
475,192,60642,1,0,0:0:0:0:
329,192,60705,1,0,0:0:0:0:
109,192,60766,1,0,0:0:0:0:
475,192,60766,1,0,0:0:0:0:
402,192,60766,1,0,0:0:0:0:
36,192,60766,1,0,0:0:0:0:
182,192,60829,1,0,0:0:0:0:
475,192,60892,1,0,0:0:0:0:
36,192,60892,1,0,0:0:0:0:
109,192,60892,1,0,0:0:0:0:
402,192,60892,1,0,0:0:0:0:
329,192,60954,1,0,0:0:0:0:
182,192,61017,1,0,0:0:0:0:
256,192,61079,1,0,0:0:0:0:
182,192,61141,1,0,0:0:0:0:
475,192,61141,1,0,0:0:0:0:
109,192,61141,1,0,0:0:0:0:
36,192,61141,1,0,0:0:0:0:
402,192,61204,1,0,0:0:0:0:
329,192,61267,1,0,0:0:0:0:
109,192,61267,1,0,0:0:0:0:
256,192,61329,1,0,0:0:0:0:
36,192,61392,1,0,0:0:0:0:
402,192,61392,1,0,0:0:0:0:
475,192,61392,1,0,0:0:0:0:
182,192,61392,1,0,0:0:0:0:
36,192,61516,1,0,0:0:0:0:
329,192,61516,1,0,0:0:0:0:
475,192,61516,1,0,0:0:0:0:
256,192,61516,1,0,0:0:0:0:
109,192,61579,1,0,0:0:0:0:
182,192,61642,1,0,0:0:0:0:
402,192,61642,1,0,0:0:0:0:
256,192,61704,1,0,0:0:0:0:
475,192,61767,1,0,0:0:0:0:
329,192,61767,1,0,0:0:0:0:
36,192,61891,128,0,62017:0:0:0:0:
109,192,61891,128,0,62017:0:0:0:0:
182,192,61891,128,0,62017:0:0:0:0:
256,192,61891,128,0,62017:0:0:0:0:
402,192,61891,128,0,62017:0:0:0:0:
36,192,62141,128,0,62266:0:0:0:0:
475,192,62141,128,0,62516:0:0:0:0:
329,192,62141,128,0,62516:0:0:0:0:
109,192,62141,1,0,0:0:0:0:
256,192,62141,1,0,0:0:0:0:
182,192,62266,128,0,62392:0:0:0:0:
36,192,62392,128,0,62516:0:0:0:0:
256,192,62516,128,0,62891:0:0:0:0:
109,192,62516,128,0,62891:0:0:0:0:
402,192,62516,128,0,62891:0:0:0:0:
182,192,62516,1,0,0:0:0:0:
475,192,62891,128,0,63017:0:0:0:0:
182,192,62891,128,0,63266:0:0:0:0:
36,192,62891,128,0,63266:0:0:0:0:
329,192,63017,128,0,63142:0:0:0:0:
475,192,63142,128,0,63266:0:0:0:0:
256,192,63266,128,0,65267:0:0:0:0:
109,192,63266,128,0,65267:0:0:0:0:
402,192,63266,128,0,65267:0:0:0:0:
182,192,64142,128,0,64641:0:0:0:0:
329,192,64142,128,0,64641:0:0:0:0:
36,192,65267,1,0,0:0:0:0:
182,192,65267,1,0,0:0:0:0:
329,192,65391,1,0,0:0:0:0:
402,192,65391,1,0,0:0:0:0:
475,192,65391,1,0,0:0:0:0:
329,192,65517,1,0,0:0:0:0:
402,192,65517,1,0,0:0:0:0:
475,192,65517,1,0,0:0:0:0:
36,192,65642,1,0,0:0:0:0:
182,192,65642,1,0,0:0:0:0:
36,192,65704,1,0,0:0:0:0:
182,192,65704,1,0,0:0:0:0:
329,192,65766,1,0,0:0:0:0:
402,192,65766,1,0,0:0:0:0:
475,192,65766,1,0,0:0:0:0:
329,192,65829,1,0,0:0:0:0:
402,192,65829,1,0,0:0:0:0:
475,192,65829,1,0,0:0:0:0:
256,192,65892,1,0,0:0:0:0:
109,192,66017,1,0,0:0:0:0:
475,192,66141,128,0,66267:0:0:0:0:
36,192,66141,128,0,66517:0:0:0:0:
182,192,66141,128,0,66517:0:0:0:0:
402,192,66141,1,0,0:0:0:0:
256,192,66141,1,0,0:0:0:0:
329,192,66267,128,0,66391:0:0:0:0:
475,192,66391,128,0,66517:0:0:0:0:
256,192,66517,128,0,66892:0:0:0:0:
402,192,66517,128,0,66892:0:0:0:0:
109,192,66517,128,0,66892:0:0:0:0:
329,192,66517,1,0,0:0:0:0:
36,192,66892,128,0,67017:0:0:0:0:
329,192,66892,128,0,67267:0:0:0:0:
475,192,66892,128,0,67267:0:0:0:0:
182,192,67017,128,0,67141:0:0:0:0:
36,192,67141,128,0,67267:0:0:0:0:
256,192,67267,128,0,69266:0:0:0:0:
402,192,67267,128,0,69266:0:0:0:0:
109,192,67267,128,0,69266:0:0:0:0:
36,192,68142,128,0,68516:0:0:0:0:
182,192,68204,128,0,68329:0:0:0:0:
329,192,68266,128,0,68392:0:0:0:0:
475,192,68329,128,0,68579:0:0:0:0:
182,192,68392,128,0,68455:0:0:0:0:
329,192,68455,128,0,68642:0:0:0:0:
182,192,68516,128,0,68704:0:0:0:0:
36,192,68579,128,0,68767:0:0:0:0:
475,192,68642,128,0,69017:0:0:0:0:
329,192,68704,128,0,68830:0:0:0:0:
182,192,68767,128,0,68891:0:0:0:0:
36,192,68830,128,0,69079:0:0:0:0:
329,192,68891,128,0,68954:0:0:0:0:
182,192,68954,128,0,69142:0:0:0:0:
329,192,69017,128,0,69205:0:0:0:0:
475,192,69079,128,0,69205:0:0:0:0:
36,192,69142,128,0,69266:0:0:0:0:
182,192,69205,128,0,69266:0:0:0:0:
475,192,69266,1,0,0:0:0:0:
329,192,69266,1,0,0:0:0:0:
182,192,69392,1,0,0:0:0:0:
109,192,69392,1,0,0:0:0:0:
36,192,69392,1,0,0:0:0:0:
182,192,69517,1,0,0:0:0:0:
109,192,69517,1,0,0:0:0:0:
36,192,69517,1,0,0:0:0:0:
475,192,69641,1,0,0:0:0:0:
329,192,69641,1,0,0:0:0:0:
475,192,69704,1,0,0:0:0:0:
329,192,69704,1,0,0:0:0:0:
182,192,69767,1,0,0:0:0:0:
109,192,69767,1,0,0:0:0:0:
36,192,69767,1,0,0:0:0:0:
182,192,69829,1,0,0:0:0:0:
109,192,69829,1,0,0:0:0:0:
36,192,69829,1,0,0:0:0:0:
256,192,69892,1,0,0:0:0:0:
402,192,70016,1,0,0:0:0:0:
36,192,70142,1,0,0:0:0:0:
109,192,70142,1,0,0:0:0:0:
475,192,70142,128,0,70204:0:0:0:0:
182,192,70142,1,0,0:0:0:0:
329,192,70204,128,0,70267:0:0:0:0:
475,192,70267,128,0,70329:0:0:0:0:
329,192,70329,128,0,70391:0:0:0:0:
109,192,70391,1,0,0:0:0:0:
36,192,70391,1,0,0:0:0:0:
402,192,70391,1,0,0:0:0:0:
475,192,70391,1,0,0:0:0:0:
182,192,70454,1,0,0:0:0:0:
256,192,70517,1,0,0:0:0:0:
329,192,70517,1,0,0:0:0:0:
36,192,70517,1,0,0:0:0:0:
109,192,70580,1,0,0:0:0:0:
182,192,70641,1,0,0:0:0:0:
475,192,70641,1,0,0:0:0:0:
402,192,70704,1,0,0:0:0:0:
36,192,70767,1,0,0:0:0:0:
109,192,70767,1,0,0:0:0:0:
329,192,70767,1,0,0:0:0:0:
256,192,70829,1,0,0:0:0:0:
109,192,70892,1,0,0:0:0:0:
182,192,70892,1,0,0:0:0:0:
402,192,70892,1,0,0:0:0:0:
475,192,70892,1,0,0:0:0:0:
329,192,70955,1,0,0:0:0:0:
182,192,71016,1,0,0:0:0:0:
256,192,71016,1,0,0:0:0:0:
109,192,71079,1,0,0:0:0:0:
36,192,71142,1,0,0:0:0:0:
329,192,71142,1,0,0:0:0:0:
475,192,71142,1,0,0:0:0:0:
256,192,71204,1,0,0:0:0:0:
182,192,71267,1,0,0:0:0:0:
402,192,71267,1,0,0:0:0:0:
329,192,71330,1,0,0:0:0:0:
36,192,71391,1,0,0:0:0:0:
109,192,71391,1,0,0:0:0:0:
475,192,71391,1,0,0:0:0:0:
256,192,71391,1,0,0:0:0:0:
329,192,71454,1,0,0:0:0:0:
402,192,71517,1,0,0:0:0:0:
182,192,71517,1,0,0:0:0:0:
109,192,71517,1,0,0:0:0:0:
256,192,71579,1,0,0:0:0:0:
329,192,71642,1,0,0:0:0:0:
36,192,71642,1,0,0:0:0:0:
109,192,71704,1,0,0:0:0:0:
182,192,71766,1,0,0:0:0:0:
402,192,71766,1,0,0:0:0:0:
475,192,71766,1,0,0:0:0:0:
256,192,71829,1,0,0:0:0:0:
36,192,71892,1,0,0:0:0:0:
109,192,71892,1,0,0:0:0:0:
329,192,71892,1,0,0:0:0:0:
475,192,71892,1,0,0:0:0:0:
256,192,71954,1,0,0:0:0:0:
182,192,72017,1,0,0:0:0:0:
402,192,72017,1,0,0:0:0:0:
329,192,72079,1,0,0:0:0:0:
36,192,72141,128,0,72204:0:0:0:0:
109,192,72141,128,0,72204:0:0:0:0:
256,192,72141,1,0,0:0:0:0:
402,192,72204,128,0,72267:0:0:0:0:
329,192,72204,128,0,72267:0:0:0:0:
109,192,72267,128,0,72329:0:0:0:0:
402,192,72329,128,0,72392:0:0:0:0:
36,192,72392,128,0,72454:0:0:0:0:
182,192,72392,128,0,72454:0:0:0:0:
256,192,72392,1,0,0:0:0:0:
329,192,72454,128,0,72516:0:0:0:0:
475,192,72454,128,0,72516:0:0:0:0:
182,192,72516,128,0,72579:0:0:0:0:
256,192,72579,128,0,72642:0:0:0:0:
36,192,72642,128,0,72705:0:0:0:0:
329,192,72642,1,0,0:0:0:0:
402,192,72642,1,0,0:0:0:0:
475,192,72642,1,0,0:0:0:0:
182,192,72705,128,0,72766:0:0:0:0:
36,192,72766,128,0,72829:0:0:0:0:
182,192,72829,128,0,72892:0:0:0:0:
475,192,72892,1,0,0:0:0:0:
109,192,72892,1,0,0:0:0:0:
36,192,72892,1,0,0:0:0:0:
402,192,72892,1,0,0:0:0:0:
329,192,72954,1,0,0:0:0:0:
256,192,73017,1,0,0:0:0:0:
182,192,73017,1,0,0:0:0:0:
475,192,73017,1,0,0:0:0:0:
402,192,73080,1,0,0:0:0:0:
329,192,73141,1,0,0:0:0:0:
36,192,73141,1,0,0:0:0:0:
109,192,73204,1,0,0:0:0:0:
475,192,73267,1,0,0:0:0:0:
402,192,73267,1,0,0:0:0:0:
182,192,73267,1,0,0:0:0:0:
256,192,73329,1,0,0:0:0:0:
402,192,73392,1,0,0:0:0:0:
329,192,73392,1,0,0:0:0:0:
109,192,73392,1,0,0:0:0:0:
36,192,73392,1,0,0:0:0:0:
182,192,73455,1,0,0:0:0:0:
329,192,73516,1,0,0:0:0:0:
256,192,73516,1,0,0:0:0:0:
402,192,73579,1,0,0:0:0:0:
475,192,73642,1,0,0:0:0:0:
182,192,73642,1,0,0:0:0:0:
36,192,73642,1,0,0:0:0:0:
256,192,73704,1,0,0:0:0:0:
329,192,73767,1,0,0:0:0:0:
109,192,73767,1,0,0:0:0:0:
182,192,73829,1,0,0:0:0:0:
475,192,73891,1,0,0:0:0:0:
402,192,73891,1,0,0:0:0:0:
36,192,73891,1,0,0:0:0:0:
256,192,73891,1,0,0:0:0:0:
182,192,73954,1,0,0:0:0:0:
109,192,74017,1,0,0:0:0:0:
329,192,74017,1,0,0:0:0:0:
402,192,74017,1,0,0:0:0:0:
256,192,74079,1,0,0:0:0:0:
182,192,74142,1,0,0:0:0:0:
475,192,74142,1,0,0:0:0:0:
402,192,74204,1,0,0:0:0:0:
329,192,74266,1,0,0:0:0:0:
109,192,74266,1,0,0:0:0:0:
36,192,74266,1,0,0:0:0:0:
256,192,74329,1,0,0:0:0:0:
475,192,74392,1,0,0:0:0:0:
402,192,74392,1,0,0:0:0:0:
182,192,74392,1,0,0:0:0:0:
36,192,74392,1,0,0:0:0:0:
256,192,74455,1,0,0:0:0:0:
329,192,74517,1,0,0:0:0:0:
109,192,74517,1,0,0:0:0:0:
182,192,74579,1,0,0:0:0:0:
402,192,74642,128,0,74704:0:0:0:0:
475,192,74642,128,0,74704:0:0:0:0:
256,192,74642,1,0,0:0:0:0:
182,192,74704,128,0,74767:0:0:0:0:
109,192,74704,128,0,74767:0:0:0:0:
402,192,74767,128,0,74830:0:0:0:0:
109,192,74830,128,0,74891:0:0:0:0:
329,192,74891,128,0,74954:0:0:0:0:
475,192,74891,128,0,74954:0:0:0:0:
256,192,74891,1,0,0:0:0:0:
36,192,74954,128,0,75017:0:0:0:0:
182,192,74954,128,0,75017:0:0:0:0:
475,192,75017,128,0,75079:0:0:0:0:
36,192,75079,128,0,75142:0:0:0:0:
329,192,75142,128,0,75205:0:0:0:0:
402,192,75142,128,0,75205:0:0:0:0:
256,192,75142,1,0,0:0:0:0:
109,192,75205,128,0,75266:0:0:0:0:
182,192,75205,128,0,75266:0:0:0:0:
329,192,75266,128,0,75329:0:0:0:0:
256,192,75329,128,0,75392:0:0:0:0:
36,192,75392,1,0,0:0:0:0:
109,192,75392,1,0,0:0:0:0:
182,192,75392,1,0,0:0:0:0:
475,192,75392,1,0,0:0:0:0:
402,192,75454,1,0,0:0:0:0:
329,192,75517,1,0,0:0:0:0:
256,192,75580,1,0,0:0:0:0:
36,192,75641,1,0,0:0:0:0:
109,192,75641,1,0,0:0:0:0:
475,192,75641,1,0,0:0:0:0:
402,192,75641,1,0,0:0:0:0:
182,192,75704,1,0,0:0:0:0:
256,192,75767,1,0,0:0:0:0:
329,192,75767,1,0,0:0:0:0:
36,192,75767,1,0,0:0:0:0:
109,192,75829,1,0,0:0:0:0:
182,192,75892,1,0,0:0:0:0:
402,192,75892,1,0,0:0:0:0:
329,192,75954,1,0,0:0:0:0:
256,192,76016,1,0,0:0:0:0:
475,192,76016,1,0,0:0:0:0:
36,192,76016,1,0,0:0:0:0:
182,192,76079,1,0,0:0:0:0:
36,192,76142,1,0,0:0:0:0:
109,192,76142,1,0,0:0:0:0:
329,192,76142,1,0,0:0:0:0:
402,192,76142,1,0,0:0:0:0:
256,192,76204,1,0,0:0:0:0:
182,192,76267,1,0,0:0:0:0:
475,192,76267,1,0,0:0:0:0:
402,192,76329,1,0,0:0:0:0:
329,192,76391,1,0,0:0:0:0:
109,192,76391,1,0,0:0:0:0:
256,192,76391,1,0,0:0:0:0:
402,192,76454,1,0,0:0:0:0:
475,192,76517,1,0,0:0:0:0:
36,192,76517,128,0,76580:0:0:0:0:
182,192,76580,128,0,76642:0:0:0:0:
36,192,76642,128,0,76704:0:0:0:0:
329,192,76642,1,0,0:0:0:0:
402,192,76642,1,0,0:0:0:0:
182,192,76704,128,0,76767:0:0:0:0:
475,192,76767,1,0,0:0:0:0:
36,192,76767,1,0,0:0:0:0:
402,192,76767,1,0,0:0:0:0:
256,192,76892,1,0,0:0:0:0:
256,192,76955,1,0,0:0:0:0:
36,192,77016,1,0,0:0:0:0:
109,192,77016,1,0,0:0:0:0:
329,192,77016,1,0,0:0:0:0:
36,192,77142,1,0,0:0:0:0:
182,192,77142,1,0,0:0:0:0:
475,192,77142,1,0,0:0:0:0:
402,192,77142,1,0,0:0:0:0:
256,192,77267,1,0,0:0:0:0:
109,192,77267,1,0,0:0:0:0:
329,192,77330,1,0,0:0:0:0:
36,192,77391,1,0,0:0:0:0:
182,192,77391,1,0,0:0:0:0:
402,192,77391,1,0,0:0:0:0:
475,192,77391,1,0,0:0:0:0:
109,192,77517,1,0,0:0:0:0:
256,192,77517,1,0,0:0:0:0:
329,192,77517,1,0,0:0:0:0:
475,192,77517,1,0,0:0:0:0:
182,192,77642,1,0,0:0:0:0:
36,192,77642,1,0,0:0:0:0:
402,192,77642,1,0,0:0:0:0:
475,192,77642,1,0,0:0:0:0:
36,192,77766,1,0,0:0:0:0:
109,192,77766,1,0,0:0:0:0:
256,192,77766,1,0,0:0:0:0:
329,192,77766,1,0,0:0:0:0:
182,192,77892,1,0,0:0:0:0:
36,192,77892,1,0,0:0:0:0:
402,192,77892,1,0,0:0:0:0:
475,192,77892,1,0,0:0:0:0:
109,192,78017,1,0,0:0:0:0:
256,192,78017,1,0,0:0:0:0:
329,192,78017,1,0,0:0:0:0:
475,192,78017,1,0,0:0:0:0:
36,192,78141,1,0,0:0:0:0:
182,192,78141,1,0,0:0:0:0:
402,192,78141,1,0,0:0:0:0:
256,192,78141,1,0,0:0:0:0:
36,192,78267,1,0,0:0:0:0:
109,192,78267,1,0,0:0:0:0:
475,192,78267,128,0,78329:0:0:0:0:
182,192,78267,1,0,0:0:0:0:
329,192,78329,128,0,78392:0:0:0:0:
475,192,78392,128,0,78454:0:0:0:0:
329,192,78454,128,0,78516:0:0:0:0:
36,192,78516,1,0,0:0:0:0:
109,192,78516,1,0,0:0:0:0:
475,192,78516,1,0,0:0:0:0:
402,192,78516,1,0,0:0:0:0:
182,192,78579,1,0,0:0:0:0:
256,192,78642,1,0,0:0:0:0:
329,192,78642,1,0,0:0:0:0:
36,192,78642,1,0,0:0:0:0:
109,192,78705,1,0,0:0:0:0:
182,192,78767,1,0,0:0:0:0:
475,192,78767,1,0,0:0:0:0:
402,192,78829,1,0,0:0:0:0:
109,192,78892,1,0,0:0:0:0:
329,192,78892,1,0,0:0:0:0:
36,192,78892,1,0,0:0:0:0:
256,192,78954,1,0,0:0:0:0:
109,192,79017,1,0,0:0:0:0:
402,192,79017,1,0,0:0:0:0:
475,192,79017,1,0,0:0:0:0:
182,192,79017,1,0,0:0:0:0:
329,192,79080,1,0,0:0:0:0:
182,192,79141,1,0,0:0:0:0:
256,192,79141,1,0,0:0:0:0:
109,192,79204,1,0,0:0:0:0:
36,192,79267,1,0,0:0:0:0:
475,192,79267,1,0,0:0:0:0:
329,192,79267,1,0,0:0:0:0:
256,192,79329,1,0,0:0:0:0:
182,192,79392,1,0,0:0:0:0:
402,192,79392,1,0,0:0:0:0:
329,192,79455,1,0,0:0:0:0:
475,192,79516,1,0,0:0:0:0:
36,192,79516,1,0,0:0:0:0:
256,192,79516,1,0,0:0:0:0:
109,192,79516,1,0,0:0:0:0:
402,192,79579,1,0,0:0:0:0:
36,192,79642,1,0,0:0:0:0:
182,192,79642,1,0,0:0:0:0:
329,192,79642,1,0,0:0:0:0:
402,192,79704,1,0,0:0:0:0:
109,192,79767,1,0,0:0:0:0:
475,192,79767,1,0,0:0:0:0:
182,192,79830,1,0,0:0:0:0:
36,192,79891,1,0,0:0:0:0:
256,192,79891,1,0,0:0:0:0:
402,192,79891,1,0,0:0:0:0:
182,192,79954,1,0,0:0:0:0:
36,192,80017,1,0,0:0:0:0:
475,192,80017,1,0,0:0:0:0:
329,192,80017,1,0,0:0:0:0:
109,192,80017,1,0,0:0:0:0:
256,192,80079,1,0,0:0:0:0:
182,192,80142,1,0,0:0:0:0:
402,192,80142,1,0,0:0:0:0:
109,192,80142,1,0,0:0:0:0:
329,192,80204,1,0,0:0:0:0:
256,192,80266,128,0,80392:0:0:0:0:
475,192,80266,128,0,80392:0:0:0:0:
36,192,80266,1,0,0:0:0:0:
109,192,80392,128,0,80517:0:0:0:0:
182,192,80392,1,0,0:0:0:0:
402,192,80517,128,0,80641:0:0:0:0:
329,192,80517,1,0,0:0:0:0:
182,192,80641,128,0,80767:0:0:0:0:
36,192,80641,128,0,80767:0:0:0:0:
475,192,80641,1,0,0:0:0:0:
329,192,80767,128,0,80892:0:0:0:0:
256,192,80767,1,0,0:0:0:0:
182,192,80830,1,0,0:0:0:0:
36,192,80892,128,0,81017:0:0:0:0:
109,192,80892,1,0,0:0:0:0:
256,192,81017,128,0,81142:0:0:0:0:
182,192,81017,1,0,0:0:0:0:
36,192,81142,128,0,81205:0:0:0:0:
329,192,81142,1,0,0:0:0:0:
475,192,81142,1,0,0:0:0:0:
402,192,81142,1,0,0:0:0:0:
182,192,81205,128,0,81266:0:0:0:0:
36,192,81266,128,0,81329:0:0:0:0:
182,192,81329,128,0,81392:0:0:0:0:
36,192,81392,1,0,0:0:0:0:
109,192,81392,1,0,0:0:0:0:
475,192,81392,1,0,0:0:0:0:
329,192,81392,1,0,0:0:0:0:
182,192,81517,1,0,0:0:0:0:
256,192,81517,1,0,0:0:0:0:
402,192,81517,1,0,0:0:0:0:
109,192,81641,1,0,0:0:0:0:
329,192,81641,1,0,0:0:0:0:
182,192,81704,1,0,0:0:0:0:
36,192,81767,1,0,0:0:0:0:
475,192,81767,1,0,0:0:0:0:
256,192,81767,1,0,0:0:0:0:
109,192,81829,1,0,0:0:0:0:
329,192,81829,1,0,0:0:0:0:
475,192,81892,1,0,0:0:0:0:
182,192,81892,1,0,0:0:0:0:
402,192,81892,1,0,0:0:0:0:
256,192,81955,1,0,0:0:0:0:
109,192,82016,1,0,0:0:0:0:
329,192,82016,1,0,0:0:0:0:
182,192,82079,1,0,0:0:0:0:
402,192,82079,1,0,0:0:0:0:
36,192,82142,1,0,0:0:0:0:
256,192,82142,1,0,0:0:0:0:
475,192,82142,1,0,0:0:0:0:
109,192,82204,1,0,0:0:0:0:
182,192,82267,1,0,0:0:0:0:
329,192,82267,1,0,0:0:0:0:
36,192,82391,1,0,0:0:0:0:
109,192,82391,1,0,0:0:0:0:
475,192,82391,128,0,82454:0:0:0:0:
256,192,82391,1,0,0:0:0:0:
329,192,82454,128,0,82517:0:0:0:0:
475,192,82517,128,0,82580:0:0:0:0:
36,192,82517,1,0,0:0:0:0:
182,192,82517,1,0,0:0:0:0:
329,192,82580,128,0,82642:0:0:0:0:
109,192,82642,1,0,0:0:0:0:
475,192,82642,1,0,0:0:0:0:
182,192,82704,1,0,0:0:0:0:
36,192,82767,1,0,0:0:0:0:
256,192,82767,1,0,0:0:0:0:
402,192,82767,1,0,0:0:0:0:
475,192,82892,1,0,0:0:0:0:
109,192,82892,1,0,0:0:0:0:
36,192,82892,1,0,0:0:0:0:
329,192,82892,1,0,0:0:0:0:
402,192,82955,1,0,0:0:0:0:
256,192,82955,1,0,0:0:0:0:
182,192,83017,1,0,0:0:0:0:
329,192,83017,1,0,0:0:0:0:
109,192,83079,1,0,0:0:0:0:
36,192,83142,1,0,0:0:0:0:
256,192,83142,1,0,0:0:0:0:
475,192,83142,1,0,0:0:0:0:
329,192,83204,1,0,0:0:0:0:
402,192,83267,1,0,0:0:0:0:
182,192,83267,1,0,0:0:0:0:
256,192,83330,1,0,0:0:0:0:
109,192,83391,1,0,0:0:0:0:
36,192,83391,1,0,0:0:0:0:
475,192,83391,1,0,0:0:0:0:
329,192,83391,1,0,0:0:0:0:
182,192,83454,1,0,0:0:0:0:
36,192,83517,1,0,0:0:0:0:
256,192,83517,1,0,0:0:0:0:
402,192,83517,1,0,0:0:0:0:
182,192,83579,1,0,0:0:0:0:
475,192,83642,128,0,83705:0:0:0:0:
109,192,83642,1,0,0:0:0:0:
329,192,83705,128,0,83766:0:0:0:0:
475,192,83766,128,0,83829:0:0:0:0:
36,192,83766,1,0,0:0:0:0:
182,192,83766,1,0,0:0:0:0:
329,192,83829,128,0,83892:0:0:0:0:
402,192,83892,1,0,0:0:0:0:
475,192,83892,1,0,0:0:0:0:
36,192,83892,1,0,0:0:0:0:
109,192,83892,1,0,0:0:0:0:
182,192,83954,1,0,0:0:0:0:
256,192,84017,1,0,0:0:0:0:
329,192,84080,1,0,0:0:0:0:
475,192,84141,1,0,0:0:0:0:
36,192,84141,1,0,0:0:0:0:
182,192,84141,1,0,0:0:0:0:
402,192,84204,1,0,0:0:0:0:
109,192,84267,1,0,0:0:0:0:
329,192,84267,1,0,0:0:0:0:
256,192,84329,1,0,0:0:0:0:
36,192,84392,1,0,0:0:0:0:
182,192,84392,1,0,0:0:0:0:
402,192,84392,1,0,0:0:0:0:
475,192,84392,1,0,0:0:0:0:
329,192,84454,1,0,0:0:0:0:
109,192,84516,1,0,0:0:0:0:
256,192,84516,1,0,0:0:0:0:
475,192,84516,1,0,0:0:0:0:
402,192,84579,1,0,0:0:0:0:
36,192,84642,128,0,84705:0:0:0:0:
329,192,84642,1,0,0:0:0:0:
182,192,84705,128,0,84767:0:0:0:0:
36,192,84767,128,0,84829:0:0:0:0:
475,192,84767,1,0,0:0:0:0:
402,192,84767,1,0,0:0:0:0:
182,192,84829,128,0,84892:0:0:0:0:
329,192,84892,1,0,0:0:0:0:
402,192,84892,1,0,0:0:0:0:
475,192,84892,1,0,0:0:0:0:
109,192,84954,1,0,0:0:0:0:
36,192,84954,1,0,0:0:0:0:
182,192,84954,1,0,0:0:0:0:
475,192,85017,1,0,0:0:0:0:
329,192,85017,1,0,0:0:0:0:
402,192,85017,1,0,0:0:0:0:
256,192,85080,1,0,0:0:0:0:
36,192,85142,1,0,0:0:0:0:
109,192,85142,1,0,0:0:0:0:
182,192,85142,128,0,85204:0:0:0:0:
475,192,85142,1,0,0:0:0:0:
329,192,85204,128,0,85267:0:0:0:0:
182,192,85267,128,0,85329:0:0:0:0:
329,192,85329,128,0,85392:0:0:0:0:
36,192,85392,1,0,0:0:0:0:
182,192,85392,1,0,0:0:0:0:
402,192,85392,1,0,0:0:0:0:
475,192,85392,1,0,0:0:0:0:
329,192,85516,1,0,0:0:0:0:
256,192,85516,1,0,0:0:0:0:
109,192,85516,1,0,0:0:0:0:
402,192,85642,1,0,0:0:0:0:
182,192,85642,1,0,0:0:0:0:
329,192,85704,1,0,0:0:0:0:
475,192,85767,1,0,0:0:0:0:
36,192,85767,1,0,0:0:0:0:
256,192,85767,1,0,0:0:0:0:
402,192,85830,1,0,0:0:0:0:
182,192,85830,1,0,0:0:0:0:
36,192,85891,1,0,0:0:0:0:
329,192,85891,1,0,0:0:0:0:
109,192,85891,1,0,0:0:0:0:
256,192,85954,1,0,0:0:0:0:
402,192,86017,1,0,0:0:0:0:
182,192,86017,1,0,0:0:0:0:
329,192,86079,1,0,0:0:0:0:
109,192,86079,1,0,0:0:0:0:
475,192,86142,1,0,0:0:0:0:
256,192,86142,1,0,0:0:0:0:
36,192,86142,1,0,0:0:0:0:
402,192,86205,1,0,0:0:0:0:
329,192,86266,1,0,0:0:0:0:
182,192,86266,1,0,0:0:0:0:
475,192,86392,1,0,0:0:0:0:
402,192,86392,1,0,0:0:0:0:
36,192,86392,128,0,86454:0:0:0:0:
256,192,86392,1,0,0:0:0:0:
182,192,86454,128,0,86517:0:0:0:0:
36,192,86517,128,0,86579:0:0:0:0:
475,192,86517,1,0,0:0:0:0:
329,192,86517,1,0,0:0:0:0:
182,192,86579,128,0,86641:0:0:0:0:
402,192,86641,1,0,0:0:0:0:
36,192,86641,1,0,0:0:0:0:
329,192,86704,1,0,0:0:0:0:
475,192,86767,1,0,0:0:0:0:
256,192,86767,1,0,0:0:0:0:
109,192,86767,1,0,0:0:0:0:
36,192,86892,1,0,0:0:0:0:
402,192,86892,1,0,0:0:0:0:
475,192,86892,1,0,0:0:0:0:
182,192,86892,1,0,0:0:0:0:
256,192,86954,1,0,0:0:0:0:
329,192,87017,1,0,0:0:0:0:
109,192,87017,1,0,0:0:0:0:
402,192,87079,1,0,0:0:0:0:
475,192,87142,1,0,0:0:0:0:
256,192,87142,1,0,0:0:0:0:
36,192,87142,1,0,0:0:0:0:
182,192,87205,1,0,0:0:0:0:
109,192,87267,1,0,0:0:0:0:
329,192,87267,1,0,0:0:0:0:
256,192,87329,1,0,0:0:0:0:
402,192,87392,1,0,0:0:0:0:
475,192,87392,1,0,0:0:0:0:
36,192,87392,1,0,0:0:0:0:
182,192,87392,1,0,0:0:0:0:
329,192,87454,1,0,0:0:0:0:
475,192,87517,1,0,0:0:0:0:
109,192,87517,1,0,0:0:0:0:
256,192,87517,1,0,0:0:0:0:
329,192,87580,1,0,0:0:0:0:
36,192,87641,128,0,87704:0:0:0:0:
402,192,87641,1,0,0:0:0:0:
182,192,87704,128,0,87767:0:0:0:0:
36,192,87767,128,0,87829:0:0:0:0:
475,192,87767,1,0,0:0:0:0:
329,192,87767,1,0,0:0:0:0:
182,192,87829,128,0,87892:0:0:0:0:
109,192,87892,1,0,0:0:0:0:
36,192,87892,1,0,0:0:0:0:
475,192,87892,1,0,0:0:0:0:
402,192,87892,1,0,0:0:0:0:
329,192,87955,1,0,0:0:0:0:
256,192,88016,1,0,0:0:0:0:
182,192,88079,1,0,0:0:0:0:
36,192,88142,1,0,0:0:0:0:
475,192,88142,1,0,0:0:0:0:
329,192,88142,1,0,0:0:0:0:
109,192,88204,1,0,0:0:0:0:
402,192,88267,1,0,0:0:0:0:
182,192,88267,1,0,0:0:0:0:
256,192,88330,1,0,0:0:0:0:
475,192,88391,1,0,0:0:0:0:
329,192,88391,1,0,0:0:0:0:
109,192,88391,1,0,0:0:0:0:
36,192,88391,1,0,0:0:0:0:
182,192,88454,1,0,0:0:0:0:
402,192,88517,1,0,0:0:0:0:
256,192,88517,1,0,0:0:0:0:
36,192,88517,1,0,0:0:0:0:
182,192,88579,1,0,0:0:0:0:
475,192,88642,128,0,88704:0:0:0:0:
109,192,88642,1,0,0:0:0:0:
329,192,88704,128,0,88766:0:0:0:0:
475,192,88766,128,0,88829:0:0:0:0:
36,192,88766,1,0,0:0:0:0:
182,192,88766,1,0,0:0:0:0:
329,192,88829,128,0,88892:0:0:0:0:
402,192,88892,128,0,89017:0:0:0:0:
475,192,88892,128,0,89017:0:0:0:0:
109,192,88892,128,0,89017:0:0:0:0:
36,192,88892,128,0,89017:0:0:0:0:
256,192,89017,128,0,89142:0:0:0:0:
36,192,89142,128,0,89204:0:0:0:0:
402,192,89142,1,0,0:0:0:0:
475,192,89142,1,0,0:0:0:0:
329,192,89142,1,0,0:0:0:0:
182,192,89204,128,0,89267:0:0:0:0:
36,192,89267,128,0,89330:0:0:0:0:
182,192,89330,128,0,89392:0:0:0:0:
36,192,89392,1,0,0:0:0:0:
109,192,89392,1,0,0:0:0:0:
475,192,89392,1,0,0:0:0:0:
329,192,89392,1,0,0:0:0:0:
182,192,89517,1,0,0:0:0:0:
256,192,89517,1,0,0:0:0:0:
402,192,89517,1,0,0:0:0:0:
109,192,89642,1,0,0:0:0:0:
329,192,89642,1,0,0:0:0:0:
182,192,89705,1,0,0:0:0:0:
36,192,89766,1,0,0:0:0:0:
475,192,89766,1,0,0:0:0:0:
256,192,89766,1,0,0:0:0:0:
109,192,89829,1,0,0:0:0:0:
329,192,89829,1,0,0:0:0:0:
475,192,89892,1,0,0:0:0:0:
182,192,89892,1,0,0:0:0:0:
402,192,89892,1,0,0:0:0:0:
256,192,89954,1,0,0:0:0:0:
109,192,90017,1,0,0:0:0:0:
329,192,90017,1,0,0:0:0:0:
182,192,90080,1,0,0:0:0:0:
402,192,90080,1,0,0:0:0:0:
36,192,90141,1,0,0:0:0:0:
256,192,90141,1,0,0:0:0:0:
475,192,90141,1,0,0:0:0:0:
109,192,90204,1,0,0:0:0:0:
182,192,90267,1,0,0:0:0:0:
329,192,90267,1,0,0:0:0:0:
36,192,90392,1,0,0:0:0:0:
109,192,90392,1,0,0:0:0:0:
475,192,90392,128,0,90455:0:0:0:0:
256,192,90392,1,0,0:0:0:0:
329,192,90455,128,0,90516:0:0:0:0:
36,192,90516,1,0,0:0:0:0:
182,192,90516,1,0,0:0:0:0:
402,192,90516,1,0,0:0:0:0:
475,192,90642,1,0,0:0:0:0:
256,192,90642,1,0,0:0:0:0:
402,192,90704,1,0,0:0:0:0:
182,192,90704,1,0,0:0:0:0:
329,192,90767,1,0,0:0:0:0:
36,192,90767,1,0,0:0:0:0:
109,192,90767,1,0,0:0:0:0:
256,192,90829,1,0,0:0:0:0:
109,192,90891,1,0,0:0:0:0:
182,192,90891,1,0,0:0:0:0:
402,192,90891,1,0,0:0:0:0:
329,192,90954,1,0,0:0:0:0:
256,192,91017,1,0,0:0:0:0:
182,192,91017,1,0,0:0:0:0:
329,192,91080,1,0,0:0:0:0:
36,192,91142,1,0,0:0:0:0:
475,192,91142,1,0,0:0:0:0:
402,192,91142,1,0,0:0:0:0:
109,192,91142,1,0,0:0:0:0:
182,192,91204,1,0,0:0:0:0:
36,192,91267,1,0,0:0:0:0:
256,192,91267,1,0,0:0:0:0:
329,192,91267,1,0,0:0:0:0:
182,192,91329,1,0,0:0:0:0:
475,192,91392,128,0,91455:0:0:0:0:
109,192,91392,1,0,0:0:0:0:
329,192,91455,128,0,91517:0:0:0:0:
475,192,91517,128,0,91579:0:0:0:0:
36,192,91517,1,0,0:0:0:0:
182,192,91517,1,0,0:0:0:0:
329,192,91579,128,0,91642:0:0:0:0:
402,192,91642,1,0,0:0:0:0:
475,192,91642,1,0,0:0:0:0:
36,192,91642,1,0,0:0:0:0:
109,192,91642,1,0,0:0:0:0:
182,192,91704,1,0,0:0:0:0:
256,192,91767,1,0,0:0:0:0:
329,192,91830,1,0,0:0:0:0:
475,192,91891,1,0,0:0:0:0:
36,192,91891,1,0,0:0:0:0:
109,192,91891,1,0,0:0:0:0:
402,192,91954,1,0,0:0:0:0:
329,192,92017,1,0,0:0:0:0:
182,192,92017,1,0,0:0:0:0:
256,192,92079,1,0,0:0:0:0:
402,192,92142,1,0,0:0:0:0:
475,192,92142,1,0,0:0:0:0:
36,192,92142,128,0,92205:0:0:0:0:
109,192,92142,1,0,0:0:0:0:
182,192,92205,128,0,92266:0:0:0:0:
475,192,92266,1,0,0:0:0:0:
36,192,92266,128,0,92329:0:0:0:0:
329,192,92266,1,0,0:0:0:0:
182,192,92329,128,0,92392:0:0:0:0:
402,192,92392,1,0,0:0:0:0:
36,192,92392,1,0,0:0:0:0:
329,192,92454,1,0,0:0:0:0:
475,192,92517,1,0,0:0:0:0:
109,192,92517,1,0,0:0:0:0:
256,192,92517,1,0,0:0:0:0:
402,192,92517,1,0,0:0:0:0:
182,192,92641,128,0,92704:0:0:0:0:
36,192,92641,1,0,0:0:0:0:
109,192,92641,1,0,0:0:0:0:
475,192,92641,1,0,0:0:0:0:
329,192,92704,128,0,92767:0:0:0:0:
182,192,92767,128,0,92830:0:0:0:0:
329,192,92830,128,0,92892:0:0:0:0:
36,192,92892,1,0,0:0:0:0:
182,192,92892,1,0,0:0:0:0:
402,192,92892,1,0,0:0:0:0:
475,192,92892,1,0,0:0:0:0:
329,192,93017,1,0,0:0:0:0:
256,192,93017,1,0,0:0:0:0:
109,192,93017,1,0,0:0:0:0:
402,192,93142,1,0,0:0:0:0:
182,192,93142,1,0,0:0:0:0:
329,192,93205,1,0,0:0:0:0:
475,192,93267,1,0,0:0:0:0:
36,192,93267,1,0,0:0:0:0:
256,192,93267,1,0,0:0:0:0:
402,192,93329,1,0,0:0:0:0:
182,192,93329,1,0,0:0:0:0:
36,192,93392,1,0,0:0:0:0:
329,192,93392,1,0,0:0:0:0:
109,192,93392,1,0,0:0:0:0:
256,192,93454,1,0,0:0:0:0:
402,192,93517,1,0,0:0:0:0:
182,192,93517,1,0,0:0:0:0:
329,192,93580,1,0,0:0:0:0:
109,192,93580,1,0,0:0:0:0:
475,192,93642,1,0,0:0:0:0:
256,192,93642,1,0,0:0:0:0:
36,192,93642,1,0,0:0:0:0:
402,192,93704,1,0,0:0:0:0:
329,192,93767,1,0,0:0:0:0:
182,192,93767,1,0,0:0:0:0:
475,192,93892,1,0,0:0:0:0:
402,192,93892,1,0,0:0:0:0:
36,192,93892,128,0,93955:0:0:0:0:
256,192,93892,1,0,0:0:0:0:
182,192,93955,128,0,94016:0:0:0:0:
475,192,94016,1,0,0:0:0:0:
329,192,94016,1,0,0:0:0:0:
109,192,94016,1,0,0:0:0:0:
402,192,94142,1,0,0:0:0:0:
36,192,94142,1,0,0:0:0:0:
109,192,94204,1,0,0:0:0:0:
475,192,94267,1,0,0:0:0:0:
182,192,94267,1,0,0:0:0:0:
329,192,94267,1,0,0:0:0:0:
109,192,94330,1,0,0:0:0:0:
475,192,94391,1,0,0:0:0:0:
256,192,94391,1,0,0:0:0:0:
36,192,94391,1,0,0:0:0:0:
402,192,94391,1,0,0:0:0:0:
182,192,94454,1,0,0:0:0:0:
109,192,94517,1,0,0:0:0:0:
329,192,94517,1,0,0:0:0:0:
256,192,94579,1,0,0:0:0:0:
402,192,94642,1,0,0:0:0:0:
475,192,94642,1,0,0:0:0:0:
36,192,94642,1,0,0:0:0:0:
182,192,94642,1,0,0:0:0:0:
329,192,94705,1,0,0:0:0:0:
475,192,94766,1,0,0:0:0:0:
109,192,94766,1,0,0:0:0:0:
256,192,94766,1,0,0:0:0:0:
329,192,94829,1,0,0:0:0:0:
36,192,94892,128,0,94955:0:0:0:0:
402,192,94892,1,0,0:0:0:0:
182,192,94955,128,0,95017:0:0:0:0:
36,192,95017,128,0,95079:0:0:0:0:
475,192,95017,1,0,0:0:0:0:
329,192,95017,1,0,0:0:0:0:
182,192,95079,128,0,95142:0:0:0:0:
109,192,95142,1,0,0:0:0:0:
36,192,95142,1,0,0:0:0:0:
475,192,95142,1,0,0:0:0:0:
402,192,95142,1,0,0:0:0:0:
329,192,95204,1,0,0:0:0:0:
256,192,95267,1,0,0:0:0:0:
182,192,95330,1,0,0:0:0:0:
36,192,95392,1,0,0:0:0:0:
475,192,95392,1,0,0:0:0:0:
329,192,95392,1,0,0:0:0:0:
109,192,95454,1,0,0:0:0:0:
402,192,95517,1,0,0:0:0:0:
182,192,95517,1,0,0:0:0:0:
256,192,95579,1,0,0:0:0:0:
475,192,95642,1,0,0:0:0:0:
329,192,95642,1,0,0:0:0:0:
109,192,95642,1,0,0:0:0:0:
36,192,95642,1,0,0:0:0:0:
182,192,95705,1,0,0:0:0:0:
402,192,95767,1,0,0:0:0:0:
256,192,95767,1,0,0:0:0:0:
36,192,95767,1,0,0:0:0:0:
182,192,95829,1,0,0:0:0:0:
475,192,95892,128,0,95954:0:0:0:0:
109,192,95892,1,0,0:0:0:0:
329,192,95954,128,0,96017:0:0:0:0:
475,192,96017,128,0,96080:0:0:0:0:
36,192,96017,1,0,0:0:0:0:
182,192,96017,1,0,0:0:0:0:
329,192,96080,128,0,96141:0:0:0:0:
109,192,96141,128,0,96204:0:0:0:0:
402,192,96204,128,0,96267:0:0:0:0:
182,192,96267,128,0,96329:0:0:0:0:
329,192,96329,128,0,96392:0:0:0:0:
36,192,96392,1,0,0:0:0:0:
109,192,96392,1,0,0:0:0:0:
256,192,96392,1,0,0:0:0:0:
475,192,96392,1,0,0:0:0:0:
402,192,96392,1,0,0:0:0:0:
182,192,96516,128,0,96579:0:0:0:0:
256,192,96579,128,0,96642:0:0:0:0:
36,192,96642,1,0,0:0:0:0:
109,192,96642,1,0,0:0:0:0:
475,192,96642,1,0,0:0:0:0:
402,192,96642,1,0,0:0:0:0:
329,192,96642,1,0,0:0:0:0:
36,192,96767,1,0,0:0:0:0:
109,192,96767,1,0,0:0:0:0:
402,192,96767,1,0,0:0:0:0:
475,192,96767,1,0,0:0:0:0:
329,192,96767,128,0,96830:0:0:0:0:
256,192,96830,128,0,96891:0:0:0:0:
36,192,96891,1,0,0:0:0:0:
109,192,96891,1,0,0:0:0:0:
402,192,96891,1,0,0:0:0:0:
475,192,96891,1,0,0:0:0:0:
182,192,96891,1,0,0:0:0:0:
329,192,97017,128,0,97080:0:0:0:0:
182,192,97080,128,0,97142:0:0:0:0:
36,192,97142,1,0,0:0:0:0:
109,192,97142,1,0,0:0:0:0:
256,192,97142,1,0,0:0:0:0:
402,192,97142,1,0,0:0:0:0:
475,192,97142,1,0,0:0:0:0:
329,192,97267,1,0,0:0:0:0:
402,192,97267,1,0,0:0:0:0:
475,192,97267,1,0,0:0:0:0:
36,192,97329,1,0,0:0:0:0:
109,192,97329,1,0,0:0:0:0:
182,192,97329,1,0,0:0:0:0:
402,192,97392,1,0,0:0:0:0:
475,192,97392,1,0,0:0:0:0:
329,192,97392,128,0,97455:0:0:0:0:
256,192,97455,128,0,97517:0:0:0:0:
182,192,97517,1,0,0:0:0:0:
109,192,97517,1,0,0:0:0:0:
36,192,97517,1,0,0:0:0:0:
329,192,97579,1,0,0:0:0:0:
402,192,97579,1,0,0:0:0:0:
475,192,97579,1,0,0:0:0:0:
109,192,97642,1,0,0:0:0:0:
36,192,97642,1,0,0:0:0:0:
182,192,97642,128,0,97704:0:0:0:0:
256,192,97704,128,0,97767:0:0:0:0:
329,192,97767,1,0,0:0:0:0:
475,192,97767,1,0,0:0:0:0:
402,192,97767,1,0,0:0:0:0:
36,192,97767,1,0,0:0:0:0:
109,192,97767,1,0,0:0:0:0:
329,192,97892,128,0,97954:0:0:0:0:
256,192,97954,128,0,98017:0:0:0:0:
109,192,98017,1,0,0:0:0:0:
182,192,98017,1,0,0:0:0:0:
36,192,98017,1,0,0:0:0:0:
402,192,98017,1,0,0:0:0:0:
475,192,98017,1,0,0:0:0:0:
256,192,98142,1,0,0:0:0:0:
329,192,98142,1,0,0:0:0:0:
402,192,98142,1,0,0:0:0:0:
36,192,98205,1,0,0:0:0:0:
109,192,98205,1,0,0:0:0:0:
182,192,98205,1,0,0:0:0:0:
329,192,98266,1,0,0:0:0:0:
402,192,98266,1,0,0:0:0:0:
475,192,98266,1,0,0:0:0:0:
109,192,98329,1,0,0:0:0:0:
182,192,98329,1,0,0:0:0:0:
256,192,98329,1,0,0:0:0:0:
329,192,98392,1,0,0:0:0:0:
402,192,98392,1,0,0:0:0:0:
475,192,98392,1,0,0:0:0:0:
36,192,98517,1,0,0:0:0:0:
109,192,98517,1,0,0:0:0:0:
182,192,98517,1,0,0:0:0:0:
109,192,98641,1,0,0:0:0:0:
182,192,98641,1,0,0:0:0:0:
256,192,98641,1,0,0:0:0:0:
329,192,98704,1,0,0:0:0:0:
475,192,98704,1,0,0:0:0:0:
402,192,98704,1,0,0:0:0:0:
36,192,98767,1,0,0:0:0:0:
109,192,98767,1,0,0:0:0:0:
182,192,98767,1,0,0:0:0:0:
329,192,98892,1,0,0:0:0:0:
475,192,98892,1,0,0:0:0:0:
402,192,98892,1,0,0:0:0:0:
256,192,99016,1,0,0:0:0:0:
109,192,99016,1,0,0:0:0:0:
182,192,99016,1,0,0:0:0:0:
329,192,99079,1,0,0:0:0:0:
402,192,99079,1,0,0:0:0:0:
475,192,99079,1,0,0:0:0:0:
36,192,99142,1,0,0:0:0:0:
109,192,99142,1,0,0:0:0:0:
182,192,99142,1,0,0:0:0:0:
256,192,99205,1,0,0:0:0:0:
329,192,99205,1,0,0:0:0:0:
402,192,99205,1,0,0:0:0:0:
36,192,99267,1,0,0:0:0:0:
109,192,99267,1,0,0:0:0:0:
182,192,99267,1,0,0:0:0:0:
329,192,99392,1,0,0:0:0:0:
402,192,99392,1,0,0:0:0:0:
475,192,99392,1,0,0:0:0:0:
256,192,99517,1,0,0:0:0:0:
329,192,99517,1,0,0:0:0:0:
402,192,99517,1,0,0:0:0:0:
36,192,99580,1,0,0:0:0:0:
109,192,99580,1,0,0:0:0:0:
182,192,99580,1,0,0:0:0:0:
329,192,99642,1,0,0:0:0:0:
402,192,99642,1,0,0:0:0:0:
475,192,99642,1,0,0:0:0:0:
36,192,99767,1,0,0:0:0:0:
109,192,99767,1,0,0:0:0:0:
182,192,99767,1,0,0:0:0:0:
36,192,99892,1,0,0:0:0:0:
109,192,99892,1,0,0:0:0:0:
256,192,99892,1,0,0:0:0:0:
475,192,99892,1,0,0:0:0:0:
402,192,99892,1,0,0:0:0:0:
329,192,100017,128,0,100079:0:0:0:0:
256,192,100079,128,0,100142:0:0:0:0:
109,192,100142,1,0,0:0:0:0:
36,192,100142,1,0,0:0:0:0:
475,192,100142,1,0,0:0:0:0:
402,192,100142,1,0,0:0:0:0:
182,192,100142,1,0,0:0:0:0:
36,192,100267,1,0,0:0:0:0:
109,192,100267,1,0,0:0:0:0:
475,192,100267,1,0,0:0:0:0:
402,192,100267,1,0,0:0:0:0:
182,192,100267,128,0,100330:0:0:0:0:
256,192,100330,128,0,100391:0:0:0:0:
109,192,100391,1,0,0:0:0:0:
36,192,100391,1,0,0:0:0:0:
475,192,100391,1,0,0:0:0:0:
402,192,100391,1,0,0:0:0:0:
329,192,100391,1,0,0:0:0:0:
182,192,100517,128,0,100579:0:0:0:0:
329,192,100579,128,0,100642:0:0:0:0:
109,192,100642,1,0,0:0:0:0:
36,192,100642,1,0,0:0:0:0:
256,192,100642,1,0,0:0:0:0:
475,192,100642,1,0,0:0:0:0:
402,192,100642,1,0,0:0:0:0:
36,192,100766,1,0,0:0:0:0:
109,192,100766,1,0,0:0:0:0:
182,192,100766,1,0,0:0:0:0:
329,192,100829,1,0,0:0:0:0:
402,192,100829,1,0,0:0:0:0:
475,192,100829,1,0,0:0:0:0:
182,192,100892,128,0,100955:0:0:0:0:
36,192,100892,1,0,0:0:0:0:
109,192,100892,1,0,0:0:0:0:
256,192,100955,128,0,101017:0:0:0:0:
475,192,101017,1,0,0:0:0:0:
402,192,101017,1,0,0:0:0:0:
329,192,101017,1,0,0:0:0:0:
36,192,101080,1,0,0:0:0:0:
109,192,101080,1,0,0:0:0:0:
182,192,101080,1,0,0:0:0:0:
329,192,101142,128,0,101204:0:0:0:0:
475,192,101142,1,0,0:0:0:0:
402,192,101142,1,0,0:0:0:0:
256,192,101204,128,0,101267:0:0:0:0:
475,192,101267,1,0,0:0:0:0:
402,192,101267,1,0,0:0:0:0:
109,192,101267,1,0,0:0:0:0:
182,192,101267,1,0,0:0:0:0:
36,192,101267,1,0,0:0:0:0:
182,192,101392,128,0,101454:0:0:0:0:
256,192,101454,128,0,101517:0:0:0:0:
109,192,101517,1,0,0:0:0:0:
36,192,101517,1,0,0:0:0:0:
475,192,101517,1,0,0:0:0:0:
402,192,101517,1,0,0:0:0:0:
329,192,101517,1,0,0:0:0:0:
109,192,101642,1,0,0:0:0:0:
182,192,101642,1,0,0:0:0:0:
256,192,101642,1,0,0:0:0:0:
329,192,101705,1,0,0:0:0:0:
402,192,101705,1,0,0:0:0:0:
475,192,101705,1,0,0:0:0:0:
36,192,101767,1,0,0:0:0:0:
109,192,101767,1,0,0:0:0:0:
182,192,101767,1,0,0:0:0:0:
256,192,101829,1,0,0:0:0:0:
329,192,101829,1,0,0:0:0:0:
402,192,101829,1,0,0:0:0:0:
36,192,101892,1,0,0:0:0:0:
109,192,101892,1,0,0:0:0:0:
182,192,101892,1,0,0:0:0:0:
329,192,102017,1,0,0:0:0:0:
402,192,102017,1,0,0:0:0:0:
475,192,102017,1,0,0:0:0:0:
256,192,102142,1,0,0:0:0:0:
329,192,102142,1,0,0:0:0:0:
402,192,102142,1,0,0:0:0:0:
109,192,102204,1,0,0:0:0:0:
36,192,102204,1,0,0:0:0:0:
182,192,102204,1,0,0:0:0:0:
329,192,102267,1,0,0:0:0:0:
402,192,102267,1,0,0:0:0:0:
475,192,102267,1,0,0:0:0:0:
109,192,102392,1,0,0:0:0:0:
36,192,102392,1,0,0:0:0:0:
182,192,102392,1,0,0:0:0:0:
329,192,102516,1,0,0:0:0:0:
402,192,102516,1,0,0:0:0:0:
256,192,102516,1,0,0:0:0:0:
36,192,102579,1,0,0:0:0:0:
109,192,102579,1,0,0:0:0:0:
182,192,102579,1,0,0:0:0:0:
329,192,102642,1,0,0:0:0:0:
402,192,102642,1,0,0:0:0:0:
475,192,102642,1,0,0:0:0:0:
109,192,102704,1,0,0:0:0:0:
182,192,102704,1,0,0:0:0:0:
256,192,102704,1,0,0:0:0:0:
329,192,102767,1,0,0:0:0:0:
402,192,102767,1,0,0:0:0:0:
475,192,102767,1,0,0:0:0:0:
36,192,102891,1,0,0:0:0:0:
109,192,102891,1,0,0:0:0:0:
182,192,102891,1,0,0:0:0:0:
109,192,103017,1,0,0:0:0:0:
182,192,103017,1,0,0:0:0:0:
256,192,103017,1,0,0:0:0:0:
329,192,103080,1,0,0:0:0:0:
402,192,103080,1,0,0:0:0:0:
475,192,103080,1,0,0:0:0:0:
36,192,103142,1,0,0:0:0:0:
109,192,103142,1,0,0:0:0:0:
182,192,103142,1,0,0:0:0:0:
329,192,103267,1,0,0:0:0:0:
402,192,103267,1,0,0:0:0:0:
475,192,103267,1,0,0:0:0:0:
36,192,103392,1,0,0:0:0:0:
109,192,103392,1,0,0:0:0:0:
256,192,103392,1,0,0:0:0:0:
402,192,103392,1,0,0:0:0:0:
475,192,103392,1,0,0:0:0:0:
182,192,103517,128,0,103579:0:0:0:0:
256,192,103579,128,0,103642:0:0:0:0:
402,192,103642,1,0,0:0:0:0:
475,192,103642,1,0,0:0:0:0:
36,192,103642,1,0,0:0:0:0:
109,192,103642,1,0,0:0:0:0:
329,192,103642,1,0,0:0:0:0:
475,192,103767,1,0,0:0:0:0:
402,192,103767,1,0,0:0:0:0:
36,192,103767,1,0,0:0:0:0:
109,192,103767,1,0,0:0:0:0:
329,192,103767,128,0,103830:0:0:0:0:
256,192,103830,128,0,103892:0:0:0:0:
402,192,103892,1,0,0:0:0:0:
475,192,103892,1,0,0:0:0:0:
36,192,103892,1,0,0:0:0:0:
109,192,103892,1,0,0:0:0:0:
182,192,103892,1,0,0:0:0:0:
329,192,104017,128,0,104079:0:0:0:0:
182,192,104079,128,0,104142:0:0:0:0:
402,192,104142,1,0,0:0:0:0:
475,192,104142,1,0,0:0:0:0:
256,192,104142,1,0,0:0:0:0:
36,192,104142,1,0,0:0:0:0:
109,192,104142,1,0,0:0:0:0:
475,192,104267,1,0,0:0:0:0:
402,192,104267,1,0,0:0:0:0:
329,192,104267,1,0,0:0:0:0:
182,192,104329,1,0,0:0:0:0:
109,192,104329,1,0,0:0:0:0:
36,192,104329,1,0,0:0:0:0:
329,192,104392,128,0,104454:0:0:0:0:
475,192,104392,1,0,0:0:0:0:
402,192,104392,1,0,0:0:0:0:
256,192,104454,128,0,104517:0:0:0:0:
36,192,104517,1,0,0:0:0:0:
109,192,104517,1,0,0:0:0:0:
182,192,104517,1,0,0:0:0:0:
475,192,104580,1,0,0:0:0:0:
402,192,104580,1,0,0:0:0:0:
329,192,104580,1,0,0:0:0:0:
182,192,104641,128,0,104704:0:0:0:0:
36,192,104641,1,0,0:0:0:0:
109,192,104641,1,0,0:0:0:0:
256,192,104704,128,0,104767:0:0:0:0:
36,192,104767,1,0,0:0:0:0:
109,192,104767,1,0,0:0:0:0:
402,192,104767,1,0,0:0:0:0:
329,192,104767,1,0,0:0:0:0:
475,192,104767,1,0,0:0:0:0:
329,192,104892,128,0,104955:0:0:0:0:
256,192,104955,128,0,105016:0:0:0:0:
402,192,105016,1,0,0:0:0:0:
475,192,105016,1,0,0:0:0:0:
36,192,105016,1,0,0:0:0:0:
109,192,105016,1,0,0:0:0:0:
182,192,105016,1,0,0:0:0:0:
402,192,105142,1,0,0:0:0:0:
329,192,105142,1,0,0:0:0:0:
256,192,105142,1,0,0:0:0:0:
182,192,105205,1,0,0:0:0:0:
109,192,105205,1,0,0:0:0:0:
36,192,105205,1,0,0:0:0:0:
475,192,105267,1,0,0:0:0:0:
402,192,105267,1,0,0:0:0:0:
329,192,105267,1,0,0:0:0:0:
256,192,105330,1,0,0:0:0:0:
182,192,105330,1,0,0:0:0:0:
109,192,105330,1,0,0:0:0:0:
475,192,105392,1,0,0:0:0:0:
329,192,105392,1,0,0:0:0:0:
402,192,105392,1,0,0:0:0:0:
182,192,105517,1,0,0:0:0:0:
36,192,105517,1,0,0:0:0:0:
109,192,105517,1,0,0:0:0:0:
256,192,105642,1,0,0:0:0:0:
182,192,105642,1,0,0:0:0:0:
109,192,105642,1,0,0:0:0:0:
402,192,105704,1,0,0:0:0:0:
475,192,105704,1,0,0:0:0:0:
329,192,105704,1,0,0:0:0:0:
182,192,105767,1,0,0:0:0:0:
109,192,105767,1,0,0:0:0:0:
36,192,105767,1,0,0:0:0:0:
402,192,105892,1,0,0:0:0:0:
329,192,105892,1,0,0:0:0:0:
475,192,105892,1,0,0:0:0:0:
182,192,106017,1,0,0:0:0:0:
109,192,106017,1,0,0:0:0:0:
256,192,106017,1,0,0:0:0:0:
475,192,106079,1,0,0:0:0:0:
402,192,106079,1,0,0:0:0:0:
329,192,106079,1,0,0:0:0:0:
182,192,106142,1,0,0:0:0:0:
109,192,106142,1,0,0:0:0:0:
36,192,106142,1,0,0:0:0:0:
402,192,106204,1,0,0:0:0:0:
329,192,106204,1,0,0:0:0:0:
256,192,106204,1,0,0:0:0:0:
182,192,106267,1,0,0:0:0:0:
36,192,106267,1,0,0:0:0:0:
109,192,106267,1,0,0:0:0:0:
475,192,106392,1,0,0:0:0:0:
329,192,106392,1,0,0:0:0:0:
402,192,106392,1,0,0:0:0:0:
402,192,106517,1,0,0:0:0:0:
329,192,106517,1,0,0:0:0:0:
256,192,106517,1,0,0:0:0:0:
182,192,106579,1,0,0:0:0:0:
109,192,106579,1,0,0:0:0:0:
36,192,106579,1,0,0:0:0:0:
475,192,106642,1,0,0:0:0:0:
402,192,106642,1,0,0:0:0:0:
329,192,106642,1,0,0:0:0:0:
182,192,106766,1,0,0:0:0:0:
36,192,106766,1,0,0:0:0:0:
109,192,106766,1,0,0:0:0:0:
475,192,106892,1,0,0:0:0:0:
256,192,106892,1,0,0:0:0:0:
36,192,106892,1,0,0:0:0:0:
182,192,106892,1,0,0:0:0:0:
329,192,106892,1,0,0:0:0:0:
109,192,107017,128,0,107080:0:0:0:0:
256,192,107080,128,0,107141:0:0:0:0:
36,192,107141,1,0,0:0:0:0:
182,192,107141,1,0,0:0:0:0:
329,192,107141,1,0,0:0:0:0:
475,192,107141,1,0,0:0:0:0:
402,192,107141,1,0,0:0:0:0:
36,192,107267,1,0,0:0:0:0:
475,192,107267,1,0,0:0:0:0:
329,192,107267,1,0,0:0:0:0:
182,192,107267,1,0,0:0:0:0:
402,192,107267,128,0,107330:0:0:0:0:
256,192,107330,128,0,107392:0:0:0:0:
36,192,107392,1,0,0:0:0:0:
182,192,107392,1,0,0:0:0:0:
475,192,107392,1,0,0:0:0:0:
109,192,107392,1,0,0:0:0:0:
329,192,107392,1,0,0:0:0:0:
402,192,107517,128,0,107579:0:0:0:0:
109,192,107579,128,0,107642:0:0:0:0:
182,192,107642,1,0,0:0:0:0:
256,192,107642,1,0,0:0:0:0:
329,192,107642,1,0,0:0:0:0:
36,192,107642,1,0,0:0:0:0:
475,192,107642,1,0,0:0:0:0:
329,192,107767,1,0,0:0:0:0:
402,192,107767,1,0,0:0:0:0:
475,192,107767,1,0,0:0:0:0:
36,192,107829,1,0,0:0:0:0:
109,192,107829,1,0,0:0:0:0:
182,192,107829,1,0,0:0:0:0:
402,192,107892,128,0,107954:0:0:0:0:
329,192,107892,1,0,0:0:0:0:
475,192,107892,1,0,0:0:0:0:
256,192,107954,128,0,108017:0:0:0:0:
36,192,108017,1,0,0:0:0:0:
109,192,108017,1,0,0:0:0:0:
182,192,108017,1,0,0:0:0:0:
329,192,108080,1,0,0:0:0:0:
475,192,108080,1,0,0:0:0:0:
402,192,108080,1,0,0:0:0:0:
109,192,108142,128,0,108204:0:0:0:0:
36,192,108142,1,0,0:0:0:0:
182,192,108142,1,0,0:0:0:0:
256,192,108204,128,0,108267:0:0:0:0:
329,192,108267,1,0,0:0:0:0:
402,192,108267,1,0,0:0:0:0:
475,192,108267,1,0,0:0:0:0:
36,192,108267,1,0,0:0:0:0:
109,192,108267,1,0,0:0:0:0:
402,192,108392,128,0,108455:0:0:0:0:
256,192,108455,128,0,108517:0:0:0:0:
36,192,108517,1,0,0:0:0:0:
182,192,108517,1,0,0:0:0:0:
329,192,108517,1,0,0:0:0:0:
475,192,108517,1,0,0:0:0:0:
109,192,108517,1,0,0:0:0:0:
402,192,108642,1,0,0:0:0:0:
475,192,108642,1,0,0:0:0:0:
256,192,108642,1,0,0:0:0:0:
36,192,108642,1,0,0:0:0:0:
109,192,108704,1,0,0:0:0:0:
182,192,108704,1,0,0:0:0:0:
329,192,108767,1,0,0:0:0:0:
402,192,108767,1,0,0:0:0:0:
182,192,108830,1,0,0:0:0:0:
36,192,108891,1,0,0:0:0:0:
109,192,108891,1,0,0:0:0:0:
256,192,108891,1,0,0:0:0:0:
475,192,108891,1,0,0:0:0:0:
329,192,108954,1,0,0:0:0:0:
402,192,108954,1,0,0:0:0:0:
109,192,109017,1,0,0:0:0:0:
182,192,109017,1,0,0:0:0:0:
329,192,109079,1,0,0:0:0:0:
36,192,109142,1,0,0:0:0:0:
256,192,109142,1,0,0:0:0:0:
402,192,109142,1,0,0:0:0:0:
475,192,109142,1,0,0:0:0:0:
182,192,109205,1,0,0:0:0:0:
475,192,109267,1,0,0:0:0:0:
36,192,109267,1,0,0:0:0:0:
109,192,109267,1,0,0:0:0:0:
256,192,109267,1,0,0:0:0:0:
329,192,109329,1,0,0:0:0:0:
402,192,109329,1,0,0:0:0:0:
182,192,109392,1,0,0:0:0:0:
109,192,109392,1,0,0:0:0:0:
329,192,109455,1,0,0:0:0:0:
475,192,109517,1,0,0:0:0:0:
402,192,109517,1,0,0:0:0:0:
182,192,109517,1,0,0:0:0:0:
256,192,109517,1,0,0:0:0:0:
36,192,109580,1,0,0:0:0:0:
109,192,109580,1,0,0:0:0:0:
329,192,109642,1,0,0:0:0:0:
402,192,109642,1,0,0:0:0:0:
182,192,109704,1,0,0:0:0:0:
36,192,109767,1,0,0:0:0:0:
109,192,109767,1,0,0:0:0:0:
256,192,109767,1,0,0:0:0:0:
329,192,109767,1,0,0:0:0:0:
402,192,109830,1,0,0:0:0:0:
475,192,109830,1,0,0:0:0:0:
109,192,109892,1,0,0:0:0:0:
182,192,109892,1,0,0:0:0:0:
329,192,109954,1,0,0:0:0:0:
402,192,110017,1,0,0:0:0:0:
475,192,110017,1,0,0:0:0:0:
256,192,110017,1,0,0:0:0:0:
36,192,110017,1,0,0:0:0:0:
182,192,110079,1,0,0:0:0:0:
36,192,110142,1,0,0:0:0:0:
109,192,110142,1,0,0:0:0:0:
256,192,110142,1,0,0:0:0:0:
329,192,110142,1,0,0:0:0:0:
402,192,110205,1,0,0:0:0:0:
475,192,110205,1,0,0:0:0:0:
109,192,110267,1,0,0:0:0:0:
182,192,110267,1,0,0:0:0:0:
329,192,110329,1,0,0:0:0:0:
36,192,110392,128,0,110642:0:0:0:0:
182,192,110392,128,0,110892:0:0:0:0:
256,192,110392,128,0,111142:0:0:0:0:
402,192,110392,128,0,111517:0:0:0:0:
475,192,110392,128,0,111517:0:0:0:0:
36,192,111517,1,0,0:0:0:0:
182,192,111517,1,0,0:0:0:0:
329,192,111642,1,0,0:0:0:0:
402,192,111642,1,0,0:0:0:0:
475,192,111642,1,0,0:0:0:0:
329,192,111767,1,0,0:0:0:0:
402,192,111767,1,0,0:0:0:0:
475,192,111767,1,0,0:0:0:0:
36,192,111892,1,0,0:0:0:0:
182,192,111892,1,0,0:0:0:0:
36,192,111955,1,0,0:0:0:0:
182,192,111955,1,0,0:0:0:0:
329,192,112017,1,0,0:0:0:0:
402,192,112017,1,0,0:0:0:0:
475,192,112017,1,0,0:0:0:0:
329,192,112079,1,0,0:0:0:0:
475,192,112079,1,0,0:0:0:0:
402,192,112079,1,0,0:0:0:0:
256,192,112142,1,0,0:0:0:0:
109,192,112267,1,0,0:0:0:0:
36,192,112392,128,0,112454:0:0:0:0:
256,192,112392,1,0,0:0:0:0:
475,192,112392,1,0,0:0:0:0:
329,192,112392,1,0,0:0:0:0:
402,192,112392,1,0,0:0:0:0:
109,192,112517,128,0,112579:0:0:0:0:
182,192,112642,128,0,112705:0:0:0:0:
36,192,112767,128,0,112829:0:0:0:0:
109,192,112892,128,0,112954:0:0:0:0:
329,192,112892,128,0,113705:0:0:0:0:
182,192,113017,128,0,113080:0:0:0:0:
36,192,113141,128,0,113204:0:0:0:0:
109,192,113267,128,0,113330:0:0:0:0:
36,192,113392,128,0,113455:0:0:0:0:
402,192,113392,128,0,113767:0:0:0:0:
109,192,113517,128,0,113579:0:0:0:0:
182,192,113642,128,0,113705:0:0:0:0:
36,192,113767,128,0,113830:0:0:0:0:
329,192,113767,128,0,114080:0:0:0:0:
402,192,113830,128,0,114329:0:0:0:0:
109,192,113892,128,0,113954:0:0:0:0:
475,192,113892,128,0,114329:0:0:0:0:
182,192,114017,128,0,114080:0:0:0:0:
36,192,114142,128,0,114204:0:0:0:0:
329,192,114142,128,0,114329:0:0:0:0:
109,192,114267,128,0,114329:0:0:0:0:
182,192,114392,1,0,0:0:0:0:
329,192,114392,1,0,0:0:0:0:
475,192,114392,1,0,0:0:0:0:
36,192,114392,1,0,0:0:0:0:
256,192,114517,128,0,114767:0:0:0:0:
402,192,114517,128,0,114767:0:0:0:0:
36,192,114767,1,0,0:0:0:0:
182,192,114767,1,0,0:0:0:0:
329,192,114767,1,0,0:0:0:0:
475,192,114767,1,0,0:0:0:0:
109,192,114892,128,0,115142:0:0:0:0:
402,192,114892,128,0,115142:0:0:0:0:
36,192,115142,1,0,0:0:0:0:
182,192,115142,1,0,0:0:0:0:
475,192,115142,1,0,0:0:0:0:
329,192,115142,1,0,0:0:0:0:
109,192,115266,128,0,115392:0:0:0:0:
256,192,115266,128,0,115392:0:0:0:0:
402,192,115392,1,0,0:0:0:0:
329,192,115392,1,0,0:0:0:0:
475,192,115392,1,0,0:0:0:0:
182,192,115455,1,0,0:0:0:0:
36,192,115455,1,0,0:0:0:0:
109,192,115455,1,0,0:0:0:0:
329,192,115517,1,0,0:0:0:0:
402,192,115517,1,0,0:0:0:0:
475,192,115517,1,0,0:0:0:0:
182,192,115580,1,0,0:0:0:0:
329,192,115642,1,0,0:0:0:0:
402,192,115642,1,0,0:0:0:0:
475,192,115642,1,0,0:0:0:0:
36,192,115642,1,0,0:0:0:0:
109,192,115642,1,0,0:0:0:0:
256,192,115767,128,0,115798:0:0:0:0:
109,192,115830,1,0,0:0:0:0:
329,192,115892,1,0,0:0:0:0:
475,192,115892,1,0,0:0:0:0:
402,192,115892,1,0,0:0:0:0:
329,192,116017,1,0,0:0:0:0:
402,192,116017,1,0,0:0:0:0:
36,192,116079,1,0,0:0:0:0:
109,192,116079,1,0,0:0:0:0:
256,192,116142,128,0,116173:0:0:0:0:
402,192,116205,1,0,0:0:0:0:
475,192,116205,1,0,0:0:0:0:
36,192,116267,1,0,0:0:0:0:
109,192,116267,1,0,0:0:0:0:
182,192,116267,1,0,0:0:0:0:
475,192,116392,128,0,116454:0:0:0:0:
402,192,116517,128,0,116580:0:0:0:0:
329,192,116642,128,0,116704:0:0:0:0:
475,192,116767,128,0,116829:0:0:0:0:
402,192,116892,128,0,116955:0:0:0:0:
182,192,116892,128,0,117705:0:0:0:0:
329,192,117017,128,0,117079:0:0:0:0:
475,192,117142,128,0,117204:0:0:0:0:
402,192,117267,128,0,117330:0:0:0:0:
475,192,117391,128,0,117454:0:0:0:0:
109,192,117391,128,0,117767:0:0:0:0:
402,192,117517,128,0,117580:0:0:0:0:
329,192,117642,128,0,117705:0:0:0:0:
475,192,117767,128,0,117829:0:0:0:0:
182,192,117767,128,0,118080:0:0:0:0:
109,192,117829,128,0,118330:0:0:0:0:
402,192,117892,128,0,117955:0:0:0:0:
36,192,117892,128,0,118330:0:0:0:0:
329,192,118017,128,0,118080:0:0:0:0:
475,192,118142,128,0,118204:0:0:0:0:
182,192,118142,128,0,118330:0:0:0:0:
402,192,118267,128,0,118330:0:0:0:0:
329,192,118392,1,0,0:0:0:0:
182,192,118392,1,0,0:0:0:0:
36,192,118392,1,0,0:0:0:0:
475,192,118392,1,0,0:0:0:0:
256,192,118517,128,0,118767:0:0:0:0:
109,192,118517,128,0,118767:0:0:0:0:
475,192,118767,1,0,0:0:0:0:
329,192,118767,1,0,0:0:0:0:
182,192,118767,1,0,0:0:0:0:
36,192,118767,1,0,0:0:0:0:
402,192,118892,128,0,119143:0:0:0:0:
109,192,118892,128,0,119143:0:0:0:0:
475,192,119143,1,0,0:0:0:0:
329,192,119143,1,0,0:0:0:0:
36,192,119143,1,0,0:0:0:0:
182,192,119143,1,0,0:0:0:0:
402,192,119267,128,0,119392:0:0:0:0:
256,192,119267,128,0,119392:0:0:0:0:
109,192,119392,1,0,0:0:0:0:
182,192,119392,1,0,0:0:0:0:
36,192,119392,1,0,0:0:0:0:
329,192,119455,1,0,0:0:0:0:
475,192,119455,1,0,0:0:0:0:
402,192,119455,1,0,0:0:0:0:
182,192,119517,1,0,0:0:0:0:
109,192,119517,1,0,0:0:0:0:
36,192,119517,1,0,0:0:0:0:
329,192,119579,1,0,0:0:0:0:
182,192,119642,1,0,0:0:0:0:
109,192,119642,1,0,0:0:0:0:
36,192,119642,1,0,0:0:0:0:
475,192,119642,1,0,0:0:0:0:
402,192,119642,1,0,0:0:0:0:
256,192,119767,128,0,119798:0:0:0:0:
402,192,119830,1,0,0:0:0:0:
182,192,119892,1,0,0:0:0:0:
36,192,119892,1,0,0:0:0:0:
109,192,119892,1,0,0:0:0:0:
182,192,120017,1,0,0:0:0:0:
109,192,120017,1,0,0:0:0:0:
475,192,120080,1,0,0:0:0:0:
402,192,120080,1,0,0:0:0:0:
256,192,120142,128,0,120173:0:0:0:0:
36,192,120205,1,0,0:0:0:0:
109,192,120205,1,0,0:0:0:0:
329,192,120267,1,0,0:0:0:0:
475,192,120267,1,0,0:0:0:0:
402,192,120267,1,0,0:0:0:0:
36,192,120392,128,0,120455:0:0:0:0:
36,192,120517,128,0,120579:0:0:0:0:
182,192,120642,128,0,120704:0:0:0:0:
36,192,120767,128,0,120830:0:0:0:0:
36,192,120892,128,0,120954:0:0:0:0:
402,192,120892,128,0,121329:0:0:0:0:
329,192,120892,128,0,121704:0:0:0:0:
36,192,121017,128,0,121079:0:0:0:0:
182,192,121142,128,0,121205:0:0:0:0:
36,192,121268,128,0,121329:0:0:0:0:
402,192,121392,128,0,121767:0:0:0:0:
475,192,121392,128,0,121830:0:0:0:0:
36,192,121392,128,0,121455:0:0:0:0:
36,192,121517,128,0,121580:0:0:0:0:
182,192,121642,128,0,121704:0:0:0:0:
329,192,121767,128,0,122079:0:0:0:0:
36,192,121767,128,0,121830:0:0:0:0:
402,192,121830,128,0,122079:0:0:0:0:
36,192,121892,128,0,121955:0:0:0:0:
475,192,121892,128,0,122330:0:0:0:0:
36,192,122017,128,0,122079:0:0:0:0:
329,192,122142,128,0,122392:0:0:0:0:
402,192,122142,128,0,122392:0:0:0:0:
182,192,122142,128,0,122205:0:0:0:0:
36,192,122267,128,0,122330:0:0:0:0:
182,192,122392,128,0,122704:0:0:0:0:
109,192,122392,128,0,123079:0:0:0:0:
475,192,122392,128,0,122454:0:0:0:0:
475,192,122517,128,0,122580:0:0:0:0:
329,192,122642,128,0,122704:0:0:0:0:
182,192,122767,128,0,123955:0:0:0:0:
36,192,122767,128,0,123079:0:0:0:0:
475,192,122767,128,0,122829:0:0:0:0:
475,192,122892,128,0,122955:0:0:0:0:
475,192,123017,128,0,123079:0:0:0:0:
36,192,123142,128,0,124080:0:0:0:0:
109,192,123142,128,0,124204:0:0:0:0:
329,192,123142,128,0,123204:0:0:0:0:
475,192,123267,128,0,123330:0:0:0:0:
475,192,123393,128,0,123454:0:0:0:0:
475,192,123517,128,0,123580:0:0:0:0:
329,192,123642,128,0,123705:0:0:0:0:
475,192,123767,128,0,123829:0:0:0:0:
475,192,123892,128,0,123955:0:0:0:0:
475,192,124017,128,0,124080:0:0:0:0:
182,192,124017,128,0,124330:0:0:0:0:
36,192,124142,128,0,124392:0:0:0:0:
329,192,124142,128,0,124204:0:0:0:0:
109,192,124267,128,0,124392:0:0:0:0:
475,192,124267,128,0,124330:0:0:0:0:
256,192,124392,128,0,127392:0:0:0:0:
182,192,124392,128,0,124455:0:0:0:0:
182,192,124517,128,0,124579:0:0:0:0:
36,192,124642,128,0,124705:0:0:0:0:
182,192,124767,128,0,124829:0:0:0:0:
329,192,124892,128,0,124954:0:0:0:0:
329,192,125017,128,0,125080:0:0:0:0:
475,192,125142,128,0,125204:0:0:0:0:
329,192,125267,128,0,125329:0:0:0:0:
36,192,125392,128,0,125455:0:0:0:0:
36,192,125518,128,0,125579:0:0:0:0:
182,192,125642,128,0,125705:0:0:0:0:
36,192,125767,128,0,125830:0:0:0:0:
475,192,125892,128,0,125954:0:0:0:0:
475,192,126017,128,0,126080:0:0:0:0:
329,192,126142,128,0,126205:0:0:0:0:
475,192,126267,128,0,126329:0:0:0:0:
475,192,126392,128,0,127392:0:0:0:0:
36,192,126392,128,0,127392:0:0:0:0:
109,192,126392,128,0,126455:0:0:0:0:
109,192,126517,128,0,126580:0:0:0:0:
182,192,126642,128,0,126704:0:0:0:0:
109,192,126767,128,0,126830:0:0:0:0:
402,192,126892,128,0,126954:0:0:0:0:
402,192,127017,128,0,127079:0:0:0:0:
329,192,127142,128,0,127205:0:0:0:0:
402,192,127267,128,0,127329:0:0:0:0:
109,192,127392,1,0,0:0:0:0:
182,192,127392,1,0,0:0:0:0:
329,192,127392,1,0,0:0:0:0:
402,192,127392,1,0,0:0:0:0:
36,192,127559,1,0,0:0:0:0:
109,192,127559,1,0,0:0:0:0:
402,192,127559,1,0,0:0:0:0:
475,192,127559,1,0,0:0:0:0:
182,192,127643,1,0,0:0:0:0:
329,192,127643,1,0,0:0:0:0:
256,192,127643,1,0,0:0:0:0:
109,192,127725,1,0,0:0:0:0:
36,192,127725,1,0,0:0:0:0:
475,192,127725,1,0,0:0:0:0:
402,192,127725,1,0,0:0:0:0:
182,192,127808,1,0,0:0:0:0:
329,192,127808,1,0,0:0:0:0:
109,192,127892,1,0,0:0:0:0:
402,192,127892,1,0,0:0:0:0:
475,192,127892,1,0,0:0:0:0:
256,192,127892,128,0,128392:0:0:0:0:
36,192,127892,1,0,0:0:0:0:
36,192,128142,1,0,0:0:0:0:
109,192,128142,1,0,0:0:0:0:
402,192,128142,1,0,0:0:0:0:
475,192,128142,1,0,0:0:0:0:
475,192,128392,1,0,0:0:0:0:
182,192,128392,1,0,0:0:0:0:
36,192,128392,1,0,0:0:0:0:
109,192,128392,1,0,0:0:0:0:
402,192,128476,1,0,0:0:0:0:
182,192,128517,1,0,0:0:0:0:
329,192,128558,1,0,0:0:0:0:
256,192,128642,1,0,0:0:0:0:
475,192,128642,1,0,0:0:0:0:
36,192,128642,1,0,0:0:0:0:
182,192,128725,1,0,0:0:0:0:
402,192,128725,1,0,0:0:0:0:
36,192,128767,1,0,0:0:0:0:
109,192,128809,1,0,0:0:0:0:
329,192,128809,1,0,0:0:0:0:
256,192,128892,1,0,0:0:0:0:
475,192,128892,1,0,0:0:0:0:
109,192,128955,1,0,0:0:0:0:
182,192,129017,1,0,0:0:0:0:
402,192,129017,1,0,0:0:0:0:
36,192,129079,1,0,0:0:0:0:
109,192,129142,1,0,0:0:0:0:
329,192,129142,1,0,0:0:0:0:
475,192,129142,1,0,0:0:0:0:
256,192,129142,1,0,0:0:0:0:
36,192,129204,1,0,0:0:0:0:
182,192,129267,1,0,0:0:0:0:
402,192,129267,1,0,0:0:0:0:
36,192,129393,1,0,0:0:0:0:
256,192,129393,1,0,0:0:0:0:
329,192,129393,1,0,0:0:0:0:
109,192,129393,1,0,0:0:0:0:
402,192,129517,1,0,0:0:0:0:
329,192,129580,1,0,0:0:0:0:
475,192,129642,1,0,0:0:0:0:
256,192,129642,1,0,0:0:0:0:
182,192,129705,1,0,0:0:0:0:
402,192,129720,1,0,0:0:0:0:
109,192,129768,1,0,0:0:0:0:
36,192,129768,1,0,0:0:0:0:
329,192,129798,1,0,0:0:0:0:
402,192,129892,128,0,130017:0:0:0:0:
475,192,129892,128,0,130017:0:0:0:0:
182,192,129892,128,0,130017:0:0:0:0:
256,192,129892,128,0,130017:0:0:0:0:
36,192,130142,128,0,130267:0:0:0:0:
109,192,130142,128,0,130267:0:0:0:0:
256,192,130142,128,0,130267:0:0:0:0:
329,192,130142,128,0,130267:0:0:0:0:
36,192,130392,1,0,0:0:0:0:
329,192,130392,1,0,0:0:0:0:
402,192,130392,1,0,0:0:0:0:
475,192,130392,1,0,0:0:0:0:
182,192,130517,1,0,0:0:0:0:
109,192,130517,1,0,0:0:0:0:
256,192,130642,128,0,130767:0:0:0:0:
36,192,130642,1,0,0:0:0:0:
475,192,130642,1,0,0:0:0:0:
109,192,130721,1,0,0:0:0:0:
329,192,130767,1,0,0:0:0:0:
182,192,130798,1,0,0:0:0:0:
475,192,130892,128,0,130954:0:0:0:0:
256,192,130892,128,0,131017:0:0:0:0:
402,192,131017,128,0,131080:0:0:0:0:
182,192,131017,128,0,131142:0:0:0:0:
109,192,131142,128,0,131267:0:0:0:0:
329,192,131142,128,0,131204:0:0:0:0:
256,192,131142,1,0,0:0:0:0:
475,192,131204,1,0,0:0:0:0:
256,192,131267,128,0,131329:0:0:0:0:
36,192,131267,128,0,131392:0:0:0:0:
182,192,131392,128,0,131518:0:0:0:0:
402,192,131392,1,0,0:0:0:0:
475,192,131392,1,0,0:0:0:0:
109,192,131392,1,0,0:0:0:0:
329,192,131518,128,0,131642:0:0:0:0:
256,192,131518,1,0,0:0:0:0:
182,192,131579,1,0,0:0:0:0:
475,192,131642,128,0,131767:0:0:0:0:
109,192,131642,1,0,0:0:0:0:
36,192,131767,1,0,0:0:0:0:
182,192,131767,1,0,0:0:0:0:
402,192,131767,1,0,0:0:0:0:
329,192,131767,1,0,0:0:0:0:
475,192,131893,128,0,132017:0:0:0:0:
256,192,131893,1,0,0:0:0:0:
182,192,131954,1,0,0:0:0:0:
329,192,132017,128,0,132142:0:0:0:0:
109,192,132017,1,0,0:0:0:0:
36,192,132080,1,0,0:0:0:0:
182,192,132142,128,0,132267:0:0:0:0:
475,192,132142,1,0,0:0:0:0:
256,192,132142,1,0,0:0:0:0:
402,192,132205,1,0,0:0:0:0:
36,192,132267,128,0,132392:0:0:0:0:
329,192,132267,1,0,0:0:0:0:
256,192,132329,1,0,0:0:0:0:
109,192,132392,1,0,0:0:0:0:
402,192,132392,1,0,0:0:0:0:
475,192,132392,1,0,0:0:0:0:
182,192,132392,128,0,132517:0:0:0:0:
256,192,132517,1,0,0:0:0:0:
329,192,132517,128,0,132642:0:0:0:0:
36,192,132642,1,0,0:0:0:0:
475,192,132642,1,0,0:0:0:0:
109,192,132720,1,0,0:0:0:0:
329,192,132720,1,0,0:0:0:0:
182,192,132798,1,0,0:0:0:0:
475,192,132798,1,0,0:0:0:0:
475,192,132892,128,0,133142:0:0:0:0:
329,192,132892,128,0,132955:0:0:0:0:
182,192,132955,1,0,0:0:0:0:
256,192,133017,128,0,133079:0:0:0:0:
109,192,133079,1,0,0:0:0:0:
402,192,133142,1,0,0:0:0:0:
36,192,133142,128,0,133267:0:0:0:0:
182,192,133142,128,0,133205:0:0:0:0:
329,192,133205,1,0,0:0:0:0:
109,192,133267,128,0,133329:0:0:0:0:
256,192,133267,128,0,133392:0:0:0:0:
182,192,133392,128,0,133517:0:0:0:0:
402,192,133392,1,0,0:0:0:0:
475,192,133392,1,0,0:0:0:0:
36,192,133517,1,0,0:0:0:0:
256,192,133517,1,0,0:0:0:0:
109,192,133580,1,0,0:0:0:0:
329,192,133643,128,0,133767:0:0:0:0:
182,192,133643,1,0,0:0:0:0:
36,192,133767,1,0,0:0:0:0:
109,192,133767,1,0,0:0:0:0:
475,192,133767,1,0,0:0:0:0:
182,192,133892,128,0,133955:0:0:0:0:
256,192,133892,128,0,133955:0:0:0:0:
182,192,134018,128,0,134079:0:0:0:0:
109,192,134018,128,0,134079:0:0:0:0:
329,192,134142,128,0,134267:0:0:0:0:
475,192,134142,128,0,134205:0:0:0:0:
109,192,134142,128,0,134392:0:0:0:0:
36,192,134142,128,0,134392:0:0:0:0:
256,192,134267,128,0,134392:0:0:0:0:
402,192,134267,128,0,134330:0:0:0:0:
182,192,134392,1,0,0:0:0:0:
329,192,134392,1,0,0:0:0:0:
475,192,134392,1,0,0:0:0:0:
182,192,134558,1,0,0:0:0:0:
329,192,134558,1,0,0:0:0:0:
475,192,134558,1,0,0:0:0:0:
109,192,134642,1,0,0:0:0:0:
256,192,134642,1,0,0:0:0:0:
402,192,134642,1,0,0:0:0:0:
182,192,134725,1,0,0:0:0:0:
329,192,134725,1,0,0:0:0:0:
475,192,134725,1,0,0:0:0:0:
109,192,134809,1,0,0:0:0:0:
256,192,134809,1,0,0:0:0:0:
402,192,134809,1,0,0:0:0:0:
182,192,134892,1,0,0:0:0:0:
329,192,134892,1,0,0:0:0:0:
475,192,134892,128,0,135392:0:0:0:0:
36,192,134892,1,0,0:0:0:0:
182,192,135142,1,0,0:0:0:0:
329,192,135142,1,0,0:0:0:0:
36,192,135142,1,0,0:0:0:0:
36,192,135392,1,0,0:0:0:0:
182,192,135392,1,0,0:0:0:0:
329,192,135392,1,0,0:0:0:0:
36,192,135558,1,0,0:0:0:0:
182,192,135558,1,0,0:0:0:0:
329,192,135558,1,0,0:0:0:0:
109,192,135642,1,0,0:0:0:0:
256,192,135642,1,0,0:0:0:0:
402,192,135642,1,0,0:0:0:0:
36,192,135725,1,0,0:0:0:0:
182,192,135725,1,0,0:0:0:0:
329,192,135725,1,0,0:0:0:0:
109,192,135809,1,0,0:0:0:0:
256,192,135809,1,0,0:0:0:0:
402,192,135809,1,0,0:0:0:0:
182,192,135892,1,0,0:0:0:0:
329,192,135892,1,0,0:0:0:0:
475,192,135892,1,0,0:0:0:0:
36,192,135892,128,0,136392:0:0:0:0:
182,192,136143,1,0,0:0:0:0:
329,192,136143,1,0,0:0:0:0:
475,192,136143,1,0,0:0:0:0:
109,192,136392,128,0,136517:0:0:0:0:
475,192,136392,128,0,136517:0:0:0:0:
256,192,136517,128,0,136579:0:0:0:0:
182,192,136642,128,0,136767:0:0:0:0:
36,192,136642,128,0,136767:0:0:0:0:
109,192,136892,128,0,137017:0:0:0:0:
329,192,136892,128,0,137017:0:0:0:0:
256,192,137017,128,0,137080:0:0:0:0:
182,192,137142,128,0,137220:0:0:0:0:
329,192,137142,128,0,137267:0:0:0:0:
475,192,137220,128,0,137299:0:0:0:0:
109,192,137299,1,0,0:0:0:0:
36,192,137392,128,0,137518:0:0:0:0:
256,192,137392,128,0,137518:0:0:0:0:
182,192,137642,128,0,137767:0:0:0:0:
475,192,137642,128,0,137767:0:0:0:0:
36,192,137893,128,0,138017:0:0:0:0:
109,192,137893,128,0,138017:0:0:0:0:
182,192,138142,128,0,138268:0:0:0:0:
402,192,138142,128,0,138268:0:0:0:0:
329,192,138268,128,0,138329:0:0:0:0:
475,192,138392,128,0,138517:0:0:0:0:
256,192,138392,128,0,138517:0:0:0:0:
402,192,138642,128,0,138767:0:0:0:0:
182,192,138642,128,0,138767:0:0:0:0:
475,192,138892,128,0,139017:0:0:0:0:
36,192,138892,128,0,139017:0:0:0:0:
475,192,139142,128,0,139267:0:0:0:0:
109,192,139142,128,0,139267:0:0:0:0:
329,192,139267,128,0,139330:0:0:0:0:
402,192,139392,128,0,139517:0:0:0:0:
256,192,139392,128,0,139517:0:0:0:0:
329,192,139643,128,0,139767:0:0:0:0:
182,192,139643,128,0,139767:0:0:0:0:
109,192,139767,128,0,140205:0:0:0:0:
36,192,139892,128,0,140393:0:0:0:0:
329,192,139892,128,0,140330:0:0:0:0:
402,192,139892,128,0,140330:0:0:0:0:
182,192,140018,128,0,140393:0:0:0:0:
256,192,140142,128,0,140393:0:0:0:0:
475,192,140142,128,0,140330:0:0:0:0:
109,192,140267,128,0,140393:0:0:0:0:
475,192,140393,1,0,0:0:0:0:
329,192,140393,1,0,0:0:0:0:
402,192,140393,1,0,0:0:0:0:
182,192,140476,1,0,0:0:0:0:
36,192,140476,1,0,0:0:0:0:
109,192,140476,1,0,0:0:0:0:
402,192,140558,1,0,0:0:0:0:
475,192,140558,1,0,0:0:0:0:
256,192,140558,1,0,0:0:0:0:
36,192,140642,1,0,0:0:0:0:
109,192,140642,1,0,0:0:0:0:
329,192,140642,1,0,0:0:0:0:
475,192,140725,1,0,0:0:0:0:
182,192,140725,1,0,0:0:0:0:
256,192,140725,1,0,0:0:0:0:
36,192,140809,1,0,0:0:0:0:
329,192,140809,1,0,0:0:0:0:
402,192,140809,1,0,0:0:0:0:
109,192,140892,1,0,0:0:0:0:
182,192,140892,1,0,0:0:0:0:
475,192,140892,1,0,0:0:0:0:
36,192,140976,1,0,0:0:0:0:
256,192,140976,1,0,0:0:0:0:
329,192,140976,1,0,0:0:0:0:
402,192,141059,1,0,0:0:0:0:
475,192,141059,1,0,0:0:0:0:
182,192,141059,1,0,0:0:0:0:
36,192,141142,1,0,0:0:0:0:
109,192,141142,1,0,0:0:0:0:
256,192,141142,1,0,0:0:0:0:
402,192,141226,1,0,0:0:0:0:
329,192,141226,1,0,0:0:0:0:
475,192,141226,1,0,0:0:0:0:
36,192,141309,1,0,0:0:0:0:
109,192,141309,1,0,0:0:0:0:
182,192,141309,1,0,0:0:0:0:
329,192,141392,1,0,0:0:0:0:
402,192,141392,1,0,0:0:0:0:
475,192,141392,1,0,0:0:0:0:
256,192,141475,128,0,141642:0:0:0:0:
402,192,141559,1,0,0:0:0:0:
36,192,141642,1,0,0:0:0:0:
109,192,141642,1,0,0:0:0:0:
182,192,141642,1,0,0:0:0:0:
256,192,141725,128,0,141892:0:0:0:0:
109,192,141809,1,0,0:0:0:0:
402,192,141892,1,0,0:0:0:0:
475,192,141892,1,0,0:0:0:0:
329,192,141892,1,0,0:0:0:0:
256,192,141976,128,0,142143:0:0:0:0:
329,192,142059,1,0,0:0:0:0:
36,192,142143,1,0,0:0:0:0:
182,192,142143,1,0,0:0:0:0:
109,192,142143,1,0,0:0:0:0:
256,192,142225,128,0,142392:0:0:0:0:
182,192,142308,1,0,0:0:0:0:
36,192,142392,1,0,0:0:0:0:
109,192,142392,1,0,0:0:0:0:
402,192,142392,1,0,0:0:0:0:
475,192,142392,1,0,0:0:0:0:
109,192,142559,1,0,0:0:0:0:
256,192,142559,1,0,0:0:0:0:
402,192,142559,1,0,0:0:0:0:
182,192,142642,1,0,0:0:0:0:
329,192,142642,1,0,0:0:0:0:
256,192,142726,1,0,0:0:0:0:
109,192,142726,1,0,0:0:0:0:
402,192,142726,1,0,0:0:0:0:
182,192,142809,1,0,0:0:0:0:
329,192,142809,1,0,0:0:0:0:
36,192,142892,128,0,143329:0:0:0:0:
402,192,142892,128,0,143642:0:0:0:0:
475,192,142892,128,0,143830:0:0:0:0:
109,192,142892,128,0,143517:0:0:0:0:
256,192,142892,128,0,143580:0:0:0:0:
182,192,143142,128,0,143392:0:0:0:0:
329,192,143142,128,0,143455:0:0:0:0:
36,192,143392,128,0,144329:0:0:0:0:
182,192,143455,128,0,143704:0:0:0:0:
329,192,143517,128,0,143767:0:0:0:0:
109,192,143580,128,0,144142:0:0:0:0:
256,192,143642,128,0,144080:0:0:0:0:
402,192,143704,128,0,144017:0:0:0:0:
182,192,143767,128,0,143954:0:0:0:0:
329,192,143830,128,0,143893:0:0:0:0:
475,192,143893,128,0,144329:0:0:0:0:
329,192,143954,128,0,144205:0:0:0:0:
182,192,144017,128,0,144268:0:0:0:0:
402,192,144080,128,0,144329:0:0:0:0:
256,192,144142,128,0,144329:0:0:0:0:
109,192,144205,128,0,144329:0:0:0:0:
329,192,144268,128,0,144329:0:0:0:0:
182,192,144329,1,0,0:0:0:0:
36,192,144392,1,0,0:0:0:0:
329,192,144392,1,0,0:0:0:0:
402,192,144392,1,0,0:0:0:0:
475,192,144392,1,0,0:0:0:0:
256,192,144392,1,0,0:0:0:0:
182,192,144517,1,0,0:0:0:0:
402,192,144517,1,0,0:0:0:0:
256,192,144580,1,0,0:0:0:0:
109,192,144643,1,0,0:0:0:0:
36,192,144643,1,0,0:0:0:0:
329,192,144643,1,0,0:0:0:0:
475,192,144643,1,0,0:0:0:0:
182,192,144704,1,0,0:0:0:0:
256,192,144767,1,0,0:0:0:0:
329,192,144767,1,0,0:0:0:0:
402,192,144767,1,0,0:0:0:0:
109,192,144830,1,0,0:0:0:0:
475,192,144892,1,0,0:0:0:0:
182,192,144892,1,0,0:0:0:0:
256,192,144955,1,0,0:0:0:0:
36,192,144955,128,0,145267:0:0:0:0:
329,192,145017,1,0,0:0:0:0:
109,192,145017,128,0,145205:0:0:0:0:
402,192,145079,1,0,0:0:0:0:
182,192,145079,128,0,145142:0:0:0:0:
256,192,145142,1,0,0:0:0:0:
475,192,145142,128,0,145330:0:0:0:0:
182,192,145205,1,0,0:0:0:0:
402,192,145205,128,0,145330:0:0:0:0:
109,192,145267,1,0,0:0:0:0:
329,192,145267,128,0,145330:0:0:0:0:
256,192,145330,1,0,0:0:0:0:
36,192,145330,1,0,0:0:0:0:
475,192,145392,1,0,0:0:0:0:
182,192,145392,1,0,0:0:0:0:
329,192,145392,1,0,0:0:0:0:
402,192,145392,1,0,0:0:0:0:
109,192,145454,1,0,0:0:0:0:
256,192,145517,1,0,0:0:0:0:
36,192,145517,1,0,0:0:0:0:
329,192,145580,1,0,0:0:0:0:
475,192,145643,1,0,0:0:0:0:
182,192,145643,1,0,0:0:0:0:
109,192,145643,1,0,0:0:0:0:
402,192,145643,1,0,0:0:0:0:
256,192,145705,1,0,0:0:0:0:
36,192,145767,1,0,0:0:0:0:
182,192,145767,1,0,0:0:0:0:
329,192,145768,1,0,0:0:0:0:
402,192,145830,1,0,0:0:0:0:
475,192,145892,128,0,146142:0:0:0:0:
256,192,145892,1,0,0:0:0:0:
402,192,145955,128,0,146142:0:0:0:0:
182,192,145955,1,0,0:0:0:0:
329,192,146018,128,0,146142:0:0:0:0:
109,192,146018,1,0,0:0:0:0:
256,192,146079,128,0,146142:0:0:0:0:
36,192,146142,1,0,0:0:0:0:
182,192,146142,1,0,0:0:0:0:
402,192,146205,1,0,0:0:0:0:
475,192,146205,1,0,0:0:0:0:
36,192,146267,1,0,0:0:0:0:
182,192,146267,1,0,0:0:0:0:
329,192,146330,1,0,0:0:0:0:
256,192,146330,1,0,0:0:0:0:
36,192,146393,1,0,0:0:0:0:
109,192,146393,1,0,0:0:0:0:
182,192,146393,1,0,0:0:0:0:
475,192,146393,1,0,0:0:0:0:
402,192,146454,1,0,0:0:0:0:
256,192,146518,1,0,0:0:0:0:
109,192,146518,1,0,0:0:0:0:
329,192,146580,1,0,0:0:0:0:
182,192,146642,1,0,0:0:0:0:
402,192,146642,1,0,0:0:0:0:
475,192,146642,1,0,0:0:0:0:
36,192,146643,1,0,0:0:0:0:
402,192,146768,1,0,0:0:0:0:
256,192,146768,128,0,146829:0:0:0:0:
109,192,146768,1,0,0:0:0:0:
329,192,146830,1,0,0:0:0:0:
475,192,146892,128,0,146955:0:0:0:0:
182,192,146892,128,0,146955:0:0:0:0:
256,192,146955,1,0,0:0:0:0:
36,192,147017,128,0,147080:0:0:0:0:
329,192,147017,128,0,147080:0:0:0:0:
109,192,147017,1,0,0:0:0:0:
182,192,147142,128,0,147204:0:0:0:0:
402,192,147142,128,0,147204:0:0:0:0:
256,192,147142,1,0,0:0:0:0:
475,192,147142,1,0,0:0:0:0:
109,192,147267,128,0,147330:0:0:0:0:
329,192,147267,128,0,147330:0:0:0:0:
256,192,147330,1,0,0:0:0:0:
36,192,147392,1,0,0:0:0:0:
475,192,147392,1,0,0:0:0:0:
329,192,147393,1,0,0:0:0:0:
402,192,147393,1,0,0:0:0:0:
109,192,147455,1,0,0:0:0:0:
402,192,147518,1,0,0:0:0:0:
256,192,147518,1,0,0:0:0:0:
182,192,147580,1,0,0:0:0:0:
109,192,147642,1,0,0:0:0:0:
36,192,147642,1,0,0:0:0:0:
329,192,147643,1,0,0:0:0:0:
475,192,147643,1,0,0:0:0:0:
109,192,147768,1,0,0:0:0:0:
256,192,147768,128,0,147830:0:0:0:0:
402,192,147768,1,0,0:0:0:0:
182,192,147830,1,0,0:0:0:0:
36,192,147892,128,0,147955:0:0:0:0:
329,192,147892,128,0,147955:0:0:0:0:
256,192,147955,1,0,0:0:0:0:
182,192,148017,128,0,148080:0:0:0:0:
475,192,148017,128,0,148080:0:0:0:0:
402,192,148017,1,0,0:0:0:0:
36,192,148143,1,0,0:0:0:0:
109,192,148143,1,0,0:0:0:0:
475,192,148204,1,0,0:0:0:0:
329,192,148205,1,0,0:0:0:0:
36,192,148267,1,0,0:0:0:0:
109,192,148267,1,0,0:0:0:0:
402,192,148330,1,0,0:0:0:0:
329,192,148330,1,0,0:0:0:0:
36,192,148392,1,0,0:0:0:0:
109,192,148392,1,0,0:0:0:0:
182,192,148392,1,0,0:0:0:0:
256,192,148392,1,0,0:0:0:0:
475,192,148392,1,0,0:0:0:0:
329,192,148518,1,0,0:0:0:0:
109,192,148518,1,0,0:0:0:0:
256,192,148579,1,0,0:0:0:0:
182,192,148642,1,0,0:0:0:0:
36,192,148642,1,0,0:0:0:0:
402,192,148642,1,0,0:0:0:0:
475,192,148642,1,0,0:0:0:0:
329,192,148705,1,0,0:0:0:0:
109,192,148767,1,0,0:0:0:0:
256,192,148767,1,0,0:0:0:0:
475,192,148767,1,0,0:0:0:0:
402,192,148830,1,0,0:0:0:0:
182,192,148893,1,0,0:0:0:0:
329,192,148893,1,0,0:0:0:0:
109,192,148954,1,0,0:0:0:0:
36,192,149017,1,0,0:0:0:0:
256,192,149017,1,0,0:0:0:0:
475,192,149017,1,0,0:0:0:0:
329,192,149080,1,0,0:0:0:0:
109,192,149142,1,0,0:0:0:0:
182,192,149142,1,0,0:0:0:0:
402,192,149205,1,0,0:0:0:0:
329,192,149205,1,0,0:0:0:0:
109,192,149267,1,0,0:0:0:0:
182,192,149267,1,0,0:0:0:0:
329,192,149329,1,0,0:0:0:0:
402,192,149329,1,0,0:0:0:0:
182,192,149392,128,0,149517:0:0:0:0:
109,192,149392,1,0,0:0:0:0:
36,192,149392,1,0,0:0:0:0:
329,192,149517,128,0,149642:0:0:0:0:
256,192,149517,1,0,0:0:0:0:
475,192,149642,128,0,149767:0:0:0:0:
402,192,149642,1,0,0:0:0:0:
182,192,149704,1,0,0:0:0:0:
36,192,149767,128,0,149893:0:0:0:0:
109,192,149767,1,0,0:0:0:0:
329,192,149767,1,0,0:0:0:0:
402,192,149830,1,0,0:0:0:0:
182,192,149893,128,0,150017:0:0:0:0:
256,192,149893,1,0,0:0:0:0:
329,192,150017,128,0,150142:0:0:0:0:
402,192,150017,1,0,0:0:0:0:
36,192,150142,1,0,0:0:0:0:
109,192,150142,1,0,0:0:0:0:
402,192,150205,1,0,0:0:0:0:
109,192,150268,1,0,0:0:0:0:
36,192,150268,1,0,0:0:0:0:
256,192,150329,1,0,0:0:0:0:
36,192,150392,1,0,0:0:0:0:
402,192,150392,1,0,0:0:0:0:
329,192,150392,1,0,0:0:0:0:
475,192,150392,1,0,0:0:0:0:
109,192,150455,1,0,0:0:0:0:
182,192,150517,1,0,0:0:0:0:
402,192,150518,1,0,0:0:0:0:
256,192,150580,1,0,0:0:0:0:
36,192,150643,1,0,0:0:0:0:
109,192,150643,1,0,0:0:0:0:
329,192,150643,1,0,0:0:0:0:
475,192,150643,1,0,0:0:0:0:
256,192,150704,1,0,0:0:0:0:
182,192,150767,1,0,0:0:0:0:
402,192,150767,1,0,0:0:0:0:
36,192,150767,1,0,0:0:0:0:
329,192,150830,1,0,0:0:0:0:
256,192,150892,1,0,0:0:0:0:
475,192,150892,128,0,151142:0:0:0:0:
182,192,150955,1,0,0:0:0:0:
402,192,150955,128,0,151142:0:0:0:0:
109,192,151018,1,0,0:0:0:0:
329,192,151018,128,0,151142:0:0:0:0:
256,192,151079,128,0,151142:0:0:0:0:
36,192,151142,1,0,0:0:0:0:
182,192,151142,1,0,0:0:0:0:
475,192,151205,1,0,0:0:0:0:
329,192,151205,1,0,0:0:0:0:
36,192,151267,1,0,0:0:0:0:
182,192,151267,1,0,0:0:0:0:
329,192,151330,1,0,0:0:0:0:
256,192,151330,1,0,0:0:0:0:
36,192,151392,1,0,0:0:0:0:
109,192,151392,1,0,0:0:0:0:
182,192,151392,1,0,0:0:0:0:
475,192,151392,1,0,0:0:0:0:
402,192,151454,1,0,0:0:0:0:
329,192,151517,1,0,0:0:0:0:
109,192,151518,1,0,0:0:0:0:
256,192,151580,1,0,0:0:0:0:
36,192,151642,1,0,0:0:0:0:
182,192,151642,1,0,0:0:0:0:
475,192,151642,1,0,0:0:0:0:
402,192,151642,1,0,0:0:0:0:
256,192,151705,1,0,0:0:0:0:
109,192,151767,1,0,0:0:0:0:
475,192,151767,1,0,0:0:0:0:
329,192,151767,1,0,0:0:0:0:
182,192,151829,1,0,0:0:0:0:
256,192,151892,1,0,0:0:0:0:
36,192,151892,128,0,152142:0:0:0:0:
329,192,151955,1,0,0:0:0:0:
109,192,151955,128,0,152142:0:0:0:0:
402,192,152018,1,0,0:0:0:0:
182,192,152018,128,0,152142:0:0:0:0:
256,192,152080,128,0,152142:0:0:0:0:
329,192,152142,1,0,0:0:0:0:
475,192,152142,1,0,0:0:0:0:
36,192,152205,1,0,0:0:0:0:
182,192,152205,1,0,0:0:0:0:
329,192,152267,1,0,0:0:0:0:
475,192,152267,1,0,0:0:0:0:
182,192,152330,1,0,0:0:0:0:
475,192,152393,1,0,0:0:0:0:
36,192,152393,1,0,0:0:0:0:
402,192,152393,1,0,0:0:0:0:
109,192,152393,1,0,0:0:0:0:
256,192,152393,1,0,0:0:0:0:
329,192,152517,1,0,0:0:0:0:
109,192,152518,1,0,0:0:0:0:
256,192,152580,1,0,0:0:0:0:
402,192,152642,1,0,0:0:0:0:
475,192,152642,1,0,0:0:0:0:
182,192,152642,1,0,0:0:0:0:
36,192,152642,1,0,0:0:0:0:
329,192,152705,1,0,0:0:0:0:
256,192,152768,1,0,0:0:0:0:
182,192,152768,1,0,0:0:0:0:
109,192,152768,1,0,0:0:0:0:
402,192,152829,1,0,0:0:0:0:
36,192,152892,1,0,0:0:0:0:
329,192,152893,1,0,0:0:0:0:
256,192,152955,1,0,0:0:0:0:
475,192,152955,128,0,153267:0:0:0:0:
182,192,153017,1,0,0:0:0:0:
402,192,153017,128,0,153204:0:0:0:0:
109,192,153080,1,0,0:0:0:0:
329,192,153080,128,0,153143:0:0:0:0:
256,192,153143,1,0,0:0:0:0:
36,192,153143,128,0,153330:0:0:0:0:
329,192,153204,1,0,0:0:0:0:
109,192,153204,128,0,153330:0:0:0:0:
402,192,153267,1,0,0:0:0:0:
182,192,153267,128,0,153330:0:0:0:0:
256,192,153330,1,0,0:0:0:0:
475,192,153330,1,0,0:0:0:0:
36,192,153392,1,0,0:0:0:0:
329,192,153392,1,0,0:0:0:0:
182,192,153392,1,0,0:0:0:0:
109,192,153392,1,0,0:0:0:0:
402,192,153455,1,0,0:0:0:0:
256,192,153517,1,0,0:0:0:0:
475,192,153517,1,0,0:0:0:0:
182,192,153580,1,0,0:0:0:0:
36,192,153642,1,0,0:0:0:0:
329,192,153642,1,0,0:0:0:0:
402,192,153642,1,0,0:0:0:0:
109,192,153643,1,0,0:0:0:0:
256,192,153705,1,0,0:0:0:0:
475,192,153767,1,0,0:0:0:0:
329,192,153767,1,0,0:0:0:0:
182,192,153768,1,0,0:0:0:0:
109,192,153830,1,0,0:0:0:0:
36,192,153892,128,0,154143:0:0:0:0:
256,192,153892,1,0,0:0:0:0:
109,192,153954,128,0,154143:0:0:0:0:
329,192,153954,1,0,0:0:0:0:
182,192,154017,128,0,154143:0:0:0:0:
402,192,154017,1,0,0:0:0:0:
256,192,154080,128,0,154143:0:0:0:0:
475,192,154143,1,0,0:0:0:0:
329,192,154143,1,0,0:0:0:0:
109,192,154205,1,0,0:0:0:0:
36,192,154205,1,0,0:0:0:0:
475,192,154267,1,0,0:0:0:0:
329,192,154267,1,0,0:0:0:0:
182,192,154330,1,0,0:0:0:0:
256,192,154330,1,0,0:0:0:0:
475,192,154392,1,0,0:0:0:0:
402,192,154392,1,0,0:0:0:0:
329,192,154392,1,0,0:0:0:0:
36,192,154392,1,0,0:0:0:0:
109,192,154455,1,0,0:0:0:0:
402,192,154518,1,0,0:0:0:0:
256,192,154518,1,0,0:0:0:0:
182,192,154580,1,0,0:0:0:0:
329,192,154642,1,0,0:0:0:0:
109,192,154642,1,0,0:0:0:0:
36,192,154642,1,0,0:0:0:0:
475,192,154643,1,0,0:0:0:0:
109,192,154767,1,0,0:0:0:0:
256,192,154767,128,0,154830:0:0:0:0:
402,192,154768,1,0,0:0:0:0:
182,192,154830,1,0,0:0:0:0:
36,192,154893,128,0,154954:0:0:0:0:
329,192,154893,128,0,154954:0:0:0:0:
256,192,154954,1,0,0:0:0:0:
475,192,155017,128,0,155080:0:0:0:0:
182,192,155017,128,0,155080:0:0:0:0:
402,192,155017,1,0,0:0:0:0:
329,192,155142,128,0,155205:0:0:0:0:
109,192,155142,128,0,155205:0:0:0:0:
256,192,155142,1,0,0:0:0:0:
36,192,155142,1,0,0:0:0:0:
402,192,155268,128,0,155329:0:0:0:0:
182,192,155268,128,0,155329:0:0:0:0:
256,192,155329,1,0,0:0:0:0:
475,192,155392,1,0,0:0:0:0:
36,192,155392,1,0,0:0:0:0:
109,192,155393,1,0,0:0:0:0:
182,192,155393,1,0,0:0:0:0:
402,192,155455,1,0,0:0:0:0:
256,192,155517,1,0,0:0:0:0:
109,192,155518,1,0,0:0:0:0:
329,192,155580,1,0,0:0:0:0:
402,192,155642,1,0,0:0:0:0:
475,192,155642,1,0,0:0:0:0:
182,192,155642,1,0,0:0:0:0:
36,192,155643,1,0,0:0:0:0:
402,192,155767,1,0,0:0:0:0:
256,192,155767,128,0,155830:0:0:0:0:
109,192,155768,1,0,0:0:0:0:
329,192,155830,1,0,0:0:0:0:
475,192,155893,128,0,155955:0:0:0:0:
182,192,155893,128,0,155955:0:0:0:0:
256,192,155955,1,0,0:0:0:0:
329,192,156017,128,0,156080:0:0:0:0:
36,192,156017,128,0,156080:0:0:0:0:
109,192,156017,1,0,0:0:0:0:
475,192,156142,1,0,0:0:0:0:
402,192,156142,1,0,0:0:0:0:
36,192,156205,1,0,0:0:0:0:
182,192,156205,1,0,0:0:0:0:
475,192,156268,1,0,0:0:0:0:
402,192,156268,1,0,0:0:0:0:
182,192,156330,1,0,0:0:0:0:
256,192,156330,1,0,0:0:0:0:
475,192,156392,1,0,0:0:0:0:
402,192,156392,1,0,0:0:0:0:
329,192,156392,1,0,0:0:0:0:
36,192,156392,1,0,0:0:0:0:
109,192,156455,1,0,0:0:0:0:
402,192,156518,1,0,0:0:0:0:
256,192,156518,1,0,0:0:0:0:
182,192,156580,1,0,0:0:0:0:
329,192,156643,1,0,0:0:0:0:
475,192,156643,1,0,0:0:0:0:
36,192,156643,1,0,0:0:0:0:
109,192,156643,1,0,0:0:0:0:
36,192,156767,1,0,0:0:0:0:
182,192,156767,128,0,156830:0:0:0:0:
402,192,156767,1,0,0:0:0:0:
329,192,156830,1,0,0:0:0:0:
475,192,156892,128,0,156955:0:0:0:0:
109,192,156892,128,0,156955:0:0:0:0:
256,192,156955,1,0,0:0:0:0:
36,192,157018,128,0,157079:0:0:0:0:
402,192,157018,128,0,157079:0:0:0:0:
182,192,157018,1,0,0:0:0:0:
402,192,157142,1,0,0:0:0:0:
329,192,157142,1,0,0:0:0:0:
109,192,157205,1,0,0:0:0:0:
182,192,157205,1,0,0:0:0:0:
402,192,157267,1,0,0:0:0:0:
329,192,157267,1,0,0:0:0:0:
256,192,157330,1,0,0:0:0:0:
182,192,157330,1,0,0:0:0:0:
36,192,157393,1,0,0:0:0:0:
109,192,157393,1,0,0:0:0:0:
475,192,157393,1,0,0:0:0:0:
402,192,157393,1,0,0:0:0:0:
329,192,157455,1,0,0:0:0:0:
256,192,157518,1,0,0:0:0:0:
109,192,157518,1,0,0:0:0:0:
329,192,157580,1,0,0:0:0:0:
475,192,157642,1,0,0:0:0:0:
36,192,157642,1,0,0:0:0:0:
182,192,157642,1,0,0:0:0:0:
402,192,157643,1,0,0:0:0:0:
475,192,157767,1,0,0:0:0:0:
109,192,157767,1,0,0:0:0:0:
329,192,157767,128,0,157829:0:0:0:0:
182,192,157830,1,0,0:0:0:0:
402,192,157892,128,0,157955:0:0:0:0:
36,192,157892,128,0,157955:0:0:0:0:
256,192,157955,1,0,0:0:0:0:
109,192,158018,128,0,158080:0:0:0:0:
329,192,158018,1,0,0:0:0:0:
475,192,158018,128,0,158080:0:0:0:0:
109,192,158142,1,0,0:0:0:0:
182,192,158142,1,0,0:0:0:0:
402,192,158205,1,0,0:0:0:0:
329,192,158205,1,0,0:0:0:0:
109,192,158267,1,0,0:0:0:0:
182,192,158267,1,0,0:0:0:0:
256,192,158330,1,0,0:0:0:0:
329,192,158330,1,0,0:0:0:0:
402,192,158393,1,0,0:0:0:0:
475,192,158393,1,0,0:0:0:0:
36,192,158393,1,0,0:0:0:0:
109,192,158393,1,0,0:0:0:0:
182,192,158455,1,0,0:0:0:0:
256,192,158517,1,0,0:0:0:0:
402,192,158518,1,0,0:0:0:0:
182,192,158580,1,0,0:0:0:0:
329,192,158642,1,0,0:0:0:0:
36,192,158642,1,0,0:0:0:0:
109,192,158642,1,0,0:0:0:0:
475,192,158642,1,0,0:0:0:0:
182,192,158768,1,0,0:0:0:0:
402,192,158768,1,0,0:0:0:0:
329,192,158768,128,0,158829:0:0:0:0:
36,192,158830,1,0,0:0:0:0:
256,192,158892,128,0,158955:0:0:0:0:
109,192,158892,128,0,158955:0:0:0:0:
475,192,158955,1,0,0:0:0:0:
329,192,159017,1,0,0:0:0:0:
36,192,159017,128,0,159080:0:0:0:0:
182,192,159017,128,0,159080:0:0:0:0:
36,192,159143,1,0,0:0:0:0:
109,192,159143,1,0,0:0:0:0:
182,192,159143,1,0,0:0:0:0:
402,192,159204,1,0,0:0:0:0:
329,192,159204,1,0,0:0:0:0:
475,192,159204,1,0,0:0:0:0:
36,192,159267,1,0,0:0:0:0:
182,192,159267,1,0,0:0:0:0:
109,192,159267,1,0,0:0:0:0:
329,192,159330,1,0,0:0:0:0:
256,192,159330,1,0,0:0:0:0:
36,192,159392,1,0,0:0:0:0:
109,192,159392,1,0,0:0:0:0:
182,192,159392,1,0,0:0:0:0:
475,192,159392,1,0,0:0:0:0:
402,192,159455,1,0,0:0:0:0:
329,192,159518,1,0,0:0:0:0:
109,192,159518,1,0,0:0:0:0:
256,192,159580,1,0,0:0:0:0:
36,192,159642,1,0,0:0:0:0:
402,192,159642,1,0,0:0:0:0:
475,192,159642,1,0,0:0:0:0:
182,192,159642,1,0,0:0:0:0:
109,192,159767,1,0,0:0:0:0:
329,192,159767,1,0,0:0:0:0:
182,192,159767,128,0,159830:0:0:0:0:
475,192,159830,1,0,0:0:0:0:
256,192,159892,128,0,159954:0:0:0:0:
402,192,159892,128,0,159954:0:0:0:0:
36,192,159954,1,0,0:0:0:0:
182,192,160017,1,0,0:0:0:0:
475,192,160018,128,0,160080:0:0:0:0:
329,192,160018,128,0,160080:0:0:0:0:
329,192,160143,5,0,0:0:0:0:
402,192,160143,1,0,0:0:0:0:
475,192,160143,1,0,0:0:0:0:
36,192,160205,1,0,0:0:0:0:
109,192,160205,1,0,0:0:0:0:
182,192,160205,1,0,0:0:0:0:
329,192,160267,1,0,0:0:0:0:
402,192,160267,1,0,0:0:0:0:
475,192,160267,1,0,0:0:0:0:
182,192,160330,1,0,0:0:0:0:
36,192,160392,5,0,0:0:0:0:
256,192,160392,1,0,0:0:0:0:
475,192,160392,1,0,0:0:0:0:
109,192,160392,1,0,0:0:0:0:
402,192,160392,1,0,0:0:0:0:
329,192,160518,128,0,160580:0:0:0:0:
256,192,160580,128,0,160642:0:0:0:0:
475,192,160642,1,0,0:0:0:0:
402,192,160642,1,0,0:0:0:0:
36,192,160642,1,0,0:0:0:0:
109,192,160642,1,0,0:0:0:0:
182,192,160642,1,0,0:0:0:0:
475,192,160767,1,0,0:0:0:0:
402,192,160767,1,0,0:0:0:0:
109,192,160767,1,0,0:0:0:0:
36,192,160767,1,0,0:0:0:0:
182,192,160767,128,0,160830:0:0:0:0:
256,192,160830,128,0,160893:0:0:0:0:
475,192,160893,1,0,0:0:0:0:
402,192,160893,1,0,0:0:0:0:
109,192,160893,1,0,0:0:0:0:
36,192,160893,1,0,0:0:0:0:
329,192,160893,1,0,0:0:0:0:
182,192,161017,128,0,161080:0:0:0:0:
329,192,161080,128,0,161142:0:0:0:0:
475,192,161142,1,0,0:0:0:0:
402,192,161142,1,0,0:0:0:0:
256,192,161142,1,0,0:0:0:0:
109,192,161142,1,0,0:0:0:0:
36,192,161142,1,0,0:0:0:0:
182,192,161268,1,0,0:0:0:0:
109,192,161268,1,0,0:0:0:0:
36,192,161268,1,0,0:0:0:0:
475,192,161329,1,0,0:0:0:0:
402,192,161329,1,0,0:0:0:0:
329,192,161329,1,0,0:0:0:0:
109,192,161392,1,0,0:0:0:0:
36,192,161392,1,0,0:0:0:0:
182,192,161392,128,0,161455:0:0:0:0:
256,192,161455,128,0,161517:0:0:0:0:
329,192,161517,1,0,0:0:0:0:
402,192,161517,1,0,0:0:0:0:
475,192,161517,1,0,0:0:0:0:
182,192,161580,1,0,0:0:0:0:
109,192,161580,1,0,0:0:0:0:
36,192,161580,1,0,0:0:0:0:
402,192,161643,1,0,0:0:0:0:
475,192,161643,1,0,0:0:0:0:
329,192,161643,128,0,161704:0:0:0:0:
256,192,161704,128,0,161767:0:0:0:0:
182,192,161767,1,0,0:0:0:0:
36,192,161767,1,0,0:0:0:0:
109,192,161767,1,0,0:0:0:0:
475,192,161767,1,0,0:0:0:0:
402,192,161767,1,0,0:0:0:0:
182,192,161892,128,0,161955:0:0:0:0:
256,192,161955,128,0,162017:0:0:0:0:
402,192,162017,1,0,0:0:0:0:
329,192,162017,1,0,0:0:0:0:
475,192,162017,1,0,0:0:0:0:
109,192,162017,1,0,0:0:0:0:
36,192,162017,1,0,0:0:0:0:
256,192,162142,1,0,0:0:0:0:
182,192,162142,1,0,0:0:0:0:
109,192,162142,1,0,0:0:0:0:
475,192,162205,1,0,0:0:0:0:
402,192,162205,1,0,0:0:0:0:
329,192,162205,1,0,0:0:0:0:
182,192,162268,1,0,0:0:0:0:
109,192,162268,1,0,0:0:0:0:
36,192,162268,1,0,0:0:0:0:
402,192,162330,1,0,0:0:0:0:
329,192,162330,1,0,0:0:0:0:
256,192,162330,1,0,0:0:0:0:
182,192,162392,1,0,0:0:0:0:
109,192,162392,1,0,0:0:0:0:
36,192,162392,1,0,0:0:0:0:
475,192,162517,1,0,0:0:0:0:
402,192,162517,1,0,0:0:0:0:
329,192,162517,1,0,0:0:0:0:
402,192,162643,1,0,0:0:0:0:
329,192,162643,1,0,0:0:0:0:
256,192,162643,1,0,0:0:0:0:
182,192,162705,1,0,0:0:0:0:
36,192,162705,1,0,0:0:0:0:
109,192,162705,1,0,0:0:0:0:
475,192,162767,1,0,0:0:0:0:
402,192,162767,1,0,0:0:0:0:
329,192,162767,1,0,0:0:0:0:
182,192,162892,1,0,0:0:0:0:
36,192,162892,1,0,0:0:0:0:
109,192,162892,1,0,0:0:0:0:
256,192,163018,1,0,0:0:0:0:
402,192,163018,1,0,0:0:0:0:
329,192,163018,1,0,0:0:0:0:
182,192,163079,1,0,0:0:0:0:
109,192,163079,1,0,0:0:0:0:
36,192,163079,1,0,0:0:0:0:
475,192,163142,1,0,0:0:0:0:
402,192,163142,1,0,0:0:0:0:
329,192,163142,1,0,0:0:0:0:
256,192,163205,1,0,0:0:0:0:
182,192,163205,1,0,0:0:0:0:
109,192,163205,1,0,0:0:0:0:
475,192,163267,1,0,0:0:0:0:
402,192,163267,1,0,0:0:0:0:
329,192,163267,1,0,0:0:0:0:
182,192,163393,1,0,0:0:0:0:
109,192,163393,1,0,0:0:0:0:
36,192,163393,1,0,0:0:0:0:
256,192,163517,1,0,0:0:0:0:
182,192,163517,1,0,0:0:0:0:
109,192,163517,1,0,0:0:0:0:
475,192,163580,1,0,0:0:0:0:
402,192,163580,1,0,0:0:0:0:
329,192,163580,1,0,0:0:0:0:
182,192,163642,1,0,0:0:0:0:
109,192,163642,1,0,0:0:0:0:
36,192,163642,1,0,0:0:0:0:
475,192,163768,1,0,0:0:0:0:
402,192,163768,1,0,0:0:0:0:
329,192,163768,1,0,0:0:0:0:
475,192,163892,1,0,0:0:0:0:
402,192,163892,1,0,0:0:0:0:
256,192,163892,1,0,0:0:0:0:
36,192,163892,1,0,0:0:0:0:
109,192,163892,1,0,0:0:0:0:
182,192,164018,128,0,164080:0:0:0:0:
256,192,164080,128,0,164142:0:0:0:0:
402,192,164142,1,0,0:0:0:0:
475,192,164142,1,0,0:0:0:0:
36,192,164142,1,0,0:0:0:0:
109,192,164142,1,0,0:0:0:0:
329,192,164142,1,0,0:0:0:0:
475,192,164267,1,0,0:0:0:0:
402,192,164267,1,0,0:0:0:0:
36,192,164267,1,0,0:0:0:0:
109,192,164267,1,0,0:0:0:0:
329,192,164267,128,0,164330:0:0:0:0:
256,192,164330,128,0,164393:0:0:0:0:
402,192,164393,1,0,0:0:0:0:
475,192,164393,1,0,0:0:0:0:
36,192,164393,1,0,0:0:0:0:
109,192,164393,1,0,0:0:0:0:
182,192,164393,1,0,0:0:0:0:
329,192,164517,128,0,164580:0:0:0:0:
182,192,164580,128,0,164642:0:0:0:0:
402,192,164642,1,0,0:0:0:0:
475,192,164642,1,0,0:0:0:0:
256,192,164642,1,0,0:0:0:0:
36,192,164642,1,0,0:0:0:0:
109,192,164642,1,0,0:0:0:0:
475,192,164768,1,0,0:0:0:0:
402,192,164768,1,0,0:0:0:0:
329,192,164768,1,0,0:0:0:0:
182,192,164830,1,0,0:0:0:0:
109,192,164830,1,0,0:0:0:0:
36,192,164830,1,0,0:0:0:0:
329,192,164892,128,0,164955:0:0:0:0:
475,192,164892,1,0,0:0:0:0:
402,192,164892,1,0,0:0:0:0:
256,192,164955,128,0,165017:0:0:0:0:
36,192,165017,1,0,0:0:0:0:
109,192,165017,1,0,0:0:0:0:
182,192,165017,1,0,0:0:0:0:
475,192,165080,1,0,0:0:0:0:
402,192,165080,1,0,0:0:0:0:
329,192,165080,1,0,0:0:0:0:
182,192,165143,128,0,165204:0:0:0:0:
36,192,165143,1,0,0:0:0:0:
109,192,165143,1,0,0:0:0:0:
256,192,165204,128,0,165267:0:0:0:0:
36,192,165267,1,0,0:0:0:0:
109,192,165267,1,0,0:0:0:0:
402,192,165267,1,0,0:0:0:0:
329,192,165267,1,0,0:0:0:0:
475,192,165267,1,0,0:0:0:0:
329,192,165392,128,0,165455:0:0:0:0:
256,192,165455,128,0,165518:0:0:0:0:
402,192,165518,1,0,0:0:0:0:
475,192,165518,1,0,0:0:0:0:
36,192,165518,1,0,0:0:0:0:
109,192,165518,1,0,0:0:0:0:
182,192,165518,1,0,0:0:0:0:
402,192,165642,1,0,0:0:0:0:
329,192,165642,1,0,0:0:0:0:
256,192,165642,1,0,0:0:0:0:
182,192,165705,1,0,0:0:0:0:
109,192,165705,1,0,0:0:0:0:
36,192,165705,1,0,0:0:0:0:
475,192,165767,1,0,0:0:0:0:
402,192,165767,1,0,0:0:0:0:
329,192,165767,1,0,0:0:0:0:
256,192,165830,1,0,0:0:0:0:
182,192,165830,1,0,0:0:0:0:
109,192,165830,1,0,0:0:0:0:
475,192,165893,1,0,0:0:0:0:
402,192,165893,1,0,0:0:0:0:
329,192,165893,1,0,0:0:0:0:
182,192,166017,1,0,0:0:0:0:
109,192,166017,1,0,0:0:0:0:
36,192,166017,1,0,0:0:0:0:
256,192,166143,1,0,0:0:0:0:
182,192,166143,1,0,0:0:0:0:
109,192,166143,1,0,0:0:0:0:
402,192,166205,1,0,0:0:0:0:
475,192,166205,1,0,0:0:0:0:
329,192,166205,1,0,0:0:0:0:
182,192,166267,1,0,0:0:0:0:
109,192,166267,1,0,0:0:0:0:
36,192,166267,1,0,0:0:0:0:
402,192,166392,1,0,0:0:0:0:
475,192,166392,1,0,0:0:0:0:
329,192,166392,1,0,0:0:0:0:
182,192,166518,1,0,0:0:0:0:
109,192,166518,1,0,0:0:0:0:
256,192,166518,1,0,0:0:0:0:
475,192,166580,1,0,0:0:0:0:
402,192,166580,1,0,0:0:0:0:
329,192,166580,1,0,0:0:0:0:
182,192,166642,1,0,0:0:0:0:
109,192,166642,1,0,0:0:0:0:
36,192,166642,1,0,0:0:0:0:
402,192,166705,1,0,0:0:0:0:
329,192,166705,1,0,0:0:0:0:
256,192,166705,1,0,0:0:0:0:
182,192,166767,1,0,0:0:0:0:
109,192,166767,1,0,0:0:0:0:
36,192,166767,1,0,0:0:0:0:
475,192,166893,1,0,0:0:0:0:
402,192,166893,1,0,0:0:0:0:
329,192,166893,1,0,0:0:0:0:
402,192,167017,1,0,0:0:0:0:
329,192,167017,1,0,0:0:0:0:
256,192,167017,1,0,0:0:0:0:
182,192,167080,1,0,0:0:0:0:
109,192,167080,1,0,0:0:0:0:
36,192,167080,1,0,0:0:0:0:
475,192,167142,1,0,0:0:0:0:
402,192,167142,1,0,0:0:0:0:
329,192,167142,1,0,0:0:0:0:
182,192,167268,1,0,0:0:0:0:
109,192,167268,1,0,0:0:0:0:
36,192,167268,1,0,0:0:0:0:
475,192,167392,1,0,0:0:0:0:
402,192,167392,1,0,0:0:0:0:
256,192,167392,1,0,0:0:0:0:
109,192,167392,1,0,0:0:0:0:
36,192,167392,1,0,0:0:0:0:
329,192,167517,128,0,167580:0:0:0:0:
256,192,167580,128,0,167643:0:0:0:0:
109,192,167643,1,0,0:0:0:0:
36,192,167643,1,0,0:0:0:0:
475,192,167643,1,0,0:0:0:0:
402,192,167643,1,0,0:0:0:0:
182,192,167643,1,0,0:0:0:0:
36,192,167767,1,0,0:0:0:0:
109,192,167767,1,0,0:0:0:0:
475,192,167767,1,0,0:0:0:0:
402,192,167767,1,0,0:0:0:0:
182,192,167767,128,0,167830:0:0:0:0:
256,192,167830,128,0,167892:0:0:0:0:
109,192,167892,1,0,0:0:0:0:
36,192,167892,1,0,0:0:0:0:
475,192,167892,1,0,0:0:0:0:
402,192,167892,1,0,0:0:0:0:
329,192,167892,1,0,0:0:0:0:
182,192,168018,128,0,168079:0:0:0:0:
329,192,168079,128,0,168142:0:0:0:0:
109,192,168142,1,0,0:0:0:0:
36,192,168142,1,0,0:0:0:0:
256,192,168142,1,0,0:0:0:0:
475,192,168142,1,0,0:0:0:0:
402,192,168142,1,0,0:0:0:0:
36,192,168268,1,0,0:0:0:0:
109,192,168268,1,0,0:0:0:0:
182,192,168268,1,0,0:0:0:0:
329,192,168330,1,0,0:0:0:0:
402,192,168330,1,0,0:0:0:0:
475,192,168330,1,0,0:0:0:0:
182,192,168392,128,0,168455:0:0:0:0:
36,192,168392,1,0,0:0:0:0:
109,192,168392,1,0,0:0:0:0:
256,192,168455,128,0,168517:0:0:0:0:
475,192,168517,1,0,0:0:0:0:
402,192,168517,1,0,0:0:0:0:
329,192,168517,1,0,0:0:0:0:
36,192,168580,1,0,0:0:0:0:
109,192,168580,1,0,0:0:0:0:
182,192,168580,1,0,0:0:0:0:
329,192,168643,128,0,168705:0:0:0:0:
475,192,168643,1,0,0:0:0:0:
402,192,168643,1,0,0:0:0:0:
256,192,168705,128,0,168767:0:0:0:0:
475,192,168767,1,0,0:0:0:0:
402,192,168767,1,0,0:0:0:0:
109,192,168767,1,0,0:0:0:0:
182,192,168767,1,0,0:0:0:0:
36,192,168767,1,0,0:0:0:0:
182,192,168892,128,0,168955:0:0:0:0:
256,192,168955,128,0,169018:0:0:0:0:
109,192,169018,1,0,0:0:0:0:
36,192,169018,1,0,0:0:0:0:
475,192,169018,1,0,0:0:0:0:
402,192,169018,1,0,0:0:0:0:
329,192,169018,1,0,0:0:0:0:
109,192,169142,1,0,0:0:0:0:
182,192,169142,1,0,0:0:0:0:
256,192,169142,1,0,0:0:0:0:
329,192,169205,1,0,0:0:0:0:
402,192,169205,1,0,0:0:0:0:
475,192,169205,1,0,0:0:0:0:
36,192,169267,1,0,0:0:0:0:
109,192,169267,1,0,0:0:0:0:
182,192,169267,1,0,0:0:0:0:
256,192,169330,1,0,0:0:0:0:
329,192,169330,1,0,0:0:0:0:
402,192,169330,1,0,0:0:0:0:
36,192,169393,1,0,0:0:0:0:
182,192,169393,1,0,0:0:0:0:
109,192,169393,1,0,0:0:0:0:
329,192,169517,1,0,0:0:0:0:
475,192,169517,1,0,0:0:0:0:
402,192,169517,1,0,0:0:0:0:
256,192,169642,1,0,0:0:0:0:
329,192,169642,1,0,0:0:0:0:
402,192,169642,1,0,0:0:0:0:
109,192,169705,1,0,0:0:0:0:
36,192,169705,1,0,0:0:0:0:
182,192,169705,1,0,0:0:0:0:
329,192,169768,1,0,0:0:0:0:
402,192,169768,1,0,0:0:0:0:
475,192,169768,1,0,0:0:0:0:
109,192,169892,1,0,0:0:0:0:
182,192,169892,1,0,0:0:0:0:
36,192,169892,1,0,0:0:0:0:
329,192,170017,1,0,0:0:0:0:
402,192,170017,1,0,0:0:0:0:
256,192,170017,1,0,0:0:0:0:
36,192,170080,1,0,0:0:0:0:
109,192,170080,1,0,0:0:0:0:
182,192,170080,1,0,0:0:0:0:
329,192,170143,1,0,0:0:0:0:
402,192,170143,1,0,0:0:0:0:
475,192,170143,1,0,0:0:0:0:
109,192,170204,1,0,0:0:0:0:
182,192,170204,1,0,0:0:0:0:
256,192,170204,1,0,0:0:0:0:
329,192,170267,1,0,0:0:0:0:
475,192,170267,1,0,0:0:0:0:
402,192,170267,1,0,0:0:0:0:
36,192,170393,1,0,0:0:0:0:
182,192,170393,1,0,0:0:0:0:
109,192,170393,1,0,0:0:0:0:
109,192,170517,1,0,0:0:0:0:
182,192,170517,1,0,0:0:0:0:
256,192,170517,1,0,0:0:0:0:
329,192,170580,1,0,0:0:0:0:
402,192,170580,1,0,0:0:0:0:
475,192,170580,1,0,0:0:0:0:
36,192,170642,1,0,0:0:0:0:
109,192,170642,1,0,0:0:0:0:
182,192,170642,1,0,0:0:0:0:
329,192,170768,1,0,0:0:0:0:
475,192,170768,1,0,0:0:0:0:
402,192,170768,1,0,0:0:0:0:
36,192,170892,1,0,0:0:0:0:
256,192,170892,1,0,0:0:0:0:
475,192,170892,1,0,0:0:0:0:
329,192,170892,1,0,0:0:0:0:
182,192,170892,1,0,0:0:0:0:
402,192,171017,128,0,171080:0:0:0:0:
256,192,171080,128,0,171143:0:0:0:0:
475,192,171143,1,0,0:0:0:0:
329,192,171143,1,0,0:0:0:0:
182,192,171143,1,0,0:0:0:0:
36,192,171143,1,0,0:0:0:0:
109,192,171143,1,0,0:0:0:0:
475,192,171267,1,0,0:0:0:0:
36,192,171267,1,0,0:0:0:0:
182,192,171267,1,0,0:0:0:0:
329,192,171267,1,0,0:0:0:0:
109,192,171267,128,0,171330:0:0:0:0:
256,192,171330,128,0,171392:0:0:0:0:
475,192,171392,1,0,0:0:0:0:
329,192,171392,1,0,0:0:0:0:
36,192,171392,1,0,0:0:0:0:
402,192,171392,1,0,0:0:0:0:
182,192,171392,1,0,0:0:0:0:
109,192,171518,128,0,171579:0:0:0:0:
402,192,171579,128,0,171642:0:0:0:0:
329,192,171642,1,0,0:0:0:0:
256,192,171642,1,0,0:0:0:0:
182,192,171642,1,0,0:0:0:0:
475,192,171642,1,0,0:0:0:0:
36,192,171642,1,0,0:0:0:0:
182,192,171767,1,0,0:0:0:0:
109,192,171767,1,0,0:0:0:0:
36,192,171767,1,0,0:0:0:0:
475,192,171830,1,0,0:0:0:0:
402,192,171830,1,0,0:0:0:0:
329,192,171830,1,0,0:0:0:0:
109,192,171893,128,0,171954:0:0:0:0:
182,192,171893,1,0,0:0:0:0:
36,192,171893,1,0,0:0:0:0:
256,192,171954,128,0,172017:0:0:0:0:
475,192,172017,1,0,0:0:0:0:
402,192,172017,1,0,0:0:0:0:
329,192,172017,1,0,0:0:0:0:
182,192,172080,1,0,0:0:0:0:
36,192,172080,1,0,0:0:0:0:
109,192,172080,1,0,0:0:0:0:
402,192,172142,128,0,172205:0:0:0:0:
475,192,172142,1,0,0:0:0:0:
329,192,172142,1,0,0:0:0:0:
256,192,172205,128,0,172268:0:0:0:0:
182,192,172268,1,0,0:0:0:0:
109,192,172268,1,0,0:0:0:0:
36,192,172268,1,0,0:0:0:0:
475,192,172268,1,0,0:0:0:0:
402,192,172268,1,0,0:0:0:0:
109,192,172392,128,0,172455:0:0:0:0:
256,192,172455,128,0,172518:0:0:0:0:
475,192,172518,1,0,0:0:0:0:
329,192,172518,1,0,0:0:0:0:
182,192,172518,1,0,0:0:0:0:
36,192,172518,1,0,0:0:0:0:
402,192,172518,1,0,0:0:0:0:
109,192,172642,1,0,0:0:0:0:
36,192,172642,1,0,0:0:0:0:
256,192,172642,1,0,0:0:0:0:
475,192,172642,1,0,0:0:0:0:
402,192,172705,1,0,0:0:0:0:
329,192,172705,1,0,0:0:0:0:
182,192,172767,1,0,0:0:0:0:
109,192,172767,1,0,0:0:0:0:
329,192,172830,1,0,0:0:0:0:
475,192,172893,1,0,0:0:0:0:
402,192,172893,1,0,0:0:0:0:
256,192,172893,1,0,0:0:0:0:
36,192,172893,1,0,0:0:0:0:
182,192,172955,1,0,0:0:0:0:
109,192,172955,1,0,0:0:0:0:
402,192,173017,1,0,0:0:0:0:
329,192,173017,1,0,0:0:0:0:
182,192,173080,1,0,0:0:0:0:
475,192,173142,1,0,0:0:0:0:
256,192,173142,1,0,0:0:0:0:
109,192,173142,1,0,0:0:0:0:
36,192,173142,1,0,0:0:0:0:
329,192,173205,1,0,0:0:0:0:
36,192,173268,1,0,0:0:0:0:
475,192,173268,1,0,0:0:0:0:
402,192,173268,1,0,0:0:0:0:
256,192,173268,1,0,0:0:0:0:
182,192,173330,1,0,0:0:0:0:
109,192,173330,1,0,0:0:0:0:
329,192,173392,1,0,0:0:0:0:
402,192,173392,1,0,0:0:0:0:
182,192,173455,1,0,0:0:0:0:
36,192,173517,1,0,0:0:0:0:
109,192,173517,1,0,0:0:0:0:
329,192,173517,1,0,0:0:0:0:
256,192,173517,1,0,0:0:0:0:
475,192,173580,1,0,0:0:0:0:
402,192,173580,1,0,0:0:0:0:
182,192,173643,1,0,0:0:0:0:
109,192,173643,1,0,0:0:0:0:
329,192,173704,1,0,0:0:0:0:
475,192,173767,1,0,0:0:0:0:
402,192,173767,1,0,0:0:0:0:
256,192,173767,1,0,0:0:0:0:
182,192,173767,1,0,0:0:0:0:
109,192,173830,1,0,0:0:0:0:
36,192,173830,1,0,0:0:0:0:
402,192,173892,1,0,0:0:0:0:
329,192,173892,1,0,0:0:0:0:
182,192,173955,1,0,0:0:0:0:
109,192,174018,1,0,0:0:0:0:
36,192,174018,1,0,0:0:0:0:
256,192,174018,1,0,0:0:0:0:
475,192,174018,1,0,0:0:0:0:
329,192,174079,1,0,0:0:0:0:
475,192,174142,1,0,0:0:0:0:
402,192,174142,1,0,0:0:0:0:
256,192,174142,1,0,0:0:0:0:
182,192,174142,1,0,0:0:0:0:
109,192,174205,1,0,0:0:0:0:
36,192,174205,1,0,0:0:0:0:
402,192,174268,1,0,0:0:0:0:
329,192,174268,1,0,0:0:0:0:
182,192,174330,1,0,0:0:0:0:
475,192,174393,128,0,174643:0:0:0:0:
329,192,174393,128,0,174892:0:0:0:0:
256,192,174393,128,0,175142:0:0:0:0:
109,192,174393,128,0,175517:0:0:0:0:
36,192,174393,128,0,175517:0:0:0:0:
475,192,175517,1,0,0:0:0:0:
329,192,175517,1,0,0:0:0:0:
182,192,175642,1,0,0:0:0:0:
109,192,175642,1,0,0:0:0:0:
36,192,175642,1,0,0:0:0:0:
182,192,175768,1,0,0:0:0:0:
109,192,175768,1,0,0:0:0:0:
36,192,175768,1,0,0:0:0:0:
475,192,175892,1,0,0:0:0:0:
329,192,175892,1,0,0:0:0:0:
475,192,175955,1,0,0:0:0:0:
329,192,175955,1,0,0:0:0:0:
182,192,176017,1,0,0:0:0:0:
109,192,176017,1,0,0:0:0:0:
36,192,176017,1,0,0:0:0:0:
182,192,176080,1,0,0:0:0:0:
36,192,176080,1,0,0:0:0:0:
109,192,176080,1,0,0:0:0:0:
256,192,176143,1,0,0:0:0:0:
402,192,176267,1,0,0:0:0:0:
36,192,176393,128,0,176892:0:0:0:0:
109,192,176393,128,0,177392:0:0:0:0:
475,192,176455,128,0,177143:0:0:0:0:
402,192,176455,128,0,177642:0:0:0:0:
256,192,176518,128,0,178392:0:0:0:0:
182,192,176518,128,0,177893:0:0:0:0:
329,192,176518,128,0,178142:0:0:0:0:
