osu file format v14

[General]
AudioFilename: Cortex_Charger.mp3
AudioLeadIn: 0
PreviewTime: 8534
Countdown: 0
SampleSet: Normal
StackLeniency: 0.7
Mode: 3
LetterboxInBreaks: 0
SpecialStyle: 0
WidescreenStoryboard: 0

[Editor]
DistanceSpacing: 0.8
BeatDivisor: 2
GridSize: 32
TimelineZoom: 1.6

[Metadata]
Title:Cortex Charger
TitleUnicode:Cortex Charger
Artist:Aquellex
ArtistUnicode:Aquellex
Creator:Halogen-
Version:Hard
Source:osu!mania 4K World Cup 2023
Tags:mwc23 mwc 4k grand finals gf rice rc7 fa featured artist osu! original gammablaster lsdj little sound dj chiptune anthropomorphosis elexire mipha- -mint- qqqant guden electronic instrumental
BeatmapID:4327350
BeatmapSetID:2062236

[Difficulty]
HPDrainRate:7.5
CircleSize:4
OverallDifficulty:7.5
ApproachRate:5
SliderMultiplier:1.4
SliderTickRate:1

[Events]
//Background and Video events
0,0,"cortex_charger.jpg",0,0
//Break Periods
//Storyboard Layer 0 (Background)
//Storyboard Layer 1 (Fail)
//Storyboard Layer 2 (Pass)
//Storyboard Layer 3 (Foreground)
//Storyboard Layer 4 (Overlay)
//Storyboard Sound Samples

[TimingPoints]
757,222.222222,7,1,1,80,1,0

[HitObjects]
64,192,757,5,0,0:0:0:0:
448,192,757,1,0,0:0:0:0:
192,192,979,1,0,0:0:0:0:
448,192,1090,1,0,0:0:0:0:
64,192,1201,1,0,0:0:0:0:
64,192,1368,1,0,0:0:0:0:
448,192,1534,1,0,0:0:0:0:
192,192,1534,1,0,0:0:0:0:
320,192,1756,1,0,0:0:0:0:
448,192,1868,1,0,0:0:0:0:
192,192,1979,1,0,0:0:0:0:
448,192,2090,1,0,0:0:0:0:
64,192,2201,1,0,0:0:0:0:
192,192,2312,1,0,0:0:0:0:
320,192,2312,1,0,0:0:0:0:
64,192,2534,1,0,0:0:0:0:
320,192,2645,1,0,0:0:0:0:
192,192,2756,1,0,0:0:0:0:
192,192,2923,1,0,0:0:0:0:
448,192,3090,1,0,0:0:0:0:
320,192,3090,1,0,0:0:0:0:
64,192,3312,1,0,0:0:0:0:
192,192,3423,1,0,0:0:0:0:
64,192,3534,1,0,0:0:0:0:
320,192,3645,1,0,0:0:0:0:
448,192,3756,1,0,0:0:0:0:
64,192,3868,1,0,0:0:0:0:
192,192,3868,1,0,0:0:0:0:
448,192,4090,1,0,0:0:0:0:
320,192,4201,1,0,0:0:0:0:
192,192,4312,1,0,0:0:0:0:
320,192,4534,1,0,0:0:0:0:
448,192,4534,1,0,0:0:0:0:
64,192,4645,1,0,0:0:0:0:
192,192,4645,1,0,0:0:0:0:
64,192,4868,1,0,0:0:0:0:
192,192,4979,1,0,0:0:0:0:
320,192,5090,1,0,0:0:0:0:
64,192,5312,1,0,0:0:0:0:
192,192,5312,1,0,0:0:0:0:
320,192,5423,1,0,0:0:0:0:
448,192,5423,1,0,0:0:0:0:
64,192,5645,1,0,0:0:0:0:
320,192,5756,1,0,0:0:0:0:
192,192,5868,1,0,0:0:0:0:
320,192,6090,1,0,0:0:0:0:
448,192,6090,1,0,0:0:0:0:
64,192,6201,1,0,0:0:0:0:
192,192,6201,1,0,0:0:0:0:
448,192,6423,1,0,0:0:0:0:
192,192,6534,1,0,0:0:0:0:
320,192,6645,1,0,0:0:0:0:
64,192,6868,1,0,0:0:0:0:
192,192,6868,1,0,0:0:0:0:
320,192,6979,1,0,0:0:0:0:
448,192,6979,128,0,8312:0:0:0:0:
320,192,7868,1,0,0:0:0:0:
192,192,7979,1,0,0:0:0:0:
64,192,8090,1,0,0:0:0:0:
192,192,8201,1,0,0:0:0:0:
320,192,8312,1,0,0:0:0:0:
64,192,8534,1,0,0:0:0:0:
192,192,8534,1,0,0:0:0:0:
64,192,8756,1,0,0:0:0:0:
192,192,8868,1,0,0:0:0:0:
320,192,8979,1,0,0:0:0:0:
192,192,9090,1,0,0:0:0:0:
64,192,9201,128,0,9312:0:0:0:0:
448,192,9312,1,0,0:0:0:0:
320,192,9423,1,0,0:0:0:0:
64,192,9534,1,0,0:0:0:0:
448,192,9645,1,0,0:0:0:0:
64,192,9756,1,0,0:0:0:0:
320,192,9868,1,0,0:0:0:0:
448,192,9979,128,0,10090:0:0:0:0:
192,192,10090,1,0,0:0:0:0:
320,192,10201,1,0,0:0:0:0:
448,192,10312,1,0,0:0:0:0:
192,192,10423,1,0,0:0:0:0:
448,192,10534,1,0,0:0:0:0:
320,192,10645,1,0,0:0:0:0:
192,192,10756,128,0,10868:0:0:0:0:
448,192,10868,1,0,0:0:0:0:
192,192,10979,1,0,0:0:0:0:
64,192,11090,1,0,0:0:0:0:
448,192,11201,1,0,0:0:0:0:
64,192,11312,1,0,0:0:0:0:
192,192,11423,1,0,0:0:0:0:
448,192,11534,1,0,0:0:0:0:
64,192,11645,1,0,0:0:0:0:
320,192,11756,128,0,11868:0:0:0:0:
192,192,11868,1,0,0:0:0:0:
64,192,11979,1,0,0:0:0:0:
320,192,12090,1,0,0:0:0:0:
64,192,12201,1,0,0:0:0:0:
192,192,12312,128,0,12423:0:0:0:0:
448,192,12423,1,0,0:0:0:0:
320,192,12534,1,0,0:0:0:0:
64,192,12645,1,0,0:0:0:0:
448,192,12756,1,0,0:0:0:0:
64,192,12868,1,0,0:0:0:0:
320,192,12979,1,0,0:0:0:0:
448,192,13090,128,0,13201:0:0:0:0:
64,192,13201,1,0,0:0:0:0:
192,192,13201,1,0,0:0:0:0:
448,192,13423,128,0,13534:0:0:0:0:
320,192,13534,1,0,0:0:0:0:
64,192,13645,1,0,0:0:0:0:
448,192,13756,128,0,13868:0:0:0:0:
192,192,13868,1,0,0:0:0:0:
64,192,13979,1,0,0:0:0:0:
192,192,14090,1,0,0:0:0:0:
64,192,14201,1,0,0:0:0:0:
320,192,14312,1,0,0:0:0:0:
64,192,14423,128,0,14534:0:0:0:0:
192,192,14423,1,0,0:0:0:0:
448,192,14534,1,0,0:0:0:0:
64,192,14645,128,0,14756:0:0:0:0:
192,192,14645,1,0,0:0:0:0:
320,192,14756,1,0,0:0:0:0:
448,192,14756,1,0,0:0:0:0:
448,192,14979,1,0,0:0:0:0:
320,192,15090,1,0,0:0:0:0:
192,192,15201,1,0,0:0:0:0:
320,192,15312,1,0,0:0:0:0:
448,192,15423,128,0,15534:0:0:0:0:
64,192,15534,1,0,0:0:0:0:
192,192,15645,1,0,0:0:0:0:
448,192,15756,1,0,0:0:0:0:
64,192,15868,1,0,0:0:0:0:
448,192,15979,1,0,0:0:0:0:
192,192,16090,1,0,0:0:0:0:
64,192,16201,128,0,16312:0:0:0:0:
320,192,16312,1,0,0:0:0:0:
192,192,16423,1,0,0:0:0:0:
64,192,16534,1,0,0:0:0:0:
320,192,16645,1,0,0:0:0:0:
64,192,16756,1,0,0:0:0:0:
192,192,16868,1,0,0:0:0:0:
320,192,16979,128,0,17090:0:0:0:0:
64,192,17090,1,0,0:0:0:0:
320,192,17201,1,0,0:0:0:0:
448,192,17312,1,0,0:0:0:0:
64,192,17423,1,0,0:0:0:0:
448,192,17534,1,0,0:0:0:0:
320,192,17645,1,0,0:0:0:0:
64,192,17756,1,0,0:0:0:0:
448,192,17868,1,0,0:0:0:0:
192,192,17979,128,0,18090:0:0:0:0:
320,192,18090,1,0,0:0:0:0:
448,192,18201,1,0,0:0:0:0:
192,192,18312,1,0,0:0:0:0:
448,192,18423,1,0,0:0:0:0:
320,192,18534,128,0,18645:0:0:0:0:
64,192,18645,1,0,0:0:0:0:
192,192,18756,1,0,0:0:0:0:
448,192,18868,1,0,0:0:0:0:
64,192,18979,1,0,0:0:0:0:
448,192,19090,1,0,0:0:0:0:
192,192,19201,1,0,0:0:0:0:
64,192,19312,128,0,19423:0:0:0:0:
320,192,19423,1,0,0:0:0:0:
448,192,19423,1,0,0:0:0:0:
64,192,19645,128,0,19756:0:0:0:0:
192,192,19756,1,0,0:0:0:0:
448,192,19868,1,0,0:0:0:0:
64,192,19979,128,0,20090:0:0:0:0:
320,192,20090,1,0,0:0:0:0:
448,192,20201,1,0,0:0:0:0:
320,192,20312,1,0,0:0:0:0:
448,192,20423,1,0,0:0:0:0:
192,192,20534,1,0,0:0:0:0:
320,192,20645,1,0,0:0:0:0:
448,192,20645,128,0,20756:0:0:0:0:
64,192,20756,1,0,0:0:0:0:
320,192,20868,1,0,0:0:0:0:
448,192,20868,128,0,20979:0:0:0:0:
64,192,20979,1,0,0:0:0:0:
192,192,20979,1,0,0:0:0:0:
448,192,21201,1,0,0:0:0:0:
192,192,21534,1,0,0:0:0:0:
448,192,21645,1,0,0:0:0:0:
320,192,21756,1,0,0:0:0:0:
448,192,21979,1,0,0:0:0:0:
64,192,22312,1,0,0:0:0:0:
448,192,22423,1,0,0:0:0:0:
192,192,22534,1,0,0:0:0:0:
64,192,22756,1,0,0:0:0:0:
448,192,22868,1,0,0:0:0:0:
320,192,23034,1,0,0:0:0:0:
64,192,23201,1,0,0:0:0:0:
448,192,23312,1,0,0:0:0:0:
64,192,23534,1,0,0:0:0:0:
320,192,23645,1,0,0:0:0:0:
64,192,23868,128,0,24090:0:0:0:0:
192,192,24090,1,0,0:0:0:0:
320,192,24312,1,0,0:0:0:0:
64,192,24645,1,0,0:0:0:0:
320,192,24756,1,0,0:0:0:0:
448,192,24868,1,0,0:0:0:0:
320,192,25090,1,0,0:0:0:0:
64,192,25256,1,0,0:0:0:0:
192,192,25423,1,0,0:0:0:0:
320,192,25534,1,0,0:0:0:0:
448,192,25645,1,0,0:0:0:0:
192,192,25868,1,0,0:0:0:0:
448,192,26201,1,0,0:0:0:0:
192,192,26312,1,0,0:0:0:0:
320,192,26423,1,0,0:0:0:0:
64,192,26534,1,0,0:0:0:0:
192,192,26645,1,0,0:0:0:0:
448,192,26756,1,0,0:0:0:0:
192,192,26868,1,0,0:0:0:0:
320,192,27034,1,0,0:0:0:0:
64,192,27201,1,0,0:0:0:0:
192,192,27201,1,0,0:0:0:0:
64,192,27423,1,0,0:0:0:0:
448,192,27423,1,0,0:0:0:0:
320,192,27756,1,0,0:0:0:0:
64,192,27868,1,0,0:0:0:0:
192,192,27868,1,0,0:0:0:0:
448,192,27979,1,0,0:0:0:0:
320,192,28090,1,0,0:0:0:0:
64,192,28201,1,0,0:0:0:0:
192,192,28201,1,0,0:0:0:0:
64,192,28534,1,0,0:0:0:0:
320,192,28645,1,0,0:0:0:0:
448,192,28645,1,0,0:0:0:0:
64,192,28756,1,0,0:0:0:0:
192,192,28756,1,0,0:0:0:0:
192,192,28979,1,0,0:0:0:0:
320,192,28979,1,0,0:0:0:0:
64,192,29312,1,0,0:0:0:0:
320,192,29423,1,0,0:0:0:0:
448,192,29423,1,0,0:0:0:0:
64,192,29534,1,0,0:0:0:0:
192,192,29645,1,0,0:0:0:0:
320,192,29756,1,0,0:0:0:0:
448,192,29756,1,0,0:0:0:0:
448,192,30090,1,0,0:0:0:0:
64,192,30201,1,0,0:0:0:0:
192,192,30201,1,0,0:0:0:0:
320,192,30312,1,0,0:0:0:0:
448,192,30312,1,0,0:0:0:0:
64,192,30534,1,0,0:0:0:0:
448,192,30534,1,0,0:0:0:0:
320,192,30868,1,0,0:0:0:0:
64,192,30979,1,0,0:0:0:0:
448,192,30979,1,0,0:0:0:0:
192,192,31090,1,0,0:0:0:0:
320,192,31201,1,0,0:0:0:0:
64,192,31312,1,0,0:0:0:0:
448,192,31312,1,0,0:0:0:0:
192,192,31534,1,0,0:0:0:0:
64,192,31645,1,0,0:0:0:0:
448,192,31645,1,0,0:0:0:0:
320,192,31868,1,0,0:0:0:0:
448,192,31868,1,0,0:0:0:0:
192,192,32090,1,0,0:0:0:0:
320,192,32090,1,0,0:0:0:0:
448,192,32423,1,0,0:0:0:0:
192,192,32534,1,0,0:0:0:0:
320,192,32534,1,0,0:0:0:0:
64,192,32645,1,0,0:0:0:0:
192,192,32756,1,0,0:0:0:0:
448,192,32868,1,0,0:0:0:0:
64,192,32979,1,0,0:0:0:0:
320,192,33090,1,0,0:0:0:0:
448,192,33201,1,0,0:0:0:0:
192,192,33312,1,0,0:0:0:0:
320,192,33423,1,0,0:0:0:0:
448,192,33423,1,0,0:0:0:0:
64,192,33534,1,0,0:0:0:0:
448,192,33645,1,0,0:0:0:0:
320,192,33756,1,0,0:0:0:0:
448,192,33868,1,0,0:0:0:0:
192,192,33979,1,0,0:0:0:0:
448,192,34090,1,0,0:0:0:0:
320,192,34201,1,0,0:0:0:0:
64,192,34312,1,0,0:0:0:0:
320,192,34423,1,0,0:0:0:0:
192,192,34534,1,0,0:0:0:0:
320,192,34645,1,0,0:0:0:0:
448,192,34756,1,0,0:0:0:0:
320,192,34868,1,0,0:0:0:0:
192,192,34979,1,0,0:0:0:0:
64,192,35090,1,0,0:0:0:0:
192,192,35201,1,0,0:0:0:0:
448,192,35312,1,0,0:0:0:0:
192,192,35423,1,0,0:0:0:0:
320,192,35534,1,0,0:0:0:0:
192,192,35645,1,0,0:0:0:0:
64,192,35756,1,0,0:0:0:0:
320,192,35868,1,0,0:0:0:0:
64,192,35979,1,0,0:0:0:0:
192,192,36090,1,0,0:0:0:0:
64,192,36201,1,0,0:0:0:0:
448,192,36312,1,0,0:0:0:0:
320,192,36423,1,0,0:0:0:0:
64,192,36534,1,0,0:0:0:0:
192,192,36534,1,0,0:0:0:0:
448,192,36645,1,0,0:0:0:0:
64,192,36756,1,0,0:0:0:0:
192,192,36868,1,0,0:0:0:0:
64,192,36979,1,0,0:0:0:0:
320,192,37090,1,0,0:0:0:0:
64,192,37201,1,0,0:0:0:0:
192,192,37312,1,0,0:0:0:0:
448,192,37423,1,0,0:0:0:0:
192,192,37534,1,0,0:0:0:0:
320,192,37645,1,0,0:0:0:0:
192,192,37756,1,0,0:0:0:0:
64,192,37868,1,0,0:0:0:0:
192,192,37979,1,0,0:0:0:0:
320,192,38090,1,0,0:0:0:0:
448,192,38201,1,0,0:0:0:0:
320,192,38312,1,0,0:0:0:0:
64,192,38423,1,0,0:0:0:0:
320,192,38534,1,0,0:0:0:0:
192,192,38645,1,0,0:0:0:0:
320,192,38756,1,0,0:0:0:0:
448,192,38868,1,0,0:0:0:0:
192,192,38979,1,0,0:0:0:0:
448,192,39090,1,0,0:0:0:0:
320,192,39201,1,0,0:0:0:0:
448,192,39312,1,0,0:0:0:0:
64,192,39423,1,0,0:0:0:0:
192,192,39534,1,0,0:0:0:0:
320,192,39645,1,0,0:0:0:0:
448,192,39645,1,0,0:0:0:0:
64,192,39756,1,0,0:0:0:0:
448,192,39868,1,0,0:0:0:0:
192,192,39979,1,0,0:0:0:0:
448,192,40090,1,0,0:0:0:0:
320,192,40201,1,0,0:0:0:0:
448,192,40312,1,0,0:0:0:0:
192,192,40423,1,0,0:0:0:0:
64,192,40534,1,0,0:0:0:0:
320,192,40645,1,0,0:0:0:0:
64,192,40756,1,0,0:0:0:0:
448,192,40868,1,0,0:0:0:0:
320,192,40979,1,0,0:0:0:0:
448,192,41090,1,0,0:0:0:0:
320,192,41201,1,0,0:0:0:0:
64,192,41312,1,0,0:0:0:0:
320,192,41423,1,0,0:0:0:0:
448,192,41534,1,0,0:0:0:0:
320,192,41645,1,0,0:0:0:0:
192,192,41756,1,0,0:0:0:0:
320,192,41868,1,0,0:0:0:0:
64,192,41979,1,0,0:0:0:0:
192,192,42090,1,0,0:0:0:0:
64,192,42201,1,0,0:0:0:0:
320,192,42312,1,0,0:0:0:0:
64,192,42423,1,0,0:0:0:0:
448,192,42534,1,0,0:0:0:0:
320,192,42645,1,0,0:0:0:0:
64,192,42756,1,0,0:0:0:0:
192,192,42756,1,0,0:0:0:0:
448,192,42868,1,0,0:0:0:0:
64,192,42979,1,0,0:0:0:0:
320,192,43090,1,0,0:0:0:0:
64,192,43201,1,0,0:0:0:0:
192,192,43312,1,0,0:0:0:0:
64,192,43423,1,0,0:0:0:0:
320,192,43534,1,0,0:0:0:0:
448,192,43534,1,0,0:0:0:0:
192,192,43645,1,0,0:0:0:0:
320,192,43756,1,0,0:0:0:0:
64,192,43868,1,0,0:0:0:0:
320,192,43979,1,0,0:0:0:0:
448,192,44090,1,0,0:0:0:0:
320,192,44201,1,0,0:0:0:0:
64,192,44312,1,0,0:0:0:0:
192,192,44312,1,0,0:0:0:0:
448,192,44423,1,0,0:0:0:0:
192,192,44534,1,0,0:0:0:0:
64,192,44645,1,0,0:0:0:0:
320,192,44756,1,0,0:0:0:0:
448,192,44756,1,0,0:0:0:0:
64,192,44868,1,0,0:0:0:0:
192,192,44979,1,0,0:0:0:0:
448,192,45090,1,0,0:0:0:0:
64,192,45201,1,0,0:0:0:0:
192,192,45312,1,0,0:0:0:0:
448,192,45423,1,0,0:0:0:0:
320,192,45534,1,0,0:0:0:0:
192,192,45645,1,0,0:0:0:0:
64,192,45756,1,0,0:0:0:0:
320,192,45868,1,0,0:0:0:0:
448,192,45868,1,0,0:0:0:0:
64,192,46090,128,0,47201:0:0:0:0:
192,192,46090,128,0,47201:0:0:0:0:
448,192,47201,1,0,0:0:0:0:
320,192,47275,1,0,0:0:0:0:
192,192,47349,1,0,0:0:0:0:
64,192,47423,1,0,0:0:0:0:
448,192,47534,1,0,0:0:0:0:
192,192,47645,1,0,0:0:0:0:
320,192,47756,1,0,0:0:0:0:
64,192,47868,1,0,0:0:0:0:
448,192,47979,1,0,0:0:0:0:
64,192,48034,1,0,0:0:0:0:
64,192,48201,1,0,0:0:0:0:
320,192,48312,1,0,0:0:0:0:
192,192,48423,128,0,48534:0:0:0:0:
448,192,48534,128,0,48645:0:0:0:0:
64,192,48645,1,0,0:0:0:0:
192,192,48756,1,0,0:0:0:0:
320,192,48868,1,0,0:0:0:0:
64,192,48979,1,0,0:0:0:0:
448,192,48979,1,0,0:0:0:0:
320,192,49201,128,0,50312:0:0:0:0:
448,192,49201,128,0,50312:0:0:0:0:
64,192,50312,1,0,0:0:0:0:
192,192,50386,1,0,0:0:0:0:
320,192,50460,1,0,0:0:0:0:
448,192,50534,1,0,0:0:0:0:
64,192,50645,1,0,0:0:0:0:
320,192,50756,1,0,0:0:0:0:
192,192,50868,1,0,0:0:0:0:
448,192,50979,1,0,0:0:0:0:
64,192,51090,1,0,0:0:0:0:
448,192,51145,1,0,0:0:0:0:
448,192,51312,1,0,0:0:0:0:
192,192,51423,1,0,0:0:0:0:
320,192,51534,128,0,51645:0:0:0:0:
64,192,51645,128,0,51756:0:0:0:0:
448,192,51756,1,0,0:0:0:0:
320,192,51868,1,0,0:0:0:0:
192,192,51979,1,0,0:0:0:0:
64,192,52090,1,0,0:0:0:0:
448,192,52090,1,0,0:0:0:0:
448,192,52312,128,0,52534:0:0:0:0:
64,192,52534,128,0,52756:0:0:0:0:
320,192,52756,128,0,52979:0:0:0:0:
192,192,52979,128,0,53201:0:0:0:0:
448,192,53201,128,0,53423:0:0:0:0:
64,192,53423,128,0,53645:0:0:0:0:
448,192,53645,1,0,0:0:0:0:
192,192,53756,1,0,0:0:0:0:
320,192,53868,1,0,0:0:0:0:
192,192,53979,1,0,0:0:0:0:
448,192,54090,1,0,0:0:0:0:
192,192,54201,1,0,0:0:0:0:
448,192,54256,1,0,0:0:0:0:
64,192,54423,1,0,0:0:0:0:
320,192,54534,128,0,54645:0:0:0:0:
192,192,54645,1,0,0:0:0:0:
64,192,54756,1,0,0:0:0:0:
320,192,54868,128,0,54979:0:0:0:0:
192,192,54979,1,0,0:0:0:0:
64,192,55090,1,0,0:0:0:0:
320,192,55201,1,0,0:0:0:0:
448,192,55201,1,0,0:0:0:0:
64,192,55423,128,0,55645:0:0:0:0:
448,192,55645,128,0,55868:0:0:0:0:
192,192,55868,128,0,56090:0:0:0:0:
320,192,56090,128,0,56312:0:0:0:0:
64,192,56312,128,0,56534:0:0:0:0:
448,192,56534,128,0,56756:0:0:0:0:
64,192,56756,1,0,0:0:0:0:
320,192,56868,1,0,0:0:0:0:
192,192,56979,1,0,0:0:0:0:
320,192,57090,1,0,0:0:0:0:
64,192,57201,1,0,0:0:0:0:
320,192,57312,1,0,0:0:0:0:
64,192,57368,1,0,0:0:0:0:
448,192,57534,1,0,0:0:0:0:
192,192,57645,128,0,57868:0:0:0:0:
320,192,57645,128,0,57868:0:0:0:0:
64,192,57979,128,0,58201:0:0:0:0:
448,192,57979,128,0,58201:0:0:0:0:
64,192,58312,1,0,0:0:0:0:
192,192,58312,1,0,0:0:0:0:
320,192,58534,1,0,0:0:0:0:
192,192,58645,1,0,0:0:0:0:
64,192,58756,1,0,0:0:0:0:
192,192,58868,1,0,0:0:0:0:
320,192,58979,1,0,0:0:0:0:
448,192,59090,1,0,0:0:0:0:
64,192,59201,1,0,0:0:0:0:
320,192,59312,1,0,0:0:0:0:
448,192,59423,1,0,0:0:0:0:
320,192,59534,1,0,0:0:0:0:
64,192,59645,1,0,0:0:0:0:
448,192,59756,1,0,0:0:0:0:
192,192,59868,1,0,0:0:0:0:
64,192,59979,1,0,0:0:0:0:
448,192,60090,1,0,0:0:0:0:
192,192,60201,1,0,0:0:0:0:
448,192,60312,1,0,0:0:0:0:
64,192,60423,1,0,0:0:0:0:
192,192,60534,1,0,0:0:0:0:
448,192,60645,1,0,0:0:0:0:
192,192,60756,1,0,0:0:0:0:
320,192,60868,1,0,0:0:0:0:
448,192,60979,1,0,0:0:0:0:
320,192,61090,1,0,0:0:0:0:
192,192,61201,1,0,0:0:0:0:
448,192,61312,1,0,0:0:0:0:
320,192,61423,1,0,0:0:0:0:
64,192,61534,128,0,61645:0:0:0:0:
192,192,61645,1,0,0:0:0:0:
320,192,61756,1,0,0:0:0:0:
64,192,61868,1,0,0:0:0:0:
320,192,61979,1,0,0:0:0:0:
192,192,62090,1,0,0:0:0:0:
448,192,62201,1,0,0:0:0:0:
64,192,62312,1,0,0:0:0:0:
320,192,62423,1,0,0:0:0:0:
448,192,62534,1,0,0:0:0:0:
320,192,62645,1,0,0:0:0:0:
64,192,62756,1,0,0:0:0:0:
448,192,62868,1,0,0:0:0:0:
192,192,62979,1,0,0:0:0:0:
320,192,62979,1,0,0:0:0:0:
448,192,63201,128,0,63312:0:0:0:0:
64,192,63312,1,0,0:0:0:0:
320,192,63423,1,0,0:0:0:0:
448,192,63534,128,0,63645:0:0:0:0:
192,192,63645,1,0,0:0:0:0:
64,192,63756,1,0,0:0:0:0:
192,192,63868,1,0,0:0:0:0:
64,192,63979,1,0,0:0:0:0:
320,192,64090,1,0,0:0:0:0:
64,192,64201,128,0,64312:0:0:0:0:
192,192,64201,1,0,0:0:0:0:
448,192,64312,1,0,0:0:0:0:
64,192,64423,128,0,64534:0:0:0:0:
192,192,64423,1,0,0:0:0:0:
320,192,64534,1,0,0:0:0:0:
448,192,64534,1,0,0:0:0:0:
192,192,64756,1,0,0:0:0:0:
320,192,64868,1,0,0:0:0:0:
448,192,64979,1,0,0:0:0:0:
320,192,65090,1,0,0:0:0:0:
192,192,65201,1,0,0:0:0:0:
64,192,65312,1,0,0:0:0:0:
448,192,65423,1,0,0:0:0:0:
192,192,65534,1,0,0:0:0:0:
64,192,65645,1,0,0:0:0:0:
192,192,65756,1,0,0:0:0:0:
448,192,65868,1,0,0:0:0:0:
64,192,65979,1,0,0:0:0:0:
320,192,66090,1,0,0:0:0:0:
448,192,66201,1,0,0:0:0:0:
64,192,66312,1,0,0:0:0:0:
320,192,66423,1,0,0:0:0:0:
64,192,66534,1,0,0:0:0:0:
448,192,66645,1,0,0:0:0:0:
320,192,66756,1,0,0:0:0:0:
64,192,66868,1,0,0:0:0:0:
320,192,66979,1,0,0:0:0:0:
192,192,67090,1,0,0:0:0:0:
64,192,67201,1,0,0:0:0:0:
192,192,67312,1,0,0:0:0:0:
320,192,67423,1,0,0:0:0:0:
64,192,67534,1,0,0:0:0:0:
192,192,67645,1,0,0:0:0:0:
448,192,67756,128,0,67868:0:0:0:0:
320,192,67868,1,0,0:0:0:0:
192,192,67979,1,0,0:0:0:0:
448,192,68090,1,0,0:0:0:0:
192,192,68201,1,0,0:0:0:0:
320,192,68312,1,0,0:0:0:0:
64,192,68423,1,0,0:0:0:0:
448,192,68534,1,0,0:0:0:0:
192,192,68645,1,0,0:0:0:0:
64,192,68756,1,0,0:0:0:0:
192,192,68868,1,0,0:0:0:0:
448,192,68979,1,0,0:0:0:0:
64,192,69090,1,0,0:0:0:0:
192,192,69201,1,0,0:0:0:0:
320,192,69201,1,0,0:0:0:0:
64,192,69423,128,0,69534:0:0:0:0:
448,192,69534,1,0,0:0:0:0:
192,192,69645,1,0,0:0:0:0:
64,192,69756,128,0,69868:0:0:0:0:
320,192,69868,1,0,0:0:0:0:
192,192,69979,1,0,0:0:0:0:
448,192,69979,1,0,0:0:0:0:
64,192,70312,1,0,0:0:0:0:
192,192,70423,1,0,0:0:0:0:
320,192,70534,1,0,0:0:0:0:
192,192,70645,1,0,0:0:0:0:
64,192,70756,1,0,0:0:0:0:
320,192,70979,1,0,0:0:0:0:
448,192,70979,1,0,0:0:0:0:
192,192,71090,1,0,0:0:0:0:
320,192,71312,1,0,0:0:0:0:
448,192,71312,1,0,0:0:0:0:
64,192,71534,1,0,0:0:0:0:
320,192,71645,1,0,0:0:0:0:
448,192,71645,1,0,0:0:0:0:
64,192,71756,1,0,0:0:0:0:
320,192,71979,1,0,0:0:0:0:
448,192,71979,1,0,0:0:0:0:
64,192,72090,1,0,0:0:0:0:
192,192,72164,1,0,0:0:0:0:
320,192,72238,1,0,0:0:0:0:
448,192,72312,1,0,0:0:0:0:
64,192,72534,1,0,0:0:0:0:
192,192,72534,1,0,0:0:0:0:
320,192,72645,1,0,0:0:0:0:
64,192,72868,1,0,0:0:0:0:
192,192,72868,1,0,0:0:0:0:
448,192,73090,1,0,0:0:0:0:
64,192,73201,1,0,0:0:0:0:
192,192,73201,1,0,0:0:0:0:
448,192,73312,1,0,0:0:0:0:
64,192,73534,1,0,0:0:0:0:
192,192,73534,1,0,0:0:0:0:
320,192,73645,1,0,0:0:0:0:
448,192,73756,1,0,0:0:0:0:
64,192,73868,1,0,0:0:0:0:
192,192,74090,1,0,0:0:0:0:
448,192,74090,1,0,0:0:0:0:
320,192,74201,1,0,0:0:0:0:
192,192,74423,1,0,0:0:0:0:
448,192,74423,1,0,0:0:0:0:
64,192,74645,1,0,0:0:0:0:
192,192,74756,1,0,0:0:0:0:
448,192,74756,1,0,0:0:0:0:
64,192,74868,1,0,0:0:0:0:
192,192,75090,1,0,0:0:0:0:
448,192,75090,1,0,0:0:0:0:
320,192,75201,1,0,0:0:0:0:
192,192,75275,1,0,0:0:0:0:
64,192,75349,1,0,0:0:0:0:
448,192,75423,1,0,0:0:0:0:
64,192,75645,1,0,0:0:0:0:
320,192,75645,1,0,0:0:0:0:
192,192,75756,1,0,0:0:0:0:
64,192,75979,1,0,0:0:0:0:
320,192,75979,1,0,0:0:0:0:
448,192,76201,1,0,0:0:0:0:
64,192,76312,1,0,0:0:0:0:
320,192,76312,1,0,0:0:0:0:
448,192,76423,1,0,0:0:0:0:
64,192,76645,1,0,0:0:0:0:
320,192,76645,1,0,0:0:0:0:
192,192,76756,1,0,0:0:0:0:
448,192,76868,1,0,0:0:0:0:
64,192,76979,1,0,0:0:0:0:
320,192,77201,1,0,0:0:0:0:
448,192,77201,1,0,0:0:0:0:
64,192,77312,1,0,0:0:0:0:
320,192,77534,1,0,0:0:0:0:
448,192,77534,1,0,0:0:0:0:
192,192,77756,1,0,0:0:0:0:
320,192,77868,1,0,0:0:0:0:
448,192,77868,1,0,0:0:0:0:
192,192,77979,1,0,0:0:0:0:
320,192,78201,1,0,0:0:0:0:
448,192,78201,1,0,0:0:0:0:
64,192,78312,1,0,0:0:0:0:
192,192,78386,1,0,0:0:0:0:
448,192,78460,1,0,0:0:0:0:
320,192,78534,1,0,0:0:0:0:
64,192,78756,1,0,0:0:0:0:
192,192,78756,1,0,0:0:0:0:
448,192,78868,1,0,0:0:0:0:
64,192,79090,1,0,0:0:0:0:
192,192,79090,1,0,0:0:0:0:
320,192,79312,1,0,0:0:0:0:
64,192,79423,1,0,0:0:0:0:
192,192,79423,1,0,0:0:0:0:
320,192,79534,1,0,0:0:0:0:
64,192,79756,1,0,0:0:0:0:
192,192,79756,1,0,0:0:0:0:
448,192,79868,1,0,0:0:0:0:
320,192,79979,1,0,0:0:0:0:
192,192,80090,1,0,0:0:0:0:
64,192,80312,1,0,0:0:0:0:
448,192,80312,1,0,0:0:0:0:
320,192,80423,1,0,0:0:0:0:
64,192,80645,1,0,0:0:0:0:
448,192,80645,1,0,0:0:0:0:
192,192,80868,1,0,0:0:0:0:
64,192,80979,1,0,0:0:0:0:
448,192,80979,1,0,0:0:0:0:
192,192,81090,1,0,0:0:0:0:
64,192,81312,1,0,0:0:0:0:
448,192,81312,1,0,0:0:0:0:
192,192,81423,1,0,0:0:0:0:
320,192,81497,1,0,0:0:0:0:
448,192,81571,1,0,0:0:0:0:
64,192,81645,1,0,0:0:0:0:
192,192,81868,1,0,0:0:0:0:
320,192,81868,1,0,0:0:0:0:
64,192,81979,1,0,0:0:0:0:
192,192,82201,1,0,0:0:0:0:
320,192,82201,1,0,0:0:0:0:
448,192,82423,1,0,0:0:0:0:
192,192,82534,1,0,0:0:0:0:
320,192,82534,1,0,0:0:0:0:
448,192,82645,1,0,0:0:0:0:
192,192,82868,1,0,0:0:0:0:
320,192,82868,1,0,0:0:0:0:
64,192,82979,1,0,0:0:0:0:
448,192,83201,1,0,0:0:0:0:
64,192,83312,1,0,0:0:0:0:
192,192,83423,1,0,0:0:0:0:
448,192,83534,1,0,0:0:0:0:
448,192,83645,1,0,0:0:0:0:
64,192,83756,1,0,0:0:0:0:
192,192,83868,1,0,0:0:0:0:
448,192,83979,1,0,0:0:0:0:
448,192,84090,1,0,0:0:0:0:
64,192,84201,1,0,0:0:0:0:
192,192,84312,1,0,0:0:0:0:
448,192,84423,1,0,0:0:0:0:
448,192,84534,1,0,0:0:0:0:
192,192,84608,1,0,0:0:0:0:
320,192,84682,1,0,0:0:0:0:
64,192,84756,1,0,0:0:0:0:
448,192,84868,1,0,0:0:0:0:
320,192,84979,1,0,0:0:0:0:
64,192,85090,1,0,0:0:0:0:
64,192,85201,1,0,0:0:0:0:
448,192,85312,1,0,0:0:0:0:
320,192,85423,1,0,0:0:0:0:
64,192,85534,1,0,0:0:0:0:
64,192,85645,1,0,0:0:0:0:
448,192,85756,1,0,0:0:0:0:
320,192,85868,1,0,0:0:0:0:
64,192,85979,1,0,0:0:0:0:
64,192,86090,1,0,0:0:0:0:
448,192,86201,1,0,0:0:0:0:
192,192,86312,1,0,0:0:0:0:
320,192,86423,1,0,0:0:0:0:
448,192,86534,1,0,0:0:0:0:
192,192,86645,1,0,0:0:0:0:
192,192,86756,1,0,0:0:0:0:
320,192,86868,1,0,0:0:0:0:
448,192,86979,1,0,0:0:0:0:
192,192,87090,1,0,0:0:0:0:
192,192,87201,1,0,0:0:0:0:
320,192,87312,1,0,0:0:0:0:
448,192,87423,1,0,0:0:0:0:
192,192,87534,1,0,0:0:0:0:
192,192,87645,1,0,0:0:0:0:
448,192,87719,1,0,0:0:0:0:
64,192,87794,1,0,0:0:0:0:
320,192,87868,1,0,0:0:0:0:
192,192,87979,1,0,0:0:0:0:
64,192,88090,1,0,0:0:0:0:
320,192,88201,1,0,0:0:0:0:
320,192,88312,1,0,0:0:0:0:
192,192,88423,1,0,0:0:0:0:
64,192,88534,1,0,0:0:0:0:
320,192,88645,1,0,0:0:0:0:
320,192,88756,1,0,0:0:0:0:
192,192,88868,1,0,0:0:0:0:
64,192,88979,1,0,0:0:0:0:
320,192,89090,1,0,0:0:0:0:
320,192,89201,1,0,0:0:0:0:
448,192,89423,1,0,0:0:0:0:
192,192,89534,1,0,0:0:0:0:
64,192,89645,1,0,0:0:0:0:
448,192,89756,1,0,0:0:0:0:
448,192,89868,1,0,0:0:0:0:
192,192,89979,1,0,0:0:0:0:
64,192,90090,1,0,0:0:0:0:
448,192,90201,1,0,0:0:0:0:
448,192,90312,1,0,0:0:0:0:
192,192,90423,1,0,0:0:0:0:
64,192,90534,1,0,0:0:0:0:
448,192,90645,1,0,0:0:0:0:
448,192,90756,1,0,0:0:0:0:
192,192,90831,1,0,0:0:0:0:
320,192,90905,1,0,0:0:0:0:
64,192,90979,1,0,0:0:0:0:
320,192,91090,1,0,0:0:0:0:
448,192,91201,1,0,0:0:0:0:
64,192,91312,1,0,0:0:0:0:
64,192,91423,1,0,0:0:0:0:
320,192,91534,1,0,0:0:0:0:
448,192,91645,1,0,0:0:0:0:
64,192,91756,1,0,0:0:0:0:
64,192,91868,1,0,0:0:0:0:
320,192,91979,1,0,0:0:0:0:
448,192,92090,1,0,0:0:0:0:
64,192,92201,1,0,0:0:0:0:
64,192,92312,1,0,0:0:0:0:
320,192,92423,1,0,0:0:0:0:
192,192,92534,1,0,0:0:0:0:
448,192,92645,1,0,0:0:0:0:
320,192,92756,1,0,0:0:0:0:
192,192,92868,1,0,0:0:0:0:
192,192,92979,1,0,0:0:0:0:
448,192,93090,1,0,0:0:0:0:
320,192,93201,1,0,0:0:0:0:
192,192,93312,1,0,0:0:0:0:
192,192,93423,1,0,0:0:0:0:
448,192,93534,1,0,0:0:0:0:
320,192,93645,1,0,0:0:0:0:
192,192,93756,1,0,0:0:0:0:
192,192,93868,1,0,0:0:0:0:
448,192,93942,1,0,0:0:0:0:
64,192,94016,1,0,0:0:0:0:
320,192,94090,1,0,0:0:0:0:
64,192,94201,1,0,0:0:0:0:
192,192,94312,1,0,0:0:0:0:
320,192,94423,1,0,0:0:0:0:
320,192,94534,1,0,0:0:0:0:
64,192,94645,1,0,0:0:0:0:
192,192,94756,1,0,0:0:0:0:
320,192,94868,1,0,0:0:0:0:
320,192,94979,1,0,0:0:0:0:
64,192,95090,1,0,0:0:0:0:
192,192,95201,1,0,0:0:0:0:
320,192,95312,1,0,0:0:0:0:
320,192,95423,1,0,0:0:0:0:
192,192,95645,128,0,96979:0:0:0:0:
320,192,97201,1,0,0:0:0:0:
448,192,97201,1,0,0:0:0:0:
192,192,97423,1,0,0:0:0:0:
64,192,97534,1,0,0:0:0:0:
320,192,97645,1,0,0:0:0:0:
320,192,97868,1,0,0:0:0:0:
448,192,97868,1,0,0:0:0:0:
192,192,98090,1,0,0:0:0:0:
64,192,98201,1,0,0:0:0:0:
320,192,98312,1,0,0:0:0:0:
448,192,98312,1,0,0:0:0:0:
192,192,98534,1,0,0:0:0:0:
448,192,98645,1,0,0:0:0:0:
64,192,98756,1,0,0:0:0:0:
192,192,98756,1,0,0:0:0:0:
320,192,98979,1,0,0:0:0:0:
448,192,99090,1,0,0:0:0:0:
192,192,99201,1,0,0:0:0:0:
64,192,99423,1,0,0:0:0:0:
192,192,99423,1,0,0:0:0:0:
320,192,99645,1,0,0:0:0:0:
448,192,99756,1,0,0:0:0:0:
64,192,99868,1,0,0:0:0:0:
192,192,99923,1,0,0:0:0:0:
320,192,99979,1,0,0:0:0:0:
192,192,100312,1,0,0:0:0:0:
448,192,100312,1,0,0:0:0:0:
320,192,100534,1,0,0:0:0:0:
64,192,100645,1,0,0:0:0:0:
320,192,100756,1,0,0:0:0:0:
192,192,100979,1,0,0:0:0:0:
448,192,100979,1,0,0:0:0:0:
320,192,101201,1,0,0:0:0:0:
64,192,101312,1,0,0:0:0:0:
192,192,101423,1,0,0:0:0:0:
448,192,101423,1,0,0:0:0:0:
320,192,101645,1,0,0:0:0:0:
192,192,101756,1,0,0:0:0:0:
64,192,101868,1,0,0:0:0:0:
320,192,101868,1,0,0:0:0:0:
448,192,102090,1,0,0:0:0:0:
192,192,102201,1,0,0:0:0:0:
448,192,102312,1,0,0:0:0:0:
64,192,102534,1,0,0:0:0:0:
320,192,102534,1,0,0:0:0:0:
448,192,102756,1,0,0:0:0:0:
192,192,102868,1,0,0:0:0:0:
448,192,102979,1,0,0:0:0:0:
320,192,103034,1,0,0:0:0:0:
64,192,103090,1,0,0:0:0:0:
64,192,103423,1,0,0:0:0:0:
192,192,103423,1,0,0:0:0:0:
448,192,103645,1,0,0:0:0:0:
320,192,103756,1,0,0:0:0:0:
192,192,103868,1,0,0:0:0:0:
64,192,104090,1,0,0:0:0:0:
192,192,104090,1,0,0:0:0:0:
448,192,104312,1,0,0:0:0:0:
320,192,104423,1,0,0:0:0:0:
64,192,104534,1,0,0:0:0:0:
192,192,104534,1,0,0:0:0:0:
448,192,104756,1,0,0:0:0:0:
64,192,104868,1,0,0:0:0:0:
320,192,104979,1,0,0:0:0:0:
448,192,104979,1,0,0:0:0:0:
64,192,105201,1,0,0:0:0:0:
192,192,105312,1,0,0:0:0:0:
320,192,105423,1,0,0:0:0:0:
320,192,105645,1,0,0:0:0:0:
448,192,105645,1,0,0:0:0:0:
64,192,105868,1,0,0:0:0:0:
192,192,105979,1,0,0:0:0:0:
448,192,106090,1,0,0:0:0:0:
320,192,106145,1,0,0:0:0:0:
192,192,106201,1,0,0:0:0:0:
192,192,106534,1,0,0:0:0:0:
320,192,106534,1,0,0:0:0:0:
448,192,106756,1,0,0:0:0:0:
64,192,106868,1,0,0:0:0:0:
320,192,106979,1,0,0:0:0:0:
192,192,107201,1,0,0:0:0:0:
320,192,107201,1,0,0:0:0:0:
448,192,107423,1,0,0:0:0:0:
64,192,107534,1,0,0:0:0:0:
192,192,107645,1,0,0:0:0:0:
320,192,107645,1,0,0:0:0:0:
64,192,107868,1,0,0:0:0:0:
320,192,107979,1,0,0:0:0:0:
64,192,108090,1,0,0:0:0:0:
448,192,108090,1,0,0:0:0:0:
192,192,108312,1,0,0:0:0:0:
320,192,108423,1,0,0:0:0:0:
64,192,108534,1,0,0:0:0:0:
64,192,108756,1,0,0:0:0:0:
448,192,108756,1,0,0:0:0:0:
320,192,108979,1,0,0:0:0:0:
64,192,109090,1,0,0:0:0:0:
448,192,109201,1,0,0:0:0:0:
192,192,109256,1,0,0:0:0:0:
64,192,109312,1,0,0:0:0:0:
320,192,109645,1,0,0:0:0:0:
448,192,109645,128,0,110090:0:0:0:0:
64,192,109868,1,0,0:0:0:0:
192,192,109979,1,0,0:0:0:0:
320,192,110090,1,0,0:0:0:0:
320,192,110312,1,0,0:0:0:0:
448,192,110312,1,0,0:0:0:0:
64,192,110534,1,0,0:0:0:0:
192,192,110645,1,0,0:0:0:0:
320,192,110756,1,0,0:0:0:0:
448,192,110756,1,0,0:0:0:0:
64,192,110979,1,0,0:0:0:0:
320,192,111090,1,0,0:0:0:0:
64,192,111201,128,0,111645:0:0:0:0:
192,192,111201,1,0,0:0:0:0:
448,192,111423,1,0,0:0:0:0:
320,192,111534,1,0,0:0:0:0:
192,192,111645,1,0,0:0:0:0:
64,192,111868,1,0,0:0:0:0:
192,192,111868,1,0,0:0:0:0:
448,192,112090,128,0,112312:0:0:0:0:
64,192,112201,1,0,0:0:0:0:
192,192,112312,1,0,0:0:0:0:
320,192,112423,128,0,112756:0:0:0:0:
64,192,112534,1,0,0:0:0:0:
64,192,112756,1,0,0:0:0:0:
192,192,112756,128,0,113201:0:0:0:0:
320,192,112979,1,0,0:0:0:0:
448,192,113090,1,0,0:0:0:0:
64,192,113201,1,0,0:0:0:0:
64,192,113423,1,0,0:0:0:0:
192,192,113423,1,0,0:0:0:0:
320,192,113645,1,0,0:0:0:0:
448,192,113756,1,0,0:0:0:0:
64,192,113868,1,0,0:0:0:0:
448,192,114090,1,0,0:0:0:0:
192,192,114201,1,0,0:0:0:0:
320,192,114312,128,0,114756:0:0:0:0:
448,192,114312,1,0,0:0:0:0:
64,192,114534,1,0,0:0:0:0:
192,192,114645,1,0,0:0:0:0:
448,192,114756,1,0,0:0:0:0:
320,192,114979,1,0,0:0:0:0:
448,192,114979,1,0,0:0:0:0:
64,192,115201,1,0,0:0:0:0:
192,192,115312,1,0,0:0:0:0:
320,192,115423,1,0,0:0:0:0:
448,192,115423,1,0,0:0:0:0:
64,192,115645,1,0,0:0:0:0:
320,192,115756,1,0,0:0:0:0:
64,192,115868,128,0,116312:0:0:0:0:
192,192,115868,1,0,0:0:0:0:
448,192,116090,1,0,0:0:0:0:
320,192,116201,1,0,0:0:0:0:
192,192,116312,1,0,0:0:0:0:
64,192,116534,1,0,0:0:0:0:
192,192,116534,1,0,0:0:0:0:
448,192,116756,1,0,0:0:0:0:
320,192,116868,1,0,0:0:0:0:
64,192,116979,1,0,0:0:0:0:
192,192,116979,1,0,0:0:0:0:
448,192,117201,1,0,0:0:0:0:
192,192,117312,1,0,0:0:0:0:
320,192,117423,1,0,0:0:0:0:
448,192,117423,128,0,117868:0:0:0:0:
64,192,117645,1,0,0:0:0:0:
192,192,117756,1,0,0:0:0:0:
320,192,117868,1,0,0:0:0:0:
320,192,118090,1,0,0:0:0:0:
448,192,118090,1,0,0:0:0:0:
448,192,118312,128,0,118534:0:0:0:0:
192,192,118423,1,0,0:0:0:0:
320,192,118534,1,0,0:0:0:0:
64,192,118645,128,0,118868:0:0:0:0:
320,192,118756,1,0,0:0:0:0:
192,192,118868,1,0,0:0:0:0:
320,192,118979,128,0,119423:0:0:0:0:
448,192,118979,1,0,0:0:0:0:
64,192,119201,1,0,0:0:0:0:
192,192,119312,1,0,0:0:0:0:
448,192,119423,1,0,0:0:0:0:
320,192,119645,1,0,0:0:0:0:
448,192,119645,1,0,0:0:0:0:
64,192,119868,1,0,0:0:0:0:
192,192,119979,1,0,0:0:0:0:
320,192,120090,1,0,0:0:0:0:
448,192,120090,1,0,0:0:0:0:
64,192,120312,1,0,0:0:0:0:
320,192,120423,1,0,0:0:0:0:
64,192,120534,1,0,0:0:0:0:
448,192,120534,128,0,120979:0:0:0:0:
320,192,120756,1,0,0:0:0:0:
192,192,120868,1,0,0:0:0:0:
64,192,120979,1,0,0:0:0:0:
320,192,121201,1,0,0:0:0:0:
448,192,121201,1,0,0:0:0:0:
192,192,121423,1,0,0:0:0:0:
64,192,121645,1,0,0:0:0:0:
320,192,121645,1,0,0:0:0:0:
448,192,121868,1,0,0:0:0:0:
64,192,122090,1,0,0:0:0:0:
192,192,122090,1,0,0:0:0:0:
448,192,122312,1,0,0:0:0:0:
320,192,122423,1,0,0:0:0:0:
192,192,122534,1,0,0:0:0:0:
64,192,122645,128,0,122756:0:0:0:0:
320,192,122756,1,0,0:0:0:0:
320,192,122868,1,0,0:0:0:0:
192,192,122979,1,0,0:0:0:0:
192,192,123090,1,0,0:0:0:0:
448,192,123201,1,0,0:0:0:0:
64,192,123312,128,0,123423:0:0:0:0:
320,192,123423,128,0,123645:0:0:0:0:
448,192,123645,1,0,0:0:0:0:
192,192,123756,1,0,0:0:0:0:
64,192,123868,128,0,123979:0:0:0:0:
448,192,123979,1,0,0:0:0:0:
192,192,124090,1,0,0:0:0:0:
64,192,124201,128,0,124312:0:0:0:0:
320,192,124312,1,0,0:0:0:0:
320,192,124423,1,0,0:0:0:0:
64,192,124534,128,0,124645:0:0:0:0:
192,192,124645,1,0,0:0:0:0:
448,192,124756,1,0,0:0:0:0:
64,192,124868,128,0,124979:0:0:0:0:
320,192,124979,1,0,0:0:0:0:
192,192,125090,1,0,0:0:0:0:
320,192,125201,1,0,0:0:0:0:
448,192,125201,1,0,0:0:0:0:
448,192,125423,1,0,0:0:0:0:
320,192,125534,1,0,0:0:0:0:
64,192,125645,1,0,0:0:0:0:
192,192,125756,128,0,125868:0:0:0:0:
320,192,125868,1,0,0:0:0:0:
320,192,125979,1,0,0:0:0:0:
64,192,126090,1,0,0:0:0:0:
64,192,126201,1,0,0:0:0:0:
448,192,126312,1,0,0:0:0:0:
192,192,126423,128,0,126534:0:0:0:0:
320,192,126534,128,0,126756:0:0:0:0:
448,192,126756,1,0,0:0:0:0:
64,192,126868,1,0,0:0:0:0:
192,192,126979,128,0,127090:0:0:0:0:
448,192,127090,1,0,0:0:0:0:
64,192,127201,1,0,0:0:0:0:
192,192,127312,128,0,127423:0:0:0:0:
320,192,127423,1,0,0:0:0:0:
320,192,127534,1,0,0:0:0:0:
192,192,127645,128,0,127756:0:0:0:0:
64,192,127756,1,0,0:0:0:0:
448,192,127868,1,0,0:0:0:0:
192,192,127979,128,0,128090:0:0:0:0:
320,192,128090,1,0,0:0:0:0:
64,192,128201,1,0,0:0:0:0:
192,192,128312,1,0,0:0:0:0:
448,192,128312,1,0,0:0:0:0:
64,192,128534,1,0,0:0:0:0:
192,192,128645,1,0,0:0:0:0:
448,192,128756,1,0,0:0:0:0:
320,192,128868,128,0,128979:0:0:0:0:
192,192,128979,1,0,0:0:0:0:
192,192,129090,1,0,0:0:0:0:
448,192,129201,1,0,0:0:0:0:
448,192,129312,1,0,0:0:0:0:
64,192,129423,1,0,0:0:0:0:
320,192,129534,128,0,129645:0:0:0:0:
192,192,129645,128,0,129868:0:0:0:0:
64,192,129868,1,0,0:0:0:0:
448,192,129979,1,0,0:0:0:0:
320,192,130090,128,0,130201:0:0:0:0:
64,192,130201,1,0,0:0:0:0:
448,192,130312,1,0,0:0:0:0:
320,192,130423,128,0,130534:0:0:0:0:
192,192,130534,1,0,0:0:0:0:
192,192,130645,1,0,0:0:0:0:
320,192,130756,128,0,130868:0:0:0:0:
448,192,130868,1,0,0:0:0:0:
64,192,130979,1,0,0:0:0:0:
320,192,131090,128,0,131201:0:0:0:0:
192,192,131201,1,0,0:0:0:0:
448,192,131312,1,0,0:0:0:0:
64,192,131423,1,0,0:0:0:0:
320,192,131423,1,0,0:0:0:0:
64,192,131645,1,0,0:0:0:0:
192,192,131756,1,0,0:0:0:0:
320,192,131868,1,0,0:0:0:0:
448,192,131979,128,0,132090:0:0:0:0:
192,192,132090,1,0,0:0:0:0:
192,192,132201,1,0,0:0:0:0:
320,192,132312,1,0,0:0:0:0:
320,192,132423,1,0,0:0:0:0:
64,192,132534,1,0,0:0:0:0:
448,192,132645,128,0,132756:0:0:0:0:
192,192,132756,128,0,132979:0:0:0:0:
64,192,132979,1,0,0:0:0:0:
320,192,133090,1,0,0:0:0:0:
448,192,133201,128,0,133312:0:0:0:0:
64,192,133312,1,0,0:0:0:0:
320,192,133423,1,0,0:0:0:0:
448,192,133534,128,0,133645:0:0:0:0:
192,192,133645,1,0,0:0:0:0:
192,192,133756,1,0,0:0:0:0:
448,192,133868,128,0,133979:0:0:0:0:
320,192,133979,1,0,0:0:0:0:
64,192,134090,1,0,0:0:0:0:
448,192,134201,128,0,134312:0:0:0:0:
192,192,134312,1,0,0:0:0:0:
320,192,134423,1,0,0:0:0:0:
64,192,134534,1,0,0:0:0:0:
192,192,134534,1,0,0:0:0:0:
320,192,134756,1,0,0:0:0:0:
448,192,134868,1,0,0:0:0:0:
64,192,134979,1,0,0:0:0:0:
192,192,135090,128,0,135201:0:0:0:0:
448,192,135201,1,0,0:0:0:0:
448,192,135312,1,0,0:0:0:0:
64,192,135423,1,0,0:0:0:0:
64,192,135534,1,0,0:0:0:0:
320,192,135645,1,0,0:0:0:0:
192,192,135756,128,0,135868:0:0:0:0:
448,192,135868,128,0,136090:0:0:0:0:
320,192,136090,1,0,0:0:0:0:
64,192,136201,1,0,0:0:0:0:
192,192,136312,128,0,136423:0:0:0:0:
320,192,136423,1,0,0:0:0:0:
64,192,136534,1,0,0:0:0:0:
192,192,136645,128,0,136756:0:0:0:0:
448,192,136756,1,0,0:0:0:0:
448,192,136868,1,0,0:0:0:0:
192,192,136979,128,0,137090:0:0:0:0:
64,192,137090,1,0,0:0:0:0:
320,192,137201,1,0,0:0:0:0:
192,192,137312,128,0,137423:0:0:0:0:
448,192,137423,1,0,0:0:0:0:
64,192,137534,1,0,0:0:0:0:
320,192,137645,1,0,0:0:0:0:
448,192,137645,1,0,0:0:0:0:
192,192,137868,1,0,0:0:0:0:
64,192,137979,1,0,0:0:0:0:
448,192,138090,1,0,0:0:0:0:
320,192,138201,128,0,138312:0:0:0:0:
64,192,138312,1,0,0:0:0:0:
64,192,138423,1,0,0:0:0:0:
448,192,138534,1,0,0:0:0:0:
448,192,138645,1,0,0:0:0:0:
192,192,138756,1,0,0:0:0:0:
320,192,138868,128,0,138979:0:0:0:0:
64,192,138979,128,0,139201:0:0:0:0:
192,192,139201,1,0,0:0:0:0:
448,192,139312,1,0,0:0:0:0:
320,192,139423,128,0,139534:0:0:0:0:
192,192,139534,1,0,0:0:0:0:
448,192,139645,1,0,0:0:0:0:
320,192,139756,128,0,139868:0:0:0:0:
64,192,139868,1,0,0:0:0:0:
64,192,139979,1,0,0:0:0:0:
320,192,140090,128,0,140201:0:0:0:0:
448,192,140201,1,0,0:0:0:0:
192,192,140312,1,0,0:0:0:0:
320,192,140423,128,0,140534:0:0:0:0:
64,192,140534,1,0,0:0:0:0:
448,192,140645,1,0,0:0:0:0:
192,192,140756,1,0,0:0:0:0:
320,192,140756,1,0,0:0:0:0:
448,192,140868,1,0,0:0:0:0:
320,192,140979,1,0,0:0:0:0:
64,192,141090,1,0,0:0:0:0:
192,192,141201,1,0,0:0:0:0:
320,192,141312,1,0,0:0:0:0:
64,192,141423,1,0,0:0:0:0:
64,192,141534,1,0,0:0:0:0:
448,192,141645,1,0,0:0:0:0:
448,192,141756,1,0,0:0:0:0:
192,192,141868,1,0,0:0:0:0:
64,192,141979,1,0,0:0:0:0:
448,192,142090,1,0,0:0:0:0:
192,192,142201,1,0,0:0:0:0:
320,192,142312,1,0,0:0:0:0:
64,192,142423,1,0,0:0:0:0:
192,192,142534,1,0,0:0:0:0:
320,192,142645,1,0,0:0:0:0:
64,192,142756,1,0,0:0:0:0:
192,192,142868,1,0,0:0:0:0:
320,192,142979,1,0,0:0:0:0:
448,192,143090,1,0,0:0:0:0:
192,192,143201,1,0,0:0:0:0:
320,192,143312,1,0,0:0:0:0:
448,192,143423,1,0,0:0:0:0:
192,192,143534,1,0,0:0:0:0:
320,192,143645,1,0,0:0:0:0:
64,192,143756,1,0,0:0:0:0:
320,192,143868,1,0,0:0:0:0:
448,192,143868,128,0,144312:0:0:0:0:
64,192,143979,1,0,0:0:0:0:
320,192,144090,1,0,0:0:0:0:
192,192,144201,1,0,0:0:0:0:
320,192,144312,1,0,0:0:0:0:
64,192,144423,1,0,0:0:0:0:
448,192,144534,1,0,0:0:0:0:
64,192,144645,128,0,145090:0:0:0:0:
192,192,144645,1,0,0:0:0:0:
320,192,144756,1,0,0:0:0:0:
192,192,144868,1,0,0:0:0:0:
448,192,144979,1,0,0:0:0:0:
192,192,145090,1,0,0:0:0:0:
320,192,145201,1,0,0:0:0:0:
64,192,145312,1,0,0:0:0:0:
320,192,145423,128,0,145868:0:0:0:0:
448,192,145423,1,0,0:0:0:0:
192,192,145534,1,0,0:0:0:0:
448,192,145645,1,0,0:0:0:0:
64,192,145756,1,0,0:0:0:0:
448,192,145868,1,0,0:0:0:0:
192,192,145979,1,0,0:0:0:0:
448,192,146090,1,0,0:0:0:0:
192,192,146201,128,0,146868:0:0:0:0:
64,192,146201,1,0,0:0:0:0:
320,192,146312,1,0,0:0:0:0:
64,192,146423,1,0,0:0:0:0:
448,192,146534,1,0,0:0:0:0:
64,192,146645,1,0,0:0:0:0:
320,192,146756,1,0,0:0:0:0:
64,192,146868,1,0,0:0:0:0:
320,192,146979,1,0,0:0:0:0:
448,192,146979,1,0,0:0:0:0:
